  0
SECTION
  2
HEADER
  9
$ACADVER
  1
AC1015
  9
$ACADMAINTVER
 70
     6
  9
$DWGCODEPAGE
  3
ANSI_1252
  9
$INSBASE
 10
0.0
 20
0.0
 30
0.0
  9
$EXTMIN
 10
0.0
 20
0.0
 30
0.0
  9
$EXTMAX
 10
198.0
 20
140.0
 30
0.0
  9
$LIMMIN
 10
0.0
 20
0.0
  9
$LIMMAX
 10
198.0
 20
140.0
  9
$ORTHOMODE
 70
     0
  9
$REGENMODE
 70
     1
  9
$FILLMODE
 70
     1
  9
$QTEXTMODE
 70
     0
  9
$MIRRTEXT
 70
     1
  9
$LTSCALE
 40
0.6666666667
  9
$ATTMODE
 70
     1
  9
$TEXTSIZE
 40
2.3518518519
  9
$TRACEWID
 40
1.0
  9
$TEXTSTYLE
  7
Standard
  9
$CLAYER
  8
0
  9
$CELTYPE
  6
ByLayer
  9
$CECOLOR
 62
   256
  9
$CELTSCALE
 40
1.0
  9
$DISPSILH
 70
     0
  9
$DIMSCALE
 40
1.0
  9
$DIMASZ
 40
2.2013333333
  9
$DIMEXO
 40
0.6666666667
  9
$DIMDLI
 40
3.75
  9
$DIMRND
 40
0.0
  9
$DIMDLE
 40
0.0
  9
$DIMEXE
 40
0.6666666667
  9
$DIMTP
 40
0.0
  9
$DIMTM
 40
0.0
  9
$DIMTXT
 40
2.3518518519
  9
$DIMCEN
 40
2.5
  9
$DIMTSZ
 40
0.0
  9
$DIMTOL
 70
     0
  9
$DIMLIM
 70
     0
  9
$DIMTIH
 70
     1
  9
$DIMTOH
 70
     1
  9
$DIMSE1
 70
     0
  9
$DIMSE2
 70
     0
  9
$DIMTAD
 70
     1
  9
$DIMZIN
 70
     0
  9
$DIMBLK
  1

  9
$DIMASO
 70
     1
  9
$DIMSHO
 70
     1
  9
$DIMPOST
  1

  9
$DIMAPOST
  1

  9
$DIMALT
 70
     0
  9
$DIMALTD
 70
     3
  9
$DIMALTF
 40
0.0393700787
  9
$DIMLFAC
 40
1.0
  9
$DIMTOFL
 70
     1
  9
$DIMTVP
 40
0.0
  9
$DIMTIX
 70
     0
  9
$DIMSOXD
 70
     0
  9
$DIMSAH
 70
     0
  9
$DIMBLK1
  1

  9
$DIMBLK2
  1

  9
$DIMSTYLE
  2
ISO-25
  9
$DIMCLRD
 70
     0
  9
$DIMCLRE
 70
     0
  9
$DIMCLRT
 70
     0
  9
$DIMTFAC
 40
1.0
  9
$DIMGAP
 40
1.016
  9
$DIMJUST
 70
     0
  9
$DIMSD1
 70
     0
  9
$DIMSD2
 70
     0
  9
$DIMTOLJ
 70
     0
  9
$DIMTZIN
 70
     0
  9
$DIMALTZ
 70
     0
  9
$DIMALTTZ
 70
     0
  9
$DIMUPT
 70
     0
  9
$DIMDEC
 70
     2
  9
$DIMTDEC
 70
     2
  9
$DIMALTU
 70
     2
  9
$DIMALTTD
 70
     3
  9
$DIMTXSTY
  7
Standard
  9
$DIMAUNIT
 70
     0
  9
$DIMADEC
 70
     2
  9
$DIMALTRND
 40
0.0
  9
$DIMAZIN
 70
     0
  9
$DIMDSEP
 70
    44
  9
$DIMATFIT
 70
     3
  9
$DIMFRAC
 70
     0
  9
$DIMLDRBLK
  1

  9
$DIMLUNIT
 70
     2
  9
$DIMLWD
 70
    -2
  9
$DIMLWE
 70
    -2
  9
$DIMTMOVE
 70
     0
  9
$LUNITS
 70
     2
  9
$LUPREC
 70
     2
  9
$SKETCHINC
 40
1.0
  9
$FILLETRAD
 40
10.0
  9
$AUNITS
 70
     1
  9
$AUPREC
 70
     2
  9
$MENU
  1
.
  9
$ELEVATION
 40
0.0
  9
$PELEVATION
 40
0.0
  9
$THICKNESS
 40
0.0
  9
$LIMCHECK
 70
     0
  9
$CHAMFERA
 40
0.0
  9
$CHAMFERB
 40
0.0
  9
$CHAMFERC
 40
0.0
  9
$CHAMFERD
 40
0.0
  9
$SKPOLY
 70
     0
  9
$TDCREATE
 40
2458596.508214641
  9
$TDUCREATE
 40
2458596.279047974
  9
$TDUPDATE
 40
2458596.508215452
  9
$TDUUPDATE
 40
2458596.279048785
  9
$TDINDWG
 40
0.0000000116
  9
$TDUSRTIMER
 40
0.0000000116
  9
$USRTIMER
 70
     1
  9
$ANGBASE
 50
0.0
  9
$ANGDIR
 70
     0
  9
$PDMODE
 70
     0
  9
$PDSIZE
 40
-1.0
  9
$PLINEWID
 40
0.0
  9
$SPLFRAME
 70
     0
  9
$SPLINETYPE
 70
     6
  9
$SPLINESEGS
 70
     8
  9
$HANDSEED
  5
122
  9
$SURFTAB1
 70
     6
  9
$SURFTAB2
 70
     6
  9
$SURFTYPE
 70
     6
  9
$SURFU
 70
     6
  9
$SURFV
 70
     6
  9
$UCSBASE
  2

  9
$UCSNAME
  2

  9
$UCSORG
 10
0.0
 20
0.0
 30
0.0
  9
$UCSXDIR
 10
1.0
 20
0.0
 30
0.0
  9
$UCSYDIR
 10
0.0
 20
1.0
 30
0.0
  9
$UCSORTHOREF
  2

  9
$UCSORTHOVIEW
 70
     0
  9
$UCSORGTOP
 10
0.0
 20
0.0
 30
0.0
  9
$UCSORGBOTTOM
 10
0.0
 20
0.0
 30
0.0
  9
$UCSORGLEFT
 10
0.0
 20
0.0
 30
0.0
  9
$UCSORGRIGHT
 10
0.0
 20
0.0
 30
0.0
  9
$UCSORGFRONT
 10
0.0
 20
0.0
 30
0.0
  9
$UCSORGBACK
 10
0.0
 20
0.0
 30
0.0
  9
$PUCSBASE
  2

  9
$PUCSNAME
  2

  9
$PUCSORG
 10
0.0
 20
0.0
 30
0.0
  9
$PUCSXDIR
 10
1.0
 20
0.0
 30
0.0
  9
$PUCSYDIR
 10
0.0
 20
1.0
 30
0.0
  9
$PUCSORTHOREF
  2

  9
$PUCSORTHOVIEW
 70
     0
  9
$PUCSORGTOP
 10
0.0
 20
0.0
 30
0.0
  9
$PUCSORGBOTTOM
 10
0.0
 20
0.0
 30
0.0
  9
$PUCSORGLEFT
 10
0.0
 20
0.0
 30
0.0
  9
$PUCSORGRIGHT
 10
0.0
 20
0.0
 30
0.0
  9
$PUCSORGFRONT
 10
0.0
 20
0.0
 30
0.0
  9
$PUCSORGBACK
 10
0.0
 20
0.0
 30
0.0
  9
$USERI1
 70
     0
  9
$USERI2
 70
     0
  9
$USERI3
 70
     0
  9
$USERI4
 70
     0
  9
$USERI5
 70
     0
  9
$USERR1
 40
0.0
  9
$USERR2
 40
0.0
  9
$USERR3
 40
0.0
  9
$USERR4
 40
0.0
  9
$USERR5
 40
0.0
  9
$WORLDVIEW
 70
     1
  9
$SHADEDGE
 70
     3
  9
$SHADEDIF
 70
    70
  9
$TILEMODE
 70
     1
  9
$MAXACTVP
 70
    64
  9
$PINSBASE
 10
0.0
 20
0.0
 30
0.0
  9
$PLIMCHECK
 70
     0
  9
$PEXTMIN
 10
1.0000000000E+20
 20
1.0000000000E+20
 30
1.0000000000E+20
  9
$PEXTMAX
 10
-1.0000000000E+20
 20
-1.0000000000E+20
 30
-1.0000000000E+20
  9
$PLIMMIN
 10
0.0
 20
0.0
  9
$PLIMMAX
 10
420.0
 20
297.0
  9
$UNITMODE
 70
     0
  9
$VISRETAIN
 70
     1
  9
$PLINEGEN
 70
     0
  9
$PSLTSCALE
 70
     1
  9
$TREEDEPTH
 70
  3020
  9
$CMLSTYLE
  2
Standard
  9
$CMLJUST
 70
     0
  9
$CMLSCALE
 40
20.0
  9
$PROXYGRAPHICS
 70
     1
  9
$MEASUREMENT
 70
     1
  9
$CELWEIGHT
370
    -1
  9
$ENDCAPS
280
     0
  9
$JOINSTYLE
280
     0
  9
$LWDISPLAY
290
     1
  9
$INSUNITS
 70
     4
  9
$HYPERLINKBASE
  1

  9
$STYLESHEET
  1

  9
$XEDIT
290
     1
  9
$CEPSNTYPE
380
     0
  9
$PSTYLEMODE
290
     1
  9
$FINGERPRINTGUID
  2
{52A6BD20-46F7-4F98-B267-0261F61987C7}
  9
$VERSIONGUID
  2
{FAEB1C32-E019-11D5-929B-00C0DF256EC4}
  9
$EXTNAMES
290
     1
  9
$PSVPSCALE
 40
0.0
  9
$OLESTARTUP
290
     0
  0
ENDSEC
  0
SECTION
  2
CLASSES
  0
CLASS
  1
ACDBDICTIONARYWDFLT
  2
AcDbDictionaryWithDefault
  3
ObjectDBX Classes
 90
        0
280
     0
281
     0
  0
CLASS
  1
VISUALSTYLE
  2
AcDbVisualStyle
  3
ObjectDBX Classes
 90
     4095
280
     0
281
     0
  0
CLASS
  1
MATERIAL
  2
AcDbMaterial
  3
ObjectDBX Classes
 90
     1153
280
     0
281
     0
  0
CLASS
  1
SCALE
  2
AcDbScale
  3
ObjectDBX Classes
 90
     1153
280
     0
281
     0
  0
CLASS
  1
SUN
  2
AcDbSun
  3
SCENEOE
 90
     1153
280
     0
281
     0
  0
CLASS
  1
ACDBPLACEHOLDER
  2
AcDbPlaceHolder
  3
ObjectDBX Classes
 90
        0
280
     0
281
     0
  0
CLASS
  1
LAYOUT
  2
AcDbLayout
  3
ObjectDBX Classes
 90
        0
280
     0
281
     0
  0
ENDSEC
  0
SECTION
  2
TABLES
  0
TABLE
  2
VPORT
  5
8
330
0
100
AcDbSymbolTable
 70
     1
  0
VPORT
  5
29
330
8
100
AcDbSymbolTableRecord
100
AcDbViewportTableRecord
  2
*Active
 70
     0
 10
0.0
 20
0.0
 11
1.0
 21
1.0
 12
99.0
 22
70.0
 13
0.0
 23
0.0
 14
10.0
 24
10.0
 15
10.0
 25
10.0
 16
0.0
 26
0.0
 36
1.0
 17
0.0
 27
0.0
 37
0.0
 40
140.0
 41
1.4142857143
 42
50.0
 43
0.0
 44
0.0
 50
0.0
 51
0.0
 71
     0
 72
  2000
 73
     1
 74
     3
 75
     0
 76
     0
 77
     0
 78
     0
281
     0
 65
     1
110
0.0
120
0.0
130
0.0
111
1.0
121
0.0
131
0.0
112
0.0
122
1.0
132
0.0
 79
     0
146
0.0
  0
ENDTAB
  0
TABLE
  2
LTYPE
  5
5
330
0
100
AcDbSymbolTable
 70
     6
  0
LTYPE
  5
14
330
5
100
AcDbSymbolTableRecord
100
AcDbLinetypeTableRecord
  2
ByBlock
 70
     0
  3

 72
    65
 73
     0
 40
0.0
  0
LTYPE
  5
15
330
5
100
AcDbSymbolTableRecord
100
AcDbLinetypeTableRecord
  2
ByLayer
 70
     0
  3

 72
    65
 73
     0
 40
0.0
  0
LTYPE
  5
16
330
5
100
AcDbSymbolTableRecord
100
AcDbLinetypeTableRecord
  2
Continuous
 70
     0
  3
Solid line
 72
    65
 73
     0
 40
0.0
  0
LTYPE
  5
6A
330
5
100
AcDbSymbolTableRecord
100
AcDbLinetypeTableRecord
  2
HIDDEN
 70
     0
  3
Hidden __ __ __ __ __ __ __ __ __ __ __ __ __ __
 72
    65
 73
     2
 40
1.905
 49
1.27
 74
     0
 49
-0.635
 74
     0
  0
LTYPE
  5
6B
330
5
100
AcDbSymbolTableRecord
100
AcDbLinetypeTableRecord
  2
PHANTOM
 70
     0
  3
Phantom ______  __  __  ______  __  __  ______
 72
    65
 73
     6
 40
12.7
 49
6.35
 74
     0
 49
-1.27
 74
     0
 49
1.27
 74
     0
 49
-1.27
 74
     0
 49
1.27
 74
     0
 49
-1.27
 74
     0
  0
LTYPE
  5
6C
330
5
100
AcDbSymbolTableRecord
100
AcDbLinetypeTableRecord
  2
CENTER
 70
     0
  3
Center ____ _ ____ _ ____ _ ____ _ ____ _ ____
 72
    65
 73
     4
 40
10.16
 49
6.35
 74
     0
 49
-1.27
 74
     0
 49
1.27
 74
     0
 49
-1.27
 74
     0
  0
LTYPE
  5
6D
330
5
100
AcDbSymbolTableRecord
100
AcDbLinetypeTableRecord
  2
CENTERX2
 70
     0
  3
Center (2x) ________  __  ________  __  _____
 72
    65
 73
     4
 40
20.32
 49
12.7
 74
     0
 49
-2.54
 74
     0
 49
2.54
 74
     0
 49
-2.54
 74
     0
  0
LTYPE
  5
6E
330
5
100
AcDbSymbolTableRecord
100
AcDbLinetypeTableRecord
  2
DOT2
 70
     0
  3
Dot (.5x) ........................................
 72
    65
 73
     2
 40
0.635
 49
0.0
 74
     0
 49
-0.635
 74
     0
  0
ENDTAB
  0
TABLE
  2
LAYER
  5
2
330
0
100
AcDbSymbolTable
 70
     8
  0
LAYER
  5
10
330
2
100
AcDbSymbolTableRecord
100
AcDbLayerTableRecord
  2
0
 70
     0
 62
     7
  6
Continuous
370
    -3
390
F
  0
LAYER
  5
6F
330
2
100
AcDbSymbolTableRecord
100
AcDbLayerTableRecord
  2
FORMAT
 70
     0
 62
     7
  6
Continuous
370
    -3
390
F
  0
LAYER
  5
70
330
2
100
AcDbSymbolTableRecord
100
AcDbLayerTableRecord
  2
SLD-0
 70
     0
 62
     2
  6
Continuous
370
    -3
390
F
  0
LAYER
  5
71
330
2
100
AcDbSymbolTableRecord
100
AcDbLayerTableRecord
  2
DIM
 70
     0
 62
   179
  6
Continuous
370
    -3
390
F
  0
LAYER
  5
72
330
2
100
AcDbSymbolTableRecord
100
AcDbLayerTableRecord
  2
SLD-DEFPOINTS
 70
     0
 62
   179
  6
Continuous
370
    -3
390
F
  0
LAYER
  5
73
330
2
100
AcDbSymbolTableRecord
100
AcDbLayerTableRecord
  2
HAT
 70
     0
 62
   135
  6
Continuous
370
    -3
390
F
  0
LAYER
  5
74
330
2
100
AcDbSymbolTableRecord
100
AcDbLayerTableRecord
  2
JOB
 70
     0
 62
   201
  6
Continuous
370
    -3
390
F
  0
LAYER
  5
75
330
2
100
AcDbSymbolTableRecord
100
AcDbLayerTableRecord
  2
INSPECTION_REPORT
 70
     0
 62
   255
  6
Continuous
370
    -3
390
F
  0
ENDTAB
  0
TABLE
  2
STYLE
  5
3
330
0
100
AcDbSymbolTable
 70
     4
  0
STYLE
  5
11
330
3
100
AcDbSymbolTableRecord
100
AcDbTextStyleTableRecord
  2
Standard
 70
     0
 40
0.0
 41
1.0
 50
0.0
 71
     0
 42
2.3518518519
  3
txt
  4

  0
STYLE
  5
96
330
3
100
AcDbSymbolTableRecord
100
AcDbTextStyleTableRecord
  2
SLDTEXTSTYLE0
 70
     0
 40
0.0
 41
0.7
 50
0.0
 71
     0
 42
2.3518518519
  3
TXT
  4

  0
STYLE
  5
98
330
3
100
AcDbSymbolTableRecord
100
AcDbTextStyleTableRecord
  2
SLDTEXTSTYLE1
 70
     0
 40
0.0
 41
0.75
 50
0.0
 71
     0
 42
2.3518518519
  3
TXT
  4

  0
STYLE
  5
AB
330
3
100
AcDbSymbolTableRecord
100
AcDbTextStyleTableRecord
  2
SLDTEXTSTYLE2
 70
     0
 40
0.0
 41
0.6875
 50
0.0
 71
     0
 42
2.3518518519
  3
TXT
  4

  0
ENDTAB
  0
TABLE
  2
VIEW
  5
6
330
0
100
AcDbSymbolTable
 70
     0
  0
ENDTAB
  0
TABLE
  2
UCS
  5
7
330
0
100
AcDbSymbolTable
 70
     0
  0
ENDTAB
  0
TABLE
  2
APPID
  5
9
330
0
100
AcDbSymbolTable
 70
     1
  0
APPID
  5
12
330
9
100
AcDbSymbolTableRecord
100
AcDbRegAppTableRecord
  2
ACAD
 70
     0
  0
ENDTAB
  0
TABLE
  2
DIMSTYLE
  5
A
330
0
100
AcDbSymbolTable
 70
     2
100
AcDbDimStyleTable
  0
DIMSTYLE
105
27
330
A
100
AcDbSymbolTableRecord
100
AcDbDimStyleTableRecord
  2
ISO-25
 70
     0
 41
2.5
 42
0.625
 43
3.75
 44
1.25
 73
     0
 74
     0
 77
     1
 78
     8
140
2.5
141
2.5
143
0.0393700787
147
0.625
171
     3
172
     1
178
     0
271
     2
272
     2
274
     3
278
    44
283
     0
284
     8
340
11
  0
DIMSTYLE
105
EF
102
{ACAD_REACTORS
330
EE
330
F9
102
}
330
A
100
AcDbSymbolTableRecord
100
AcDbDimStyleTableRecord
  2
SLDDIMSTYLE0
 70
     0
 41
2.2013333333
 44
0.0
 45
0.000000001
 73
     0
 74
     0
 77
     1
 78
     4
 79
     1
140
1.9402777778
147
0.4850694444
173
     1
178
     0
271
     2
272
     2
276
     2
284
    12
340
96
  0
ENDTAB
  0
TABLE
  2
BLOCK_RECORD
  5
1
330
0
100
AcDbSymbolTable
 70
     4
  0
BLOCK_RECORD
  5
1F
330
1
100
AcDbSymbolTableRecord
100
AcDbBlockTableRecord
  2
*Model_Space
340
22
  0
BLOCK_RECORD
  5
1B
330
1
100
AcDbSymbolTableRecord
100
AcDbBlockTableRecord
  2
*Paper_Space
340
1E
  0
BLOCK_RECORD
  5
23
330
1
100
AcDbSymbolTableRecord
100
AcDbBlockTableRecord
  2
*Paper_Space0
340
26
  0
BLOCK_RECORD
  5
F0
330
1
100
AcDbSymbolTableRecord
100
AcDbBlockTableRecord
  2
_D
340
0
  0
BLOCK_RECORD
  5
FA
330
1
100
AcDbSymbolTableRecord
100
AcDbBlockTableRecord
  2
_D_1
340
0
  0
BLOCK_RECORD
  5
116
330
1
100
AcDbSymbolTableRecord
100
AcDbBlockTableRecord
  2
SW_CENTERMARKSYMBOL_0
340
0
102
{BLKREFS
331
121
102
}
  0
ENDTAB
  0
ENDSEC
  0
SECTION
  2
BLOCKS
  0
BLOCK
  5
20
330
1F
100
AcDbEntity
  8
0
100
AcDbBlockBegin
  2
*Model_Space
 70
     0
 10
0.0
 20
0.0
 30
0.0
  3
*Model_Space
  1
*Model_Space
  0
ENDBLK
  5
21
330
1F
100
AcDbEntity
  8
0
100
AcDbBlockEnd
  0
BLOCK
  5
1C
330
1B
100
AcDbEntity
 67
     1
  8
0
100
AcDbBlockBegin
  2
*Paper_Space
 70
     0
 10
0.0
 20
0.0
 30
0.0
  3
*Paper_Space
  1
*Paper_Space
  0
ENDBLK
  5
1D
330
1B
100
AcDbEntity
 67
     1
  8
0
100
AcDbBlockEnd
  0
BLOCK
  5
24
330
23
100
AcDbEntity
  8
0
100
AcDbBlockBegin
  2
*Paper_Space0
 70
     0
 10
0.0
 20
0.0
 30
0.0
  3
*Paper_Space0
  1
*Paper_Space0
  0
ENDBLK
  5
25
330
23
100
AcDbEntity
  8
0
100
AcDbBlockEnd
  0
BLOCK
  5
F1
330
F0
100
AcDbEntity
  8
0
100
AcDbBlockBegin
  2
_D
 70
     0
 10
0.0
 20
0.0
 30
0.0
  3
_D
  1
_D
  0
SOLID
  5
F3
330
F0
100
AcDbEntity
  8
DIM
100
AcDbTrace
 10
170.6560339561
 20
56.7801423648
 30
0.0
 11
168.4547006227
 21
57.1188090314
 31
0.0
 12
168.4547006227
 22
56.4414756981
 32
0.0
 13
168.4547006227
 23
56.4414756981
 33
0.0
  0
SOLID
  5
F4
330
F0
100
AcDbEntity
  8
DIM
100
AcDbTrace
 10
145.2560339561
 20
56.7801423648
 30
0.0
 11
147.4573672894
 21
56.4414756981
 31
0.0
 12
147.4573672894
 22
57.1188090314
 32
0.0
 13
147.4573672894
 23
57.1188090314
 33
0.0
  0
LINE
  5
F5
330
F0
100
AcDbEntity
  8
DIM
100
AcDbLine
 10
170.6560339561
 20
61.9698425112
 30
0.0
 11
170.6560339561
 21
56.1134756981
 31
0.0
  0
LINE
  5
F6
330
F0
100
AcDbEntity
  8
DIM
100
AcDbLine
 10
145.2560339561
 20
60.8848425112
 30
0.0
 11
145.2560339561
 21
56.1134756981
 31
0.0
  0
LINE
  5
F7
330
F0
100
AcDbEntity
  8
DIM
100
AcDbLine
 10
170.6560339561
 20
56.7801423648
 30
0.0
 11
145.2560339561
 21
56.7801423648
 31
0.0
  0
MTEXT
  5
F8
330
F0
100
AcDbEntity
  8
DIM
100
AcDbMText
 10
154.9881274611
 20
59.2812920095
 30
0.0
 40
1.9402777778
 41
0.0
 71
     1
 72
     1
  1
25.40
  7
SLDTEXTSTYLE0
 73
     1
 44
1.0
  0
ENDBLK
  5
F2
330
F0
100
AcDbEntity
  8
0
100
AcDbBlockEnd
  0
BLOCK
  5
FB
330
FA
100
AcDbEntity
  8
0
100
AcDbBlockBegin
  2
_D_1
 70
     0
 10
0.0
 20
0.0
 30
0.0
  3
_D_1
  1
_D_1
  0
SOLID
  5
FD
330
FA
100
AcDbEntity
  8
DIM
100
AcDbTrace
 10
132.1560339561
 20
52.8606188808
 30
0.0
 11
134.3573672894
 21
52.5219522142
 31
0.0
 12
134.3573672894
 22
53.1992855475
 32
0.0
 13
134.3573672894
 23
53.1992855475
 33
0.0
  0
SOLID
  5
FE
330
FA
100
AcDbEntity
  8
DIM
100
AcDbTrace
 10
170.6560339561
 20
52.8606188808
 30
0.0
 11
168.4547006227
 21
53.1992855475
 31
0.0
 12
168.4547006227
 22
52.5219522142
 32
0.0
 13
168.4547006227
 23
52.5219522142
 33
0.0
  0
LINE
  5
FF
330
FA
100
AcDbEntity
  8
DIM
100
AcDbLine
 10
132.1560339561
 20
60.7153016861
 30
0.0
 11
132.1560339561
 21
52.1939522142
 31
0.0
  0
LINE
  5
100
330
FA
100
AcDbEntity
  8
DIM
100
AcDbLine
 10
170.6560339561
 20
61.9698425112
 30
0.0
 11
170.6560339561
 21
52.1939522142
 31
0.0
  0
LINE
  5
101
330
FA
100
AcDbEntity
  8
DIM
100
AcDbLine
 10
132.1560339561
 20
52.8606188808
 30
0.0
 11
170.6560339561
 21
52.8606188808
 31
0.0
  0
MTEXT
  5
102
330
FA
100
AcDbEntity
  8
DIM
100
AcDbMText
 10
148.4381274611
 20
55.3617685256
 30
0.0
 40
1.9402777778
 41
0.0
 71
     1
 72
     1
  1
38.50
  7
SLDTEXTSTYLE0
 73
     1
 44
1.0
  0
ENDBLK
  5
FC
330
FA
100
AcDbEntity
  8
0
100
AcDbBlockEnd
  0
BLOCK
  5
117
330
116
100
AcDbEntity
  8
0
100
AcDbBlockBegin
  2
SW_CENTERMARKSYMBOL_0
 70
     0
 10
0.0
 20
0.0
 30
0.0
  3
SW_CENTERMARKSYMBOL_0
  1
SW_CENTERMARKSYMBOL_0
  0
LINE
  5
119
330
116
100
AcDbEntity
  8
DIM
 62
     0
100
AcDbLine
 10
0.0
 20
0.0
 30
0.0
 11
0.0
 21
2.5
 31
0.0
  0
LINE
  5
11A
330
116
100
AcDbEntity
  8
DIM
 62
     0
100
AcDbLine
 10
0.0
 20
0.0
 30
0.0
 11
-2.5
 21
0.0
 31
0.0
  0
LINE
  5
11B
330
116
100
AcDbEntity
  8
DIM
 62
     0
100
AcDbLine
 10
0.0
 20
0.0
 30
0.0
 11
0.0
 21
-2.5
 31
0.0
  0
LINE
  5
11C
330
116
100
AcDbEntity
  8
DIM
 62
     0
100
AcDbLine
 10
0.0
 20
0.0
 30
0.0
 11
2.5
 21
0.0
 31
0.0
  0
LINE
  5
11D
330
116
100
AcDbEntity
  8
DIM
 62
     0
100
AcDbLine
 10
0.0
 20
5.0
 30
0.0
 11
0.0
 21
8.619786976
 31
0.0
  0
LINE
  5
11E
330
116
100
AcDbEntity
  8
DIM
 62
     0
100
AcDbLine
 10
-5.0
 20
0.0
 30
0.0
 11
-8.619786976
 21
0.0
 31
0.0
  0
LINE
  5
11F
330
116
100
AcDbEntity
  8
DIM
 62
     0
100
AcDbLine
 10
0.0
 20
-5.0
 30
0.0
 11
0.0
 21
-8.619786976
 31
0.0
  0
LINE
  5
120
330
116
100
AcDbEntity
  8
DIM
 62
     0
100
AcDbLine
 10
5.0
 20
0.0
 30
0.0
 11
8.619786976
 21
0.0
 31
0.0
  0
ENDBLK
  5
118
330
116
100
AcDbEntity
  8
0
100
AcDbBlockEnd
  0
ENDSEC
  0
SECTION
  2
ENTITIES
  0
LINE
  5
76
330
1F
100
AcDbEntity
  8
DIM
100
AcDbLine
 10
69.8029497927
 20
6.5273276379
 30
0.0
 11
69.8029497927
 21
3.1939943046
 31
0.0
  0
LINE
  5
77
330
1F
100
AcDbEntity
  8
DIM
100
AcDbLine
 10
169.6464011302
 20
6.5273276379
 30
0.0
 11
169.6464011302
 21
3.1939943046
 31
0.0
  0
LINE
  5
78
330
1F
100
AcDbEntity
  8
DIM
100
AcDbLine
 10
158.3011399544
 20
6.5273276379
 30
0.0
 11
158.3011399544
 21
3.1939943046
 31
0.0
  0
LINE
  5
79
330
1F
100
AcDbEntity
  8
DIM
100
AcDbLine
 10
185.936283126
 20
3.1939943046
 30
0.0
 11
185.936283126
 21
6.5273276379
 31
0.0
  0
LINE
  5
7A
330
1F
100
AcDbEntity
  8
DIM
100
AcDbLine
 10
75.0029497927
 20
6.5273276379
 30
0.0
 11
75.0029497927
 21
3.1939943046
 31
0.0
  0
LINE
  5
7B
330
1F
100
AcDbEntity
  8
DIM
100
AcDbLine
 10
87.7969180819
 20
6.5273276379
 30
0.0
 11
87.7969180819
 21
3.1939943046
 31
0.0
  0
LINE
  5
7C
330
1F
100
AcDbEntity
  8
DIM
100
AcDbLine
 10
194.6029497927
 20
3.1939943046
 30
0.0
 11
194.6029497927
 21
51.3606609712
 31
0.0
  0
LINE
  5
7D
330
1F
100
AcDbEntity
  8
DIM
100
AcDbLine
 10
190.5460031298
 20
40.0273276379
 30
0.0
 11
194.6029497927
 21
40.0273276379
 31
0.0
  0
LINE
  5
7E
330
1F
100
AcDbEntity
  8
DIM
100
AcDbLine
 10
99.4022339017
 20
6.0273276379
 30
0.0
 11
99.4022339017
 21
3.1939943046
 31
0.0
  0
LINE
  5
7F
330
1F
100
AcDbEntity
  8
DIM
100
AcDbLine
 10
131.175966107
 20
6.5273276379
 30
0.0
 11
131.175966107
 21
3.1939943046
 31
0.0
  0
LINE
  5
80
330
1F
100
AcDbEntity
  8
DIM
100
AcDbLine
 10
99.4022339017
 20
6.5273276379
 30
0.0
 11
99.4022339017
 21
6.0273276379
 31
0.0
  0
LINE
  5
81
330
1F
100
AcDbEntity
  8
DIM
100
AcDbLine
 10
191.2696164593
 20
11.6939463046
 30
0.0
 11
194.6029497927
 21
11.6939463046
 31
0.0
  0
LINE
  5
82
330
1F
100
AcDbEntity
  8
DIM
100
AcDbLine
 10
191.2696164593
 20
133.1939943046
 30
0.0
 11
6.6029497927
 21
133.1939943046
 31
0.0
  0
LINE
  5
83
330
1F
100
AcDbEntity
  8
DIM
100
AcDbLine
 10
194.6029497927
 20
136.5273276379
 30
0.0
 11
3.2696164593
 21
136.5273276379
 31
0.0
  0
LINE
  5
84
330
1F
100
AcDbEntity
  8
DIM
100
AcDbLine
 10
6.6029497927
 20
133.1939943046
 30
0.0
 11
6.6029497927
 21
6.5273276379
 31
0.0
  0
LINE
  5
85
330
1F
100
AcDbEntity
  8
DIM
100
AcDbLine
 10
3.2696164593
 20
136.5273276379
 30
0.0
 11
3.2696164593
 21
3.1939943046
 31
0.0
  0
LINE
  5
86
330
1F
100
AcDbEntity
  8
DIM
100
AcDbLine
 10
6.6029497927
 20
36.5273276379
 30
0.0
 11
3.2696164593
 21
36.5273276379
 31
0.0
  0
LINE
  5
87
330
1F
100
AcDbEntity
  8
DIM
100
AcDbLine
 10
3.2696164593
 20
69.8606609712
 30
0.0
 11
6.6029497927
 21
69.8606609712
 31
0.0
  0
LINE
  5
88
330
1F
100
AcDbEntity
  8
DIM
100
AcDbLine
 10
3.2696164593
 20
3.1939943046
 30
0.0
 11
194.6029497927
 21
3.1939943046
 31
0.0
  0
LINE
  5
89
330
1F
100
AcDbEntity
  8
DIM
100
AcDbLine
 10
6.6029497927
 20
6.5273276379
 30
0.0
 11
194.6029497927
 21
6.5273276379
 31
0.0
  0
LINE
  5
8A
330
1F
100
AcDbEntity
  8
DIM
100
AcDbLine
 10
32.2696164593
 20
3.1939943046
 30
0.0
 11
32.2696164593
 21
6.5273276379
 31
0.0
  0
LINE
  5
8B
330
1F
100
AcDbEntity
  8
DIM
100
AcDbLine
 10
65.6029497927
 20
6.5273276379
 30
0.0
 11
65.6029497927
 21
3.1939943046
 31
0.0
  0
LINE
  5
8C
330
1F
100
AcDbEntity
  8
DIM
100
AcDbLine
 10
6.6029497927
 20
103.1939943046
 30
0.0
 11
3.2696164593
 21
103.1939943046
 31
0.0
  0
LINE
  5
8D
330
1F
100
AcDbEntity
  8
DIM
100
AcDbLine
 10
32.2696164593
 20
133.1939943046
 30
0.0
 11
32.2696164593
 21
136.5273276379
 31
0.0
  0
LINE
  5
8E
330
1F
100
AcDbEntity
  8
DIM
100
AcDbLine
 10
65.6029497927
 20
136.5273276379
 30
0.0
 11
65.6029497927
 21
133.1939943046
 31
0.0
  0
LINE
  5
8F
330
1F
100
AcDbEntity
  8
DIM
100
AcDbLine
 10
98.936283126
 20
136.5273276379
 30
0.0
 11
98.936283126
 21
133.1939943046
 31
0.0
  0
LINE
  5
90
330
1F
100
AcDbEntity
  8
DIM
100
AcDbLine
 10
191.2696164593
 20
6.5273276379
 30
0.0
 11
191.2696164593
 21
133.1939943046
 31
0.0
  0
LINE
  5
91
330
1F
100
AcDbEntity
  8
DIM
100
AcDbLine
 10
194.6029497927
 20
51.3606609712
 30
0.0
 11
194.6029497927
 21
136.5273276379
 31
0.0
  0
LINE
  5
92
330
1F
100
AcDbEntity
  8
DIM
100
AcDbLine
 10
194.6029497927
 20
69.8606609712
 30
0.0
 11
191.2696164593
 21
69.8606609712
 31
0.0
  0
LINE
  5
93
330
1F
100
AcDbEntity
  8
DIM
100
AcDbLine
 10
132.2696164593
 20
136.5273276379
 30
0.0
 11
132.2696164593
 21
133.1939943046
 31
0.0
  0
LINE
  5
94
330
1F
100
AcDbEntity
  8
DIM
100
AcDbLine
 10
165.6029497927
 20
133.1939943046
 30
0.0
 11
165.6029497927
 21
136.5273276379
 31
0.0
  0
LINE
  5
95
330
1F
100
AcDbEntity
  8
DIM
100
AcDbLine
 10
191.2696164593
 20
103.1939943046
 30
0.0
 11
194.6029497927
 21
103.1939943046
 31
0.0
  0
MTEXT
  5
97
330
1F
100
AcDbEntity
  8
DIM
100
AcDbMText
 10
11.6141264582
 20
128.4357344885
 30
0.0
 40
2.8222222222
 41
0.0
 71
     1
 72
     1
  1
ARBOR MT2B J6
  7
SLDTEXTSTYLE0
 73
     1
 44
1.0
  0
MTEXT
  5
99
330
1F
100
AcDbEntity
  8
DIM
 62
     7
100
AcDbMText
 10
131.8218524311
 20
5.2013010175
 30
0.0
 40
0.9990666667
 41
0.0
 71
     1
 72
     1
  1
WEIGHT:
  7
SLDTEXTSTYLE1
 73
     1
 44
1.0
  0
MTEXT
  5
9A
330
1F
100
AcDbEntity
  8
DIM
 62
     7
100
AcDbMText
 10
192.3980511699
 20
54.6270756722
 30
0.0
 40
1.2347222222
 41
0.0
 71
     1
 72
     1
  1
C
  7
SLDTEXTSTYLE1
 73
     1
 44
1.0
  0
MTEXT
  5
9B
330
1F
100
AcDbEntity
  8
DIM
 62
     7
100
AcDbMText
 10
188.695720413
 20
9.9026546557
 30
0.0
 40
1.9402777778
 41
0.0
 71
     1
 72
     1
  1
A4
  7
SLDTEXTSTYLE1
 73
     1
 44
1.0
  0
MTEXT
  5
9C
330
1F
100
AcDbEntity
  8
DIM
 62
     7
100
AcDbMText
 10
181.7140635704
 20
135.6393385736
 30
0.0
 40
1.2347222222
 41
0.0
 71
     1
 72
     1
  1
6
  7
SLDTEXTSTYLE1
 73
     1
 44
1.0
  0
MTEXT
  5
9D
330
1F
100
AcDbEntity
  8
DIM
 62
     7
100
AcDbMText
 10
148.3807302371
 20
135.6393385736
 30
0.0
 40
1.2347222222
 41
0.0
 71
     1
 72
     1
  1
5
  7
SLDTEXTSTYLE1
 73
     1
 44
1.0
  0
MTEXT
  5
9E
330
1F
100
AcDbEntity
  8
DIM
 62
     7
100
AcDbMText
 10
192.3807329038
 20
120.6393385736
 30
0.0
 40
1.2347222222
 41
0.0
 71
     1
 72
     1
  1
A
  7
SLDTEXTSTYLE1
 73
     1
 44
1.0
  0
MTEXT
  5
9F
330
1F
100
AcDbEntity
  8
DIM
 62
     7
100
AcDbMText
 10
192.3807329038
 20
87.3060052403
 30
0.0
 40
1.2347222222
 41
0.0
 71
     1
 72
     1
  1
B
  7
SLDTEXTSTYLE1
 73
     1
 44
1.0
  0
MTEXT
  5
A0
330
1F
100
AcDbEntity
  8
DIM
 62
     7
100
AcDbMText
 10
115.0473969038
 20
135.6393385736
 30
0.0
 40
1.2347222222
 41
0.0
 71
     1
 72
     1
  1
4
  7
SLDTEXTSTYLE1
 73
     1
 44
1.0
  0
MTEXT
  5
A1
330
1F
100
AcDbEntity
  8
DIM
 62
     7
100
AcDbMText
 10
15.3251746816
 20
135.6393385736
 30
0.0
 40
1.2347222222
 41
0.0
 71
     1
 72
     1
  1
1
  7
SLDTEXTSTYLE1
 73
     1
 44
1.0
  0
MTEXT
  5
A2
330
1F
100
AcDbEntity
  8
DIM
 62
     7
100
AcDbMText
 10
48.3807302371
 20
135.6393385736
 30
0.0
 40
1.2347222222
 41
0.0
 71
     1
 72
     1
  1
2
  7
SLDTEXTSTYLE1
 73
     1
 44
1.0
  0
MTEXT
  5
A3
330
1F
100
AcDbEntity
  8
DIM
 62
     7
100
AcDbMText
 10
81.7140635704
 20
135.6393385736
 30
0.0
 40
1.2347222222
 41
0.0
 71
     1
 72
     1
  1
3
  7
SLDTEXTSTYLE1
 73
     1
 44
1.0
  0
MTEXT
  5
A4
330
1F
100
AcDbEntity
  8
DIM
 62
     7
100
AcDbMText
 10
4.3807275704
 20
120.6393385736
 30
0.0
 40
1.2347222222
 41
0.0
 71
     1
 72
     1
  1
A
  7
SLDTEXTSTYLE1
 73
     1
 44
1.0
  0
MTEXT
  5
A5
330
1F
100
AcDbEntity
  8
DIM
 62
     7
100
AcDbMText
 10
48.3807302371
 20
5.6393385736
 30
0.0
 40
1.2347222222
 41
0.0
 71
     1
 72
     1
  1
2
  7
SLDTEXTSTYLE1
 73
     1
 44
1.0
  0
MTEXT
  5
A6
330
1F
100
AcDbEntity
  8
DIM
 62
     7
100
AcDbMText
 10
15.3251746816
 20
5.6393385736
 30
0.0
 40
1.2347222222
 41
0.0
 71
     1
 72
     1
  1
1
  7
SLDTEXTSTYLE1
 73
     1
 44
1.0
  0
MTEXT
  5
A7
330
1F
100
AcDbEntity
  8
DIM
 62
     7
100
AcDbMText
 10
4.3807275704
 20
20.6393385736
 30
0.0
 40
1.2347222222
 41
0.0
 71
     1
 72
     1
  1
D
  7
SLDTEXTSTYLE1
 73
     1
 44
1.0
  0
MTEXT
  5
A8
330
1F
100
AcDbEntity
  8
DIM
 62
     7
100
AcDbMText
 10
4.3807275704
 20
53.9726719069
 30
0.0
 40
1.2347222222
 41
0.0
 71
     1
 72
     1
  1
C
  7
SLDTEXTSTYLE1
 73
     1
 44
1.0
  0
MTEXT
  5
A9
330
1F
100
AcDbEntity
  8
DIM
 62
     7
100
AcDbMText
 10
4.3807275704
 20
87.3060052403
 30
0.0
 40
1.2347222222
 41
0.0
 71
     1
 72
     1
  1
B
  7
SLDTEXTSTYLE1
 73
     1
 44
1.0
  0
MTEXT
  5
AA
330
1F
100
AcDbEntity
  8
DIM
 62
     7
100
AcDbMText
 10
192.3980511699
 20
54.6270756722
 30
0.0
 40
1.2347222222
 41
0.0
 71
     1
 72
     1
  1
C
  7
SLDTEXTSTYLE1
 73
     1
 44
1.0
  0
MTEXT
  5
AC
330
1F
100
AcDbEntity
  8
DIM
 62
     7
100
AcDbMText
 10
171.0169105417
 20
5.1273858209
 30
0.0
 40
1.0
 41
0.0
 71
     1
 72
     1
  1
SHEET 1 OF 1
  7
SLDTEXTSTYLE2
 73
     1
 44
1.0
  0
MTEXT
  5
AD
330
1F
100
AcDbEntity
  8
DIM
 62
     7
100
AcDbMText
 10
100.247853589
 20
5.2355783224
 30
0.0
 40
1.0
 41
0.0
 71
     1
 72
     1
  1
MATERIAL:
  7
SLDTEXTSTYLE1
 73
     1
 44
1.0
  0
MTEXT
  5
AE
330
1F
100
AcDbEntity
  8
DIM
 62
     7
100
AcDbMText
 10
181.7140635704
 20
135.6393385736
 30
0.0
 40
1.2347222222
 41
0.0
 71
     1
 72
     1
  1
6
  7
SLDTEXTSTYLE1
 73
     1
 44
1.0
  0
MTEXT
  5
AF
330
1F
100
AcDbEntity
  8
DIM
 62
     7
100
AcDbMText
 10
148.3807302371
 20
135.6393385736
 30
0.0
 40
1.2347222222
 41
0.0
 71
     1
 72
     1
  1
5
  7
SLDTEXTSTYLE1
 73
     1
 44
1.0
  0
MTEXT
  5
B0
330
1F
100
AcDbEntity
  8
DIM
 62
     7
100
AcDbMText
 10
192.3807329038
 20
120.6393385736
 30
0.0
 40
1.2347222222
 41
0.0
 71
     1
 72
     1
  1
A
  7
SLDTEXTSTYLE1
 73
     1
 44
1.0
  0
MTEXT
  5
B1
330
1F
100
AcDbEntity
  8
DIM
 62
     7
100
AcDbMText
 10
192.3807329038
 20
87.3060052403
 30
0.0
 40
1.2347222222
 41
0.0
 71
     1
 72
     1
  1
B
  7
SLDTEXTSTYLE1
 73
     1
 44
1.0
  0
MTEXT
  5
B2
330
1F
100
AcDbEntity
  8
DIM
 62
     7
100
AcDbMText
 10
115.0473969038
 20
135.6393385736
 30
0.0
 40
1.2347222222
 41
0.0
 71
     1
 72
     1
  1
4
  7
SLDTEXTSTYLE1
 73
     1
 44
1.0
  0
MTEXT
  5
B3
330
1F
100
AcDbEntity
  8
DIM
 62
     7
100
AcDbMText
 10
15.3251746816
 20
135.6393385736
 30
0.0
 40
1.2347222222
 41
0.0
 71
     1
 72
     1
  1
1
  7
SLDTEXTSTYLE1
 73
     1
 44
1.0
  0
MTEXT
  5
B4
330
1F
100
AcDbEntity
  8
DIM
 62
     7
100
AcDbMText
 10
48.3807302371
 20
135.6393385736
 30
0.0
 40
1.2347222222
 41
0.0
 71
     1
 72
     1
  1
2
  7
SLDTEXTSTYLE1
 73
     1
 44
1.0
  0
MTEXT
  5
B5
330
1F
100
AcDbEntity
  8
DIM
 62
     7
100
AcDbMText
 10
81.7140635704
 20
135.6393385736
 30
0.0
 40
1.2347222222
 41
0.0
 71
     1
 72
     1
  1
3
  7
SLDTEXTSTYLE1
 73
     1
 44
1.0
  0
MTEXT
  5
B6
330
1F
100
AcDbEntity
  8
DIM
 62
     7
100
AcDbMText
 10
4.3807275704
 20
120.6393385736
 30
0.0
 40
1.2347222222
 41
0.0
 71
     1
 72
     1
  1
A
  7
SLDTEXTSTYLE1
 73
     1
 44
1.0
  0
MTEXT
  5
B7
330
1F
100
AcDbEntity
  8
DIM
 62
     7
100
AcDbMText
 10
48.3807302371
 20
5.6393385736
 30
0.0
 40
1.2347222222
 41
0.0
 71
     1
 72
     1
  1
2
  7
SLDTEXTSTYLE1
 73
     1
 44
1.0
  0
MTEXT
  5
B8
330
1F
100
AcDbEntity
  8
DIM
 62
     7
100
AcDbMText
 10
15.3251746816
 20
5.6393385736
 30
0.0
 40
1.2347222222
 41
0.0
 71
     1
 72
     1
  1
1
  7
SLDTEXTSTYLE1
 73
     1
 44
1.0
  0
MTEXT
  5
B9
330
1F
100
AcDbEntity
  8
DIM
 62
     7
100
AcDbMText
 10
4.3807275704
 20
20.6393385736
 30
0.0
 40
1.2347222222
 41
0.0
 71
     1
 72
     1
  1
D
  7
SLDTEXTSTYLE1
 73
     1
 44
1.0
  0
MTEXT
  5
BA
330
1F
100
AcDbEntity
  8
DIM
 62
     7
100
AcDbMText
 10
4.3807275704
 20
53.9726719069
 30
0.0
 40
1.2347222222
 41
0.0
 71
     1
 72
     1
  1
C
  7
SLDTEXTSTYLE1
 73
     1
 44
1.0
  0
MTEXT
  5
BB
330
1F
100
AcDbEntity
  8
DIM
 62
     7
100
AcDbMText
 10
4.3807275704
 20
87.3060052403
 30
0.0
 40
1.2347222222
 41
0.0
 71
     1
 72
     1
  1
B
  7
SLDTEXTSTYLE1
 73
     1
 44
1.0
  0
LINE
  5
BC
330
1F
100
AcDbEntity
  8
0
  6
Continuous
 62
     7
370
    15
100
AcDbLine
 10
136.8561274611
 20
61.1291332999
 30
0.0
 11
137.1560339567
 21
61.4216437075
 31
0.0
  0
LINE
  5
BD
330
1F
100
AcDbEntity
  8
0
  6
Continuous
 62
     7
370
    15
100
AcDbLine
 10
137.1560339567
 20
78.8513746483
 30
0.0
 11
136.8561274611
 21
79.1438850559
 31
0.0
  0
LINE
  5
BE
330
1F
100
AcDbEntity
  8
0
  6
Continuous
 62
     7
370
    15
100
AcDbLine
 10
136.8561274611
 20
79.1438850559
 30
0.0
 11
73.1560339561
 21
77.5530966219
 31
0.0
  0
LINE
  5
BF
330
1F
100
AcDbEntity
  8
0
  6
Continuous
 62
     7
370
    15
100
AcDbLine
 10
73.1560339561
 20
62.7199217339
 30
0.0
 11
136.8561274611
 21
61.1291332999
 31
0.0
  0
SPLINE
  5
C0
330
1F
100
AcDbEntity
  8
0
  6
Continuous
 62
     7
370
    15
100
AcDbSpline
210
0.0
220
0.0
230
1.0
 70
     8
 71
     3
 72
     9
 73
     5
 74
     0
 42
0.000000001
 43
0.00000001
 40
0.0
 40
0.0
 40
0.0
 40
0.0
 40
0.5000000000284643
 40
1.0
 40
1.0
 40
1.0
 40
1.0
 10
138.233216214736
 20
78.53650917798154
 30
0.0
 10
138.042417029497
 20
78.5504351777225
 30
0.0
 10
137.6608186590406
 20
78.57828717720284
 30
0.0
 10
137.3242955239343
 20
78.76034549134359
 30
0.0
 10
137.1560339563908
 20
78.8513746484088
 30
0.0
  0
SPLINE
  5
C1
330
1F
100
AcDbEntity
  8
0
  6
Continuous
 62
     7
370
    15
100
AcDbSpline
210
0.0
220
0.0
230
1.0
 70
     8
 71
     3
 72
     9
 73
     5
 74
     0
 42
0.000000001
 43
0.00000001
 40
0.0
 40
0.0
 40
0.0
 40
0.0
 40
0.4999999999722829
 40
1.0
 40
1.0
 40
1.0
 40
1.0
 10
137.1560339564597
 20
61.42164370738945
 30
0.0
 10
137.3242955239944
 20
61.51267286444214
 30
0.0
 10
137.6608186590826
 20
61.6947311785576
 30
0.0
 10
138.0424170295112
 20
61.72258317803377
 30
0.0
 10
138.233216214736
 20
61.73650917777262
 30
0.0
  0
LINE
  5
C2
330
1F
100
AcDbEntity
  8
0
  6
Continuous
 62
     7
370
    15
100
AcDbLine
 10
142.6560339561
 20
61.4840261779
 30
0.0
 11
170.2189463471
 21
62.1994215689
 31
0.0
  0
LINE
  5
C3
330
1F
100
AcDbEntity
  8
0
  6
Continuous
 62
     7
370
    15
100
AcDbLine
 10
170.2189463471
 20
78.0735967869
 30
0.0
 11
142.6560339561
 21
78.7889921779
 31
0.0
  0
SPLINE
  5
C4
330
1F
100
AcDbEntity
  8
0
  6
Continuous
 62
     7
370
    15
100
AcDbSpline
210
0.0
220
0.0
230
1.0
 70
     8
 71
     3
 72
     9
 73
     5
 74
     0
 42
0.000000001
 43
0.00000001
 40
0.0
 40
0.0
 40
0.0
 40
0.0
 40
0.5000000000928894
 40
1.0
 40
1.0
 40
1.0
 40
1.0
 10
141.683313886564
 20
61.73650917791006
 30
0.0
 10
141.8534923132209
 20
61.72547465747141
 30
0.0
 10
142.1938491664713
 20
61.70340561659821
 30
0.0
 10
142.5019723595133
 20
61.55715265755732
 30
0.0
 10
142.6560339560057
 20
61.48402617805046
 30
0.0
  0
SPLINE
  5
C5
330
1F
100
AcDbEntity
  8
0
  6
Continuous
 62
     7
370
    15
100
AcDbSpline
210
0.0
220
0.0
230
1.0
 70
     8
 71
     3
 72
     9
 73
     5
 74
     0
 42
0.000000001
 43
0.00000001
 40
0.0
 40
0.0
 40
0.0
 40
0.0
 40
0.4999999999071123
 40
1.0
 40
1.0
 40
1.0
 40
1.0
 10
142.6560339560057
 20
78.78899217770366
 30
0.0
 10
142.5019723595132
 20
78.71586569819681
 30
0.0
 10
142.1938491664713
 20
78.56961273915594
 30
0.0
 10
141.8534923132208
 20
78.54754369828275
 30
0.0
 10
141.683313886564
 20
78.53650917784411
 30
0.0
  0
LINE
  5
C6
330
1F
100
AcDbEntity
  8
0
  6
Continuous
 62
     7
370
    15
100
AcDbLine
 10
141.6833138869
 20
78.5365091779
 30
0.0
 11
138.2332162151
 21
78.5365091779
 31
0.0
  0
LINE
  5
C7
330
1F
100
AcDbEntity
  8
0
  6
Continuous
 62
     7
370
    15
100
AcDbLine
 10
138.2332162151
 20
61.7365091779
 30
0.0
 11
141.6833138869
 21
61.7365091779
 31
0.0
  0
LINE
  5
C8
330
1F
100
AcDbEntity
  8
0
  6
Continuous
 62
     7
370
    15
100
AcDbLine
 10
170.2189463471
 20
62.1994215689
 30
0.0
 11
170.6560339561
 21
62.6365091779
 31
0.0
  0
LINE
  5
C9
330
1F
100
AcDbEntity
  8
0
  6
Continuous
 62
     7
370
    15
100
AcDbLine
 10
170.6560339561
 20
77.6365091779
 30
0.0
 11
170.2189463471
 21
78.0735967869
 31
0.0
  0
LINE
  5
CA
330
1F
100
AcDbEntity
  8
0
  6
Continuous
 62
     7
370
    15
100
AcDbLine
 10
73.1560339561
 20
77.5530966219
 30
0.0
 11
72.4894465121
 21
76.8865091779
 31
0.0
  0
LINE
  5
CB
330
1F
100
AcDbEntity
  8
0
  6
Continuous
 62
     7
370
    15
100
AcDbLine
 10
72.4894465121
 20
63.3865091779
 30
0.0
 11
73.1560339561
 21
62.7199217339
 31
0.0
  0
LINE
  5
CC
330
1F
100
AcDbEntity
  8
0
  6
Continuous
 62
     7
370
    15
100
AcDbLine
 10
72.4894465121
 20
76.8865091779
 30
0.0
 11
71.9768882247
 21
76.8865091779
 31
0.0
  0
LINE
  5
CD
330
1F
100
AcDbEntity
  8
0
  6
Continuous
 62
     7
370
    15
100
AcDbLine
 10
71.9768882247
 20
63.3865091779
 30
0.0
 11
72.4894465121
 21
63.3865091779
 31
0.0
  0
LINE
  5
CE
330
1F
100
AcDbEntity
  8
0
  6
Continuous
 62
     7
370
    15
100
AcDbLine
 10
57.1806286018
 20
73.3115091779
 30
0.0
 11
57.1560339557
 21
73.1365091781
 31
0.0
  0
LINE
  5
CF
330
1F
100
AcDbEntity
  8
0
  6
Continuous
 62
     7
370
    15
100
AcDbLine
 10
57.1560339557
 20
67.1365091777
 30
0.0
 11
57.1806286018
 21
66.9615091779
 31
0.0
  0
LINE
  5
D0
330
1F
100
AcDbEntity
  8
0
  6
Continuous
 62
     7
370
    15
100
AcDbLine
 10
137.1560339567
 20
61.421643707
 30
0.0
 11
137.1560339562
 21
70.1365091771
 31
0.0
  0
LINE
  5
D1
330
1F
100
AcDbEntity
  8
0
  6
Continuous
 62
     7
370
    15
100
AcDbLine
 10
137.1560339562
 20
70.1365091771
 30
0.0
 11
137.1560339567
 21
78.8513746488
 31
0.0
  0
LINE
  5
D2
330
1F
100
AcDbEntity
  8
0
  6
Continuous
 62
     7
370
    15
100
AcDbLine
 10
136.8561274611
 20
70.1365091779
 30
0.0
 11
136.8561274611
 21
79.1438850559
 31
0.0
  0
LINE
  5
D3
330
1F
100
AcDbEntity
  8
0
  6
Continuous
 62
     7
370
    15
100
AcDbLine
 10
136.8561274611
 20
61.1291332999
 30
0.0
 11
136.8561274611
 21
70.1365091779
 31
0.0
  0
LINE
  5
D4
330
1F
100
AcDbEntity
  8
0
  6
Continuous
 62
     7
370
    15
100
AcDbLine
 10
73.1560339561
 20
62.7199217339
 30
0.0
 11
73.1560339561
 21
77.5530966219
 31
0.0
  0
SPLINE
  5
D5
330
1F
100
AcDbEntity
  8
0
  6
Continuous
 62
     7
370
    15
100
AcDbSpline
210
0.0
220
0.0
230
1.0
 70
    24
 71
     3
 72
    10
 73
     6
 74
     0
 42
0.000000001
 43
0.00000001
 40
0.0
 40
0.0
 40
0.0
 40
0.0
 40
0.5
 40
0.5
 40
1.0
 40
1.0
 40
1.0
 40
1.0
 10
137.1560339562409
 20
70.13650917787709
 30
0.0
 10
137.3136301940221
 20
70.13650917787709
 30
0.0
 10
137.4888778024939
 20
70.13650917787709
 30
0.0
 10
137.8552971327329
 20
70.13650917787709
 30
0.0
 10
138.0461732987874
 20
70.13650917787709
 30
0.0
 10
138.2332162144152
 20
70.13650917787709
 30
0.0
  0
LINE
  5
D6
330
1F
100
AcDbEntity
  8
0
  6
Continuous
 62
     7
370
    15
100
AcDbLine
 10
170.2189463471
 20
70.1365091779
 30
0.0
 11
170.2189463471
 21
62.1994215689
 31
0.0
  0
LINE
  5
D7
330
1F
100
AcDbEntity
  8
0
  6
Continuous
 62
     7
370
    15
100
AcDbLine
 10
170.2189463471
 20
78.0735967869
 30
0.0
 11
170.2189463471
 21
70.1365091779
 31
0.0
  0
LINE
  5
D8
330
1F
100
AcDbEntity
  8
0
  6
Continuous
 62
     7
370
    15
100
AcDbLine
 10
142.6560339561
 20
61.4840261782
 30
0.0
 11
142.6560339559
 21
70.1365091775
 31
0.0
  0
LINE
  5
D9
330
1F
100
AcDbEntity
  8
0
  6
Continuous
 62
     7
370
    15
100
AcDbLine
 10
142.6560339559
 20
70.1365091775
 30
0.0
 11
142.6560339561
 21
78.7889921776
 31
0.0
  0
SPLINE
  5
DA
330
1F
100
AcDbEntity
  8
0
  6
Continuous
 62
     7
370
    15
100
AcDbSpline
210
0.0
220
0.0
230
1.0
 70
    24
 71
     3
 72
    10
 73
     6
 74
     0
 42
0.000000001
 43
0.00000001
 40
0.0
 40
0.0
 40
0.0
 40
0.0
 40
0.5
 40
0.5
 40
1.0
 40
1.0
 40
1.0
 40
1.0
 10
141.6833138862595
 20
70.13650917787709
 30
0.0
 10
141.8508061746027
 20
70.13650917787709
 30
0.0
 10
142.021028382065
 20
70.13650917787709
 30
0.0
 10
142.3505531204707
 20
70.13650917787709
 30
0.0
 10
142.5096861453874
 20
70.13650917787709
 30
0.0
 10
142.6560339558959
 20
70.13650917787709
 30
0.0
  0
LINE
  5
DB
330
1F
100
AcDbEntity
  8
0
  6
Continuous
 62
     7
370
    15
100
AcDbLine
 10
170.6560339561
 20
77.6365091779
 30
0.0
 11
170.6560339561
 21
62.6365091779
 31
0.0
  0
LINE
  5
DC
330
1F
100
AcDbEntity
  8
0
  6
Continuous
 62
     7
370
    15
100
AcDbLine
 10
72.4894465121
 20
63.3865091779
 30
0.0
 11
72.4894465121
 21
76.8865091779
 31
0.0
  0
LINE
  5
DD
330
1F
100
AcDbEntity
  8
0
  6
Continuous
 62
     7
370
    15
100
AcDbLine
 10
59.0739208663
 20
66.9615091764
 30
0.0
 11
59.0739208663
 21
73.3115091769
 31
0.0
  0
SPLINE
  5
DE
330
1F
100
AcDbEntity
  8
0
  6
Continuous
 62
     7
370
    15
100
AcDbSpline
210
0.0
220
0.0
230
1.0
 70
    24
 71
     3
 72
    20
 73
    16
 74
     0
 42
0.000000001
 43
0.00000001
 40
0.0
 40
0.0
 40
0.0
 40
0.0
 40
0.2500000000000007
 40
0.2500000000000007
 40
0.3750000000000006
 40
0.3750000000000006
 40
0.5000000000000004
 40
0.5000000000000004
 40
0.6250000000000003
 40
0.6250000000000003
 40
0.7500000000000002
 40
0.7500000000000002
 40
0.8750000000000001
 40
0.8750000000000001
 40
1.0
 40
1.0
 40
1.0
 40
1.0
 10
57.48949195712927
 20
66.96150917787708
 30
0.0
 10
57.51301046429217
 20
66.96150917787708
 30
0.0
 10
57.56266664329051
 20
66.96150917787708
 30
0.0
 10
57.68236088110925
 20
66.96150917787708
 30
0.0
 10
57.73052738126352
 20
66.9615091778771
 30
0.0
 10
57.84115920982877
 20
66.9615091778771
 30
0.0
 10
57.90346557012559
 20
66.96150917787746
 30
0.0
 10
58.04313192521142
 20
66.96150917787746
 30
0.0
 10
58.1213416008248
 20
66.96150917787786
 30
0.0
 10
58.2874447028787
 20
66.96150917787786
 30
0.0
 10
58.37584223445288
 20
66.96150917787735
 30
0.0
 10
58.56403568718424
 20
66.96150917787735
 30
0.0
 10
58.66418451656166
 20
66.96150917787708
 30
0.0
 10
58.86600125431536
 20
66.96150917787708
 30
0.0
 10
58.96890352122748
 20
66.96150917787708
 30
0.0
 10
59.07392086559783
 20
66.96150917787708
 30
0.0
  0
LINE
  5
DF
330
1F
100
AcDbEntity
  8
0
  6
Continuous
 62
     7
370
    15
100
AcDbLine
 10
57.4894919571
 20
73.3115091779
 30
0.0
 11
57.4894919572
 21
66.9615091779
 31
0.0
  0
SPLINE
  5
E0
330
1F
100
AcDbEntity
  8
0
  6
Continuous
 62
     7
370
    15
100
AcDbSpline
210
0.0
220
0.0
230
1.0
 70
    24
 71
     3
 72
    16
 73
    12
 74
     0
 42
0.000000001
 43
0.00000001
 40
0.0
 40
0.0
 40
0.0
 40
0.0
 40
0.125
 40
0.125
 40
0.25
 40
0.25
 40
0.5
 40
0.5
 40
0.75
 40
0.75
 40
1.0
 40
1.0
 40
1.0
 40
1.0
 10
59.07392086559783
 20
73.31150917787708
 30
0.0
 10
58.96938604580544
 20
73.31150917787708
 30
0.0
 10
58.86685528793596
 20
73.31150917787708
 30
0.0
 10
58.6655917043356
 20
73.31150917787708
 30
0.0
 10
58.56583469711912
 20
73.31150917787697
 30
0.0
 10
58.28432265094217
 20
73.31150917787697
 30
0.0
 10
58.11488687945579
 20
73.31150917787517
 30
0.0
 10
57.836180507303
 20
73.31150917787517
 30
0.0
 10
57.72465271723092
 20
73.31150917787704
 30
0.0
 10
57.56382630985014
 20
73.31150917787704
 30
0.0
 10
57.51296141123298
 20
73.31150917787708
 30
0.0
 10
57.48949195711864
 20
73.31150917787708
 30
0.0
  0
LINE
  5
E1
330
1F
100
AcDbEntity
  8
0
  6
Continuous
 62
     7
370
    15
100
AcDbLine
 10
59.0739208663
 20
73.3115091769
 30
0.0
 11
66.4894465121
 21
73.3115091769
 31
0.0
  0
SPLINE
  5
E2
330
1F
100
AcDbEntity
  8
0
  6
Continuous
 62
     7
370
    15
100
AcDbSpline
210
0.0
220
0.0
230
1.0
 70
     8
 71
     3
 72
    27
 73
    23
 74
     0
 42
0.000000001
 43
0.00000001
 40
0.0
 40
0.0
 40
0.0
 40
0.0
 40
0.0416181917297214
 40
0.0835123645055484
 40
0.1258377188367777
 40
0.1687585013773461
 40
0.2103946305176004
 40
0.252332085789781
 40
0.294751616762903
 40
0.3378438928540237
 40
0.388125661623393
 40
0.4288976433901652
 40
0.5010568896684924
 40
0.5782166759253505
 40
0.6564495821426442
 40
0.6906840374169385
 40
0.7724484465683981
 40
0.820236011730585
 40
0.865620725661658
 40
0.911281362232415
 40
0.9577864822422856
 40
1.0
 40
1.0
 40
1.0
 40
1.0
 10
66.48944650971143
 20
73.3115091775486
 30
0.0
 10
66.63212880327143
 20
73.3144518340393
 30
0.0
 10
66.91843955376376
 20
73.32035666054068
 30
0.0
 10
67.34702899662001
 20
73.36824784642207
 30
0.0
 10
67.7742445931106
 20
73.44518590401503
 30
0.0
 10
68.19169771988497
 20
73.55273632961222
 30
0.0
 10
68.59595959199345
 20
73.68820085440143
 30
0.0
 10
68.98391710293865
 20
73.84926566448897
 30
0.0
 10
69.35828687084984
 20
74.03630756380694
 30
0.0
 10
69.73438828946952
 20
74.25813995884526
 30
0.0
 10
70.07822698340281
 20
74.49707872781416
 30
0.0
 10
70.45966646558921
 20
74.80341285537608
 30
0.0
 10
70.84821008186894
 20
75.17364394350547
 30
0.0
 10
71.22087009828014
 20
75.60851864180175
 30
0.0
 10
71.45591401473695
 20
75.9395467299239
 30
0.0
 10
71.64739477693746
 20
76.24081394240578
 30
0.0
 10
71.7698375579014
 20
76.45882511058834
 30
0.0
 10
71.86214014133566
 20
76.63925635450896
 30
0.0
 10
71.91620012093017
 20
76.75145336516127
 30
0.0
 10
71.9525483104812
 20
76.83034924380408
 30
0.0
 10
71.97406100180537
 20
76.8785650294891
 30
0.0
 10
71.97597670664604
 20
76.88292300115698
 30
0.0
 10
71.97688822470296
 20
76.88499658252636
 30
0.0
  0
SPLINE
  5
E3
330
1F
100
AcDbEntity
  8
0
  6
Continuous
 62
     7
370
    15
100
AcDbSpline
210
0.0
220
0.0
230
1.0
 70
     8
 71
     3
 72
    27
 73
    23
 74
     0
 42
0.000000001
 43
0.00000001
 40
0.0
 40
0.0
 40
0.0
 40
0.0
 40
0.0045758173428659
 40
0.0536702782342958
 40
0.1030989230360052
 40
0.1535991593406435
 40
0.2044815015063443
 40
0.2533762927927897
 40
0.3026561426050849
 40
0.3532296750439494
 40
0.4042991367082219
 40
0.4484232136376365
 40
0.5385697376078106
 40
0.5847769701799747
 40
0.6237541952529215
 40
0.7030723445880208
 40
0.7434962973064637
 40
0.782264265580811
 40
0.8609848985025644
 40
0.9010035904046222
 40
0.9502706548472073
 40
1.0
 40
1.0
 40
1.0
 40
1.0
 10
71.97688822469338
 20
63.38802177324942
 30
0.0
 10
71.9771068038082
 20
63.38752866789211
 30
0.0
 10
71.979670542924
 20
63.38174497948363
 30
0.0
 10
71.96931740085009
 20
63.4052078329835
 30
0.0
 10
71.94332374795833
 20
63.46302824856945
 30
0.0
 10
71.89623013833715
 20
63.5639245475491
 30
0.0
 10
71.82839318314254
 20
63.70115658543062
 30
0.0
 10
71.73736080350577
 20
63.87257061006045
 30
0.0
 10
71.62022276071961
 20
64.07549064826418
 30
0.0
 10
71.47066355377099
 20
64.31081843160776
 30
0.0
 10
71.29236077407727
 20
64.56237920091503
 30
0.0
 10
71.02195587016746
 20
64.90349193542842
 30
0.0
 10
70.69362429318667
 20
65.25597936371896
 30
0.0
 10
70.31097250140182
 20
65.59230169151297
 30
0.0
 10
69.91611974977202
 20
65.89721105825345
 30
0.0
 10
69.48872583484406
 20
66.16947143524854
 30
0.0
 10
69.0251513493476
 20
66.40407051494158
 30
0.0
 10
68.54199765379194
 20
66.61014353103094
 30
0.0
 10
68.03236368268861
 20
66.7708938528727
 30
0.0
 10
67.47160415122207
 20
66.8860781914456
 30
0.0
 10
66.99935458296186
 20
66.9489681356968
 30
0.0
 10
66.6599441791845
 20
66.95731583680973
 30
0.0
 10
66.4894465097551
 20
66.96150917787708
 30
0.0
  0
LINE
  5
E4
330
1F
100
AcDbEntity
  8
0
  6
Continuous
 62
     7
370
    15
100
AcDbLine
 10
66.4894465109
 20
66.9615091772
 30
0.0
 11
59.0739208663
 21
66.9615091764
 31
0.0
  0
LINE
  5
E5
330
1F
100
AcDbEntity
  8
0
  6
Continuous
 62
     7
370
    15
100
AcDbLine
 10
57.1560339557
 20
67.1365091777
 30
0.0
 11
57.1560339557
 21
73.1365091781
 31
0.0
  0
SPLINE
  5
E6
330
1F
100
AcDbEntity
  8
0
  6
Continuous
 62
     7
370
    15
100
AcDbSpline
210
0.0
220
0.0
230
1.0
 70
    24
 71
     3
 72
    10
 73
     6
 74
     0
 42
0.000000001
 43
0.00000001
 40
0.0
 40
0.0
 40
0.0
 40
0.0
 40
0.6211255707504013
 40
0.9333579306653575
 40
1.0
 40
1.0
 40
1.0
 40
1.0
 10
57.48949195719884
 20
73.31150917787708
 30
0.0
 10
57.3950618796925
 20
73.31150917787708
 30
0.0
 10
57.25316293705614
 20
73.31150917787708
 30
0.0
 10
57.17571431336637
 20
73.31150917787708
 30
0.0
 10
57.18662112558596
 20
73.31150917787708
 30
0.0
 10
57.18853957792806
 20
73.31150917787708
 30
0.0
  0
SPLINE
  5
E7
330
1F
100
AcDbEntity
  8
0
  6
Continuous
 62
     7
370
    15
100
AcDbSpline
210
0.0
220
0.0
230
1.0
 70
    24
 71
     3
 72
    10
 73
     6
 74
     0
 42
0.000000001
 43
0.00000001
 40
0.0
 40
0.0
 40
0.0
 40
0.0
 40
0.2455393347969907
 40
0.6225082752089995
 40
1.0
 40
1.0
 40
1.0
 40
1.0
 10
57.18853957796556
 20
66.96150917787708
 30
0.0
 10
57.1905480272556
 20
66.96150917787708
 30
0.0
 10
57.1956399865721
 20
66.96150917787708
 30
0.0
 10
57.31319654884207
 20
66.96150917787708
 30
0.0
 10
57.43069968081549
 20
66.96150917787708
 30
0.0
 10
57.48949195720947
 20
66.96150917787708
 30
0.0
  0
LINE
  5
E8
330
1F
100
AcDbEntity
  8
0
  6
Continuous
 62
     8
370
    15
100
AcDbLine
 10
138.2332162144
 20
70.1365091766
 30
0.0
 11
138.2332162151
 21
78.5365091438
 31
0.0
  0
LINE
  5
E9
330
1F
100
AcDbEntity
  8
0
  6
Continuous
 62
     8
370
    15
100
AcDbLine
 10
138.2332162144
 20
70.1365091766
 30
0.0
 11
138.2332162151
 21
61.736509178
 31
0.0
  0
LINE
  5
EA
330
1F
100
AcDbEntity
  8
0
  6
Continuous
 62
     8
370
    15
100
AcDbLine
 10
141.6833138863
 20
70.1365091753
 30
0.0
 11
141.6833138869
 21
61.7365091779
 31
0.0
  0
LINE
  5
EB
330
1F
100
AcDbEntity
  8
0
  6
Continuous
 62
     8
370
    15
100
AcDbLine
 10
141.6833138863
 20
70.1365091753
 30
0.0
 11
141.6833138869
 21
78.5365091477
 31
0.0
  0
LINE
  5
EC
330
1F
100
AcDbEntity
  8
DIM
100
AcDbLine
 10
132.1560339561
 20
79.0265091781
 30
0.0
 11
132.1560339561
 21
61.3819683527
 31
0.0
  0
LINE
  5
ED
330
1F
100
AcDbEntity
  8
DIM
100
AcDbLine
 10
145.2560339561
 20
78.7215091779
 30
0.0
 11
145.2560339561
 21
61.5515091779
 31
0.0
  0
DIMENSION
  5
EE
330
1F
100
AcDbEntity
  8
DIM
100
AcDbDimension
  2
_D
 10
145.2560339561
 20
56.7801423648
 30
0.0
 11
157.9560339561
 21
56.7801423648
 31
0.0
 70
   160
  1
<>
 71
     2
 42
-1.0
  3
SLDDIMSTYLE0
100
AcDbAlignedDimension
 13
170.6560339561
 23
62.6365091779
 33
0.0
 14
145.2560339561
 24
61.5515091779
 34
0.0
100
AcDbRotatedDimension
  0
DIMENSION
  5
F9
330
1F
100
AcDbEntity
  8
DIM
100
AcDbDimension
  2
_D_1
 10
170.6560339561
 20
52.8606188808
 30
0.0
 11
151.4060339561
 21
52.8606188808
 31
0.0
 70
   160
  1
<>
 71
     2
 42
-1.0
  3
SLDDIMSTYLE0
100
AcDbAlignedDimension
 13
132.1560339561
 23
61.3819683527
 33
0.0
 14
170.6560339561
 24
62.6365091779
 34
0.0
100
AcDbRotatedDimension
  0
LINE
  5
103
330
1F
100
AcDbEntity
  8
DIM
  6
CENTERX2
370
     0
100
AcDbLine
 10
142.4463665757
 20
70.1365091779
 30
0.0
 11
171.9893672894
 21
70.1365091779
 31
0.0
  0
SPLINE
  5
104
330
1F
100
AcDbEntity
  8
0
  6
Continuous
 62
     7
370
    15
100
AcDbSpline
210
0.0
220
0.0
230
1.0
 70
    24
 71
     3
 72
    14
 73
    10
 74
     0
 42
0.000000001
 43
0.00000001
 40
0.0
 40
0.0
 40
0.0
 40
0.0
 40
0.2499999999999999
 40
0.2499999999999999
 40
0.4999999999999999
 40
0.4999999999999999
 40
0.7499999999999999
 40
0.7499999999999999
 40
1.0
 40
1.0
 40
1.0
 40
1.0
 10
36.28683495050161
 20
73.31150917787708
 30
0.0
 10
35.56716777892571
 20
73.31150917787708
 30
0.0
 10
34.84717928363266
 20
73.31150917787708
 30
0.0
 10
33.40528070494805
 20
73.31150917787708
 30
0.0
 10
32.68327109730026
 20
73.31150917787708
 30
0.0
 10
31.23536887732455
 20
73.31150917787708
 30
0.0
 10
30.50881209039594
 20
73.31150917787708
 30
0.0
 10
29.06178964643451
 20
73.31150917787708
 30
0.0
 10
28.33987680682098
 20
73.31150917787708
 30
0.0
 10
27.61849422105778
 20
73.31150917787708
 30
0.0
  0
ARC
  5
105
330
1F
100
AcDbEntity
  8
0
  6
Continuous
 62
     7
370
    15
100
AcDbCircle
 10
31.9526645859
 20
70.1365091779
 30
0.0
 40
5.372676963104919
100
AcDbArc
 50
323.7753291345
 51
36.2246708702
  0
SPLINE
  5
106
330
1F
100
AcDbEntity
  8
0
  6
Continuous
 62
     7
370
    15
100
AcDbSpline
210
0.0
220
0.0
230
1.0
 70
     8
 71
     3
 72
    14
 73
    10
 74
     0
 42
0.000000001
 43
0.00000001
 40
0.0
 40
0.0
 40
0.0
 40
0.0
 40
0.2500000000000001
 40
0.2500000000000001
 40
0.5
 40
0.5
 40
0.75
 40
0.75
 40
1.0
 40
1.0
 40
1.0
 40
1.0
 10
27.61849422112337
 20
66.96150917729317
 30
0.0
 10
28.33816139269813
 20
66.96150917729317
 30
0.0
 10
29.05814988814975
 20
66.96150917787708
 30
0.0
 10
30.5000484668302
 20
66.96150917787708
 30
0.0
 10
31.2220580744753
 20
66.96150917787708
 30
0.0
 10
32.66996029444358
 20
66.96150917787708
 30
0.0
 10
33.39651708135965
 20
66.96150917787708
 30
0.0
 10
34.84353952528561
 20
66.96150917787708
 30
0.0
 10
35.56545236484865
 20
66.96150917787708
 30
0.0
 10
36.28683495059535
 20
66.96150917787708
 30
0.0
  0
ARC
  5
107
330
1F
100
AcDbEntity
  8
0
  6
Continuous
 62
     7
370
    15
100
AcDbCircle
 10
31.9526645859
 20
70.1365091779
 30
0.0
 40
5.372676962592215
100
AcDbArc
 50
180.0000000051
 51
216.2246708695
  0
ARC
  5
108
330
1F
100
AcDbEntity
  8
0
  6
Continuous
 62
     7
370
    15
100
AcDbCircle
 10
31.9526645859
 20
70.1365091779
 30
0.0
 40
5.372676963260751
100
AcDbArc
 50
143.7753291357
 51
180.0000000051
  0
CIRCLE
  5
109
330
1F
100
AcDbEntity
  8
0
  6
Continuous
 62
     7
370
    15
100
AcDbCircle
 10
31.9526645859
 20
70.1365091779
 30
0.0
 40
3.000000000222158
  0
SPLINE
  5
10A
330
1F
100
AcDbEntity
  8
0
  6
Continuous
 62
     7
370
    15
100
AcDbSpline
210
0.0
220
0.0
230
1.0
 70
    24
 71
     3
 72
    14
 73
    10
 74
     0
 42
0.000000001
 43
0.00000001
 40
0.0
 40
0.0
 40
0.0
 40
0.0
 40
0.25
 40
0.25
 40
0.5
 40
0.5
 40
0.75
 40
0.75
 40
1.0
 40
1.0
 40
1.0
 40
1.0
 10
25.20266458625077
 20
70.13650917787709
 30
0.0
 10
25.20266458605849
 20
70.13650917787709
 30
0.0
 10
25.23213143526574
 20
70.13650917787709
 30
0.0
 10
25.36280382501626
 20
70.13650917787709
 30
0.0
 10
25.46430770001832
 20
70.13650917787709
 30
0.0
 10
25.72595081436324
 20
70.13650917787709
 30
0.0
 10
25.88549338478907
 20
70.13650917787709
 30
0.0
 10
26.22629058465733
 20
70.13650917787709
 30
0.0
 10
26.40674114191902
 20
70.13650917787709
 30
0.0
 10
26.57998762392988
 20
70.13650917787709
 30
0.0
  0
ARC
  5
10B
330
1F
100
AcDbEntity
  8
0
  6
Continuous
 62
     7
370
    15
100
AcDbCircle
 10
31.9526645859
 20
70.1365091779
 30
0.0
 40
6.749999999999996
100
AcDbArc
 50
151.941659236
 51
180.0000000051
  0
SPLINE
  5
10C
330
1F
100
AcDbEntity
  8
0
  6
Continuous
 62
     7
370
    15
100
AcDbSpline
210
0.0
220
0.0
230
1.0
 70
    24
 71
     3
 72
    20
 73
    16
 74
     0
 42
0.000000001
 43
0.00000001
 40
0.0
 40
0.0
 40
0.0
 40
0.0
 40
0.2500000000000006
 40
0.2500000000000006
 40
0.3750000000000004
 40
0.3750000000000004
 40
0.5000000000000002
 40
0.5000000000000002
 40
0.6250000000000001
 40
0.6250000000000001
 40
0.75
 40
0.75
 40
0.875
 40
0.875
 40
1.0
 40
1.0
 40
1.0
 40
1.0
 10
27.61849422109191
 20
73.31150917787708
 30
0.0
 10
27.4110544754761
 20
73.31150917787708
 30
0.0
 10
27.21168575767538
 20
73.31150917787708
 30
0.0
 10
26.92659302614666
 20
73.31150917787708
 30
0.0
 10
26.83301358920505
 20
73.31150917787706
 30
0.0
 10
26.65716972256048
 20
73.31150917787706
 30
0.0
 10
26.57470926546248
 20
73.31150917787681
 30
0.0
 10
26.42154941296866
 20
73.31150917787681
 30
0.0
 10
26.35040598797207
 20
73.31150917787652
 30
0.0
 10
26.22712698683411
 20
73.31150917787652
 30
0.0
 10
26.17417460642029
 20
73.31150917787686
 30
0.0
 10
26.0867920192263
 20
73.31150917787686
 30
0.0
 10
26.0526373817241
 20
73.31150917787708
 30
0.0
 10
26.00759169071776
 20
73.31150917787708
 30
0.0
 10
25.99599815288089
 20
73.31150917787708
 30
0.0
 10
25.99599815286359
 20
73.31150917787708
 30
0.0
  0
ARC
  5
10D
330
1F
100
AcDbEntity
  8
0
  6
Continuous
 62
     7
370
    15
100
AcDbCircle
 10
31.9526645859
 20
70.1365091779
 30
0.0
 40
6.749999999999996
100
AcDbArc
 50
180.0000000051
 51
208.0583407691
  0
SPLINE
  5
10E
330
1F
100
AcDbEntity
  8
0
  6
Continuous
 62
     7
370
    15
100
AcDbSpline
210
0.0
220
0.0
230
1.0
 70
    24
 71
     3
 72
    16
 73
    12
 74
     0
 42
0.000000001
 43
0.00000001
 40
0.0
 40
0.0
 40
0.0
 40
0.0
 40
0.1249999999999999
 40
0.1249999999999999
 40
0.2499999999999998
 40
0.2499999999999998
 40
0.4999999999999998
 40
0.4999999999999998
 40
0.7499999999999998
 40
0.7499999999999998
 40
1.0
 40
1.0
 40
1.0
 40
1.0
 10
25.99599815286359
 20
66.96150917787708
 30
0.0
 10
25.99599815288086
 20
66.96150917787708
 30
0.0
 10
26.00748715639785
 20
66.96150917787708
 30
0.0
 10
26.05223817111446
 20
66.96150917787708
 30
0.0
 10
26.08613326237319
 20
66.96150917787716
 30
0.0
 10
26.21632189070272
 20
66.96150917787716
 30
0.0
 10
26.34347159740698
 20
66.96150917787907
 30
0.0
 10
26.64789505019635
 20
66.96150917787907
 30
0.0
 10
26.82710416796749
 20
66.96150917787713
 30
0.0
 10
27.20770725769599
 20
66.96150917787713
 30
0.0
 10
27.41148713696678
 20
66.96150917787708
 30
0.0
 10
27.61849422118567
 20
66.96150917787708
 30
0.0
  0
ARC
  5
10F
330
1F
100
AcDbEntity
  8
0
  6
Continuous
 62
     7
370
    15
100
AcDbCircle
 10
31.9526645859
 20
70.1365091779
 30
0.0
 40
6.75000000005055
100
AcDbArc
 50
331.9416592253
 51
28.0583407512
  0
SPLINE
  5
110
330
1F
100
AcDbEntity
  8
0
  6
Continuous
 62
     7
370
    15
100
AcDbSpline
210
0.0
220
0.0
230
1.0
 70
    24
 71
     3
 72
    20
 73
    16
 74
     0
 42
0.000000001
 43
0.00000001
 40
0.0
 40
0.0
 40
0.0
 40
0.0
 40
0.2500000000000007
 40
0.2500000000000007
 40
0.3750000000000006
 40
0.3750000000000006
 40
0.5000000000000004
 40
0.5000000000000004
 40
0.6250000000000003
 40
0.6250000000000003
 40
0.7500000000000002
 40
0.7500000000000002
 40
0.8750000000000001
 40
0.8750000000000001
 40
1.0
 40
1.0
 40
1.0
 40
1.0
 10
36.28683495060444
 20
66.96150917787708
 30
0.0
 10
36.49427469627217
 20
66.96150917787708
 30
0.0
 10
36.69364341410978
 20
66.96150917787708
 30
0.0
 10
36.97873614567747
 20
66.96150917787708
 30
0.0
 10
37.07231558263263
 20
66.9615091778771
 30
0.0
 10
37.24815944932185
 20
66.9615091778771
 30
0.0
 10
37.33061990643873
 20
66.96150917787746
 30
0.0
 10
37.48377975896955
 20
66.96150917787746
 30
0.0
 10
37.55492318399277
 20
66.96150917787786
 30
0.0
 10
37.67820218519802
 20
66.96150917787786
 30
0.0
 10
37.73115456564574
 20
66.96150917787735
 30
0.0
 10
37.81853715291624
 20
66.96150917787735
 30
0.0
 10
37.8526917904726
 20
66.96150917787708
 30
0.0
 10
37.89773748158886
 20
66.96150917787708
 30
0.0
 10
37.90933101948202
 20
66.96150917787708
 30
0.0
 10
37.90933101955783
 20
66.96150917787708
 30
0.0
  0
SPLINE
  5
111
330
1F
100
AcDbEntity
  8
0
  6
Continuous
 62
     7
370
    15
100
AcDbSpline
210
0.0
220
0.0
230
1.0
 70
    24
 71
     3
 72
    16
 73
    12
 74
     0
 42
0.000000001
 43
0.00000001
 40
0.0
 40
0.0
 40
0.0
 40
0.0
 40
0.125
 40
0.125
 40
0.25
 40
0.25
 40
0.5
 40
0.5
 40
0.75
 40
0.75
 40
1.0
 40
1.0
 40
1.0
 40
1.0
 10
37.90933101955783
 20
73.31150917787708
 30
0.0
 10
37.90933101948237
 20
73.31150917787708
 30
0.0
 10
37.89784201590918
 20
73.31150917787708
 30
0.0
 10
37.85309100109006
 20
73.31150917787708
 30
0.0
 10
37.81919590978478
 20
73.31150917787697
 30
0.0
 10
37.68900728133168
 20
73.31150917787697
 30
0.0
 10
37.56185757457258
 20
73.31150917787517
 30
0.0
 10
37.25743412170181
 20
73.31150917787517
 30
0.0
 10
37.0782250038936
 20
73.31150917787704
 30
0.0
 10
36.69762191410416
 20
73.31150917787704
 30
0.0
 10
36.49384203478026
 20
73.31150917787708
 30
0.0
 10
36.28683495051071
 20
73.31150917787708
 30
0.0
  0
SPLINE
  5
112
330
1F
100
AcDbEntity
  8
0
  6
Continuous
 62
     7
370
    15
100
AcDbSpline
210
0.0
220
0.0
230
1.0
 70
     8
 71
     3
 72
    52
 73
    48
 74
     0
 42
0.000000001
 43
0.00000001
 40
0.0
 40
0.0
 40
0.0
 40
0.0
 40
0.0624999999999999
 40
0.0624999999999999
 40
0.0937499999999999
 40
0.0937499999999999
 40
0.1249999999999999
 40
0.1249999999999999
 40
0.1562499999999998
 40
0.1562499999999998
 40
0.1874999999999998
 40
0.1874999999999998
 40
0.2499999999999998
 40
0.2499999999999998
 40
0.3124999999999998
 40
0.3124999999999998
 40
0.3437499999999998
 40
0.3437499999999998
 40
0.3749999999999998
 40
0.3749999999999998
 40
0.4374999999999999
 40
0.4374999999999999
 40
0.5
 40
0.5
 40
0.5625
 40
0.5625
 40
0.5937500000000001
 40
0.5937500000000001
 40
0.6250000000000002
 40
0.6250000000000002
 40
0.6875000000000003
 40
0.6875000000000003
 40
0.7187500000000003
 40
0.7187500000000003
 40
0.7500000000000002
 40
0.7500000000000002
 40
0.7812500000000002
 40
0.7812500000000002
 40
0.8125000000000002
 40
0.8125000000000002
 40
0.875
 40
0.875
 40
0.9374999999999999
 40
0.9374999999999999
 40
0.9687499999999999
 40
0.9687499999999999
 40
1.0
 40
1.0
 40
1.0
 40
1.0
 10
25.99599815223485
 20
66.96150917753383
 30
0.0
 10
25.99599815216574
 20
66.96150917766349
 30
0.0
 10
26.01997071931356
 20
66.91527911075354
 30
0.0
 10
26.09601430066655
 20
66.78019909817642
 30
0.0
 10
26.12852700805723
 20
66.72360248586114
 30
0.0
 10
26.20845202659265
 20
66.590732438212
 30
0.0
 10
26.25568399631648
 20
66.51474637201532
 30
0.0
 10
26.36688713798406
 20
66.34548768461462
 30
0.0
 10
26.43085426357388
 20
66.25220541064958
 30
0.0
 10
26.57884077917127
 20
66.04991858349489
 30
0.0
 10
26.66334424163733
 20
65.94043759301552
 30
0.0
 10
26.94365749092509
 20
65.60241018007122
 30
0.0
 10
27.16804131197056
 20
65.36132083544851
 30
0.0
 10
27.70940922839173
 20
64.87439671707618
 30
0.0
 10
28.01460276986328
 20
64.63965375722779
 30
0.0
 10
28.52421986231448
 20
64.31855598343448
 30
0.0
 10
28.70376407440679
 20
64.21621750372692
 30
0.0
 10
29.0720230772116
 20
64.02855432055823
 30
0.0
 10
29.26148462425786
 20
63.94264681411224
 30
0.0
 10
29.84535160589625
 20
63.71021520126324
 30
0.0
 10
30.25941518646864
 20
63.58846246832058
 30
0.0
 10
31.09615745393891
 20
63.42752976427187
 30
0.0
 10
31.52107610410397
 20
63.38651388215088
 30
0.0
 10
32.38410590650711
 20
63.38650447440536
 30
0.0
 10
32.80976144190403
 20
63.42770132644755
 30
0.0
 10
33.43509778784139
 20
63.54788669257091
 30
0.0
 10
33.6415854821104
 20
63.59774718723757
 30
0.0
 10
34.05045286558458
 20
63.71722989609314
 30
0.0
 10
34.25228613577092
 20
63.7868594871903
 30
0.0
 10
34.835776837209
 20
64.01887845887326
 30
0.0
 10
35.20083450671846
 20
64.20582024628736
 30
0.0
 10
35.7109054756585
 20
64.52594591076719
 30
0.0
 10
35.87542674261348
 20
64.64002298439706
 30
0.0
 10
36.18176142229984
 20
64.8720848635158
 30
0.0
 10
36.32478327170571
 20
64.99071631394361
 30
0.0
 10
36.59162783421625
 20
65.2299191214251
 30
0.0
 10
36.715448433616
 20
65.35049816448264
 30
0.0
 10
36.94476852919978
 20
65.59020192696373
 30
0.0
 10
37.05026299449487
 20
65.70948332025787
 30
0.0
 10
37.3318450489779
 20
66.04833263304319
 30
0.0
 10
37.47795340399239
 20
66.25369672240551
 30
0.0
 10
37.70473284953318
 20
66.59832323332512
 30
0.0
 10
37.78203037079194
 20
66.731813744213
 30
0.0
 10
37.8591046798771
 20
66.86860395753261
 30
0.0
 10
37.87811585613716
 20
66.90351984848488
 30
0.0
 10
37.90314812422812
 20
66.94982776612484
 30
0.0
 10
37.9093310194875
 20
66.96150917796005
 30
0.0
 10
37.90933101944328
 20
66.96150917787708
 30
0.0
  0
SPLINE
  5
113
330
1F
100
AcDbEntity
  8
0
  6
Continuous
 62
     7
370
    15
100
AcDbSpline
210
0.0
220
0.0
230
1.0
 70
     8
 71
     3
 72
    52
 73
    48
 74
     0
 42
0.000000001
 43
0.00000001
 40
0.0
 40
0.0
 40
0.0
 40
0.0
 40
0.0625000000000005
 40
0.0625000000000005
 40
0.0937500000000006
 40
0.0937500000000006
 40
0.1250000000000007
 40
0.1250000000000007
 40
0.1562500000000007
 40
0.1562500000000007
 40
0.1875000000000009
 40
0.1875000000000009
 40
0.2500000000000011
 40
0.2500000000000011
 40
0.3125000000000012
 40
0.3125000000000012
 40
0.3437500000000012
 40
0.3437500000000012
 40
0.3750000000000012
 40
0.3750000000000012
 40
0.4375000000000013
 40
0.4375000000000013
 40
0.5000000000000013
 40
0.5000000000000013
 40
0.5625000000000013
 40
0.5625000000000013
 40
0.5937500000000013
 40
0.5937500000000013
 40
0.6250000000000013
 40
0.6250000000000013
 40
0.6875000000000014
 40
0.6875000000000014
 40
0.7187500000000013
 40
0.7187500000000013
 40
0.7500000000000012
 40
0.7500000000000012
 40
0.7812500000000011
 40
0.7812500000000011
 40
0.812500000000001
 40
0.812500000000001
 40
0.8750000000000007
 40
0.8750000000000007
 40
0.9375000000000004
 40
0.9375000000000004
 40
0.9687500000000002
 40
0.9687500000000002
 40
1.0
 40
1.0
 40
1.0
 40
1.0
 10
37.90933101924613
 20
73.3115091775486
 30
0.0
 10
37.90933101933616
 20
73.3115091773797
 30
0.0
 10
37.88535845259196
 20
73.35773924496075
 30
0.0
 10
37.80931487125203
 20
73.49281925751752
 30
0.0
 10
37.77680216386569
 20
73.54941586982666
 30
0.0
 10
37.69687714534091
 20
73.68228591746193
 30
0.0
 10
37.64964517562236
 20
73.75827198365262
 30
0.0
 10
37.53844203396488
 20
73.9275306710439
 30
0.0
 10
37.47447490837988
 20
74.02081294500553
 30
0.0
 10
37.32648839279083
 20
74.22309977215666
 30
0.0
 10
37.24198493033032
 20
74.3325807626332
 30
0.0
 10
36.96167168105961
 20
74.67060817557119
 30
0.0
 10
36.73728786002319
 20
74.91169752019617
 30
0.0
 10
36.1959199436062
 20
75.39862163858653
 30
0.0
 10
35.89072640214879
 20
75.6333645984352
 30
0.0
 10
35.3811093096965
 20
75.95446237224506
 30
0.0
 10
35.20156509760422
 20
76.05680085195766
 30
0.0
 10
34.83330609480185
 20
76.24446403513498
 30
0.0
 10
34.64384454775543
 20
76.33037154158593
 30
0.0
 10
34.05997756611222
 20
76.5628031544506
 30
0.0
 10
33.64591398553397
 20
76.68455588740326
 30
0.0
 10
32.80917171805723
 20
76.84548859146831
 30
0.0
 10
32.38425306788366
 20
76.88650447359758
 30
0.0
 10
31.521223265452
 20
76.8865138813545
 30
0.0
 10
31.09556773006355
 20
76.84531702931787
 30
0.0
 10
30.47023138411094
 20
76.72513166319875
 30
0.0
 10
30.26374368983553
 20
76.67527116853282
 30
0.0
 10
29.85487630634596
 20
76.55578845967645
 30
0.0
 10
29.65304303616119
 20
76.4861588685813
 30
0.0
 10
29.06955233471822
 20
76.25413989690136
 30
0.0
 10
28.70449466519953
 20
76.06719810948637
 30
0.0
 10
28.19442369623942
 20
75.74707244499646
 30
0.0
 10
28.02990242928197
 20
75.63299537136515
 30
0.0
 10
27.72356774959523
 20
75.40093349224715
 30
0.0
 10
27.58054590018772
 20
75.28230204181855
 30
0.0
 10
27.313701337672
 20
75.04309923433308
 30
0.0
 10
27.18988073826871
 20
74.9225201912723
 30
0.0
 10
26.96056064267693
 20
74.6828164287825
 30
0.0
 10
26.8550661773823
 20
74.56353503548827
 30
0.0
 10
26.57348412289948
 20
74.2246857227021
 30
0.0
 10
26.42737576787817
 20
74.01932163332913
 30
0.0
 10
26.20059632234236
 20
73.67469512241486
 30
0.0
 10
26.12329880108389
 20
73.54120461152692
 30
0.0
 10
26.04622449200026
 20
73.40441439820928
 30
0.0
 10
26.02721331574141
 20
73.36949850725907
 30
0.0
 10
26.00218104765311
 20
73.32319058962385
 30
0.0
 10
25.99599815239593
 20
73.31150917779279
 30
0.0
 10
25.99599815244087
 20
73.31150917787708
 30
0.0
  0
CIRCLE
  5
114
330
1F
100
AcDbEntity
  8
0
  6
Continuous
 62
     7
370
    15
100
AcDbCircle
 10
31.9526645859
 20
70.1365091779
 30
0.0
 40
7.416587443999994
  0
CIRCLE
  5
115
330
1F
100
AcDbEntity
  8
0
  6
Continuous
 62
     7
370
    15
100
AcDbCircle
 10
31.9526645859
 20
70.1365091779
 30
0.0
 40
9.007375878000001
  0
INSERT
  5
121
330
1F
100
AcDbEntity
  8
DIM
100
AcDbBlockReference
  2
SW_CENTERMARKSYMBOL_0
 10
31.9526645859
 20
70.1365091779
 30
0.0
  0
ENDSEC
  0
SECTION
  2
OBJECTS
  0
DICTIONARY
  5
C
330
0
100
AcDbDictionary
281
     1
  3
ACAD_GROUP
350
D
  3
ACAD_LAYOUT
350
1A
  3
ACAD_MLINESTYLE
350
17
  3
ACAD_PLOTSETTINGS
350
19
  3
ACAD_PLOTSTYLENAME
350
E
  3
ACAD_SCALELIST
350
47
  0
DICTIONARY
  5
D
102
{ACAD_REACTORS
330
C
102
}
330
C
100
AcDbDictionary
281
     1
  0
DICTIONARY
  5
1A
102
{ACAD_REACTORS
330
C
102
}
330
C
100
AcDbDictionary
281
     1
  3
Layout1
350
1E
  3
Layout2
350
26
  3
Model
350
22
  0
DICTIONARY
  5
17
102
{ACAD_REACTORS
330
C
102
}
330
C
100
AcDbDictionary
281
     1
  3
Standard
350
18
  0
DICTIONARY
  5
19
102
{ACAD_REACTORS
330
C
102
}
330
C
100
AcDbDictionary
281
     1
  0
ACDBDICTIONARYWDFLT
  5
E
102
{ACAD_REACTORS
330
C
102
}
330
C
100
AcDbDictionary
281
     1
  3
Normal
350
F
100
AcDbDictionaryWithDefault
340
F
  0
DICTIONARY
  5
47
102
{ACAD_REACTORS
330
C
102
}
330
C
100
AcDbDictionary
281
     1
  3
A0
350
48
  3
A1
350
49
  3
A2
350
4A
  3
A3
350
4B
  3
A4
350
4C
  3
A5
350
4D
  3
A6
350
4E
  3
A7
350
4F
  3
A8
350
50
  3
A9
350
51
  3
B0
350
52
  3
B1
350
53
  3
B2
350
54
  3
B3
350
55
  3
B4
350
56
  3
B5
350
57
  3
B6
350
58
  3
B7
350
59
  3
B8
350
5A
  3
B9
350
5B
  3
C0
350
5C
  3
C1
350
5D
  3
C2
350
5E
  3
C3
350
5F
  3
C4
350
60
  3
C5
350
61
  3
C6
350
62
  3
C7
350
63
  3
C8
350
64
  3
C9
350
65
  3
D0
350
66
  3
D1
350
67
  3
D2
350
68
  0
LAYOUT
  5
1E
102
{ACAD_REACTORS
330
1A
102
}
330
1A
100
AcDbPlotSettings
  1

  2
none_device
  4

  6

 40
0.0
 41
0.0
 42
0.0
 43
0.0
 44
0.0
 45
0.0
 46
0.0
 47
0.0
 48
0.0
 49
0.0
140
0.0
141
0.0
142
1.0
143
1.0
 70
   688
 72
     1
 73
     0
 74
     5
  7

 75
    16
147
1.0
148
0.0
149
0.0
100
AcDbLayout
  1
Layout1
 70
     1
 71
     1
 10
0.0
 20
0.0
 11
420.0
 21
297.0
 12
0.0
 22
0.0
 32
0.0
 14
1.0000000000E+20
 24
1.0000000000E+20
 34
1.0000000000E+20
 15
-1.0000000000E+20
 25
-1.0000000000E+20
 35
-1.0000000000E+20
146
0.0
 13
0.0
 23
0.0
 33
0.0
 16
1.0
 26
0.0
 36
0.0
 17
0.0
 27
1.0
 37
0.0
 76
     0
330
1B
  0
LAYOUT
  5
26
102
{ACAD_REACTORS
330
1A
102
}
330
1A
100
AcDbPlotSettings
  1

  2
none_device
  4

  6

 40
0.0
 41
0.0
 42
0.0
 43
0.0
 44
0.0
 45
0.0
 46
0.0
 47
0.0
 48
0.0
 49
0.0
140
0.0
141
0.0
142
1.0
143
1.0
 70
   688
 72
     1
 73
     0
 74
     5
  7

 75
    16
147
1.0
148
0.0
149
0.0
100
AcDbLayout
  1
Layout2
 70
     1
 71
     2
 10
0.0
 20
0.0
 11
0.0
 21
0.0
 12
0.0
 22
0.0
 32
0.0
 14
0.0
 24
0.0
 34
0.0
 15
0.0
 25
0.0
 35
0.0
146
0.0
 13
0.0
 23
0.0
 33
0.0
 16
1.0
 26
0.0
 36
0.0
 17
0.0
 27
1.0
 37
0.0
 76
     0
330
23
  0
LAYOUT
  5
22
102
{ACAD_REACTORS
330
1A
102
}
330
1A
100
AcDbPlotSettings
  1

  2
none_device
  4
Letter_(8.50_x_11.00_Inches)
  6

 40
6.35
 41
6.35
 42
6.35000508
 43
6.35000508
 44
215.9
 45
279.4
 46
0.0
 47
0.0
 48
0.0
 49
0.0
140
0.0
141
0.0
142
1.0
143
1.0
 70
  1712
 72
     1
 73
     0
 74
     0
  7

 75
     0
147
1.0
148
0.0
149
0.0
100
AcDbLayout
  1
Model
 70
     1
 71
     0
 10
0.0
 20
0.0
 11
198.0
 21
140.0
 12
0.0
 22
0.0
 32
0.0
 14
0.0
 24
0.0
 34
0.0
 15
198.0
 25
140.0
 35
0.0
146
0.0
 13
0.0
 23
0.0
 33
0.0
 16
1.0
 26
0.0
 36
0.0
 17
0.0
 27
1.0
 37
0.0
 76
     0
330
1F
331
29
  0
MLINESTYLE
  5
18
102
{ACAD_REACTORS
330
17
102
}
330
17
100
AcDbMlineStyle
  2
Standard
 70
     0
  3

 62
   256
 51
90.0
 52
90.0
 71
     2
 49
0.5
 62
   256
  6
BYLAYER
 49
-0.5
 62
   256
  6
BYLAYER
  0
ACDBPLACEHOLDER
  5
F
102
{ACAD_REACTORS
330
E
102
}
330
E
  0
SCALE
  5
48
102
{ACAD_REACTORS
330
47
102
}
330
47
100
AcDbScale
 70
     0
300
1:1
140
1.0
141
1.0
290
     1
  0
SCALE
  5
49
102
{ACAD_REACTORS
330
47
102
}
330
47
100
AcDbScale
 70
     0
300
1:2
140
1.0
141
2.0
290
     0
  0
SCALE
  5
4A
102
{ACAD_REACTORS
330
47
102
}
330
47
100
AcDbScale
 70
     0
300
1:4
140
1.0
141
4.0
290
     0
  0
SCALE
  5
4B
102
{ACAD_REACTORS
330
47
102
}
330
47
100
AcDbScale
 70
     0
300
1:5
140
1.0
141
5.0
290
     0
  0
SCALE
  5
4C
102
{ACAD_REACTORS
330
47
102
}
330
47
100
AcDbScale
 70
     0
300
1:8
140
1.0
141
8.0
290
     0
  0
SCALE
  5
4D
102
{ACAD_REACTORS
330
47
102
}
330
47
100
AcDbScale
 70
     0
300
1:10
140
1.0
141
10.0
290
     0
  0
SCALE
  5
4E
102
{ACAD_REACTORS
330
47
102
}
330
47
100
AcDbScale
 70
     0
300
1:16
140
1.0
141
16.0
290
     0
  0
SCALE
  5
4F
102
{ACAD_REACTORS
330
47
102
}
330
47
100
AcDbScale
 70
     0
300
1:20
140
1.0
141
20.0
290
     0
  0
SCALE
  5
50
102
{ACAD_REACTORS
330
47
102
}
330
47
100
AcDbScale
 70
     0
300
1:30
140
1.0
141
30.0
290
     0
  0
SCALE
  5
51
102
{ACAD_REACTORS
330
47
102
}
330
47
100
AcDbScale
 70
     0
300
1:40
140
1.0
141
40.0
290
     0
  0
SCALE
  5
52
102
{ACAD_REACTORS
330
47
102
}
330
47
100
AcDbScale
 70
     0
300
1:50
140
1.0
141
50.0
290
     0
  0
SCALE
  5
53
102
{ACAD_REACTORS
330
47
102
}
330
47
100
AcDbScale
 70
     0
300
1:100
140
1.0
141
100.0
290
     0
  0
SCALE
  5
54
102
{ACAD_REACTORS
330
47
102
}
330
47
100
AcDbScale
 70
     0
300
2:1
140
2.0
141
1.0
290
     0
  0
SCALE
  5
55
102
{ACAD_REACTORS
330
47
102
}
330
47
100
AcDbScale
 70
     0
300
4:1
140
4.0
141
1.0
290
     0
  0
SCALE
  5
56
102
{ACAD_REACTORS
330
47
102
}
330
47
100
AcDbScale
 70
     0
300
8:1
140
8.0
141
1.0
290
     0
  0
SCALE
  5
57
102
{ACAD_REACTORS
330
47
102
}
330
47
100
AcDbScale
 70
     0
300
10:1
140
10.0
141
1.0
290
     0
  0
SCALE
  5
58
102
{ACAD_REACTORS
330
47
102
}
330
47
100
AcDbScale
 70
     0
300
100:1
140
100.0
141
1.0
290
     0
  0
SCALE
  5
59
102
{ACAD_REACTORS
330
47
102
}
330
47
100
AcDbScale
 70
     0
300
1/128" = 1'-0"
140
0.0078125
141
12.0
290
     0
  0
SCALE
  5
5A
102
{ACAD_REACTORS
330
47
102
}
330
47
100
AcDbScale
 70
     0
300
1/64" = 1'-0"
140
0.015625
141
12.0
290
     0
  0
SCALE
  5
5B
102
{ACAD_REACTORS
330
47
102
}
330
47
100
AcDbScale
 70
     0
300
1/32" = 1'-0"
140
0.03125
141
12.0
290
     0
  0
SCALE
  5
5C
102
{ACAD_REACTORS
330
47
102
}
330
47
100
AcDbScale
 70
     0
300
1/16" = 1'-0"
140
0.0625
141
12.0
290
     0
  0
SCALE
  5
5D
102
{ACAD_REACTORS
330
47
102
}
330
47
100
AcDbScale
 70
     0
300
3/32" = 1'-0"
140
0.09375
141
12.0
290
     0
  0
SCALE
  5
5E
102
{ACAD_REACTORS
330
47
102
}
330
47
100
AcDbScale
 70
     0
300
1/8" = 1'-0"
140
0.125
141
12.0
290
     0
  0
SCALE
  5
5F
102
{ACAD_REACTORS
330
47
102
}
330
47
100
AcDbScale
 70
     0
300
3/16" = 1'-0"
140
0.1875
141
12.0
290
     0
  0
SCALE
  5
60
102
{ACAD_REACTORS
330
47
102
}
330
47
100
AcDbScale
 70
     0
300
1/4" = 1'-0"
140
0.25
141
12.0
290
     0
  0
SCALE
  5
61
102
{ACAD_REACTORS
330
47
102
}
330
47
100
AcDbScale
 70
     0
300
3/8" = 1'-0"
140
0.375
141
12.0
290
     0
  0
SCALE
  5
62
102
{ACAD_REACTORS
330
47
102
}
330
47
100
AcDbScale
 70
     0
300
1/2" = 1'-0"
140
0.5
141
12.0
290
     0
  0
SCALE
  5
63
102
{ACAD_REACTORS
330
47
102
}
330
47
100
AcDbScale
 70
     0
300
3/4" = 1'-0"
140
0.75
141
12.0
290
     0
  0
SCALE
  5
64
102
{ACAD_REACTORS
330
47
102
}
330
47
100
AcDbScale
 70
     0
300
1" = 1'-0"
140
1.0
141
12.0
290
     0
  0
SCALE
  5
65
102
{ACAD_REACTORS
330
47
102
}
330
47
100
AcDbScale
 70
     0
300
1-1/2" = 1'-0"
140
1.5
141
12.0
290
     0
  0
SCALE
  5
66
102
{ACAD_REACTORS
330
47
102
}
330
47
100
AcDbScale
 70
     0
300
3" = 1'-0"
140
3.0
141
12.0
290
     0
  0
SCALE
  5
67
102
{ACAD_REACTORS
330
47
102
}
330
47
100
AcDbScale
 70
     0
300
6" = 1'-0"
140
6.0
141
12.0
290
     0
  0
SCALE
  5
68
102
{ACAD_REACTORS
330
47
102
}
330
47
100
AcDbScale
 70
     0
300
1'-0" = 1'-0"
140
12.0
141
12.0
290
     0
  0
ENDSEC
  0
EOF
