  0
SECTION
  2
HEADER
  9
$ACADVER
  1
AC1015
  9
$ACADMAINTVER
 70
     6
  9
$DWGCODEPAGE
  3
ANSI_1252
  9
$INSBASE
 10
0.0
 20
0.0
 30
0.0
  9
$EXTMIN
 10
0.0
 20
0.0
 30
0.0
  9
$EXTMAX
 10
174.7058823529
 20
123.5294117647
 30
0.0
  9
$LIMMIN
 10
0.0
 20
0.0
  9
$LIMMAX
 10
174.7058823529
 20
123.5294117647
  9
$ORTHOMODE
 70
     0
  9
$REGENMODE
 70
     1
  9
$FILLMODE
 70
     1
  9
$QTEXTMODE
 70
     0
  9
$MIRRTEXT
 70
     1
  9
$LTSCALE
 40
0.5882352941
  9
$ATTMODE
 70
     1
  9
$TEXTSIZE
 40
2.2826797386
  9
$TRACEWID
 40
1.0
  9
$TEXTSTYLE
  7
Standard
  9
$CLAYER
  8
0
  9
$CELTYPE
  6
ByLayer
  9
$CECOLOR
 62
   256
  9
$CELTSCALE
 40
1.0
  9
$DISPSILH
 70
     0
  9
$DIMSCALE
 40
1.0
  9
$DIMASZ
 40
1.9423529412
  9
$DIMEXO
 40
0.5882352941
  9
$DIMDLI
 40
3.75
  9
$DIMRND
 40
0.0
  9
$DIMDLE
 40
0.0
  9
$DIMEXE
 40
0.5882352941
  9
$DIMTP
 40
0.0
  9
$DIMTM
 40
0.0
  9
$DIMTXT
 40
2.2826797386
  9
$DIMCEN
 40
2.5
  9
$DIMTSZ
 40
0.0
  9
$DIMTOL
 70
     0
  9
$DIMLIM
 70
     0
  9
$DIMTIH
 70
     1
  9
$DIMTOH
 70
     1
  9
$DIMSE1
 70
     0
  9
$DIMSE2
 70
     0
  9
$DIMTAD
 70
     1
  9
$DIMZIN
 70
     0
  9
$DIMBLK
  1

  9
$DIMASO
 70
     1
  9
$DIMSHO
 70
     1
  9
$DIMPOST
  1

  9
$DIMAPOST
  1

  9
$DIMALT
 70
     0
  9
$DIMALTD
 70
     3
  9
$DIMALTF
 40
0.0393700787
  9
$DIMLFAC
 40
1.0
  9
$DIMTOFL
 70
     1
  9
$DIMTVP
 40
0.0
  9
$DIMTIX
 70
     0
  9
$DIMSOXD
 70
     0
  9
$DIMSAH
 70
     0
  9
$DIMBLK1
  1

  9
$DIMBLK2
  1

  9
$DIMSTYLE
  2
ISO-25
  9
$DIMCLRD
 70
     0
  9
$DIMCLRE
 70
     0
  9
$DIMCLRT
 70
     0
  9
$DIMTFAC
 40
1.0
  9
$DIMGAP
 40
0.8964705882
  9
$DIMJUST
 70
     0
  9
$DIMSD1
 70
     0
  9
$DIMSD2
 70
     0
  9
$DIMTOLJ
 70
     0
  9
$DIMTZIN
 70
     0
  9
$DIMALTZ
 70
     0
  9
$DIMALTTZ
 70
     0
  9
$DIMUPT
 70
     0
  9
$DIMDEC
 70
     2
  9
$DIMTDEC
 70
     2
  9
$DIMALTU
 70
     2
  9
$DIMALTTD
 70
     3
  9
$DIMTXSTY
  7
Standard
  9
$DIMAUNIT
 70
     0
  9
$DIMADEC
 70
     2
  9
$DIMALTRND
 40
0.0
  9
$DIMAZIN
 70
     0
  9
$DIMDSEP
 70
    44
  9
$DIMATFIT
 70
     3
  9
$DIMFRAC
 70
     0
  9
$DIMLDRBLK
  1

  9
$DIMLUNIT
 70
     2
  9
$DIMLWD
 70
    -2
  9
$DIMLWE
 70
    -2
  9
$DIMTMOVE
 70
     0
  9
$LUNITS
 70
     2
  9
$LUPREC
 70
     2
  9
$SKETCHINC
 40
1.0
  9
$FILLETRAD
 40
10.0
  9
$AUNITS
 70
     0
  9
$AUPREC
 70
     2
  9
$MENU
  1
.
  9
$ELEVATION
 40
0.0
  9
$PELEVATION
 40
0.0
  9
$THICKNESS
 40
0.0
  9
$LIMCHECK
 70
     0
  9
$CHAMFERA
 40
0.0
  9
$CHAMFERB
 40
0.0
  9
$CHAMFERC
 40
0.0
  9
$CHAMFERD
 40
0.0
  9
$SKPOLY
 70
     0
  9
$TDCREATE
 40
2458608.454289757
  9
$TDUCREATE
 40
2458608.22512309
  9
$TDUPDATE
 40
2458608.454290451
  9
$TDUUPDATE
 40
2458608.225123785
  9
$TDINDWG
 40
0.0000000116
  9
$TDUSRTIMER
 40
0.0000000116
  9
$USRTIMER
 70
     1
  9
$ANGBASE
 50
0.0
  9
$ANGDIR
 70
     0
  9
$PDMODE
 70
     0
  9
$PDSIZE
 40
-1.0
  9
$PLINEWID
 40
0.0
  9
$SPLFRAME
 70
     0
  9
$SPLINETYPE
 70
     6
  9
$SPLINESEGS
 70
     8
  9
$HANDSEED
  5
12F
  9
$SURFTAB1
 70
     6
  9
$SURFTAB2
 70
     6
  9
$SURFTYPE
 70
     6
  9
$SURFU
 70
     6
  9
$SURFV
 70
     6
  9
$UCSBASE
  2

  9
$UCSNAME
  2

  9
$UCSORG
 10
0.0
 20
0.0
 30
0.0
  9
$UCSXDIR
 10
1.0
 20
0.0
 30
0.0
  9
$UCSYDIR
 10
0.0
 20
1.0
 30
0.0
  9
$UCSORTHOREF
  2

  9
$UCSORTHOVIEW
 70
     0
  9
$UCSORGTOP
 10
0.0
 20
0.0
 30
0.0
  9
$UCSORGBOTTOM
 10
0.0
 20
0.0
 30
0.0
  9
$UCSORGLEFT
 10
0.0
 20
0.0
 30
0.0
  9
$UCSORGRIGHT
 10
0.0
 20
0.0
 30
0.0
  9
$UCSORGFRONT
 10
0.0
 20
0.0
 30
0.0
  9
$UCSORGBACK
 10
0.0
 20
0.0
 30
0.0
  9
$PUCSBASE
  2

  9
$PUCSNAME
  2

  9
$PUCSORG
 10
0.0
 20
0.0
 30
0.0
  9
$PUCSXDIR
 10
1.0
 20
0.0
 30
0.0
  9
$PUCSYDIR
 10
0.0
 20
1.0
 30
0.0
  9
$PUCSORTHOREF
  2

  9
$PUCSORTHOVIEW
 70
     0
  9
$PUCSORGTOP
 10
0.0
 20
0.0
 30
0.0
  9
$PUCSORGBOTTOM
 10
0.0
 20
0.0
 30
0.0
  9
$PUCSORGLEFT
 10
0.0
 20
0.0
 30
0.0
  9
$PUCSORGRIGHT
 10
0.0
 20
0.0
 30
0.0
  9
$PUCSORGFRONT
 10
0.0
 20
0.0
 30
0.0
  9
$PUCSORGBACK
 10
0.0
 20
0.0
 30
0.0
  9
$USERI1
 70
     0
  9
$USERI2
 70
     0
  9
$USERI3
 70
     0
  9
$USERI4
 70
     0
  9
$USERI5
 70
     0
  9
$USERR1
 40
0.0
  9
$USERR2
 40
0.0
  9
$USERR3
 40
0.0
  9
$USERR4
 40
0.0
  9
$USERR5
 40
0.0
  9
$WORLDVIEW
 70
     1
  9
$SHADEDGE
 70
     3
  9
$SHADEDIF
 70
    70
  9
$TILEMODE
 70
     1
  9
$MAXACTVP
 70
    64
  9
$PINSBASE
 10
0.0
 20
0.0
 30
0.0
  9
$PLIMCHECK
 70
     0
  9
$PEXTMIN
 10
1.0000000000E+20
 20
1.0000000000E+20
 30
1.0000000000E+20
  9
$PEXTMAX
 10
-1.0000000000E+20
 20
-1.0000000000E+20
 30
-1.0000000000E+20
  9
$PLIMMIN
 10
0.0
 20
0.0
  9
$PLIMMAX
 10
420.0
 20
297.0
  9
$UNITMODE
 70
     0
  9
$VISRETAIN
 70
     1
  9
$PLINEGEN
 70
     0
  9
$PSLTSCALE
 70
     1
  9
$TREEDEPTH
 70
  3020
  9
$CMLSTYLE
  2
Standard
  9
$CMLJUST
 70
     0
  9
$CMLSCALE
 40
20.0
  9
$PROXYGRAPHICS
 70
     1
  9
$MEASUREMENT
 70
     1
  9
$CELWEIGHT
370
    -1
  9
$ENDCAPS
280
     0
  9
$JOINSTYLE
280
     0
  9
$LWDISPLAY
290
     1
  9
$INSUNITS
 70
     4
  9
$HYPERLINKBASE
  1

  9
$STYLESHEET
  1

  9
$XEDIT
290
     1
  9
$CEPSNTYPE
380
     0
  9
$PSTYLEMODE
290
     1
  9
$FINGERPRINTGUID
  2
{67930DF7-6B27-4268-B387-A1BF3D2FDF20}
  9
$VERSIONGUID
  2
{FAEB1C32-E019-11D5-929B-00C0DF256EC4}
  9
$EXTNAMES
290
     1
  9
$PSVPSCALE
 40
0.0
  9
$OLESTARTUP
290
     0
  0
ENDSEC
  0
SECTION
  2
CLASSES
  0
CLASS
  1
ACDBDICTIONARYWDFLT
  2
AcDbDictionaryWithDefault
  3
ObjectDBX Classes
 90
        0
280
     0
281
     0
  0
CLASS
  1
VISUALSTYLE
  2
AcDbVisualStyle
  3
ObjectDBX Classes
 90
     4095
280
     0
281
     0
  0
CLASS
  1
MATERIAL
  2
AcDbMaterial
  3
ObjectDBX Classes
 90
     1153
280
     0
281
     0
  0
CLASS
  1
SCALE
  2
AcDbScale
  3
ObjectDBX Classes
 90
     1153
280
     0
281
     0
  0
CLASS
  1
SUN
  2
AcDbSun
  3
SCENEOE
 90
     1153
280
     0
281
     0
  0
CLASS
  1
ACDBPLACEHOLDER
  2
AcDbPlaceHolder
  3
ObjectDBX Classes
 90
        0
280
     0
281
     0
  0
CLASS
  1
LAYOUT
  2
AcDbLayout
  3
ObjectDBX Classes
 90
        0
280
     0
281
     0
  0
ENDSEC
  0
SECTION
  2
TABLES
  0
TABLE
  2
VPORT
  5
8
330
0
100
AcDbSymbolTable
 70
     1
  0
VPORT
  5
29
330
8
100
AcDbSymbolTableRecord
100
AcDbViewportTableRecord
  2
*Active
 70
     0
 10
0.0
 20
0.0
 11
1.0
 21
1.0
 12
87.3529411765
 22
61.7647058824
 13
0.0
 23
0.0
 14
10.0
 24
10.0
 15
10.0
 25
10.0
 16
0.0
 26
0.0
 36
1.0
 17
0.0
 27
0.0
 37
0.0
 40
123.5294117647
 41
1.4142857143
 42
50.0
 43
0.0
 44
0.0
 50
0.0
 51
0.0
 71
     0
 72
  2000
 73
     1
 74
     3
 75
     0
 76
     0
 77
     0
 78
     0
281
     0
 65
     1
110
0.0
120
0.0
130
0.0
111
1.0
121
0.0
131
0.0
112
0.0
122
1.0
132
0.0
 79
     0
146
0.0
  0
ENDTAB
  0
TABLE
  2
LTYPE
  5
5
330
0
100
AcDbSymbolTable
 70
     6
  0
LTYPE
  5
14
330
5
100
AcDbSymbolTableRecord
100
AcDbLinetypeTableRecord
  2
ByBlock
 70
     0
  3

 72
    65
 73
     0
 40
0.0
  0
LTYPE
  5
15
330
5
100
AcDbSymbolTableRecord
100
AcDbLinetypeTableRecord
  2
ByLayer
 70
     0
  3

 72
    65
 73
     0
 40
0.0
  0
LTYPE
  5
16
330
5
100
AcDbSymbolTableRecord
100
AcDbLinetypeTableRecord
  2
Continuous
 70
     0
  3
Solid line
 72
    65
 73
     0
 40
0.0
  0
LTYPE
  5
6A
330
5
100
AcDbSymbolTableRecord
100
AcDbLinetypeTableRecord
  2
HIDDEN
 70
     0
  3
Hidden __ __ __ __ __ __ __ __ __ __ __ __ __ __
 72
    65
 73
     2
 40
1.905
 49
1.27
 74
     0
 49
-0.635
 74
     0
  0
LTYPE
  5
6B
330
5
100
AcDbSymbolTableRecord
100
AcDbLinetypeTableRecord
  2
PHANTOM
 70
     0
  3
Phantom ______  __  __  ______  __  __  ______
 72
    65
 73
     6
 40
12.7
 49
6.35
 74
     0
 49
-1.27
 74
     0
 49
1.27
 74
     0
 49
-1.27
 74
     0
 49
1.27
 74
     0
 49
-1.27
 74
     0
  0
LTYPE
  5
6C
330
5
100
AcDbSymbolTableRecord
100
AcDbLinetypeTableRecord
  2
CENTER
 70
     0
  3
Center ____ _ ____ _ ____ _ ____ _ ____ _ ____
 72
    65
 73
     4
 40
10.16
 49
6.35
 74
     0
 49
-1.27
 74
     0
 49
1.27
 74
     0
 49
-1.27
 74
     0
  0
LTYPE
  5
6D
330
5
100
AcDbSymbolTableRecord
100
AcDbLinetypeTableRecord
  2
CENTERX2
 70
     0
  3
Center (2x) ________  __  ________  __  _____
 72
    65
 73
     4
 40
20.32
 49
12.7
 74
     0
 49
-2.54
 74
     0
 49
2.54
 74
     0
 49
-2.54
 74
     0
  0
LTYPE
  5
6E
330
5
100
AcDbSymbolTableRecord
100
AcDbLinetypeTableRecord
  2
DOT2
 70
     0
  3
Dot (.5x) ........................................
 72
    65
 73
     2
 40
0.635
 49
0.0
 74
     0
 49
-0.635
 74
     0
  0
ENDTAB
  0
TABLE
  2
LAYER
  5
2
330
0
100
AcDbSymbolTable
 70
     8
  0
LAYER
  5
10
330
2
100
AcDbSymbolTableRecord
100
AcDbLayerTableRecord
  2
0
 70
     0
 62
     7
  6
Continuous
370
    -3
390
F
  0
LAYER
  5
6F
330
2
100
AcDbSymbolTableRecord
100
AcDbLayerTableRecord
  2
FORMAT
 70
     0
 62
     7
  6
Continuous
370
    -3
390
F
  0
LAYER
  5
70
330
2
100
AcDbSymbolTableRecord
100
AcDbLayerTableRecord
  2
SLD-0
 70
     0
 62
     2
  6
Continuous
370
    -3
390
F
  0
LAYER
  5
71
330
2
100
AcDbSymbolTableRecord
100
AcDbLayerTableRecord
  2
DIM
 70
     0
 62
   179
  6
Continuous
370
    -3
390
F
  0
LAYER
  5
72
330
2
100
AcDbSymbolTableRecord
100
AcDbLayerTableRecord
  2
SLD-DEFPOINTS
 70
     0
 62
   179
  6
Continuous
370
    -3
390
F
  0
LAYER
  5
73
330
2
100
AcDbSymbolTableRecord
100
AcDbLayerTableRecord
  2
HAT
 70
     0
 62
   135
  6
Continuous
370
    -3
390
F
  0
LAYER
  5
74
330
2
100
AcDbSymbolTableRecord
100
AcDbLayerTableRecord
  2
JOB
 70
     0
 62
   201
  6
Continuous
370
    -3
390
F
  0
LAYER
  5
75
330
2
100
AcDbSymbolTableRecord
100
AcDbLayerTableRecord
  2
INSPECTION_REPORT
 70
     0
 62
   255
  6
Continuous
370
    -3
390
F
  0
ENDTAB
  0
TABLE
  2
STYLE
  5
3
330
0
100
AcDbSymbolTable
 70
     4
  0
STYLE
  5
11
330
3
100
AcDbSymbolTableRecord
100
AcDbTextStyleTableRecord
  2
Standard
 70
     0
 40
0.0
 41
1.0
 50
0.0
 71
     0
 42
2.2826797386
  3
txt
  4

  0
STYLE
  5
92
330
3
100
AcDbSymbolTableRecord
100
AcDbTextStyleTableRecord
  2
SLDTEXTSTYLE0
 70
     0
 40
0.0
 41
0.7
 50
0.0
 71
     0
 42
2.2826797386
  3
TXT
  4

  0
STYLE
  5
94
330
3
100
AcDbSymbolTableRecord
100
AcDbTextStyleTableRecord
  2
SLDTEXTSTYLE1
 70
     0
 40
0.0
 41
0.75
 50
0.0
 71
     0
 42
2.2826797386
  3
TXT
  4

  0
STYLE
  5
A7
330
3
100
AcDbSymbolTableRecord
100
AcDbTextStyleTableRecord
  2
SLDTEXTSTYLE2
 70
     0
 40
0.0
 41
0.6875
 50
0.0
 71
     0
 42
2.2826797386
  3
TXT
  4

  0
ENDTAB
  0
TABLE
  2
VIEW
  5
6
330
0
100
AcDbSymbolTable
 70
     0
  0
ENDTAB
  0
TABLE
  2
UCS
  5
7
330
0
100
AcDbSymbolTable
 70
     0
  0
ENDTAB
  0
TABLE
  2
APPID
  5
9
330
0
100
AcDbSymbolTable
 70
     1
  0
APPID
  5
12
330
9
100
AcDbSymbolTableRecord
100
AcDbRegAppTableRecord
  2
ACAD
 70
     0
  0
ENDTAB
  0
TABLE
  2
DIMSTYLE
  5
A
330
0
100
AcDbSymbolTable
 70
     4
100
AcDbDimStyleTable
  0
DIMSTYLE
105
27
330
A
100
AcDbSymbolTableRecord
100
AcDbDimStyleTableRecord
  2
ISO-25
 70
     0
 41
2.5
 42
0.625
 43
3.75
 44
1.25
 73
     0
 74
     0
 77
     1
 78
     8
140
2.5
141
2.5
143
0.0393700787
147
0.625
171
     3
172
     1
178
     0
271
     2
272
     2
274
     3
278
    44
283
     0
284
     8
340
11
  0
DIMSTYLE
105
F6
102
{ACAD_REACTORS
330
F5
102
}
330
A
100
AcDbSymbolTableRecord
100
AcDbDimStyleTableRecord
  2
SLDDIMSTYLE0
 70
     0
 41
1.9423529412
 44
0.0
 45
0.000000001
 73
     0
 74
     0
 77
     1
 78
    12
 79
     3
140
1.7120098039
147
0.428002451
172
     1
173
     1
178
     0
271
     0
272
     0
276
     2
284
    12
289
     0
340
92
  0
DIMSTYLE
105
104
102
{ACAD_REACTORS
330
103
330
10F
102
}
330
A
100
AcDbSymbolTableRecord
100
AcDbDimStyleTableRecord
  2
SLDDIMSTYLE1
 70
     0
 41
1.9423529412
 44
0.0
 45
0.000000001
 73
     0
 74
     0
 77
     1
 78
    12
 79
     3
140
1.7120098039
147
0.428002451
173
     1
178
     0
271
     2
272
     2
276
     2
284
    12
340
92
  0
DIMSTYLE
105
119
102
{ACAD_REACTORS
330
118
330
123
102
}
330
A
100
AcDbSymbolTableRecord
100
AcDbDimStyleTableRecord
  2
SLDDIMSTYLE2
 70
     0
 41
1.9423529412
 44
0.0
 45
0.000000001
 73
     0
 74
     0
 77
     1
 78
     4
 79
     1
140
1.7120098039
147
0.428002451
173
     1
178
     0
271
     2
272
     2
276
     2
284
    12
340
92
  0
ENDTAB
  0
TABLE
  2
BLOCK_RECORD
  5
1
330
0
100
AcDbSymbolTable
 70
     6
  0
BLOCK_RECORD
  5
1F
330
1
100
AcDbSymbolTableRecord
100
AcDbBlockTableRecord
  2
*Model_Space
340
22
  0
BLOCK_RECORD
  5
1B
330
1
100
AcDbSymbolTableRecord
100
AcDbBlockTableRecord
  2
*Paper_Space
340
1E
  0
BLOCK_RECORD
  5
23
330
1
100
AcDbSymbolTableRecord
100
AcDbBlockTableRecord
  2
*Paper_Space0
340
26
  0
BLOCK_RECORD
  5
F7
330
1
100
AcDbSymbolTableRecord
100
AcDbBlockTableRecord
  2
_D
340
0
  0
BLOCK_RECORD
  5
105
330
1
100
AcDbSymbolTableRecord
100
AcDbBlockTableRecord
  2
_D_1
340
0
  0
BLOCK_RECORD
  5
110
330
1
100
AcDbSymbolTableRecord
100
AcDbBlockTableRecord
  2
_D_2
340
0
  0
BLOCK_RECORD
  5
11A
330
1
100
AcDbSymbolTableRecord
100
AcDbBlockTableRecord
  2
_D_3
340
0
  0
BLOCK_RECORD
  5
124
330
1
100
AcDbSymbolTableRecord
100
AcDbBlockTableRecord
  2
_D_4
340
0
  0
ENDTAB
  0
ENDSEC
  0
SECTION
  2
BLOCKS
  0
BLOCK
  5
20
330
1F
100
AcDbEntity
  8
0
100
AcDbBlockBegin
  2
*Model_Space
 70
     0
 10
0.0
 20
0.0
 30
0.0
  3
*Model_Space
  1
*Model_Space
  0
ENDBLK
  5
21
330
1F
100
AcDbEntity
  8
0
100
AcDbBlockEnd
  0
BLOCK
  5
1C
330
1B
100
AcDbEntity
 67
     1
  8
0
100
AcDbBlockBegin
  2
*Paper_Space
 70
     0
 10
0.0
 20
0.0
 30
0.0
  3
*Paper_Space
  1
*Paper_Space
  0
ENDBLK
  5
1D
330
1B
100
AcDbEntity
 67
     1
  8
0
100
AcDbBlockEnd
  0
BLOCK
  5
24
330
23
100
AcDbEntity
  8
0
100
AcDbBlockBegin
  2
*Paper_Space0
 70
     0
 10
0.0
 20
0.0
 30
0.0
  3
*Paper_Space0
  1
*Paper_Space0
  0
ENDBLK
  5
25
330
23
100
AcDbEntity
  8
0
100
AcDbBlockEnd
  0
BLOCK
  5
F8
330
F7
100
AcDbEntity
  8
0
100
AcDbBlockBegin
  2
_D
 70
     0
 10
0.0
 20
0.0
 30
0.0
  3
_D
  1
_D
  0
SOLID
  5
FA
330
F7
100
AcDbEntity
  8
DIM
100
AcDbTrace
 10
158.0277232419
 20
69.0290311622
 30
0.0
 11
158.3265467713
 21
70.9713841034
 31
0.0
 12
157.7288997125
 22
70.9713841034
 32
0.0
 13
157.7288997125
 23
70.9713841034
 33
0.0
  0
SOLID
  5
FB
330
F7
100
AcDbEntity
  8
DIM
100
AcDbTrace
 10
158.0277232419
 20
58.9569227782
 30
0.0
 11
157.7288997125
 21
57.014569837
 31
0.0
 12
158.3265467713
 22
57.014569837
 32
0.0
 13
158.3265467713
 23
57.014569837
 33
0.0
  0
LINE
  5
FC
330
F7
100
AcDbEntity
  8
DIM
100
AcDbLine
 10
154.1779356757
 20
69.0290311622
 30
0.0
 11
158.6159585361
 21
69.0290311622
 31
0.0
  0
LINE
  5
FD
330
F7
100
AcDbEntity
  8
DIM
100
AcDbLine
 10
154.1779356757
 20
58.9569227782
 30
0.0
 11
158.6159585361
 21
58.9569227782
 31
0.0
  0
LINE
  5
FE
330
F7
100
AcDbEntity
  8
DIM
100
AcDbLine
 10
158.0277232419
 20
69.0290311622
 30
0.0
 11
158.0277232419
 21
72.7643252798
 31
0.0
  0
LINE
  5
FF
330
F7
100
AcDbEntity
  8
DIM
100
AcDbLine
 10
158.0277232419
 20
69.0290311622
 30
0.0
 11
158.0277232419
 21
58.9569227782
 31
0.0
  0
LINE
  5
100
330
F7
100
AcDbEntity
  8
DIM
100
AcDbLine
 10
158.0277232419
 20
58.9569227782
 30
0.0
 11
158.0277232419
 21
55.2216286606
 31
0.0
  0
MTEXT
  5
101
330
F7
100
AcDbEntity
  8
DIM
100
AcDbMText
 10
155.8208264966
 20
61.5120686732
 30
0.0
 40
1.7120098039
 41
0.0
 71
     1
 72
     1
  1
%%c
  7
SLDTEXTSTYLE0
 11
-7.044195017643634E-15
 21
1.0
 31
0.0
 73
     1
 44
1.0
  0
MTEXT
  5
102
330
F7
100
AcDbEntity
  8
DIM
100
AcDbMText
 10
155.8208264966
 20
64.1595015553
 30
0.0
 40
1.7120098039
 41
0.0
 71
     1
 72
     1
  1
10
  7
SLDTEXTSTYLE0
 11
-7.044195017643634E-15
 21
1.0
 31
0.0
 73
     1
 44
1.0
  0
ENDBLK
  5
F9
330
F7
100
AcDbEntity
  8
0
100
AcDbBlockEnd
  0
BLOCK
  5
106
330
105
100
AcDbEntity
  8
0
100
AcDbBlockBegin
  2
_D_1
 70
     0
 10
0.0
 20
0.0
 30
0.0
  3
_D_1
  1
_D_1
  0
SOLID
  5
108
330
105
100
AcDbEntity
  8
DIM
100
AcDbTrace
 10
161.1326106244
 20
73.9929769702
 30
0.0
 11
160.8337870949
 21
72.050624029
 31
0.0
 12
161.4314341538
 22
72.050624029
 32
0.0
 13
161.4314341538
 23
72.050624029
 33
0.0
  0
SOLID
  5
109
330
105
100
AcDbEntity
  8
DIM
100
AcDbTrace
 10
161.1326106244
 20
53.9929769702
 30
0.0
 11
161.4314341538
 21
55.9353299114
 31
0.0
 12
160.8337870949
 22
55.9353299114
 32
0.0
 13
160.8337870949
 23
55.9353299114
 33
0.0
  0
LINE
  5
10A
330
105
100
AcDbEntity
  8
DIM
100
AcDbLine
 10
109.0070621294
 20
73.9929769702
 30
0.0
 11
161.7208459185
 21
73.9929769702
 31
0.0
  0
LINE
  5
10B
330
105
100
AcDbEntity
  8
DIM
100
AcDbLine
 10
109.0070621294
 20
53.9929769702
 30
0.0
 11
161.7208459185
 21
53.9929769702
 31
0.0
  0
LINE
  5
10C
330
105
100
AcDbEntity
  8
DIM
100
AcDbLine
 10
161.1326106244
 20
73.9929769702
 30
0.0
 11
161.1326106244
 21
53.9929769702
 31
0.0
  0
MTEXT
  5
10D
330
105
100
AcDbEntity
  8
DIM
100
AcDbMText
 10
158.925713879
 20
61.5120686732
 30
0.0
 40
1.7120098039
 41
0.0
 71
     1
 72
     1
  1
%%c
  7
SLDTEXTSTYLE0
 11
-7.044195017643634E-15
 21
1.0
 31
0.0
 73
     1
 44
1.0
  0
MTEXT
  5
10E
330
105
100
AcDbEntity
  8
DIM
100
AcDbMText
 10
158.925713879
 20
64.1595015553
 30
0.0
 40
1.7120098039
 41
0.0
 71
     1
 72
     1
  1
20
  7
SLDTEXTSTYLE0
 11
-7.044195017643634E-15
 21
1.0
 31
0.0
 73
     1
 44
1.0
  0
ENDBLK
  5
107
330
105
100
AcDbEntity
  8
0
100
AcDbBlockEnd
  0
BLOCK
  5
111
330
110
100
AcDbEntity
  8
0
100
AcDbBlockBegin
  2
_D_2
 70
     0
 10
0.0
 20
0.0
 30
0.0
  3
_D_2
  1
_D_2
  0
SOLID
  5
113
330
110
100
AcDbEntity
  8
DIM
100
AcDbTrace
 10
153.9498567036
 20
34.6618279609
 30
0.0
 11
152.0075037624
 21
34.9606514903
 31
0.0
 12
152.0075037624
 22
34.3630044315
 32
0.0
 13
152.0075037624
 23
34.3630044315
 33
0.0
  0
SOLID
  5
114
330
110
100
AcDbEntity
  8
DIM
100
AcDbTrace
 10
103.9498567036
 20
34.6618279609
 30
0.0
 11
105.8922096448
 21
34.3630044315
 31
0.0
 12
105.8922096448
 22
34.9606514903
 32
0.0
 13
105.8922096448
 23
34.9606514903
 33
0.0
  0
LINE
  5
115
330
110
100
AcDbEntity
  8
DIM
100
AcDbLine
 10
153.9498567036
 20
63.4047416758
 30
0.0
 11
153.9498567036
 21
34.0735926668
 31
0.0
  0
LINE
  5
116
330
110
100
AcDbEntity
  8
DIM
100
AcDbLine
 10
153.9498567036
 20
34.6618279609
 30
0.0
 11
103.9498567036
 21
34.6618279609
 31
0.0
  0
MTEXT
  5
117
330
110
100
AcDbEntity
  8
DIM
100
AcDbMText
 10
127.7926648477
 20
36.8687247063
 30
0.0
 40
1.7120098039
 41
0.0
 71
     1
 72
     1
  1
50
  7
SLDTEXTSTYLE0
 73
     1
 44
1.0
  0
ENDBLK
  5
112
330
110
100
AcDbEntity
  8
0
100
AcDbBlockEnd
  0
BLOCK
  5
11B
330
11A
100
AcDbEntity
  8
0
100
AcDbBlockBegin
  2
_D_3
 70
     0
 10
0.0
 20
0.0
 30
0.0
  3
_D_3
  1
_D_3
  0
SOLID
  5
11D
330
11A
100
AcDbEntity
  8
DIM
100
AcDbTrace
 10
153.9498567039
 20
29.8900357943
 30
0.0
 11
152.0075037628
 21
30.1888593237
 31
0.0
 12
152.0075037628
 22
29.5912122649
 32
0.0
 13
152.0075037628
 23
29.5912122649
 33
0.0
  0
SOLID
  5
11E
330
11A
100
AcDbEntity
  8
DIM
100
AcDbTrace
 10
16.4498567042
 20
29.890035793
 30
0.0
 11
18.3922096453
 21
29.5912122636
 31
0.0
 12
18.3922096453
 22
30.1888593224
 32
0.0
 13
18.3922096453
 23
30.1888593224
 33
0.0
  0
LINE
  5
11F
330
11A
100
AcDbEntity
  8
DIM
100
AcDbLine
 10
153.9498567036
 20
63.4047416758
 30
0.0
 11
153.949856704
 21
29.3018005002
 31
0.0
  0
LINE
  5
120
330
11A
100
AcDbEntity
  8
DIM
100
AcDbLine
 10
16.4498567039
 20
52.0195790886
 30
0.0
 11
16.4498567042
 21
29.3018004988
 31
0.0
  0
LINE
  5
121
330
11A
100
AcDbEntity
  8
DIM
100
AcDbLine
 10
153.9498567039
 20
29.8900357943
 30
0.0
 11
16.4498567042
 21
29.890035793
 31
0.0
  0
MTEXT
  5
122
330
11A
100
AcDbEntity
  8
DIM
100
AcDbMText
 10
82.0025197511
 20
32.096932539
 30
0.0
 40
1.7120098039
 41
0.0
 71
     1
 72
     1
  1
137.50
  7
SLDTEXTSTYLE0
 73
     1
 44
1.0
  0
ENDBLK
  5
11C
330
11A
100
AcDbEntity
  8
0
100
AcDbBlockEnd
  0
BLOCK
  5
125
330
124
100
AcDbEntity
  8
0
100
AcDbBlockBegin
  2
_D_4
 70
     0
 10
0.0
 20
0.0
 30
0.0
  3
_D_4
  1
_D_4
  0
SOLID
  5
127
330
124
100
AcDbEntity
  8
DIM
100
AcDbTrace
 10
10.5660946357
 20
95.7429769702
 30
0.0
 11
10.2672711063
 21
93.800624029
 31
0.0
 12
10.8649181651
 22
93.800624029
 32
0.0
 13
10.8649181651
 23
93.800624029
 33
0.0
  0
SOLID
  5
128
330
124
100
AcDbEntity
  8
DIM
100
AcDbTrace
 10
10.5660946357
 20
32.2429769702
 30
0.0
 11
10.8649181651
 21
34.1853299114
 31
0.0
 12
10.2672711063
 22
34.1853299114
 32
0.0
 13
10.2672711063
 23
34.1853299114
 33
0.0
  0
LINE
  5
129
330
124
100
AcDbEntity
  8
DIM
100
AcDbLine
 10
88.4616214095
 20
95.7429769702
 30
0.0
 11
9.9778593416
 21
95.7429769702
 31
0.0
  0
LINE
  5
12A
330
124
100
AcDbEntity
  8
DIM
100
AcDbLine
 10
88.4616214095
 20
32.2429769702
 30
0.0
 11
9.9778593416
 21
32.2429769702
 31
0.0
  0
LINE
  5
12B
330
124
100
AcDbEntity
  8
DIM
100
AcDbLine
 10
10.5660946357
 20
95.7429769702
 30
0.0
 11
10.5660946357
 21
32.2429769702
 31
0.0
  0
MTEXT
  5
12C
330
124
100
AcDbEntity
  8
DIM
100
AcDbMText
 10
8.3591978903
 20
60.0505195042
 30
0.0
 40
1.7120098039
 41
0.0
 71
     1
 72
     1
  1
%%c
  7
SLDTEXTSTYLE0
 11
-7.044195017643634E-15
 21
1.0
 31
0.0
 73
     1
 44
1.0
  0
MTEXT
  5
12D
330
124
100
AcDbEntity
  8
DIM
100
AcDbMText
 10
8.3591978903
 20
62.6979523863
 30
0.0
 40
1.7120098039
 41
0.0
 71
     1
 72
     1
  1
63.50
  7
SLDTEXTSTYLE0
 11
-7.044195017643634E-15
 21
1.0
 31
0.0
 73
     1
 44
1.0
  0
ENDBLK
  5
126
330
124
100
AcDbEntity
  8
0
100
AcDbBlockEnd
  0
ENDSEC
  0
SECTION
  2
ENTITIES
  0
LINE
  5
76
330
1F
100
AcDbEntity
  8
DIM
100
AcDbLine
 10
61.5908380524
 20
5.7594067393
 30
0.0
 11
61.5908380524
 21
2.8182302687
 31
0.0
  0
LINE
  5
77
330
1F
100
AcDbEntity
  8
DIM
100
AcDbLine
 10
149.6880009972
 20
5.7594067393
 30
0.0
 11
149.6880009972
 21
2.8182302687
 31
0.0
  0
LINE
  5
78
330
1F
100
AcDbEntity
  8
DIM
100
AcDbLine
 10
139.6774764303
 20
5.7594067393
 30
0.0
 11
139.6774764303
 21
2.8182302687
 31
0.0
  0
LINE
  5
79
330
1F
100
AcDbEntity
  8
DIM
100
AcDbLine
 10
164.0614262876
 20
2.8182302687
 30
0.0
 11
164.0614262876
 21
5.7594067393
 31
0.0
  0
LINE
  5
7A
330
1F
100
AcDbEntity
  8
DIM
100
AcDbLine
 10
66.1790733465
 20
5.7594067393
 30
0.0
 11
66.1790733465
 21
2.8182302687
 31
0.0
  0
LINE
  5
7B
330
1F
100
AcDbEntity
  8
DIM
100
AcDbLine
 10
77.4678688958
 20
5.7594067393
 30
0.0
 11
77.4678688958
 21
2.8182302687
 31
0.0
  0
LINE
  5
7C
330
1F
100
AcDbEntity
  8
DIM
100
AcDbLine
 10
171.7084851112
 20
2.8182302687
 30
0.0
 11
171.7084851112
 21
45.3182302687
 31
0.0
  0
LINE
  5
7D
330
1F
100
AcDbEntity
  8
DIM
100
AcDbLine
 10
87.7078534427
 20
5.3182302687
 30
0.0
 11
87.7078534427
 21
2.8182302687
 31
0.0
  0
LINE
  5
7E
330
1F
100
AcDbEntity
  8
DIM
100
AcDbLine
 10
168.7673086406
 20
117.5241126217
 30
0.0
 11
5.82613217
 21
117.5241126217
 31
0.0
  0
LINE
  5
7F
330
1F
100
AcDbEntity
  8
DIM
100
AcDbLine
 10
171.7084851112
 20
120.4652890923
 30
0.0
 11
2.8849556994
 21
120.4652890923
 31
0.0
  0
LINE
  5
80
330
1F
100
AcDbEntity
  8
DIM
100
AcDbLine
 10
5.82613217
 20
117.5241126217
 30
0.0
 11
5.82613217
 21
5.7594067393
 31
0.0
  0
LINE
  5
81
330
1F
100
AcDbEntity
  8
DIM
100
AcDbLine
 10
2.8849556994
 20
120.4652890923
 30
0.0
 11
2.8849556994
 21
2.8182302687
 31
0.0
  0
LINE
  5
82
330
1F
100
AcDbEntity
  8
DIM
100
AcDbLine
 10
5.82613217
 20
32.2299949746
 30
0.0
 11
2.8849556994
 21
32.2299949746
 31
0.0
  0
LINE
  5
83
330
1F
100
AcDbEntity
  8
DIM
100
AcDbLine
 10
2.8849556994
 20
61.6417596805
 30
0.0
 11
5.82613217
 21
61.6417596805
 31
0.0
  0
LINE
  5
84
330
1F
100
AcDbEntity
  8
DIM
100
AcDbLine
 10
2.8849556994
 20
2.8182302687
 30
0.0
 11
171.7084851112
 21
2.8182302687
 31
0.0
  0
LINE
  5
85
330
1F
100
AcDbEntity
  8
DIM
100
AcDbLine
 10
5.82613217
 20
5.7594067393
 30
0.0
 11
171.7084851112
 21
5.7594067393
 31
0.0
  0
LINE
  5
86
330
1F
100
AcDbEntity
  8
DIM
100
AcDbLine
 10
28.4731909935
 20
2.8182302687
 30
0.0
 11
28.4731909935
 21
5.7594067393
 31
0.0
  0
LINE
  5
87
330
1F
100
AcDbEntity
  8
DIM
100
AcDbLine
 10
57.8849556994
 20
5.7594067393
 30
0.0
 11
57.8849556994
 21
2.8182302687
 31
0.0
  0
LINE
  5
88
330
1F
100
AcDbEntity
  8
DIM
100
AcDbLine
 10
5.82613217
 20
91.0535243864
 30
0.0
 11
2.8849556994
 21
91.0535243864
 31
0.0
  0
LINE
  5
89
330
1F
100
AcDbEntity
  8
DIM
100
AcDbLine
 10
28.4731909935
 20
117.5241126217
 30
0.0
 11
28.4731909935
 21
120.4652890923
 31
0.0
  0
LINE
  5
8A
330
1F
100
AcDbEntity
  8
DIM
100
AcDbLine
 10
57.8849556994
 20
120.4652890923
 30
0.0
 11
57.8849556994
 21
117.5241126217
 31
0.0
  0
LINE
  5
8B
330
1F
100
AcDbEntity
  8
DIM
100
AcDbLine
 10
87.2967204053
 20
120.4652890923
 30
0.0
 11
87.2967204053
 21
117.5241126217
 31
0.0
  0
LINE
  5
8C
330
1F
100
AcDbEntity
  8
DIM
100
AcDbLine
 10
168.7673086406
 20
5.7594067393
 30
0.0
 11
168.7673086406
 21
117.5241126217
 31
0.0
  0
LINE
  5
8D
330
1F
100
AcDbEntity
  8
DIM
100
AcDbLine
 10
171.7084851112
 20
45.3182302687
 30
0.0
 11
171.7084851112
 21
120.4652890923
 31
0.0
  0
LINE
  5
8E
330
1F
100
AcDbEntity
  8
DIM
100
AcDbLine
 10
171.7084851112
 20
61.6417596805
 30
0.0
 11
168.7673086406
 21
61.6417596805
 31
0.0
  0
LINE
  5
8F
330
1F
100
AcDbEntity
  8
DIM
100
AcDbLine
 10
116.7084851112
 20
120.4652890923
 30
0.0
 11
116.7084851112
 21
117.5241126217
 31
0.0
  0
LINE
  5
90
330
1F
100
AcDbEntity
  8
DIM
100
AcDbLine
 10
146.1202498171
 20
117.5241126217
 30
0.0
 11
146.1202498171
 21
120.4652890923
 31
0.0
  0
LINE
  5
91
330
1F
100
AcDbEntity
  8
DIM
100
AcDbLine
 10
168.7673086406
 20
91.0535243864
 30
0.0
 11
171.7084851112
 21
91.0535243864
 31
0.0
  0
MTEXT
  5
93
330
1F
100
AcDbEntity
  8
DIM
100
AcDbMText
 10
7.8942318703
 20
112.6681481257
 30
0.0
 40
2.4901960784
 41
0.0
 71
     1
 72
     1
  1
SK 40 MCA06 050 AD+B/2.5G 25000 SL
  7
SLDTEXTSTYLE0
 73
     1
 44
1.0
  0
MTEXT
  5
95
330
1F
100
AcDbEntity
  8
DIM
 62
     7
100
AcDbMText
 10
116.3133992039
 20
4.5893832508
 30
0.0
 40
0.8815294118
 41
0.0
 71
     1
 72
     1
  1
WEIGHT:
  7
SLDTEXTSTYLE1
 73
     1
 44
1.0
  0
MTEXT
  5
96
330
1F
100
AcDbEntity
  8
DIM
 62
     7
100
AcDbMText
 10
169.7629863264
 20
48.2003608872
 30
0.0
 40
1.0894607843
 41
0.0
 71
     1
 72
     1
  1
C
  7
SLDTEXTSTYLE1
 73
     1
 44
1.0
  0
MTEXT
  5
97
330
1F
100
AcDbEntity
  8
DIM
 62
     7
100
AcDbMText
 10
166.6687215361
 20
5.3346541361
 30
0.0
 40
1.7120098039
 41
0.0
 71
     1
 72
     1
  1
A4
  7
SLDTEXTSTYLE1
 73
     1
 44
1.0
  0
MTEXT
  5
98
330
1F
100
AcDbEntity
  8
DIM
 62
     7
100
AcDbMText
 10
160.3359384445
 20
119.6817693297
 30
0.0
 40
1.0894607843
 41
0.0
 71
     1
 72
     1
  1
6
  7
SLDTEXTSTYLE1
 73
     1
 44
1.0
  0
MTEXT
  5
99
330
1F
100
AcDbEntity
  8
DIM
 62
     7
100
AcDbMText
 10
130.9241737386
 20
119.6817693297
 30
0.0
 40
1.0894607843
 41
0.0
 71
     1
 72
     1
  1
5
  7
SLDTEXTSTYLE1
 73
     1
 44
1.0
  0
MTEXT
  5
9A
330
1F
100
AcDbEntity
  8
DIM
 62
     7
100
AcDbMText
 10
169.7477055033
 20
106.446475212
 30
0.0
 40
1.0894607843
 41
0.0
 71
     1
 72
     1
  1
A
  7
SLDTEXTSTYLE1
 73
     1
 44
1.0
  0
MTEXT
  5
9B
330
1F
100
AcDbEntity
  8
DIM
 62
     7
100
AcDbMText
 10
169.7477055033
 20
77.0347105061
 30
0.0
 40
1.0894607843
 41
0.0
 71
     1
 72
     1
  1
B
  7
SLDTEXTSTYLE1
 73
     1
 44
1.0
  0
MTEXT
  5
9C
330
1F
100
AcDbEntity
  8
DIM
 62
     7
100
AcDbMText
 10
101.5124090327
 20
119.6817693297
 30
0.0
 40
1.0894607843
 41
0.0
 71
     1
 72
     1
  1
4
  7
SLDTEXTSTYLE1
 73
     1
 44
1.0
  0
MTEXT
  5
9D
330
1F
100
AcDbEntity
  8
DIM
 62
     7
100
AcDbMText
 10
13.5222129543
 20
119.6817693297
 30
0.0
 40
1.0894607843
 41
0.0
 71
     1
 72
     1
  1
1
  7
SLDTEXTSTYLE1
 73
     1
 44
1.0
  0
MTEXT
  5
9E
330
1F
100
AcDbEntity
  8
DIM
 62
     7
100
AcDbMText
 10
42.688879621
 20
119.6817693297
 30
0.0
 40
1.0894607843
 41
0.0
 71
     1
 72
     1
  1
2
  7
SLDTEXTSTYLE1
 73
     1
 44
1.0
  0
MTEXT
  5
9F
330
1F
100
AcDbEntity
  8
DIM
 62
     7
100
AcDbMText
 10
72.1006443269
 20
119.6817693297
 30
0.0
 40
1.0894607843
 41
0.0
 71
     1
 72
     1
  1
3
  7
SLDTEXTSTYLE1
 73
     1
 44
1.0
  0
MTEXT
  5
A0
330
1F
100
AcDbEntity
  8
DIM
 62
     7
100
AcDbMText
 10
3.8653478563
 20
106.446475212
 30
0.0
 40
1.0894607843
 41
0.0
 71
     1
 72
     1
  1
A
  7
SLDTEXTSTYLE1
 73
     1
 44
1.0
  0
MTEXT
  5
A1
330
1F
100
AcDbEntity
  8
DIM
 62
     7
100
AcDbMText
 10
42.688879621
 20
4.9758869767
 30
0.0
 40
1.0894607843
 41
0.0
 71
     1
 72
     1
  1
2
  7
SLDTEXTSTYLE1
 73
     1
 44
1.0
  0
MTEXT
  5
A2
330
1F
100
AcDbEntity
  8
DIM
 62
     7
100
AcDbMText
 10
13.5222129543
 20
4.9758869767
 30
0.0
 40
1.0894607843
 41
0.0
 71
     1
 72
     1
  1
1
  7
SLDTEXTSTYLE1
 73
     1
 44
1.0
  0
MTEXT
  5
A3
330
1F
100
AcDbEntity
  8
DIM
 62
     7
100
AcDbMText
 10
3.8653478563
 20
18.2111810944
 30
0.0
 40
1.0894607843
 41
0.0
 71
     1
 72
     1
  1
D
  7
SLDTEXTSTYLE1
 73
     1
 44
1.0
  0
MTEXT
  5
A4
330
1F
100
AcDbEntity
  8
DIM
 62
     7
100
AcDbMText
 10
3.8653478563
 20
47.6229458002
 30
0.0
 40
1.0894607843
 41
0.0
 71
     1
 72
     1
  1
C
  7
SLDTEXTSTYLE1
 73
     1
 44
1.0
  0
MTEXT
  5
A5
330
1F
100
AcDbEntity
  8
DIM
 62
     7
100
AcDbMText
 10
3.8653478563
 20
77.0347105061
 30
0.0
 40
1.0894607843
 41
0.0
 71
     1
 72
     1
  1
B
  7
SLDTEXTSTYLE1
 73
     1
 44
1.0
  0
MTEXT
  5
A6
330
1F
100
AcDbEntity
  8
DIM
 62
     7
100
AcDbMText
 10
169.7629863264
 20
48.2003608872
 30
0.0
 40
1.0894607843
 41
0.0
 71
     1
 72
     1
  1
C
  7
SLDTEXTSTYLE1
 73
     1
 44
1.0
  0
MTEXT
  5
A8
330
1F
100
AcDbEntity
  8
DIM
 62
     7
100
AcDbMText
 10
150.8972740074
 20
4.5241639596
 30
0.0
 40
0.8823529412
 41
0.0
 71
     1
 72
     1
  1
SHEET 1 OF 1
  7
SLDTEXTSTYLE2
 73
     1
 44
1.0
  0
MTEXT
  5
A9
330
1F
100
AcDbEntity
  8
DIM
 62
     7
100
AcDbMText
 10
88.4539884608
 20
4.6196279316
 30
0.0
 40
0.8823529412
 41
0.0
 71
     1
 72
     1
  1
MATERIAL:
  7
SLDTEXTSTYLE1
 73
     1
 44
1.0
  0
MTEXT
  5
AA
330
1F
100
AcDbEntity
  8
DIM
 62
     7
100
AcDbMText
 10
160.3359384445
 20
119.6817693297
 30
0.0
 40
1.0894607843
 41
0.0
 71
     1
 72
     1
  1
6
  7
SLDTEXTSTYLE1
 73
     1
 44
1.0
  0
MTEXT
  5
AB
330
1F
100
AcDbEntity
  8
DIM
 62
     7
100
AcDbMText
 10
130.9241737386
 20
119.6817693297
 30
0.0
 40
1.0894607843
 41
0.0
 71
     1
 72
     1
  1
5
  7
SLDTEXTSTYLE1
 73
     1
 44
1.0
  0
MTEXT
  5
AC
330
1F
100
AcDbEntity
  8
DIM
 62
     7
100
AcDbMText
 10
169.7477055033
 20
106.446475212
 30
0.0
 40
1.0894607843
 41
0.0
 71
     1
 72
     1
  1
A
  7
SLDTEXTSTYLE1
 73
     1
 44
1.0
  0
MTEXT
  5
AD
330
1F
100
AcDbEntity
  8
DIM
 62
     7
100
AcDbMText
 10
169.7477055033
 20
77.0347105061
 30
0.0
 40
1.0894607843
 41
0.0
 71
     1
 72
     1
  1
B
  7
SLDTEXTSTYLE1
 73
     1
 44
1.0
  0
MTEXT
  5
AE
330
1F
100
AcDbEntity
  8
DIM
 62
     7
100
AcDbMText
 10
101.5124090327
 20
119.6817693297
 30
0.0
 40
1.0894607843
 41
0.0
 71
     1
 72
     1
  1
4
  7
SLDTEXTSTYLE1
 73
     1
 44
1.0
  0
MTEXT
  5
AF
330
1F
100
AcDbEntity
  8
DIM
 62
     7
100
AcDbMText
 10
13.5222129543
 20
119.6817693297
 30
0.0
 40
1.0894607843
 41
0.0
 71
     1
 72
     1
  1
1
  7
SLDTEXTSTYLE1
 73
     1
 44
1.0
  0
MTEXT
  5
B0
330
1F
100
AcDbEntity
  8
DIM
 62
     7
100
AcDbMText
 10
42.688879621
 20
119.6817693297
 30
0.0
 40
1.0894607843
 41
0.0
 71
     1
 72
     1
  1
2
  7
SLDTEXTSTYLE1
 73
     1
 44
1.0
  0
MTEXT
  5
B1
330
1F
100
AcDbEntity
  8
DIM
 62
     7
100
AcDbMText
 10
72.1006443269
 20
119.6817693297
 30
0.0
 40
1.0894607843
 41
0.0
 71
     1
 72
     1
  1
3
  7
SLDTEXTSTYLE1
 73
     1
 44
1.0
  0
MTEXT
  5
B2
330
1F
100
AcDbEntity
  8
DIM
 62
     7
100
AcDbMText
 10
3.8653478563
 20
106.446475212
 30
0.0
 40
1.0894607843
 41
0.0
 71
     1
 72
     1
  1
A
  7
SLDTEXTSTYLE1
 73
     1
 44
1.0
  0
MTEXT
  5
B3
330
1F
100
AcDbEntity
  8
DIM
 62
     7
100
AcDbMText
 10
42.688879621
 20
4.9758869767
 30
0.0
 40
1.0894607843
 41
0.0
 71
     1
 72
     1
  1
2
  7
SLDTEXTSTYLE1
 73
     1
 44
1.0
  0
MTEXT
  5
B4
330
1F
100
AcDbEntity
  8
DIM
 62
     7
100
AcDbMText
 10
13.5222129543
 20
4.9758869767
 30
0.0
 40
1.0894607843
 41
0.0
 71
     1
 72
     1
  1
1
  7
SLDTEXTSTYLE1
 73
     1
 44
1.0
  0
MTEXT
  5
B5
330
1F
100
AcDbEntity
  8
DIM
 62
     7
100
AcDbMText
 10
3.8653478563
 20
18.2111810944
 30
0.0
 40
1.0894607843
 41
0.0
 71
     1
 72
     1
  1
D
  7
SLDTEXTSTYLE1
 73
     1
 44
1.0
  0
MTEXT
  5
B6
330
1F
100
AcDbEntity
  8
DIM
 62
     7
100
AcDbMText
 10
3.8653478563
 20
47.6229458002
 30
0.0
 40
1.0894607843
 41
0.0
 71
     1
 72
     1
  1
C
  7
SLDTEXTSTYLE1
 73
     1
 44
1.0
  0
MTEXT
  5
B7
330
1F
100
AcDbEntity
  8
DIM
 62
     7
100
AcDbMText
 10
3.8653478563
 20
77.0347105061
 30
0.0
 40
1.0894607843
 41
0.0
 71
     1
 72
     1
  1
B
  7
SLDTEXTSTYLE1
 73
     1
 44
1.0
  0
LINE
  5
B8
330
1F
100
AcDbEntity
  8
0
  6
Continuous
 62
     7
370
    15
100
AcDbLine
 10
102.9498567036
 20
32.2429769702
 30
0.0
 11
103.9498567036
 21
33.2429769702
 31
0.0
  0
LINE
  5
B9
330
1F
100
AcDbEntity
  8
0
  6
Continuous
 62
     7
370
    15
100
AcDbLine
 10
103.9498567036
 20
94.7429769702
 30
0.0
 11
102.9498567036
 21
95.7429769702
 31
0.0
  0
LINE
  5
BA
330
1F
100
AcDbEntity
  8
0
  6
Continuous
 62
     7
370
    15
100
AcDbLine
 10
99.4716933456
 20
32.2429769702
 30
0.0
 11
102.9498567036
 21
32.2429769702
 31
0.0
  0
LINE
  5
BB
330
1F
100
AcDbEntity
  8
0
  6
Continuous
 62
     7
370
    15
100
AcDbLine
 10
102.9498567036
 20
95.7429769702
 30
0.0
 11
99.4716933456
 21
95.7429769702
 31
0.0
  0
LINE
  5
BC
330
1F
100
AcDbEntity
  8
0
  6
Continuous
 62
     7
370
    15
100
AcDbLine
 10
99.4716933456
 20
95.7429769701
 30
0.0
 11
97.8498567036
 21
92.9338735042
 31
0.0
  0
LINE
  5
BD
330
1F
100
AcDbEntity
  8
0
  6
Continuous
 62
     7
370
    15
100
AcDbLine
 10
97.8498567036
 20
35.0520804362
 30
0.0
 11
99.4716933456
 21
32.2429769703
 31
0.0
  0
LINE
  5
BE
330
1F
100
AcDbEntity
  8
0
  6
Continuous
 62
     7
370
    15
100
AcDbLine
 10
89.0498567036
 20
95.7429769702
 30
0.0
 11
88.0498567036
 21
94.7429769702
 31
0.0
  0
LINE
  5
BF
330
1F
100
AcDbEntity
  8
0
  6
Continuous
 62
     7
370
    15
100
AcDbLine
 10
88.0498567036
 20
33.2429769702
 30
0.0
 11
89.0498567036
 21
32.2429769702
 31
0.0
  0
LINE
  5
C0
330
1F
100
AcDbEntity
  8
0
  6
Continuous
 62
     7
370
    15
100
AcDbLine
 10
89.0498567036
 20
32.2429769702
 30
0.0
 11
92.4280200618
 21
32.2429769702
 31
0.0
  0
LINE
  5
C1
330
1F
100
AcDbEntity
  8
0
  6
Continuous
 62
     7
370
    15
100
AcDbLine
 10
92.4280200618
 20
95.7429769702
 30
0.0
 11
89.0498567036
 21
95.7429769702
 31
0.0
  0
LINE
  5
C2
330
1F
100
AcDbEntity
  8
0
  6
Continuous
 62
     7
370
    15
100
AcDbLine
 10
92.4280200618
 20
32.2429769705
 30
0.0
 11
94.0498567036
 21
35.0520804362
 31
0.0
  0
LINE
  5
C3
330
1F
100
AcDbEntity
  8
0
  6
Continuous
 62
     7
370
    15
100
AcDbLine
 10
94.0498567036
 20
92.9338735042
 30
0.0
 11
92.4280200618
 21
95.7429769699
 31
0.0
  0
LINE
  5
C4
330
1F
100
AcDbEntity
  8
0
  6
Continuous
 62
     7
370
    15
100
AcDbLine
 10
94.0498567054
 20
35.9929769702
 30
0.0
 11
97.8498567054
 21
35.9929769702
 31
0.0
  0
LINE
  5
C5
330
1F
100
AcDbEntity
  8
0
  6
Continuous
 62
     7
370
    15
100
AcDbLine
 10
97.8498567054
 20
91.9929769702
 30
0.0
 11
94.0498567054
 21
91.9929769702
 31
0.0
  0
SPLINE
  5
C6
330
1F
100
AcDbEntity
  8
0
  6
Continuous
 62
     7
370
    15
100
AcDbSpline
210
0.0
220
0.0
230
1.0
 70
     8
 71
     3
 72
    13
 73
     9
 74
     0
 42
0.000000001
 43
0.00000001
 40
0.0
 40
0.0
 40
0.0
 40
0.0
 40
0.2394568446493011
 40
0.368360660641045
 40
0.5000000005299627
 40
0.631639340360459
 40
0.7605431561667831
 40
1.0
 40
1.0
 40
1.0
 40
1.0
 10
87.54985670420358
 20
41.99297697009541
 30
0.0
 10
87.61275486514837
 20
41.98629797494967
 30
0.0
 10
87.70951220842944
 20
41.97602355966659
 30
0.0
 10
87.825920250566
 20
41.91367475963528
 30
0.0
 10
87.90602361373811
 20
41.84914387446489
 30
0.0
 10
87.97055449752129
 20
41.76904051023549
 30
0.0
 10
88.03290329552702
 20
41.65263246736271
 30
0.0
 10
88.04317770957422
 20
41.55587512424183
 30
0.0
 10
88.04985670391196
 20
41.49297696344451
 30
0.0
  0
SPLINE
  5
C7
330
1F
100
AcDbEntity
  8
0
  6
Continuous
 62
     7
370
    15
100
AcDbSpline
210
0.0
220
0.0
230
1.0
 70
     8
 71
     3
 72
    13
 73
     9
 74
     0
 42
0.000000001
 43
0.00000001
 40
0.0
 40
0.0
 40
0.0
 40
0.0
 40
0.239456843833209
 40
0.3683606596395496
 40
0.4999999994700384
 40
0.6316393393589523
 40
0.7605431553507002
 40
1.0
 40
1.0
 40
1.0
 40
1.0
 10
88.04985670391196
 20
86.49297697695134
 30
0.0
 10
88.04317770957422
 20
86.43007881615404
 30
0.0
 10
88.03290329552702
 20
86.33332147303317
 30
0.0
 10
87.97055449752129
 20
86.21691343016036
 30
0.0
 10
87.90602361373811
 20
86.13681006593097
 30
0.0
 10
87.825920250566
 20
86.0722791807606
 30
0.0
 10
87.70951220842946
 20
86.00993038072927
 30
0.0
 10
87.61275486514837
 20
85.99965596544618
 30
0.0
 10
87.54985670420358
 20
85.99297697030045
 30
0.0
  0
LINE
  5
C8
330
1F
100
AcDbEntity
  8
0
  6
Continuous
 62
     7
370
    15
100
AcDbLine
 10
84.8498567036
 20
41.7679769702
 30
0.0
 11
85.3323707606
 21
41.9929769702
 31
0.0
  0
LINE
  5
C9
330
1F
100
AcDbEntity
  8
0
  6
Continuous
 62
     7
370
    15
100
AcDbLine
 10
85.3323707606
 20
85.9929769702
 30
0.0
 11
84.8498567036
 21
86.2179769702
 31
0.0
  0
LINE
  5
CA
330
1F
100
AcDbEntity
  8
0
  6
Continuous
 62
     7
370
    15
100
AcDbLine
 10
84.8498567036
 20
86.2179769702
 30
0.0
 11
17.3055484766
 21
76.3676723462
 31
0.0
  0
LINE
  5
CB
330
1F
100
AcDbEntity
  8
0
  6
Continuous
 62
     7
370
    15
100
AcDbLine
 10
17.3055484766
 20
51.6182815942
 30
0.0
 11
84.8498567036
 21
41.7679769702
 31
0.0
  0
LINE
  5
CC
330
1F
100
AcDbEntity
  8
0
  6
Continuous
 62
     7
370
    15
100
AcDbLine
 10
85.3323707606
 20
41.9929769702
 30
0.0
 11
87.5498567042
 21
41.9929769702
 31
0.0
  0
LINE
  5
CD
330
1F
100
AcDbEntity
  8
0
  6
Continuous
 62
     7
370
    15
100
AcDbLine
 10
87.5498567042
 20
85.9929769702
 30
0.0
 11
85.3323707606
 21
85.9929769702
 31
0.0
  0
ARC
  5
CE
330
1F
100
AcDbEntity
  8
0
  6
Continuous
 62
     7
370
    15
100
AcDbCircle
 10
108.9712213361
 20
49.0020889643
 30
0.0
 40
5.021364632469315
100
AcDbArc
 50
96.3158251845
 51
180.0
  0
ARC
  5
CF
330
1F
100
AcDbEntity
  8
0
  6
Continuous
 62
     7
370
    15
100
AcDbCircle
 10
108.9712213361
 20
78.9838649761
 30
0.0
 40
5.021364632469322
100
AcDbArc
 50
180.0
 51
263.6841748155
  0
SPLINE
  5
D0
330
1F
100
AcDbEntity
  8
0
  6
Continuous
 62
     7
370
    15
100
AcDbSpline
210
0.0
220
0.0
230
1.0
 70
     8
 71
     3
 72
    11
 73
     7
 74
     0
 42
0.000000001
 43
0.00000001
 40
0.0
 40
0.0
 40
0.0
 40
0.0
 40
0.2418856032532123
 40
0.5000000001157505
 40
0.7581143969353247
 40
1.0
 40
1.0
 40
1.0
 40
1.0
 10
17.30554847667393
 20
76.36767234615236
 30
0.0
 10
17.19339629515522
 20
76.33961705045738
 30
0.0
 10
16.96156732303725
 20
76.28162414942447
 30
0.0
 10
16.67795179761829
 20
76.04563909595822
 30
0.0
 10
16.48536490470592
 20
75.73093764966849
 30
0.0
 10
16.46143385615504
 20
75.49316642824006
 30
0.0
 10
16.44985670393095
 20
75.37813955764014
 30
0.0
  0
SPLINE
  5
D1
330
1F
100
AcDbEntity
  8
0
  6
Continuous
 62
     7
370
    15
100
AcDbSpline
210
0.0
220
0.0
230
1.0
 70
     8
 71
     3
 72
    11
 73
     7
 74
     0
 42
0.000000001
 43
0.00000001
 40
0.0
 40
0.0
 40
0.0
 40
0.0
 40
0.2418856030641152
 40
0.4999999998830899
 40
0.7581143967456617
 40
1.0
 40
1.0
 40
1.0
 40
1.0
 10
16.44985670393094
 20
52.60781438275573
 30
0.0
 10
16.46143385615458
 20
52.49278751215802
 30
0.0
 10
16.48536490470454
 20
52.25501629073415
 30
0.0
 10
16.67795179760995
 20
51.9403148444485
 30
0.0
 10
16.96156732302014
 20
51.7043297909815
 30
0.0
 10
17.19339629513342
 20
51.64633688994417
 30
0.0
 10
17.30554847665011
 20
51.61828159424697
 30
0.0
  0
LINE
  5
D2
330
1F
100
AcDbEntity
  8
0
  6
Continuous
 62
     7
370
    15
100
AcDbLine
 10
108.4188268353
 20
53.9929769702
 30
0.0
 11
153.5897003816
 21
58.9569227782
 31
0.0
  0
LINE
  5
D3
330
1F
100
AcDbEntity
  8
0
  6
Continuous
 62
     7
370
    15
100
AcDbLine
 10
153.5897003816
 20
69.0290311622
 30
0.0
 11
108.4188268353
 21
73.9929769702
 31
0.0
  0
SPLINE
  5
D4
330
1F
100
AcDbEntity
  8
0
  6
Continuous
 62
     7
370
    15
100
AcDbSpline
210
0.0
220
0.0
230
1.0
 70
     8
 71
     3
 72
    11
 73
     7
 74
     0
 42
0.000000001
 43
0.00000001
 40
0.0
 40
0.0
 40
0.0
 40
0.0
 40
0.2413530001997375
 40
0.4999999996743518
 40
0.7586469993396573
 40
1.0
 40
1.0
 40
1.0
 40
1.0
 10
153.949856703581
 20
68.63102050662636
 30
0.0
 10
153.9449449861685
 20
68.67837816206483
 30
0.0
 10
153.934769605284
 20
68.77648685631856
 30
0.0
 10
153.8529682484866
 20
68.90530346324064
 30
0.0
 10
153.7329404607473
 20
68.99952931100076
 30
0.0
 10
153.63633325808
 20
69.01942661438031
 30
0.0
 10
153.589700381612
 20
69.02903116212546
 30
0.0
  0
SPLINE
  5
D5
330
1F
100
AcDbEntity
  8
0
  6
Continuous
 62
     7
370
    15
100
AcDbSpline
210
0.0
220
0.0
230
1.0
 70
     8
 71
     3
 72
    11
 73
     7
 74
     0
 42
0.000000001
 43
0.00000001
 40
0.0
 40
0.0
 40
0.0
 40
0.0
 40
0.2413530006609327
 40
0.5000000003262538
 40
0.7586469998005576
 40
1.0
 40
1.0
 40
1.0
 40
1.0
 10
153.589700381617
 20
58.95692277827091
 30
0.0
 10
153.6363332580846
 20
58.96652732601655
 30
0.0
 10
153.7329404607509
 20
58.98642462939709
 30
0.0
 10
153.8529682484884
 20
59.08065047715746
 30
0.0
 10
153.9347696052842
 20
59.20946708407872
 30
0.0
 10
153.9449449861686
 20
59.30757577833149
 30
0.0
 10
153.949856703581
 20
59.3549334337695
 30
0.0
  0
LINE
  5
D6
330
1F
100
AcDbEntity
  8
0
  6
Continuous
 62
     7
370
    15
100
AcDbLine
 10
102.9498567036
 20
63.9929769702
 30
0.0
 11
102.9498567036
 21
95.7429769702
 31
0.0
  0
LINE
  5
D7
330
1F
100
AcDbEntity
  8
0
  6
Continuous
 62
     7
370
    15
100
AcDbLine
 10
102.9498567036
 20
32.2429769702
 30
0.0
 11
102.9498567036
 21
63.9929769702
 31
0.0
  0
LINE
  5
D8
330
1F
100
AcDbEntity
  8
0
  6
Continuous
 62
     7
370
    15
100
AcDbLine
 10
103.9498567036
 20
63.9929769702
 30
0.0
 11
103.9498567036
 21
94.7429769702
 31
0.0
  0
LINE
  5
D9
330
1F
100
AcDbEntity
  8
0
  6
Continuous
 62
     7
370
    15
100
AcDbLine
 10
103.9498567036
 20
33.2429769702
 30
0.0
 11
103.9498567036
 21
63.9929769702
 31
0.0
  0
LINE
  5
DA
330
1F
100
AcDbEntity
  8
0
  6
Continuous
 62
     7
370
    15
100
AcDbLine
 10
99.4716933456
 20
95.7429769702
 30
0.0
 11
99.4716933456
 21
32.2429769702
 31
0.0
  0
LINE
  5
DB
330
1F
100
AcDbEntity
  8
0
  6
Continuous
 62
     7
370
    15
100
AcDbLine
 10
97.8498567036
 20
92.9338735042
 30
0.0
 11
97.8498567036
 21
35.0520804362
 31
0.0
  0
LINE
  5
DC
330
1F
100
AcDbEntity
  8
0
  6
Continuous
 62
     7
370
    15
100
AcDbLine
 10
89.0498567036
 20
63.9929769702
 30
0.0
 11
89.0498567036
 21
95.7429769702
 31
0.0
  0
LINE
  5
DD
330
1F
100
AcDbEntity
  8
0
  6
Continuous
 62
     7
370
    15
100
AcDbLine
 10
89.0498567036
 20
32.2429769702
 30
0.0
 11
89.0498567036
 21
63.9929769702
 31
0.0
  0
LINE
  5
DE
330
1F
100
AcDbEntity
  8
0
  6
Continuous
 62
     7
370
    15
100
AcDbLine
 10
88.0498567036
 20
63.9929769702
 30
0.0
 11
88.0498567036
 21
94.7429769702
 31
0.0
  0
LINE
  5
DF
330
1F
100
AcDbEntity
  8
0
  6
Continuous
 62
     7
370
    15
100
AcDbLine
 10
88.0498567036
 20
33.2429769702
 30
0.0
 11
88.0498567036
 21
63.9929769702
 31
0.0
  0
LINE
  5
E0
330
1F
100
AcDbEntity
  8
0
  6
Continuous
 62
     7
370
    15
100
AcDbLine
 10
92.4280200618
 20
63.9929769702
 30
0.0
 11
92.4280200618
 21
32.2429769702
 31
0.0
  0
LINE
  5
E1
330
1F
100
AcDbEntity
  8
0
  6
Continuous
 62
     7
370
    15
100
AcDbLine
 10
92.4280200618
 20
95.7429769702
 30
0.0
 11
92.4280200618
 21
63.9929769702
 31
0.0
  0
LINE
  5
E2
330
1F
100
AcDbEntity
  8
0
  6
Continuous
 62
     7
370
    15
100
AcDbLine
 10
94.0498567036
 20
63.9929769702
 30
0.0
 11
94.0498567036
 21
92.9338735042
 31
0.0
  0
LINE
  5
E3
330
1F
100
AcDbEntity
  8
0
  6
Continuous
 62
     7
370
    15
100
AcDbLine
 10
94.0498567036
 20
35.0520804362
 30
0.0
 11
94.0498567036
 21
63.9929769702
 31
0.0
  0
SPLINE
  5
E4
330
1F
100
AcDbEntity
  8
0
  6
Continuous
 62
     7
370
    15
100
AcDbSpline
210
0.0
220
0.0
230
1.0
 70
    24
 71
     3
 72
    14
 73
    10
 74
     0
 42
0.000000001
 43
0.00000001
 40
0.0
 40
0.0
 40
0.0
 40
0.0
 40
0.25
 40
0.25
 40
0.5
 40
0.5
 40
0.75
 40
0.75
 40
1.0
 40
1.0
 40
1.0
 40
1.0
 10
88.04985670391196
 20
63.99297697019793
 30
0.0
 10
88.04985670461863
 20
63.99297697019793
 30
0.0
 10
88.03911733594131
 20
63.99297697019793
 30
0.0
 10
87.9903843768692
 20
63.99297697019793
 30
0.0
 10
87.95222563376556
 20
63.99297697019793
 30
0.0
 10
87.85459456079529
 20
63.99297697019793
 30
0.0
 10
87.79545253631356
 20
63.99297697019793
 30
0.0
 10
87.67235558496473
 20
63.99297697019793
 30
0.0
 10
87.60878226985935
 20
63.99297697019793
 30
0.0
 10
87.54985670420356
 20
63.99297697019793
 30
0.0
  0
LINE
  5
E5
330
1F
100
AcDbEntity
  8
0
  6
Continuous
 62
     7
370
    15
100
AcDbLine
 10
85.3323707606
 20
63.9929769702
 30
0.0
 11
85.3323707606
 21
85.9929769702
 31
0.0
  0
LINE
  5
E6
330
1F
100
AcDbEntity
  8
0
  6
Continuous
 62
     7
370
    15
100
AcDbLine
 10
85.3323707606
 20
41.9929769702
 30
0.0
 11
85.3323707606
 21
63.9929769702
 31
0.0
  0
LINE
  5
E7
330
1F
100
AcDbEntity
  8
0
  6
Continuous
 62
     7
370
    15
100
AcDbLine
 10
84.8498567036
 20
41.7679769702
 30
0.0
 11
84.8498567036
 21
86.2179769702
 31
0.0
  0
SPLINE
  5
E8
330
1F
100
AcDbEntity
  8
0
  6
Continuous
 62
     7
370
    15
100
AcDbSpline
210
0.0
220
0.0
230
1.0
 70
    24
 71
     3
 72
    14
 73
    10
 74
     0
 42
0.000000001
 43
0.00000001
 40
0.0
 40
0.0
 40
0.0
 40
0.0
 40
0.25
 40
0.25
 40
0.5
 40
0.5
 40
0.75
 40
0.75
 40
1.0
 40
1.0
 40
1.0
 40
1.0
 10
16.44985670393097
 20
63.99297697019793
 30
0.0
 10
16.44985670369261
 20
63.99297697019793
 30
0.0
 10
16.46816088533446
 20
63.99297697019793
 30
0.0
 10
16.54926680917512
 20
63.99297697019793
 30
0.0
 10
16.61225090640344
 20
63.99297697019793
 30
0.0
 10
16.77464510982627
 20
63.99297697019793
 30
0.0
 10
16.87369050597009
 20
63.99297697019793
 30
0.0
 10
17.08545149233248
 20
63.99297697019793
 30
0.0
 10
17.19767302688228
 20
63.99297697019793
 30
0.0
 10
17.30554847665081
 20
63.99297697019793
 30
0.0
  0
SPLINE
  5
E9
330
1F
100
AcDbEntity
  8
0
  6
Continuous
 62
     7
370
    15
100
AcDbSpline
210
0.0
220
0.0
230
1.0
 70
    24
 71
     3
 72
    22
 73
    18
 74
     0
 42
0.000000001
 43
0.00000001
 40
0.0
 40
0.0
 40
0.0
 40
0.0
 40
0.1249999999999999
 40
0.1249999999999999
 40
0.2499999999999998
 40
0.2499999999999998
 40
0.3749999999999998
 40
0.3749999999999998
 40
0.4999999999999997
 40
0.4999999999999997
 40
0.6249999999999998
 40
0.6249999999999998
 40
0.7499999999999999
 40
0.7499999999999999
 40
0.875
 40
0.875
 40
1.0
 40
1.0
 40
1.0
 40
1.0
 10
16.44985670393095
 20
75.37813955764014
 30
0.0
 10
16.44985670393094
 20
75.37813955762995
 30
0.0
 10
16.44985670393093
 20
75.25777570857042
 30
0.0
 10
16.44985670393094
 20
74.79787801666157
 30
0.0
 10
16.44985670393094
 20
74.45892227833954
 30
0.0
 10
16.44985670393095
 20
73.61849505157903
 30
0.0
 10
16.44985670393095
 20
73.11777138016764
 30
0.0
 10
16.44985670393095
 20
72.02390700697089
 30
0.0
 10
16.44985670393098
 20
71.43128319395178
 30
0.0
 10
16.44985670393095
 20
70.2168658512965
 30
0.0
 10
16.44985670393095
 20
69.5952454604632
 30
0.0
 10
16.44985670393093
 20
68.36871614077782
 30
0.0
 10
16.44985670393095
 20
67.76374281913643
 30
0.0
 10
16.44985670393097
 20
66.59790217018953
 30
0.0
 10
16.44985670393093
 20
66.03687921034701
 30
0.0
 10
16.44985670393094
 20
64.9716842665208
 30
0.0
 10
16.44985670393094
 20
64.46735874467214
 30
0.0
 10
16.44985670393095
 20
63.99297697019793
 30
0.0
  0
SPLINE
  5
EA
330
1F
100
AcDbEntity
  8
0
  6
Continuous
 62
     7
370
    15
100
AcDbSpline
210
0.0
220
0.0
230
1.0
 70
    24
 71
     3
 72
    22
 73
    18
 74
     0
 42
0.000000001
 43
0.00000001
 40
0.0
 40
0.0
 40
0.0
 40
0.0
 40
0.125
 40
0.125
 40
0.25
 40
0.25
 40
0.375
 40
0.375
 40
0.5
 40
0.5
 40
0.625
 40
0.625
 40
0.75
 40
0.75
 40
0.875
 40
0.875
 40
1.0
 40
1.0
 40
1.0
 40
1.0
 10
16.44985670393094
 20
63.99297697019793
 30
0.0
 10
16.44985670393094
 20
63.51859519571862
 30
0.0
 10
16.44985670393092
 20
63.01426967386424
 30
0.0
 10
16.44985670393094
 20
61.94907473002539
 30
0.0
 10
16.44985670393095
 20
61.38805177017597
 30
0.0
 10
16.44985670393094
 20
60.22221112121473
 30
0.0
 10
16.44985670393094
 20
59.61723779956588
 30
0.0
 10
16.44985670393094
 20
58.39070847986635
 30
0.0
 10
16.44985670393095
 20
57.76908808902637
 30
0.0
 10
16.44985670393095
 20
56.55467074636065
 30
0.0
 10
16.44985670393095
 20
55.96204693333785
 30
0.0
 10
16.44985670393094
 20
54.86818256013925
 30
0.0
 10
16.44985670393094
 20
54.36745888872982
 30
0.0
 10
16.44985670393094
 20
53.52703166198098
 30
0.0
 10
16.44985670393097
 20
53.18807592366872
 30
0.0
 10
16.44985670393094
 20
52.72817823178736
 30
0.0
 10
16.44985670393098
 20
52.60781438274555
 30
0.0
 10
16.44985670393097
 20
52.60781438275573
 30
0.0
  0
SPLINE
  5
EB
330
1F
100
AcDbEntity
  8
0
  6
Continuous
 62
     7
370
    15
100
AcDbSpline
210
0.0
220
0.0
230
1.0
 70
    24
 71
     3
 72
    10
 73
     6
 74
     0
 42
0.000000001
 43
0.00000001
 40
0.0
 40
0.0
 40
0.0
 40
0.0
 40
0.5
 40
0.5
 40
1.0
 40
1.0
 40
1.0
 40
1.0
 10
153.5897003816458
 20
63.99297697019793
 30
0.0
 10
153.6787175905001
 20
63.99297697019793
 30
0.0
 10
153.7775154352959
 20
63.99297697019793
 30
0.0
 10
153.9153884503947
 20
63.99297697019793
 30
0.0
 10
153.9498567039004
 20
63.99297697019793
 30
0.0
 10
153.949856703581
 20
63.99297697019793
 30
0.0
  0
SPLINE
  5
EC
330
1F
100
AcDbEntity
  8
0
  6
Continuous
 62
     7
370
    15
100
AcDbSpline
210
0.0
220
0.0
230
1.0
 70
    24
 71
     3
 72
    18
 73
    14
 74
     0
 42
0.000000001
 43
0.00000001
 40
0.0
 40
0.0
 40
0.0
 40
0.0
 40
0.2500000000000001
 40
0.2500000000000001
 40
0.5000000000000001
 40
0.5000000000000001
 40
0.625
 40
0.625
 40
0.7499999999999999
 40
0.7499999999999999
 40
0.875
 40
0.875
 40
1.0
 40
1.0
 40
1.0
 40
1.0
 10
153.949856703581
 20
63.99297697019793
 30
0.0
 10
153.949856703581
 20
64.3794805982357
 30
0.0
 10
153.949856703581
 20
64.81669350227234
 30
0.0
 10
153.949856703581
 20
65.76656481853874
 30
0.0
 10
153.949856703581
 20
66.2810784481831
 30
0.0
 10
153.949856703581
 20
67.02316541401483
 30
0.0
 10
153.949856703581
 20
67.26458621274419
 30
0.0
 10
153.949856703581
 20
67.71020045381258
 30
0.0
 10
153.949856703581
 20
67.91418332800347
 30
0.0
 10
153.949856703581
 20
68.25655332376975
 30
0.0
 10
153.949856703581
 20
68.39463580253457
 30
0.0
 10
153.949856703581
 20
68.58198714695905
 30
0.0
 10
153.949856703581
 20
68.63102050663052
 30
0.0
 10
153.949856703581
 20
68.63102050662636
 30
0.0
  0
SPLINE
  5
ED
330
1F
100
AcDbEntity
  8
0
  6
Continuous
 62
     7
370
    15
100
AcDbSpline
210
0.0
220
0.0
230
1.0
 70
    24
 71
     3
 72
    18
 73
    14
 74
     0
 42
0.000000001
 43
0.00000001
 40
0.0
 40
0.0
 40
0.0
 40
0.0
 40
0.125
 40
0.125
 40
0.25
 40
0.25
 40
0.375
 40
0.375
 40
0.5
 40
0.5
 40
0.75
 40
0.75
 40
1.0
 40
1.0
 40
1.0
 40
1.0
 10
153.949856703581
 20
59.3549334337695
 30
0.0
 10
153.949856703581
 20
59.35493343377365
 30
0.0
 10
153.949856703581
 20
59.40396679345232
 30
0.0
 10
153.949856703581
 20
59.591318137888
 30
0.0
 10
153.949856703581
 20
59.7294006166568
 30
0.0
 10
153.949856703581
 20
60.07177061242783
 30
0.0
 10
153.949856703581
 20
60.27575348661953
 30
0.0
 10
153.949856703581
 20
60.72136772768716
 30
0.0
 10
153.949856703581
 20
60.96278852641502
 30
0.0
 10
153.949856703581
 20
61.70487549224038
 30
0.0
 10
153.949856703581
 20
62.21938912187827
 30
0.0
 10
153.949856703581
 20
63.16926043813297
 30
0.0
 10
153.949856703581
 20
63.6064733421643
 30
0.0
 10
153.949856703581
 20
63.99297697019793
 30
0.0
  0
LINE
  5
EE
330
1F
100
AcDbEntity
  8
0
  6
Continuous
 62
     8
370
    15
100
AcDbLine
 10
87.5498567042
 20
63.9929769702
 30
0.0
 11
87.5498567042
 21
41.9929769702
 31
0.0
  0
LINE
  5
EF
330
1F
100
AcDbEntity
  8
0
  6
Continuous
 62
     8
370
    15
100
AcDbLine
 10
87.5498567042
 20
63.9929769702
 30
0.0
 11
87.5498567042
 21
85.9929769644
 31
0.0
  0
LINE
  5
F0
330
1F
100
AcDbEntity
  8
0
  6
Continuous
 62
     8
370
    15
100
AcDbLine
 10
17.3055484766
 20
63.9929769673
 30
0.0
 11
17.3055484766
 21
51.6182815943
 31
0.0
  0
LINE
  5
F1
330
1F
100
AcDbEntity
  8
0
  6
Continuous
 62
     8
370
    15
100
AcDbLine
 10
17.3055484766
 20
76.3676723461
 30
0.0
 11
17.3055484766
 21
63.9929769673
 31
0.0
  0
LINE
  5
F2
330
1F
100
AcDbEntity
  8
0
  6
Continuous
 62
     8
370
    15
100
AcDbLine
 10
108.4188268353
 20
53.9929769702
 30
0.0
 11
108.4188268353
 21
73.9929769702
 31
0.0
  0
LINE
  5
F3
330
1F
100
AcDbEntity
  8
0
  6
Continuous
 62
     8
370
    15
100
AcDbLine
 10
153.5897003816
 20
63.9929769702
 30
0.0
 11
153.5897003816
 21
69.0290311622
 31
0.0
  0
LINE
  5
F4
330
1F
100
AcDbEntity
  8
0
  6
Continuous
 62
     8
370
    15
100
AcDbLine
 10
153.5897003816
 20
58.9569227782
 30
0.0
 11
153.5897003816
 21
63.9929769702
 31
0.0
  0
DIMENSION
  5
F5
330
1F
100
AcDbEntity
  8
DIM
100
AcDbDimension
  2
_D
 10
158.0277232419
 20
58.9569227782
 30
0.0
 11
158.0277232419
 21
63.9929769702
 31
0.0
 70
   160
  1
%%c<>
 71
     2
 42
-1.0
  3
SLDDIMSTYLE0
100
AcDbAlignedDimension
 13
153.5897003816
 23
69.0290311622
 33
0.0
 14
153.5897003816
 24
58.9569227782
 34
0.0
 50
90.0
100
AcDbRotatedDimension
  0
DIMENSION
  5
103
330
1F
100
AcDbEntity
  8
DIM
100
AcDbDimension
  2
_D_1
 10
161.1326106244
 20
53.9929769702
 30
0.0
 11
161.1326106244
 21
63.9929769702
 31
0.0
 70
   160
  1
%%c<>
 71
     2
 42
-1.0
  3
SLDDIMSTYLE1
100
AcDbAlignedDimension
 13
108.4188268353
 23
73.9929769702
 33
0.0
 14
108.4188268353
 24
53.9929769702
 34
0.0
 50
90.0
100
AcDbRotatedDimension
  0
DIMENSION
  5
10F
330
1F
100
AcDbEntity
  8
DIM
100
AcDbDimension
  2
_D_2
 10
103.9498567036
 20
34.6618279609
 30
0.0
 11
128.9498567036
 21
34.6618279609
 31
0.0
 70
   160
  1
<>
 71
     2
 42
-1.0
  3
SLDDIMSTYLE1
100
AcDbAlignedDimension
 13
153.9498567036
 23
63.9929769699
 33
0.0
 14
103.9498567036
 24
33.2429769702
 34
0.0
100
AcDbRotatedDimension
  0
DIMENSION
  5
118
330
1F
100
AcDbEntity
  8
DIM
100
AcDbDimension
  2
_D_3
 10
16.4498567042
 20
29.890035793
 30
0.0
 11
85.199856704
 21
29.8900357936
 31
0.0
 70
   160
  1
<>
 71
     2
 42
-1.0
  3
SLDDIMSTYLE2
100
AcDbAlignedDimension
 13
153.9498567036
 23
63.9929769699
 33
0.0
 14
16.4498567039
 24
52.6078143828
 34
0.0
 50
0.0000000006
100
AcDbRotatedDimension
  0
DIMENSION
  5
123
330
1F
100
AcDbEntity
  8
DIM
100
AcDbDimension
  2
_D_4
 10
10.5660946357
 20
32.2429769702
 30
0.0
 11
10.5660946357
 21
63.9929769702
 31
0.0
 70
   160
  1
%%c<>
 71
     2
 42
-1.0
  3
SLDDIMSTYLE2
100
AcDbAlignedDimension
 13
89.0498567036
 23
95.7429769702
 33
0.0
 14
89.0498567036
 24
32.2429769702
 34
0.0
 50
90.0
100
AcDbRotatedDimension
  0
LINE
  5
12E
330
1F
100
AcDbEntity
  8
DIM
  6
CENTERX2
370
     0
100
AcDbLine
 10
15.6639345495
 20
63.9929769702
 30
0.0
 11
153.6792575357
 21
63.9929769702
 31
0.0
  0
ENDSEC
  0
SECTION
  2
OBJECTS
  0
DICTIONARY
  5
C
330
0
100
AcDbDictionary
281
     1
  3
ACAD_GROUP
350
D
  3
ACAD_LAYOUT
350
1A
  3
ACAD_MLINESTYLE
350
17
  3
ACAD_PLOTSETTINGS
350
19
  3
ACAD_PLOTSTYLENAME
350
E
  3
ACAD_SCALELIST
350
47
  0
DICTIONARY
  5
D
102
{ACAD_REACTORS
330
C
102
}
330
C
100
AcDbDictionary
281
     1
  0
DICTIONARY
  5
1A
102
{ACAD_REACTORS
330
C
102
}
330
C
100
AcDbDictionary
281
     1
  3
Layout1
350
1E
  3
Layout2
350
26
  3
Model
350
22
  0
DICTIONARY
  5
17
102
{ACAD_REACTORS
330
C
102
}
330
C
100
AcDbDictionary
281
     1
  3
Standard
350
18
  0
DICTIONARY
  5
19
102
{ACAD_REACTORS
330
C
102
}
330
C
100
AcDbDictionary
281
     1
  0
ACDBDICTIONARYWDFLT
  5
E
102
{ACAD_REACTORS
330
C
102
}
330
C
100
AcDbDictionary
281
     1
  3
Normal
350
F
100
AcDbDictionaryWithDefault
340
F
  0
DICTIONARY
  5
47
102
{ACAD_REACTORS
330
C
102
}
330
C
100
AcDbDictionary
281
     1
  3
A0
350
48
  3
A1
350
49
  3
A2
350
4A
  3
A3
350
4B
  3
A4
350
4C
  3
A5
350
4D
  3
A6
350
4E
  3
A7
350
4F
  3
A8
350
50
  3
A9
350
51
  3
B0
350
52
  3
B1
350
53
  3
B2
350
54
  3
B3
350
55
  3
B4
350
56
  3
B5
350
57
  3
B6
350
58
  3
B7
350
59
  3
B8
350
5A
  3
B9
350
5B
  3
C0
350
5C
  3
C1
350
5D
  3
C2
350
5E
  3
C3
350
5F
  3
C4
350
60
  3
C5
350
61
  3
C6
350
62
  3
C7
350
63
  3
C8
350
64
  3
C9
350
65
  3
D0
350
66
  3
D1
350
67
  3
D2
350
68
  0
LAYOUT
  5
1E
102
{ACAD_REACTORS
330
1A
102
}
330
1A
100
AcDbPlotSettings
  1

  2
none_device
  4

  6

 40
0.0
 41
0.0
 42
0.0
 43
0.0
 44
0.0
 45
0.0
 46
0.0
 47
0.0
 48
0.0
 49
0.0
140
0.0
141
0.0
142
1.0
143
1.0
 70
   688
 72
     1
 73
     0
 74
     5
  7

 75
    16
147
1.0
148
0.0
149
0.0
100
AcDbLayout
  1
Layout1
 70
     1
 71
     1
 10
0.0
 20
0.0
 11
420.0
 21
297.0
 12
0.0
 22
0.0
 32
0.0
 14
1.0000000000E+20
 24
1.0000000000E+20
 34
1.0000000000E+20
 15
-1.0000000000E+20
 25
-1.0000000000E+20
 35
-1.0000000000E+20
146
0.0
 13
0.0
 23
0.0
 33
0.0
 16
1.0
 26
0.0
 36
0.0
 17
0.0
 27
1.0
 37
0.0
 76
     0
330
1B
  0
LAYOUT
  5
26
102
{ACAD_REACTORS
330
1A
102
}
330
1A
100
AcDbPlotSettings
  1

  2
none_device
  4

  6

 40
0.0
 41
0.0
 42
0.0
 43
0.0
 44
0.0
 45
0.0
 46
0.0
 47
0.0
 48
0.0
 49
0.0
140
0.0
141
0.0
142
1.0
143
1.0
 70
   688
 72
     1
 73
     0
 74
     5
  7

 75
    16
147
1.0
148
0.0
149
0.0
100
AcDbLayout
  1
Layout2
 70
     1
 71
     2
 10
0.0
 20
0.0
 11
0.0
 21
0.0
 12
0.0
 22
0.0
 32
0.0
 14
0.0
 24
0.0
 34
0.0
 15
0.0
 25
0.0
 35
0.0
146
0.0
 13
0.0
 23
0.0
 33
0.0
 16
1.0
 26
0.0
 36
0.0
 17
0.0
 27
1.0
 37
0.0
 76
     0
330
23
  0
LAYOUT
  5
22
102
{ACAD_REACTORS
330
1A
102
}
330
1A
100
AcDbPlotSettings
  1

  2
none_device
  4
Letter_(8.50_x_11.00_Inches)
  6

 40
6.35
 41
6.35
 42
6.35000508
 43
6.35000508
 44
215.9
 45
279.4
 46
0.0
 47
0.0
 48
0.0
 49
0.0
140
0.0
141
0.0
142
1.0
143
1.0
 70
  1712
 72
     1
 73
     0
 74
     0
  7

 75
     0
147
1.0
148
0.0
149
0.0
100
AcDbLayout
  1
Model
 70
     1
 71
     0
 10
0.0
 20
0.0
 11
174.7058823529
 21
123.5294117647
 12
0.0
 22
0.0
 32
0.0
 14
0.0
 24
0.0
 34
0.0
 15
174.7058823529
 25
123.5294117647
 35
0.0
146
0.0
 13
0.0
 23
0.0
 33
0.0
 16
1.0
 26
0.0
 36
0.0
 17
0.0
 27
1.0
 37
0.0
 76
     0
330
1F
331
29
  0
MLINESTYLE
  5
18
102
{ACAD_REACTORS
330
17
102
}
330
17
100
AcDbMlineStyle
  2
Standard
 70
     0
  3

 62
   256
 51
90.0
 52
90.0
 71
     2
 49
0.5
 62
   256
  6
BYLAYER
 49
-0.5
 62
   256
  6
BYLAYER
  0
ACDBPLACEHOLDER
  5
F
102
{ACAD_REACTORS
330
E
102
}
330
E
  0
SCALE
  5
48
102
{ACAD_REACTORS
330
47
102
}
330
47
100
AcDbScale
 70
     0
300
1:1
140
1.0
141
1.0
290
     1
  0
SCALE
  5
49
102
{ACAD_REACTORS
330
47
102
}
330
47
100
AcDbScale
 70
     0
300
1:2
140
1.0
141
2.0
290
     0
  0
SCALE
  5
4A
102
{ACAD_REACTORS
330
47
102
}
330
47
100
AcDbScale
 70
     0
300
1:4
140
1.0
141
4.0
290
     0
  0
SCALE
  5
4B
102
{ACAD_REACTORS
330
47
102
}
330
47
100
AcDbScale
 70
     0
300
1:5
140
1.0
141
5.0
290
     0
  0
SCALE
  5
4C
102
{ACAD_REACTORS
330
47
102
}
330
47
100
AcDbScale
 70
     0
300
1:8
140
1.0
141
8.0
290
     0
  0
SCALE
  5
4D
102
{ACAD_REACTORS
330
47
102
}
330
47
100
AcDbScale
 70
     0
300
1:10
140
1.0
141
10.0
290
     0
  0
SCALE
  5
4E
102
{ACAD_REACTORS
330
47
102
}
330
47
100
AcDbScale
 70
     0
300
1:16
140
1.0
141
16.0
290
     0
  0
SCALE
  5
4F
102
{ACAD_REACTORS
330
47
102
}
330
47
100
AcDbScale
 70
     0
300
1:20
140
1.0
141
20.0
290
     0
  0
SCALE
  5
50
102
{ACAD_REACTORS
330
47
102
}
330
47
100
AcDbScale
 70
     0
300
1:30
140
1.0
141
30.0
290
     0
  0
SCALE
  5
51
102
{ACAD_REACTORS
330
47
102
}
330
47
100
AcDbScale
 70
     0
300
1:40
140
1.0
141
40.0
290
     0
  0
SCALE
  5
52
102
{ACAD_REACTORS
330
47
102
}
330
47
100
AcDbScale
 70
     0
300
1:50
140
1.0
141
50.0
290
     0
  0
SCALE
  5
53
102
{ACAD_REACTORS
330
47
102
}
330
47
100
AcDbScale
 70
     0
300
1:100
140
1.0
141
100.0
290
     0
  0
SCALE
  5
54
102
{ACAD_REACTORS
330
47
102
}
330
47
100
AcDbScale
 70
     0
300
2:1
140
2.0
141
1.0
290
     0
  0
SCALE
  5
55
102
{ACAD_REACTORS
330
47
102
}
330
47
100
AcDbScale
 70
     0
300
4:1
140
4.0
141
1.0
290
     0
  0
SCALE
  5
56
102
{ACAD_REACTORS
330
47
102
}
330
47
100
AcDbScale
 70
     0
300
8:1
140
8.0
141
1.0
290
     0
  0
SCALE
  5
57
102
{ACAD_REACTORS
330
47
102
}
330
47
100
AcDbScale
 70
     0
300
10:1
140
10.0
141
1.0
290
     0
  0
SCALE
  5
58
102
{ACAD_REACTORS
330
47
102
}
330
47
100
AcDbScale
 70
     0
300
100:1
140
100.0
141
1.0
290
     0
  0
SCALE
  5
59
102
{ACAD_REACTORS
330
47
102
}
330
47
100
AcDbScale
 70
     0
300
1/128" = 1'-0"
140
0.0078125
141
12.0
290
     0
  0
SCALE
  5
5A
102
{ACAD_REACTORS
330
47
102
}
330
47
100
AcDbScale
 70
     0
300
1/64" = 1'-0"
140
0.015625
141
12.0
290
     0
  0
SCALE
  5
5B
102
{ACAD_REACTORS
330
47
102
}
330
47
100
AcDbScale
 70
     0
300
1/32" = 1'-0"
140
0.03125
141
12.0
290
     0
  0
SCALE
  5
5C
102
{ACAD_REACTORS
330
47
102
}
330
47
100
AcDbScale
 70
     0
300
1/16" = 1'-0"
140
0.0625
141
12.0
290
     0
  0
SCALE
  5
5D
102
{ACAD_REACTORS
330
47
102
}
330
47
100
AcDbScale
 70
     0
300
3/32" = 1'-0"
140
0.09375
141
12.0
290
     0
  0
SCALE
  5
5E
102
{ACAD_REACTORS
330
47
102
}
330
47
100
AcDbScale
 70
     0
300
1/8" = 1'-0"
140
0.125
141
12.0
290
     0
  0
SCALE
  5
5F
102
{ACAD_REACTORS
330
47
102
}
330
47
100
AcDbScale
 70
     0
300
3/16" = 1'-0"
140
0.1875
141
12.0
290
     0
  0
SCALE
  5
60
102
{ACAD_REACTORS
330
47
102
}
330
47
100
AcDbScale
 70
     0
300
1/4" = 1'-0"
140
0.25
141
12.0
290
     0
  0
SCALE
  5
61
102
{ACAD_REACTORS
330
47
102
}
330
47
100
AcDbScale
 70
     0
300
3/8" = 1'-0"
140
0.375
141
12.0
290
     0
  0
SCALE
  5
62
102
{ACAD_REACTORS
330
47
102
}
330
47
100
AcDbScale
 70
     0
300
1/2" = 1'-0"
140
0.5
141
12.0
290
     0
  0
SCALE
  5
63
102
{ACAD_REACTORS
330
47
102
}
330
47
100
AcDbScale
 70
     0
300
3/4" = 1'-0"
140
0.75
141
12.0
290
     0
  0
SCALE
  5
64
102
{ACAD_REACTORS
330
47
102
}
330
47
100
AcDbScale
 70
     0
300
1" = 1'-0"
140
1.0
141
12.0
290
     0
  0
SCALE
  5
65
102
{ACAD_REACTORS
330
47
102
}
330
47
100
AcDbScale
 70
     0
300
1-1/2" = 1'-0"
140
1.5
141
12.0
290
     0
  0
SCALE
  5
66
102
{ACAD_REACTORS
330
47
102
}
330
47
100
AcDbScale
 70
     0
300
3" = 1'-0"
140
3.0
141
12.0
290
     0
  0
SCALE
  5
67
102
{ACAD_REACTORS
330
47
102
}
330
47
100
AcDbScale
 70
     0
300
6" = 1'-0"
140
6.0
141
12.0
290
     0
  0
SCALE
  5
68
102
{ACAD_REACTORS
330
47
102
}
330
47
100
AcDbScale
 70
     0
300
1'-0" = 1'-0"
140
12.0
141
12.0
290
     0
  0
ENDSEC
  0
EOF
