  0
SECTION
  2
HEADER
  9
$ACADVER
  1
AC1015
  9
$ACADMAINTVER
 70
     6
  9
$DWGCODEPAGE
  3
ANSI_1252
  9
$INSBASE
 10
0.0
 20
0.0
 30
0.0
  9
$EXTMIN
 10
0.0
 20
0.0
 30
0.0
  9
$EXTMAX
 10
297.0
 20
210.0
 30
0.0
  9
$LIMMIN
 10
0.0
 20
0.0
  9
$LIMMAX
 10
297.0
 20
210.0
  9
$ORTHOMODE
 70
     0
  9
$REGENMODE
 70
     1
  9
$FILLMODE
 70
     1
  9
$QTEXTMODE
 70
     0
  9
$MIRRTEXT
 70
     1
  9
$LTSCALE
 40
1.0
  9
$ATTMODE
 70
     1
  9
$TEXTSIZE
 40
3.8805555556
  9
$TRACEWID
 40
1.0
  9
$TEXTSTYLE
  7
Standard
  9
$CLAYER
  8
0
  9
$CELTYPE
  6
ByLayer
  9
$CECOLOR
 62
   256
  9
$CELTSCALE
 40
1.0
  9
$DISPSILH
 70
     0
  9
$DIMSCALE
 40
1.0
  9
$DIMASZ
 40
3.302
  9
$DIMEXO
 40
1.0
  9
$DIMDLI
 40
3.75
  9
$DIMRND
 40
0.0
  9
$DIMDLE
 40
0.0
  9
$DIMEXE
 40
1.0
  9
$DIMTP
 40
0.0
  9
$DIMTM
 40
0.0
  9
$DIMTXT
 40
3.8805555556
  9
$DIMCEN
 40
2.5
  9
$DIMTSZ
 40
0.0
  9
$DIMTOL
 70
     0
  9
$DIMLIM
 70
     0
  9
$DIMTIH
 70
     1
  9
$DIMTOH
 70
     1
  9
$DIMSE1
 70
     0
  9
$DIMSE2
 70
     0
  9
$DIMTAD
 70
     1
  9
$DIMZIN
 70
     0
  9
$DIMBLK
  1

  9
$DIMASO
 70
     1
  9
$DIMSHO
 70
     1
  9
$DIMPOST
  1

  9
$DIMAPOST
  1

  9
$DIMALT
 70
     0
  9
$DIMALTD
 70
     3
  9
$DIMALTF
 40
0.0393700787
  9
$DIMLFAC
 40
1.0
  9
$DIMTOFL
 70
     1
  9
$DIMTVP
 40
0.0
  9
$DIMTIX
 70
     0
  9
$DIMSOXD
 70
     0
  9
$DIMSAH
 70
     0
  9
$DIMBLK1
  1

  9
$DIMBLK2
  1

  9
$DIMSTYLE
  2
ISO-25
  9
$DIMCLRD
 70
     0
  9
$DIMCLRE
 70
     0
  9
$DIMCLRT
 70
     0
  9
$DIMTFAC
 40
1.0
  9
$DIMGAP
 40
1.524
  9
$DIMJUST
 70
     0
  9
$DIMSD1
 70
     0
  9
$DIMSD2
 70
     0
  9
$DIMTOLJ
 70
     0
  9
$DIMTZIN
 70
     0
  9
$DIMALTZ
 70
     0
  9
$DIMALTTZ
 70
     0
  9
$DIMUPT
 70
     0
  9
$DIMDEC
 70
     2
  9
$DIMTDEC
 70
     2
  9
$DIMALTU
 70
     2
  9
$DIMALTTD
 70
     3
  9
$DIMTXSTY
  7
Standard
  9
$DIMAUNIT
 70
     0
  9
$DIMADEC
 70
     2
  9
$DIMALTRND
 40
0.0
  9
$DIMAZIN
 70
     0
  9
$DIMDSEP
 70
    44
  9
$DIMATFIT
 70
     3
  9
$DIMFRAC
 70
     0
  9
$DIMLDRBLK
  1

  9
$DIMLUNIT
 70
     2
  9
$DIMLWD
 70
    -2
  9
$DIMLWE
 70
    -2
  9
$DIMTMOVE
 70
     0
  9
$LUNITS
 70
     2
  9
$LUPREC
 70
     2
  9
$SKETCHINC
 40
1.0
  9
$FILLETRAD
 40
10.0
  9
$AUNITS
 70
     1
  9
$AUPREC
 70
     2
  9
$MENU
  1
.
  9
$ELEVATION
 40
0.0
  9
$PELEVATION
 40
0.0
  9
$THICKNESS
 40
0.0
  9
$LIMCHECK
 70
     0
  9
$CHAMFERA
 40
0.0
  9
$CHAMFERB
 40
0.0
  9
$CHAMFERC
 40
0.0
  9
$CHAMFERD
 40
0.0
  9
$SKPOLY
 70
     0
  9
$TDCREATE
 40
2458631.655550671
  9
$TDUCREATE
 40
2458631.426384005
  9
$TDUPDATE
 40
2458631.655551829
  9
$TDUUPDATE
 40
2458631.426385162
  9
$TDINDWG
 40
0.0000000116
  9
$TDUSRTIMER
 40
0.0000000116
  9
$USRTIMER
 70
     1
  9
$ANGBASE
 50
0.0
  9
$ANGDIR
 70
     0
  9
$PDMODE
 70
     0
  9
$PDSIZE
 40
-1.0
  9
$PLINEWID
 40
0.0
  9
$SPLFRAME
 70
     0
  9
$SPLINETYPE
 70
     6
  9
$SPLINESEGS
 70
     8
  9
$HANDSEED
  5
184
  9
$SURFTAB1
 70
     6
  9
$SURFTAB2
 70
     6
  9
$SURFTYPE
 70
     6
  9
$SURFU
 70
     6
  9
$SURFV
 70
     6
  9
$UCSBASE
  2

  9
$UCSNAME
  2

  9
$UCSORG
 10
0.0
 20
0.0
 30
0.0
  9
$UCSXDIR
 10
1.0
 20
0.0
 30
0.0
  9
$UCSYDIR
 10
0.0
 20
1.0
 30
0.0
  9
$UCSORTHOREF
  2

  9
$UCSORTHOVIEW
 70
     0
  9
$UCSORGTOP
 10
0.0
 20
0.0
 30
0.0
  9
$UCSORGBOTTOM
 10
0.0
 20
0.0
 30
0.0
  9
$UCSORGLEFT
 10
0.0
 20
0.0
 30
0.0
  9
$UCSORGRIGHT
 10
0.0
 20
0.0
 30
0.0
  9
$UCSORGFRONT
 10
0.0
 20
0.0
 30
0.0
  9
$UCSORGBACK
 10
0.0
 20
0.0
 30
0.0
  9
$PUCSBASE
  2

  9
$PUCSNAME
  2

  9
$PUCSORG
 10
0.0
 20
0.0
 30
0.0
  9
$PUCSXDIR
 10
1.0
 20
0.0
 30
0.0
  9
$PUCSYDIR
 10
0.0
 20
1.0
 30
0.0
  9
$PUCSORTHOREF
  2

  9
$PUCSORTHOVIEW
 70
     0
  9
$PUCSORGTOP
 10
0.0
 20
0.0
 30
0.0
  9
$PUCSORGBOTTOM
 10
0.0
 20
0.0
 30
0.0
  9
$PUCSORGLEFT
 10
0.0
 20
0.0
 30
0.0
  9
$PUCSORGRIGHT
 10
0.0
 20
0.0
 30
0.0
  9
$PUCSORGFRONT
 10
0.0
 20
0.0
 30
0.0
  9
$PUCSORGBACK
 10
0.0
 20
0.0
 30
0.0
  9
$USERI1
 70
     0
  9
$USERI2
 70
     0
  9
$USERI3
 70
     0
  9
$USERI4
 70
     0
  9
$USERI5
 70
     0
  9
$USERR1
 40
0.0
  9
$USERR2
 40
0.0
  9
$USERR3
 40
0.0
  9
$USERR4
 40
0.0
  9
$USERR5
 40
0.0
  9
$WORLDVIEW
 70
     1
  9
$SHADEDGE
 70
     3
  9
$SHADEDIF
 70
    70
  9
$TILEMODE
 70
     1
  9
$MAXACTVP
 70
    64
  9
$PINSBASE
 10
0.0
 20
0.0
 30
0.0
  9
$PLIMCHECK
 70
     0
  9
$PEXTMIN
 10
1.0000000000E+20
 20
1.0000000000E+20
 30
1.0000000000E+20
  9
$PEXTMAX
 10
-1.0000000000E+20
 20
-1.0000000000E+20
 30
-1.0000000000E+20
  9
$PLIMMIN
 10
0.0
 20
0.0
  9
$PLIMMAX
 10
420.0
 20
297.0
  9
$UNITMODE
 70
     0
  9
$VISRETAIN
 70
     1
  9
$PLINEGEN
 70
     0
  9
$PSLTSCALE
 70
     1
  9
$TREEDEPTH
 70
  3020
  9
$CMLSTYLE
  2
Standard
  9
$CMLJUST
 70
     0
  9
$CMLSCALE
 40
20.0
  9
$PROXYGRAPHICS
 70
     1
  9
$MEASUREMENT
 70
     1
  9
$CELWEIGHT
370
    -1
  9
$ENDCAPS
280
     0
  9
$JOINSTYLE
280
     0
  9
$LWDISPLAY
290
     1
  9
$INSUNITS
 70
     4
  9
$HYPERLINKBASE
  1

  9
$STYLESHEET
  1

  9
$XEDIT
290
     1
  9
$CEPSNTYPE
380
     0
  9
$PSTYLEMODE
290
     1
  9
$FINGERPRINTGUID
  2
{56D8AF57-83CC-40EB-8CE1-FEA31B0F27A9}
  9
$VERSIONGUID
  2
{FAEB1C32-E019-11D5-929B-00C0DF256EC4}
  9
$EXTNAMES
290
     1
  9
$PSVPSCALE
 40
0.0
  9
$OLESTARTUP
290
     0
  0
ENDSEC
  0
SECTION
  2
CLASSES
  0
CLASS
  1
ACDBDICTIONARYWDFLT
  2
AcDbDictionaryWithDefault
  3
ObjectDBX Classes
 90
        0
280
     0
281
     0
  0
CLASS
  1
VISUALSTYLE
  2
AcDbVisualStyle
  3
ObjectDBX Classes
 90
     4095
280
     0
281
     0
  0
CLASS
  1
MATERIAL
  2
AcDbMaterial
  3
ObjectDBX Classes
 90
     1153
280
     0
281
     0
  0
CLASS
  1
SCALE
  2
AcDbScale
  3
ObjectDBX Classes
 90
     1153
280
     0
281
     0
  0
CLASS
  1
SUN
  2
AcDbSun
  3
SCENEOE
 90
     1153
280
     0
281
     0
  0
CLASS
  1
ACDBPLACEHOLDER
  2
AcDbPlaceHolder
  3
ObjectDBX Classes
 90
        0
280
     0
281
     0
  0
CLASS
  1
LAYOUT
  2
AcDbLayout
  3
ObjectDBX Classes
 90
        0
280
     0
281
     0
  0
ENDSEC
  0
SECTION
  2
TABLES
  0
TABLE
  2
VPORT
  5
8
330
0
100
AcDbSymbolTable
 70
     1
  0
VPORT
  5
29
330
8
100
AcDbSymbolTableRecord
100
AcDbViewportTableRecord
  2
*Active
 70
     0
 10
0.0
 20
0.0
 11
1.0
 21
1.0
 12
148.5
 22
105.0
 13
0.0
 23
0.0
 14
10.0
 24
10.0
 15
10.0
 25
10.0
 16
0.0
 26
0.0
 36
1.0
 17
0.0
 27
0.0
 37
0.0
 40
210.0
 41
1.4142857143
 42
50.0
 43
0.0
 44
0.0
 50
0.0
 51
0.0
 71
     0
 72
  2000
 73
     1
 74
     3
 75
     0
 76
     0
 77
     0
 78
     0
281
     0
 65
     1
110
0.0
120
0.0
130
0.0
111
1.0
121
0.0
131
0.0
112
0.0
122
1.0
132
0.0
 79
     0
146
0.0
  0
ENDTAB
  0
TABLE
  2
LTYPE
  5
5
330
0
100
AcDbSymbolTable
 70
     6
  0
LTYPE
  5
14
330
5
100
AcDbSymbolTableRecord
100
AcDbLinetypeTableRecord
  2
ByBlock
 70
     0
  3

 72
    65
 73
     0
 40
0.0
  0
LTYPE
  5
15
330
5
100
AcDbSymbolTableRecord
100
AcDbLinetypeTableRecord
  2
ByLayer
 70
     0
  3

 72
    65
 73
     0
 40
0.0
  0
LTYPE
  5
16
330
5
100
AcDbSymbolTableRecord
100
AcDbLinetypeTableRecord
  2
Continuous
 70
     0
  3
Solid line
 72
    65
 73
     0
 40
0.0
  0
LTYPE
  5
6A
330
5
100
AcDbSymbolTableRecord
100
AcDbLinetypeTableRecord
  2
HIDDEN
 70
     0
  3
Hidden __ __ __ __ __ __ __ __ __ __ __ __ __ __
 72
    65
 73
     2
 40
1.905
 49
1.27
 74
     0
 49
-0.635
 74
     0
  0
LTYPE
  5
6B
330
5
100
AcDbSymbolTableRecord
100
AcDbLinetypeTableRecord
  2
PHANTOM
 70
     0
  3
Phantom ______  __  __  ______  __  __  ______
 72
    65
 73
     6
 40
12.7
 49
6.35
 74
     0
 49
-1.27
 74
     0
 49
1.27
 74
     0
 49
-1.27
 74
     0
 49
1.27
 74
     0
 49
-1.27
 74
     0
  0
LTYPE
  5
6C
330
5
100
AcDbSymbolTableRecord
100
AcDbLinetypeTableRecord
  2
CENTER
 70
     0
  3
Center ____ _ ____ _ ____ _ ____ _ ____ _ ____
 72
    65
 73
     4
 40
10.16
 49
6.35
 74
     0
 49
-1.27
 74
     0
 49
1.27
 74
     0
 49
-1.27
 74
     0
  0
LTYPE
  5
6D
330
5
100
AcDbSymbolTableRecord
100
AcDbLinetypeTableRecord
  2
CENTERX2
 70
     0
  3
Center (2x) ________  __  ________  __  _____
 72
    65
 73
     4
 40
20.32
 49
12.7
 74
     0
 49
-2.54
 74
     0
 49
2.54
 74
     0
 49
-2.54
 74
     0
  0
LTYPE
  5
6E
330
5
100
AcDbSymbolTableRecord
100
AcDbLinetypeTableRecord
  2
DOT2
 70
     0
  3
Dot (.5x) ........................................
 72
    65
 73
     2
 40
0.635
 49
0.0
 74
     0
 49
-0.635
 74
     0
  0
ENDTAB
  0
TABLE
  2
LAYER
  5
2
330
0
100
AcDbSymbolTable
 70
     8
  0
LAYER
  5
10
330
2
100
AcDbSymbolTableRecord
100
AcDbLayerTableRecord
  2
0
 70
     0
 62
     7
  6
Continuous
370
    -3
390
F
  0
LAYER
  5
6F
330
2
100
AcDbSymbolTableRecord
100
AcDbLayerTableRecord
  2
FORMAT
 70
     0
 62
     7
  6
Continuous
370
    -3
390
F
  0
LAYER
  5
70
330
2
100
AcDbSymbolTableRecord
100
AcDbLayerTableRecord
  2
SLD-0
 70
     0
 62
     2
  6
Continuous
370
    -3
390
F
  0
LAYER
  5
71
330
2
100
AcDbSymbolTableRecord
100
AcDbLayerTableRecord
  2
DIM
 70
     0
 62
   179
  6
Continuous
370
    -3
390
F
  0
LAYER
  5
72
330
2
100
AcDbSymbolTableRecord
100
AcDbLayerTableRecord
  2
SLD-DEFPOINTS
 70
     0
 62
   179
  6
Continuous
370
    -3
390
F
  0
LAYER
  5
73
330
2
100
AcDbSymbolTableRecord
100
AcDbLayerTableRecord
  2
HAT
 70
     0
 62
   135
  6
Continuous
370
    -3
390
F
  0
LAYER
  5
74
330
2
100
AcDbSymbolTableRecord
100
AcDbLayerTableRecord
  2
JOB
 70
     0
 62
   201
  6
Continuous
370
    -3
390
F
  0
LAYER
  5
75
330
2
100
AcDbSymbolTableRecord
100
AcDbLayerTableRecord
  2
INSPECTION_REPORT
 70
     0
 62
   255
  6
Continuous
370
    -3
390
F
  0
ENDTAB
  0
TABLE
  2
STYLE
  5
3
330
0
100
AcDbSymbolTable
 70
     4
  0
STYLE
  5
11
330
3
100
AcDbSymbolTableRecord
100
AcDbTextStyleTableRecord
  2
Standard
 70
     0
 40
0.0
 41
1.0
 50
0.0
 71
     0
 42
3.8805555556
  3
txt
  4

  0
STYLE
  5
96
330
3
100
AcDbSymbolTableRecord
100
AcDbTextStyleTableRecord
  2
SLDTEXTSTYLE0
 70
     0
 40
0.0
 41
0.7
 50
0.0
 71
     0
 42
3.8805555556
  3
TXT
  4

  0
STYLE
  5
98
330
3
100
AcDbSymbolTableRecord
100
AcDbTextStyleTableRecord
  2
SLDTEXTSTYLE1
 70
     0
 40
0.0
 41
0.75
 50
0.0
 71
     0
 42
3.8805555556
  3
TXT
  4

  0
STYLE
  5
AB
330
3
100
AcDbSymbolTableRecord
100
AcDbTextStyleTableRecord
  2
SLDTEXTSTYLE2
 70
     0
 40
0.0
 41
0.6875
 50
0.0
 71
     0
 42
3.8805555556
  3
TXT
  4

  0
ENDTAB
  0
TABLE
  2
VIEW
  5
6
330
0
100
AcDbSymbolTable
 70
     0
  0
ENDTAB
  0
TABLE
  2
UCS
  5
7
330
0
100
AcDbSymbolTable
 70
     0
  0
ENDTAB
  0
TABLE
  2
APPID
  5
9
330
0
100
AcDbSymbolTable
 70
     1
  0
APPID
  5
12
330
9
100
AcDbSymbolTableRecord
100
AcDbRegAppTableRecord
  2
ACAD
 70
     0
  0
ENDTAB
  0
TABLE
  2
DIMSTYLE
  5
A
330
0
100
AcDbSymbolTable
 70
     5
100
AcDbDimStyleTable
  0
DIMSTYLE
105
27
330
A
100
AcDbSymbolTableRecord
100
AcDbDimStyleTableRecord
  2
ISO-25
 70
     0
 41
2.5
 42
0.625
 43
3.75
 44
1.25
 73
     0
 74
     0
 77
     1
 78
     8
140
2.5
141
2.5
143
0.0393700787
147
0.625
171
     3
172
     1
178
     0
271
     2
272
     2
274
     3
278
    44
283
     0
284
     8
340
11
  0
DIMSTYLE
105
13C
102
{ACAD_REACTORS
330
13B
330
147
102
}
330
A
100
AcDbSymbolTableRecord
100
AcDbDimStyleTableRecord
  2
SLDDIMSTYLE0
 70
     0
 41
3.302
 44
0.0
 45
0.000000001
 73
     0
 74
     0
 77
     1
 78
    12
 79
     3
140
2.9104166667
147
0.7276041667
172
     1
173
     1
178
     0
271
     2
272
     2
276
     2
284
    12
289
     0
340
96
  0
DIMSTYLE
105
155
102
{ACAD_REACTORS
330
154
102
}
330
A
100
AcDbSymbolTableRecord
100
AcDbDimStyleTableRecord
  2
SLDDIMSTYLE1
 70
     0
 41
3.302
 44
0.0
 45
0.000000001
 73
     0
 74
     0
 77
     1
 78
    12
 79
     3
140
2.9104166667
147
0.7276041667
173
     1
178
     0
271
     0
272
     2
276
     2
284
    12
340
96
  0
DIMSTYLE
105
160
102
{ACAD_REACTORS
330
15F
330
175
102
}
330
A
100
AcDbSymbolTableRecord
100
AcDbDimStyleTableRecord
  2
SLDDIMSTYLE2
 70
     0
 41
3.302
 44
0.0
 45
0.000000001
 73
     0
 74
     0
 77
     1
 78
    12
 79
     3
140
2.9104166667
147
0.7276041667
173
     1
178
     0
271
     2
272
     2
276
     2
284
    12
340
96
  0
DIMSTYLE
105
16B
102
{ACAD_REACTORS
330
16A
102
}
330
A
100
AcDbSymbolTableRecord
100
AcDbDimStyleTableRecord
  2
SLDDIMSTYLE3
 70
     0
 41
3.302
 44
0.0
 45
0.000000001
 73
     0
 74
     0
 77
     1
 78
     4
 79
     1
140
2.9104166667
147
0.7276041667
173
     1
178
     0
271
     2
272
     2
276
     2
284
    12
340
96
  0
ENDTAB
  0
TABLE
  2
BLOCK_RECORD
  5
1
330
0
100
AcDbSymbolTable
 70
     7
  0
BLOCK_RECORD
  5
1F
330
1
100
AcDbSymbolTableRecord
100
AcDbBlockTableRecord
  2
*Model_Space
340
22
  0
BLOCK_RECORD
  5
1B
330
1
100
AcDbSymbolTableRecord
100
AcDbBlockTableRecord
  2
*Paper_Space
340
1E
  0
BLOCK_RECORD
  5
23
330
1
100
AcDbSymbolTableRecord
100
AcDbBlockTableRecord
  2
*Paper_Space0
340
26
  0
BLOCK_RECORD
  5
13D
330
1
100
AcDbSymbolTableRecord
100
AcDbBlockTableRecord
  2
_D
340
0
  0
BLOCK_RECORD
  5
148
330
1
100
AcDbSymbolTableRecord
100
AcDbBlockTableRecord
  2
_D_1
340
0
  0
BLOCK_RECORD
  5
156
330
1
100
AcDbSymbolTableRecord
100
AcDbBlockTableRecord
  2
_D_2
340
0
  0
BLOCK_RECORD
  5
161
330
1
100
AcDbSymbolTableRecord
100
AcDbBlockTableRecord
  2
_D_3
340
0
  0
BLOCK_RECORD
  5
16C
330
1
100
AcDbSymbolTableRecord
100
AcDbBlockTableRecord
  2
_D_4
340
0
  0
BLOCK_RECORD
  5
176
330
1
100
AcDbSymbolTableRecord
100
AcDbBlockTableRecord
  2
_D_5
340
0
  0
ENDTAB
  0
ENDSEC
  0
SECTION
  2
BLOCKS
  0
BLOCK
  5
20
330
1F
100
AcDbEntity
  8
0
100
AcDbBlockBegin
  2
*Model_Space
 70
     0
 10
0.0
 20
0.0
 30
0.0
  3
*Model_Space
  1
*Model_Space
  0
ENDBLK
  5
21
330
1F
100
AcDbEntity
  8
0
100
AcDbBlockEnd
  0
BLOCK
  5
1C
330
1B
100
AcDbEntity
 67
     1
  8
0
100
AcDbBlockBegin
  2
*Paper_Space
 70
     0
 10
0.0
 20
0.0
 30
0.0
  3
*Paper_Space
  1
*Paper_Space
  0
ENDBLK
  5
1D
330
1B
100
AcDbEntity
 67
     1
  8
0
100
AcDbBlockEnd
  0
BLOCK
  5
24
330
23
100
AcDbEntity
  8
0
100
AcDbBlockBegin
  2
*Paper_Space0
 70
     0
 10
0.0
 20
0.0
 30
0.0
  3
*Paper_Space0
  1
*Paper_Space0
  0
ENDBLK
  5
25
330
23
100
AcDbEntity
  8
0
100
AcDbBlockEnd
  0
BLOCK
  5
13E
330
13D
100
AcDbEntity
  8
0
100
AcDbBlockBegin
  2
_D
 70
     0
 10
0.0
 20
0.0
 30
0.0
  3
_D
  1
_D
  0
SOLID
  5
140
330
13D
100
AcDbEntity
  8
DIM
100
AcDbTrace
 10
248.5308353325
 20
105.9994217149
 30
0.0
 11
249.0388353325
 21
109.3014217149
 31
0.0
 12
248.0228353325
 22
109.3014217149
 32
0.0
 13
248.0228353325
 23
109.3014217149
 33
0.0
  0
SOLID
  5
141
330
13D
100
AcDbEntity
  8
DIM
100
AcDbTrace
 10
248.5308353325
 20
127.9994217149
 30
0.0
 11
248.0228353325
 21
124.6974217149
 31
0.0
 12
249.0388353325
 22
124.6974217149
 32
0.0
 13
249.0388353325
 23
124.6974217149
 33
0.0
  0
LINE
  5
142
330
13D
100
AcDbEntity
  8
DIM
100
AcDbLine
 10
227.5169374438
 20
105.9994217149
 30
0.0
 11
249.5308353325
 21
105.9994217149
 31
0.0
  0
LINE
  5
143
330
13D
100
AcDbEntity
  8
DIM
100
AcDbLine
 10
227.5169374438
 20
127.9994217149
 30
0.0
 11
249.5308353325
 21
127.9994217149
 31
0.0
  0
LINE
  5
144
330
13D
100
AcDbEntity
  8
DIM
100
AcDbLine
 10
248.5308353325
 20
105.9994217149
 30
0.0
 11
248.5308353325
 21
127.9994217149
 31
0.0
  0
MTEXT
  5
145
330
13D
100
AcDbEntity
  8
DIM
100
AcDbMText
 10
244.7791108654
 20
112.78187761
 30
0.0
 40
2.9104166667
 41
0.0
 71
     1
 72
     1
  1
%%c
  7
SLDTEXTSTYLE0
 11
2.503722994132712E-15
 21
1.0
 31
0.0
 73
     1
 44
1.0
  0
MTEXT
  5
146
330
13D
100
AcDbEntity
  8
DIM
100
AcDbMText
 10
244.7791108654
 20
117.2825135096
 30
0.0
 40
2.9104166667
 41
0.0
 71
     1
 72
     1
  1
22
  7
SLDTEXTSTYLE0
 11
2.503722994132712E-15
 21
1.0
 31
0.0
 73
     1
 44
1.0
  0
ENDBLK
  5
13F
330
13D
100
AcDbEntity
  8
0
100
AcDbBlockEnd
  0
BLOCK
  5
149
330
148
100
AcDbEntity
  8
0
100
AcDbBlockBegin
  2
_D_1
 70
     0
 10
0.0
 20
0.0
 30
0.0
  3
_D_1
  1
_D_1
  0
SOLID
  5
14B
330
148
100
AcDbEntity
  8
DIM
100
AcDbTrace
 10
254.8778837792
 20
136.9994217149
 30
0.0
 11
255.3858837792
 21
140.3014217149
 31
0.0
 12
254.3698837792
 22
140.3014217149
 32
0.0
 13
254.3698837792
 23
140.3014217149
 33
0.0
  0
SOLID
  5
14C
330
148
100
AcDbEntity
  8
DIM
100
AcDbTrace
 10
254.8778837792
 20
96.9994217149
 30
0.0
 11
254.3698837792
 21
93.6974217149
 31
0.0
 12
255.3858837792
 22
93.6974217149
 32
0.0
 13
255.3858837792
 23
93.6974217149
 33
0.0
  0
LINE
  5
14D
330
148
100
AcDbEntity
  8
DIM
100
AcDbLine
 10
214.5891806298
 20
136.9994217149
 30
0.0
 11
255.8778837792
 21
136.9994217149
 31
0.0
  0
LINE
  5
14E
330
148
100
AcDbEntity
  8
DIM
100
AcDbLine
 10
214.5891806298
 20
96.9994217149
 30
0.0
 11
255.8778837792
 21
96.9994217149
 31
0.0
  0
LINE
  5
14F
330
148
100
AcDbEntity
  8
DIM
100
AcDbLine
 10
254.8778837792
 20
136.9994217149
 30
0.0
 11
254.8778837792
 21
143.3494217149
 31
0.0
  0
LINE
  5
150
330
148
100
AcDbEntity
  8
DIM
100
AcDbLine
 10
254.8778837792
 20
136.9994217149
 30
0.0
 11
254.8778837792
 21
96.9994217149
 31
0.0
  0
LINE
  5
151
330
148
100
AcDbEntity
  8
DIM
100
AcDbLine
 10
254.8778837792
 20
96.9994217149
 30
0.0
 11
254.8778837792
 21
90.6494217149
 31
0.0
  0
MTEXT
  5
152
330
148
100
AcDbEntity
  8
DIM
100
AcDbMText
 10
251.1261593121
 20
112.78187761
 30
0.0
 40
2.9104166667
 41
0.0
 71
     1
 72
     1
  1
%%c
  7
SLDTEXTSTYLE0
 11
-7.044195017643634E-15
 21
1.0
 31
0.0
 73
     1
 44
1.0
  0
MTEXT
  5
153
330
148
100
AcDbEntity
  8
DIM
100
AcDbMText
 10
251.1261593121
 20
117.2825135096
 30
0.0
 40
2.9104166667
 41
0.0
 71
     1
 72
     1
  1
40
  7
SLDTEXTSTYLE0
 11
-7.044195017643634E-15
 21
1.0
 31
0.0
 73
     1
 44
1.0
  0
ENDBLK
  5
14A
330
148
100
AcDbEntity
  8
0
100
AcDbBlockEnd
  0
BLOCK
  5
157
330
156
100
AcDbEntity
  8
0
100
AcDbBlockBegin
  2
_D_2
 70
     0
 10
0.0
 20
0.0
 30
0.0
  3
_D_2
  1
_D_2
  0
SOLID
  5
159
330
156
100
AcDbEntity
  8
DIM
100
AcDbTrace
 10
227.9891806298
 20
80.6558451092
 30
0.0
 11
224.6871806298
 21
81.1638451092
 31
0.0
 12
224.6871806298
 22
80.1478451092
 32
0.0
 13
224.6871806298
 23
80.1478451092
 33
0.0
  0
SOLID
  5
15A
330
156
100
AcDbEntity
  8
DIM
100
AcDbTrace
 10
208.7891806274
 20
80.6558451092
 30
0.0
 11
212.0911806274
 21
80.1478451092
 31
0.0
 12
212.0911806274
 22
81.1638451092
 32
0.0
 13
212.0911806274
 23
81.1638451092
 33
0.0
  0
LINE
  5
15B
330
156
100
AcDbEntity
  8
DIM
100
AcDbLine
 10
227.9891806298
 20
105.8494217149
 30
0.0
 11
227.9891806298
 21
79.6558451092
 31
0.0
  0
LINE
  5
15C
330
156
100
AcDbEntity
  8
DIM
100
AcDbLine
 10
208.7891806274
 20
96.634504984
 30
0.0
 11
208.7891806274
 21
79.6558451092
 31
0.0
  0
LINE
  5
15D
330
156
100
AcDbEntity
  8
DIM
100
AcDbLine
 10
227.9891806298
 20
80.6558451092
 30
0.0
 11
208.7891806274
 21
80.6558451092
 31
0.0
  0
MTEXT
  5
15E
330
156
100
AcDbEntity
  8
DIM
100
AcDbMText
 10
216.4219544735
 20
84.4075695763
 30
0.0
 40
2.9104166667
 41
0.0
 71
     1
 72
     1
  1
19
  7
SLDTEXTSTYLE0
 73
     1
 44
1.0
  0
ENDBLK
  5
158
330
156
100
AcDbEntity
  8
0
100
AcDbBlockEnd
  0
BLOCK
  5
162
330
161
100
AcDbEntity
  8
0
100
AcDbBlockBegin
  2
_D_3
 70
     0
 10
0.0
 20
0.0
 30
0.0
  3
_D_3
  1
_D_3
  0
SOLID
  5
164
330
161
100
AcDbEntity
  8
DIM
100
AcDbTrace
 10
208.7891806274
 20
80.6558451092
 30
0.0
 11
205.4871806274
 21
81.1638451092
 31
0.0
 12
205.4871806274
 22
80.1478451092
 32
0.0
 13
205.4871806274
 23
80.1478451092
 33
0.0
  0
SOLID
  5
165
330
161
100
AcDbEntity
  8
DIM
100
AcDbTrace
 10
108.7891806298
 20
80.6558451092
 30
0.0
 11
112.0911806298
 21
80.1478451092
 31
0.0
 12
112.0911806298
 22
81.1638451092
 32
0.0
 13
112.0911806298
 23
81.1638451092
 33
0.0
  0
LINE
  5
166
330
161
100
AcDbEntity
  8
DIM
100
AcDbLine
 10
208.7891806274
 20
96.634504984
 30
0.0
 11
208.7891806274
 21
79.6558451092
 31
0.0
  0
LINE
  5
167
330
161
100
AcDbEntity
  8
DIM
100
AcDbLine
 10
108.7891806298
 20
93.7744217149
 30
0.0
 11
108.7891806298
 21
79.6558451092
 31
0.0
  0
LINE
  5
168
330
161
100
AcDbEntity
  8
DIM
100
AcDbLine
 10
208.7891806274
 20
80.6558451092
 30
0.0
 11
108.7891806298
 21
80.6558451092
 31
0.0
  0
MTEXT
  5
169
330
161
100
AcDbEntity
  8
DIM
100
AcDbMText
 10
155.838341396
 20
84.4075695763
 30
0.0
 40
2.9104166667
 41
0.0
 71
     1
 72
     1
  1
100
  7
SLDTEXTSTYLE0
 73
     1
 44
1.0
  0
ENDBLK
  5
163
330
161
100
AcDbEntity
  8
0
100
AcDbBlockEnd
  0
BLOCK
  5
16D
330
16C
100
AcDbEntity
  8
0
100
AcDbBlockBegin
  2
_D_4
 70
     0
 10
0.0
 20
0.0
 30
0.0
  3
_D_4
  1
_D_4
  0
SOLID
  5
16F
330
16C
100
AcDbEntity
  8
DIM
100
AcDbTrace
 10
43.38918063
 20
65.757827921
 30
0.0
 11
46.69118063
 21
65.249827921
 31
0.0
 12
46.69118063
 22
66.265827921
 32
0.0
 13
46.69118063
 23
66.265827921
 33
0.0
  0
SOLID
  5
170
330
16C
100
AcDbEntity
  8
DIM
100
AcDbTrace
 10
239.9891806298
 20
65.757827921
 30
0.0
 11
236.6871806298
 21
66.265827921
 31
0.0
 12
236.6871806298
 22
65.249827921
 32
0.0
 13
236.6871806298
 23
65.249827921
 33
0.0
  0
LINE
  5
171
330
16C
100
AcDbEntity
  8
DIM
100
AcDbLine
 10
43.38918063
 20
115.9994217149
 30
0.0
 11
43.38918063
 21
64.757827921
 31
0.0
  0
LINE
  5
172
330
16C
100
AcDbEntity
  8
DIM
100
AcDbLine
 10
239.9891806298
 20
102.7494217149
 30
0.0
 11
239.9891806298
 21
64.757827921
 31
0.0
  0
LINE
  5
173
330
16C
100
AcDbEntity
  8
DIM
100
AcDbLine
 10
43.38918063
 20
65.757827921
 30
0.0
 11
239.9891806298
 21
65.757827921
 31
0.0
  0
MTEXT
  5
174
330
16C
100
AcDbEntity
  8
DIM
100
AcDbMText
 10
136.2537078099
 20
69.5095523881
 30
0.0
 40
2.9104166667
 41
0.0
 71
     1
 72
     1
  1
196.60
  7
SLDTEXTSTYLE0
 73
     1
 44
1.0
  0
ENDBLK
  5
16E
330
16C
100
AcDbEntity
  8
0
100
AcDbBlockEnd
  0
BLOCK
  5
177
330
176
100
AcDbEntity
  8
0
100
AcDbBlockBegin
  2
_D_5
 70
     0
 10
0.0
 20
0.0
 30
0.0
  3
_D_5
  1
_D_5
  0
SOLID
  5
179
330
176
100
AcDbEntity
  8
DIM
100
AcDbTrace
 10
37.5092301068
 20
148.4994217149
 30
0.0
 11
37.0012301068
 21
145.1974217149
 31
0.0
 12
38.0172301068
 22
145.1974217149
 32
0.0
 13
38.0172301068
 23
145.1974217149
 33
0.0
  0
SOLID
  5
17A
330
176
100
AcDbEntity
  8
DIM
100
AcDbTrace
 10
37.5092301068
 20
85.4994217149
 30
0.0
 11
38.0172301068
 21
88.8014217149
 31
0.0
 12
37.0012301068
 22
88.8014217149
 32
0.0
 13
37.0012301068
 23
88.8014217149
 33
0.0
  0
LINE
  5
17B
330
176
100
AcDbEntity
  8
DIM
100
AcDbLine
 10
110.9548660548
 20
148.4994217149
 30
0.0
 11
36.5092301068
 21
148.4994217149
 31
0.0
  0
LINE
  5
17C
330
176
100
AcDbEntity
  8
DIM
100
AcDbLine
 10
110.9548660548
 20
85.4994217149
 30
0.0
 11
36.5092301068
 21
85.4994217149
 31
0.0
  0
LINE
  5
17D
330
176
100
AcDbEntity
  8
DIM
100
AcDbLine
 10
37.5092301068
 20
148.4994217149
 30
0.0
 11
37.5092301068
 21
85.4994217149
 31
0.0
  0
MTEXT
  5
17E
330
176
100
AcDbEntity
  8
DIM
100
AcDbMText
 10
33.7575056396
 20
112.78187761
 30
0.0
 40
2.9104166667
 41
0.0
 71
     1
 72
     1
  1
%%c
  7
SLDTEXTSTYLE0
 11
-7.044195017643634E-15
 21
1.0
 31
0.0
 73
     1
 44
1.0
  0
MTEXT
  5
17F
330
176
100
AcDbEntity
  8
DIM
100
AcDbMText
 10
33.7575056396
 20
117.2825135096
 30
0.0
 40
2.9104166667
 41
0.0
 71
     1
 72
     1
  1
63
  7
SLDTEXTSTYLE0
 11
-7.044195017643634E-15
 21
1.0
 31
0.0
 73
     1
 44
1.0
  0
ENDBLK
  5
178
330
176
100
AcDbEntity
  8
0
100
AcDbBlockEnd
  0
ENDSEC
  0
SECTION
  2
ENTITIES
  0
LINE
  5
76
330
1F
100
AcDbEntity
  8
DIM
100
AcDbLine
 10
104.704424689
 20
9.7909914569
 30
0.0
 11
104.704424689
 21
4.7909914569
 31
0.0
  0
LINE
  5
77
330
1F
100
AcDbEntity
  8
DIM
100
AcDbLine
 10
254.4696016953
 20
9.7909914569
 30
0.0
 11
254.4696016953
 21
4.7909914569
 31
0.0
  0
LINE
  5
78
330
1F
100
AcDbEntity
  8
DIM
100
AcDbLine
 10
237.4517099316
 20
9.7909914569
 30
0.0
 11
237.4517099316
 21
4.7909914569
 31
0.0
  0
LINE
  5
79
330
1F
100
AcDbEntity
  8
DIM
100
AcDbLine
 10
278.904424689
 20
4.7909914569
 30
0.0
 11
278.904424689
 21
9.7909914569
 31
0.0
  0
LINE
  5
7A
330
1F
100
AcDbEntity
  8
DIM
100
AcDbLine
 10
112.504424689
 20
9.7909914569
 30
0.0
 11
112.504424689
 21
4.7909914569
 31
0.0
  0
LINE
  5
7B
330
1F
100
AcDbEntity
  8
DIM
100
AcDbLine
 10
131.6953771228
 20
9.7909914569
 30
0.0
 11
131.6953771228
 21
4.7909914569
 31
0.0
  0
LINE
  5
7C
330
1F
100
AcDbEntity
  8
DIM
100
AcDbLine
 10
291.904424689
 20
4.7909914569
 30
0.0
 11
291.904424689
 21
77.0409914569
 31
0.0
  0
LINE
  5
7D
330
1F
100
AcDbEntity
  8
DIM
100
AcDbLine
 10
285.8190046947
 20
60.0409914569
 30
0.0
 11
291.904424689
 21
60.0409914569
 31
0.0
  0
LINE
  5
7E
330
1F
100
AcDbEntity
  8
DIM
100
AcDbLine
 10
149.1033508525
 20
9.0409914569
 30
0.0
 11
149.1033508525
 21
4.7909914569
 31
0.0
  0
LINE
  5
7F
330
1F
100
AcDbEntity
  8
DIM
100
AcDbLine
 10
196.7639491604
 20
9.7909914569
 30
0.0
 11
196.7639491604
 21
4.7909914569
 31
0.0
  0
LINE
  5
80
330
1F
100
AcDbEntity
  8
DIM
100
AcDbLine
 10
149.1033508525
 20
9.7909914569
 30
0.0
 11
149.1033508525
 21
9.0409914569
 31
0.0
  0
LINE
  5
81
330
1F
100
AcDbEntity
  8
DIM
100
AcDbLine
 10
286.904424689
 20
17.5409194569
 30
0.0
 11
291.904424689
 21
17.5409194569
 31
0.0
  0
LINE
  5
82
330
1F
100
AcDbEntity
  8
DIM
100
AcDbLine
 10
286.904424689
 20
199.7909914569
 30
0.0
 11
9.904424689
 21
199.7909914569
 31
0.0
  0
LINE
  5
83
330
1F
100
AcDbEntity
  8
DIM
100
AcDbLine
 10
291.904424689
 20
204.7909914569
 30
0.0
 11
4.904424689
 21
204.7909914569
 31
0.0
  0
LINE
  5
84
330
1F
100
AcDbEntity
  8
DIM
100
AcDbLine
 10
9.904424689
 20
199.7909914569
 30
0.0
 11
9.904424689
 21
9.7909914569
 31
0.0
  0
LINE
  5
85
330
1F
100
AcDbEntity
  8
DIM
100
AcDbLine
 10
4.904424689
 20
204.7909914569
 30
0.0
 11
4.904424689
 21
4.7909914569
 31
0.0
  0
LINE
  5
86
330
1F
100
AcDbEntity
  8
DIM
100
AcDbLine
 10
9.904424689
 20
54.7909914569
 30
0.0
 11
4.904424689
 21
54.7909914569
 31
0.0
  0
LINE
  5
87
330
1F
100
AcDbEntity
  8
DIM
100
AcDbLine
 10
4.904424689
 20
104.7909914569
 30
0.0
 11
9.904424689
 21
104.7909914569
 31
0.0
  0
LINE
  5
88
330
1F
100
AcDbEntity
  8
DIM
100
AcDbLine
 10
4.904424689
 20
4.7909914569
 30
0.0
 11
291.904424689
 21
4.7909914569
 31
0.0
  0
LINE
  5
89
330
1F
100
AcDbEntity
  8
DIM
100
AcDbLine
 10
9.904424689
 20
9.7909914569
 30
0.0
 11
291.904424689
 21
9.7909914569
 31
0.0
  0
LINE
  5
8A
330
1F
100
AcDbEntity
  8
DIM
100
AcDbLine
 10
48.404424689
 20
4.7909914569
 30
0.0
 11
48.404424689
 21
9.7909914569
 31
0.0
  0
LINE
  5
8B
330
1F
100
AcDbEntity
  8
DIM
100
AcDbLine
 10
98.404424689
 20
9.7909914569
 30
0.0
 11
98.404424689
 21
4.7909914569
 31
0.0
  0
LINE
  5
8C
330
1F
100
AcDbEntity
  8
DIM
100
AcDbLine
 10
9.904424689
 20
154.7909914569
 30
0.0
 11
4.904424689
 21
154.7909914569
 31
0.0
  0
LINE
  5
8D
330
1F
100
AcDbEntity
  8
DIM
100
AcDbLine
 10
48.404424689
 20
199.7909914569
 30
0.0
 11
48.404424689
 21
204.7909914569
 31
0.0
  0
LINE
  5
8E
330
1F
100
AcDbEntity
  8
DIM
100
AcDbLine
 10
98.404424689
 20
204.7909914569
 30
0.0
 11
98.404424689
 21
199.7909914569
 31
0.0
  0
LINE
  5
8F
330
1F
100
AcDbEntity
  8
DIM
100
AcDbLine
 10
148.404424689
 20
204.7909914569
 30
0.0
 11
148.404424689
 21
199.7909914569
 31
0.0
  0
LINE
  5
90
330
1F
100
AcDbEntity
  8
DIM
100
AcDbLine
 10
286.904424689
 20
9.7909914569
 30
0.0
 11
286.904424689
 21
199.7909914569
 31
0.0
  0
LINE
  5
91
330
1F
100
AcDbEntity
  8
DIM
100
AcDbLine
 10
291.904424689
 20
77.0409914569
 30
0.0
 11
291.904424689
 21
204.7909914569
 31
0.0
  0
LINE
  5
92
330
1F
100
AcDbEntity
  8
DIM
100
AcDbLine
 10
291.904424689
 20
104.7909914569
 30
0.0
 11
286.904424689
 21
104.7909914569
 31
0.0
  0
LINE
  5
93
330
1F
100
AcDbEntity
  8
DIM
100
AcDbLine
 10
198.404424689
 20
204.7909914569
 30
0.0
 11
198.404424689
 21
199.7909914569
 31
0.0
  0
LINE
  5
94
330
1F
100
AcDbEntity
  8
DIM
100
AcDbLine
 10
248.404424689
 20
199.7909914569
 30
0.0
 11
248.404424689
 21
204.7909914569
 31
0.0
  0
LINE
  5
95
330
1F
100
AcDbEntity
  8
DIM
100
AcDbLine
 10
286.904424689
 20
154.7909914569
 30
0.0
 11
291.904424689
 21
154.7909914569
 31
0.0
  0
MTEXT
  5
97
330
1F
100
AcDbEntity
  8
DIM
100
AcDbMText
 10
16.7039741965
 20
192.951218434
 30
0.0
 40
4.2333333333
 41
0.0
 71
     1
 72
     1
  1
BT40 CSMA22 100 AD/6.3G 15000 SL SP.S
  7
SLDTEXTSTYLE0
 73
     1
 44
1.0
  0
MTEXT
  5
99
330
1F
100
AcDbEntity
  8
DIM
 62
     7
100
AcDbMText
 10
197.7327786466
 20
7.8019515263
 30
0.0
 40
1.4986
 41
0.0
 71
     1
 72
     1
  1
WEIGHT:
  7
SLDTEXTSTYLE1
 73
     1
 44
1.0
  0
MTEXT
  5
9A
330
1F
100
AcDbEntity
  8
DIM
 62
     7
100
AcDbMText
 10
288.5970767548
 20
81.9406135082
 30
0.0
 40
1.8520833333
 41
0.0
 71
     1
 72
     1
  1
C
  7
SLDTEXTSTYLE1
 73
     1
 44
1.0
  0
MTEXT
  5
9B
330
1F
100
AcDbEntity
  8
DIM
 62
     7
100
AcDbMText
 10
283.0435806195
 20
14.8539819836
 30
0.0
 40
2.9104166667
 41
0.0
 71
     1
 72
     1
  1
A4
  7
SLDTEXTSTYLE1
 73
     1
 44
1.0
  0
MTEXT
  5
9C
330
1F
100
AcDbEntity
  8
DIM
 62
     7
100
AcDbMText
 10
272.5710953557
 20
203.4590078604
 30
0.0
 40
1.8520833333
 41
0.0
 71
     1
 72
     1
  1
6
  7
SLDTEXTSTYLE1
 73
     1
 44
1.0
  0
MTEXT
  5
9D
330
1F
100
AcDbEntity
  8
DIM
 62
     7
100
AcDbMText
 10
222.5710953557
 20
203.4590078604
 30
0.0
 40
1.8520833333
 41
0.0
 71
     1
 72
     1
  1
5
  7
SLDTEXTSTYLE1
 73
     1
 44
1.0
  0
MTEXT
  5
9E
330
1F
100
AcDbEntity
  8
DIM
 62
     7
100
AcDbMText
 10
288.5710993557
 20
180.9590078604
 30
0.0
 40
1.8520833333
 41
0.0
 71
     1
 72
     1
  1
A
  7
SLDTEXTSTYLE1
 73
     1
 44
1.0
  0
MTEXT
  5
9F
330
1F
100
AcDbEntity
  8
DIM
 62
     7
100
AcDbMText
 10
288.5710993557
 20
130.9590078604
 30
0.0
 40
1.8520833333
 41
0.0
 71
     1
 72
     1
  1
B
  7
SLDTEXTSTYLE1
 73
     1
 44
1.0
  0
MTEXT
  5
A0
330
1F
100
AcDbEntity
  8
DIM
 62
     7
100
AcDbMText
 10
172.5710953557
 20
203.4590078604
 30
0.0
 40
1.8520833333
 41
0.0
 71
     1
 72
     1
  1
4
  7
SLDTEXTSTYLE1
 73
     1
 44
1.0
  0
MTEXT
  5
A1
330
1F
100
AcDbEntity
  8
DIM
 62
     7
100
AcDbMText
 10
22.9877620223
 20
203.4590078604
 30
0.0
 40
1.8520833333
 41
0.0
 71
     1
 72
     1
  1
1
  7
SLDTEXTSTYLE1
 73
     1
 44
1.0
  0
MTEXT
  5
A2
330
1F
100
AcDbEntity
  8
DIM
 62
     7
100
AcDbMText
 10
72.5710953557
 20
203.4590078604
 30
0.0
 40
1.8520833333
 41
0.0
 71
     1
 72
     1
  1
2
  7
SLDTEXTSTYLE1
 73
     1
 44
1.0
  0
MTEXT
  5
A3
330
1F
100
AcDbEntity
  8
DIM
 62
     7
100
AcDbMText
 10
122.5710953557
 20
203.4590078604
 30
0.0
 40
1.8520833333
 41
0.0
 71
     1
 72
     1
  1
3
  7
SLDTEXTSTYLE1
 73
     1
 44
1.0
  0
MTEXT
  5
A4
330
1F
100
AcDbEntity
  8
DIM
 62
     7
100
AcDbMText
 10
6.5710913557
 20
180.9590078604
 30
0.0
 40
1.8520833333
 41
0.0
 71
     1
 72
     1
  1
A
  7
SLDTEXTSTYLE1
 73
     1
 44
1.0
  0
MTEXT
  5
A5
330
1F
100
AcDbEntity
  8
DIM
 62
     7
100
AcDbMText
 10
72.5710953557
 20
8.4590078604
 30
0.0
 40
1.8520833333
 41
0.0
 71
     1
 72
     1
  1
2
  7
SLDTEXTSTYLE1
 73
     1
 44
1.0
  0
MTEXT
  5
A6
330
1F
100
AcDbEntity
  8
DIM
 62
     7
100
AcDbMText
 10
22.9877620223
 20
8.4590078604
 30
0.0
 40
1.8520833333
 41
0.0
 71
     1
 72
     1
  1
1
  7
SLDTEXTSTYLE1
 73
     1
 44
1.0
  0
MTEXT
  5
A7
330
1F
100
AcDbEntity
  8
DIM
 62
     7
100
AcDbMText
 10
6.5710913557
 20
30.9590078604
 30
0.0
 40
1.8520833333
 41
0.0
 71
     1
 72
     1
  1
D
  7
SLDTEXTSTYLE1
 73
     1
 44
1.0
  0
MTEXT
  5
A8
330
1F
100
AcDbEntity
  8
DIM
 62
     7
100
AcDbMText
 10
6.5710913557
 20
80.9590078604
 30
0.0
 40
1.8520833333
 41
0.0
 71
     1
 72
     1
  1
C
  7
SLDTEXTSTYLE1
 73
     1
 44
1.0
  0
MTEXT
  5
A9
330
1F
100
AcDbEntity
  8
DIM
 62
     7
100
AcDbMText
 10
6.5710913557
 20
130.9590078604
 30
0.0
 40
1.8520833333
 41
0.0
 71
     1
 72
     1
  1
B
  7
SLDTEXTSTYLE1
 73
     1
 44
1.0
  0
MTEXT
  5
AA
330
1F
100
AcDbEntity
  8
DIM
 62
     7
100
AcDbMText
 10
288.5970767548
 20
81.9406135082
 30
0.0
 40
1.8520833333
 41
0.0
 71
     1
 72
     1
  1
C
  7
SLDTEXTSTYLE1
 73
     1
 44
1.0
  0
MTEXT
  5
AC
330
1F
100
AcDbEntity
  8
DIM
 62
     7
100
AcDbMText
 10
256.5253658125
 20
7.6910787314
 30
0.0
 40
1.5
 41
0.0
 71
     1
 72
     1
  1
SHEET 1 OF 1
  7
SLDTEXTSTYLE2
 73
     1
 44
1.0
  0
MTEXT
  5
AD
330
1F
100
AcDbEntity
  8
DIM
 62
     7
100
AcDbMText
 10
150.3717803834
 20
7.8533674836
 30
0.0
 40
1.5
 41
0.0
 71
     1
 72
     1
  1
MATERIAL:
  7
SLDTEXTSTYLE1
 73
     1
 44
1.0
  0
MTEXT
  5
AE
330
1F
100
AcDbEntity
  8
DIM
 62
     7
100
AcDbMText
 10
272.5710953557
 20
203.4590078604
 30
0.0
 40
1.8520833333
 41
0.0
 71
     1
 72
     1
  1
6
  7
SLDTEXTSTYLE1
 73
     1
 44
1.0
  0
MTEXT
  5
AF
330
1F
100
AcDbEntity
  8
DIM
 62
     7
100
AcDbMText
 10
222.5710953557
 20
203.4590078604
 30
0.0
 40
1.8520833333
 41
0.0
 71
     1
 72
     1
  1
5
  7
SLDTEXTSTYLE1
 73
     1
 44
1.0
  0
MTEXT
  5
B0
330
1F
100
AcDbEntity
  8
DIM
 62
     7
100
AcDbMText
 10
288.5710993557
 20
180.9590078604
 30
0.0
 40
1.8520833333
 41
0.0
 71
     1
 72
     1
  1
A
  7
SLDTEXTSTYLE1
 73
     1
 44
1.0
  0
MTEXT
  5
B1
330
1F
100
AcDbEntity
  8
DIM
 62
     7
100
AcDbMText
 10
288.5710993557
 20
130.9590078604
 30
0.0
 40
1.8520833333
 41
0.0
 71
     1
 72
     1
  1
B
  7
SLDTEXTSTYLE1
 73
     1
 44
1.0
  0
MTEXT
  5
B2
330
1F
100
AcDbEntity
  8
DIM
 62
     7
100
AcDbMText
 10
172.5710953557
 20
203.4590078604
 30
0.0
 40
1.8520833333
 41
0.0
 71
     1
 72
     1
  1
4
  7
SLDTEXTSTYLE1
 73
     1
 44
1.0
  0
MTEXT
  5
B3
330
1F
100
AcDbEntity
  8
DIM
 62
     7
100
AcDbMText
 10
22.9877620223
 20
203.4590078604
 30
0.0
 40
1.8520833333
 41
0.0
 71
     1
 72
     1
  1
1
  7
SLDTEXTSTYLE1
 73
     1
 44
1.0
  0
MTEXT
  5
B4
330
1F
100
AcDbEntity
  8
DIM
 62
     7
100
AcDbMText
 10
72.5710953557
 20
203.4590078604
 30
0.0
 40
1.8520833333
 41
0.0
 71
     1
 72
     1
  1
2
  7
SLDTEXTSTYLE1
 73
     1
 44
1.0
  0
MTEXT
  5
B5
330
1F
100
AcDbEntity
  8
DIM
 62
     7
100
AcDbMText
 10
122.5710953557
 20
203.4590078604
 30
0.0
 40
1.8520833333
 41
0.0
 71
     1
 72
     1
  1
3
  7
SLDTEXTSTYLE1
 73
     1
 44
1.0
  0
MTEXT
  5
B6
330
1F
100
AcDbEntity
  8
DIM
 62
     7
100
AcDbMText
 10
6.5710913557
 20
180.9590078604
 30
0.0
 40
1.8520833333
 41
0.0
 71
     1
 72
     1
  1
A
  7
SLDTEXTSTYLE1
 73
     1
 44
1.0
  0
MTEXT
  5
B7
330
1F
100
AcDbEntity
  8
DIM
 62
     7
100
AcDbMText
 10
72.5710953557
 20
8.4590078604
 30
0.0
 40
1.8520833333
 41
0.0
 71
     1
 72
     1
  1
2
  7
SLDTEXTSTYLE1
 73
     1
 44
1.0
  0
MTEXT
  5
B8
330
1F
100
AcDbEntity
  8
DIM
 62
     7
100
AcDbMText
 10
22.9877620223
 20
8.4590078604
 30
0.0
 40
1.8520833333
 41
0.0
 71
     1
 72
     1
  1
1
  7
SLDTEXTSTYLE1
 73
     1
 44
1.0
  0
MTEXT
  5
B9
330
1F
100
AcDbEntity
  8
DIM
 62
     7
100
AcDbMText
 10
6.5710913557
 20
30.9590078604
 30
0.0
 40
1.8520833333
 41
0.0
 71
     1
 72
     1
  1
D
  7
SLDTEXTSTYLE1
 73
     1
 44
1.0
  0
MTEXT
  5
BA
330
1F
100
AcDbEntity
  8
DIM
 62
     7
100
AcDbMText
 10
6.5710913557
 20
80.9590078604
 30
0.0
 40
1.8520833333
 41
0.0
 71
     1
 72
     1
  1
C
  7
SLDTEXTSTYLE1
 73
     1
 44
1.0
  0
MTEXT
  5
BB
330
1F
100
AcDbEntity
  8
DIM
 62
     7
100
AcDbMText
 10
6.5710913557
 20
130.9590078604
 30
0.0
 40
1.8520833333
 41
0.0
 71
     1
 72
     1
  1
B
  7
SLDTEXTSTYLE1
 73
     1
 44
1.0
  0
LINE
  5
BC
330
1F
100
AcDbEntity
  8
0
  6
Continuous
 62
     7
370
    15
100
AcDbLine
 10
130.3614449371
 20
85.4994217149
 30
0.0
 11
134.6234952048
 21
85.4994217149
 31
0.0
  0
LINE
  5
BD
330
1F
100
AcDbEntity
  8
0
  6
Continuous
 62
     7
370
    15
100
AcDbLine
 10
134.6234952048
 20
148.4994217149
 30
0.0
 11
130.3614449371
 21
148.4994217149
 31
0.0
  0
SPLINE
  5
BE
330
1F
100
AcDbEntity
  8
0
  6
Continuous
 62
     7
370
    15
100
AcDbSpline
210
0.0
220
0.0
230
1.0
 70
     8
 71
     3
 72
    11
 73
     7
 74
     0
 42
0.000000001
 43
0.00000001
 40
0.0
 40
0.0
 40
0.0
 40
0.0
 40
0.2475748616108667
 40
0.5000000007985513
 40
0.7524251395541812
 40
1.0
 40
1.0
 40
1.0
 40
1.0
 10
134.6234952047746
 20
85.4994217149794
 30
0.0
 10
134.6494304341558
 20
85.5008727638319
 30
0.0
 10
134.7018089940264
 20
85.50380328926038
 30
0.0
 10
134.7774431547851
 20
85.5277584874638
 30
0.0
 10
134.8478634656804
 20
85.56430103240683
 30
0.0
 10
134.8869728946823
 20
85.5992660729375
 30
0.0
 10
134.9063379175678
 20
85.61657900302485
 30
0.0
  0
SPLINE
  5
BF
330
1F
100
AcDbEntity
  8
0
  6
Continuous
 62
     7
370
    15
100
AcDbSpline
210
0.0
220
0.0
230
1.0
 70
     8
 71
     3
 72
    11
 73
     7
 74
     0
 42
0.000000001
 43
0.00000001
 40
0.0
 40
0.0
 40
0.0
 40
0.0
 40
0.2475748604355643
 40
0.4999999991910744
 40
0.7524251383839978
 40
1.0
 40
1.0
 40
1.0
 40
1.0
 10
134.9063379176847
 20
148.3822644266431
 30
0.0
 10
134.8869728947965
 20
148.3995773567463
 30
0.0
 10
134.8478634657882
 20
148.4345423973098
 30
0.0
 10
134.7774431548654
 20
148.4710849422905
 30
0.0
 10
134.7018089940692
 20
148.4950401405196
 30
0.0
 10
134.64943043417
 20
148.4979706659513
 30
0.0
 10
134.6234952047746
 20
148.4994217148054
 30
0.0
  0
LINE
  5
C0
330
1F
100
AcDbEntity
  8
0
  6
Continuous
 62
     7
370
    15
100
AcDbLine
 10
130.3614449371
 20
148.4994217149
 30
0.0
 11
127.8891806298
 21
144.2173345763
 31
0.0
  0
LINE
  5
C1
330
1F
100
AcDbEntity
  8
0
  6
Continuous
 62
     7
370
    15
100
AcDbLine
 10
127.8891806298
 20
89.7815088535
 30
0.0
 11
130.3614449371
 21
85.4994217149
 31
0.0
  0
LINE
  5
C2
330
1F
100
AcDbEntity
  8
0
  6
Continuous
 62
     7
370
    15
100
AcDbLine
 10
120.402203885
 20
85.4994217149
 30
0.0
 11
122.8891806298
 21
89.8069917941
 31
0.0
  0
LINE
  5
C3
330
1F
100
AcDbEntity
  8
0
  6
Continuous
 62
     7
370
    15
100
AcDbLine
 10
122.8891806298
 20
144.1918516357
 30
0.0
 11
120.402203885
 21
148.4994217149
 31
0.0
  0
LINE
  5
C4
330
1F
100
AcDbEntity
  8
0
  6
Continuous
 62
     7
370
    15
100
AcDbLine
 10
111.9548660548
 20
85.4994217149
 30
0.0
 11
120.402203885
 21
85.4994217149
 31
0.0
  0
LINE
  5
C5
330
1F
100
AcDbEntity
  8
0
  6
Continuous
 62
     7
370
    15
100
AcDbLine
 10
120.402203885
 20
148.4994217149
 30
0.0
 11
111.9548660548
 21
148.4994217149
 31
0.0
  0
LINE
  5
C6
330
1F
100
AcDbEntity
  8
0
  6
Continuous
 62
     7
370
    15
100
AcDbLine
 10
134.9063379178
 20
85.6165790029
 30
0.0
 11
135.6720233425
 21
86.3822644276
 31
0.0
  0
LINE
  5
C7
330
1F
100
AcDbEntity
  8
0
  6
Continuous
 62
     7
370
    15
100
AcDbLine
 10
135.6720233425
 20
147.6165790022
 30
0.0
 11
134.9063379178
 21
148.3822644269
 31
0.0
  0
LINE
  5
C8
330
1F
100
AcDbEntity
  8
0
  6
Continuous
 62
     7
370
    15
100
AcDbLine
 10
111.6720233427
 20
148.3822644278
 30
0.0
 11
110.9063379172
 21
147.6165790022
 31
0.0
  0
LINE
  5
C9
330
1F
100
AcDbEntity
  8
0
  6
Continuous
 62
     7
370
    15
100
AcDbLine
 10
110.9063379172
 20
86.3822644275
 30
0.0
 11
111.6720233427
 21
85.616579002
 31
0.0
  0
LINE
  5
CA
330
1F
100
AcDbEntity
  8
0
  6
Continuous
 62
     7
370
    15
100
AcDbLine
 10
122.8891806298
 20
90.4994217149
 30
0.0
 11
127.8891806298
 21
90.4994217149
 31
0.0
  0
LINE
  5
CB
330
1F
100
AcDbEntity
  8
0
  6
Continuous
 62
     7
370
    15
100
AcDbLine
 10
127.8891806298
 20
143.4994217149
 30
0.0
 11
122.8891806298
 21
143.4994217149
 31
0.0
  0
ARC
  5
CC
330
1F
100
AcDbEntity
  8
0
  6
Continuous
 62
     7
370
    15
100
AcDbCircle
 10
110.3891806295
 20
94.5994217146
 30
0.0
 40
0.400000000216707
100
AcDbArc
 50
359.9999985623
 51
89.9999999705
  0
ARC
  5
CD
330
1F
100
AcDbEntity
  8
0
  6
Continuous
 62
     7
370
    15
100
AcDbCircle
 10
110.3891806295
 20
139.3994217152
 30
0.0
 40
0.4000000002167212
100
AcDbArc
 50
270.0000000295
 51
0.0000014377
  0
LINE
  5
CE
330
1F
100
AcDbEntity
  8
0
  6
Continuous
 62
     7
370
    15
100
AcDbLine
 10
108.7891806298
 20
139.2244217149
 30
0.0
 11
44.2448724028
 21
129.8116212219
 31
0.0
  0
LINE
  5
CF
330
1F
100
AcDbEntity
  8
0
  6
Continuous
 62
     7
370
    15
100
AcDbLine
 10
44.2448724028
 20
104.1872222079
 30
0.0
 11
108.7891806298
 21
94.7744217149
 31
0.0
  0
LINE
  5
D0
330
1F
100
AcDbEntity
  8
0
  6
Continuous
 62
     7
370
    15
100
AcDbLine
 10
108.7891806298
 20
94.7744217149
 30
0.0
 11
109.2716946868
 21
94.9994217149
 31
0.0
  0
LINE
  5
D1
330
1F
100
AcDbEntity
  8
0
  6
Continuous
 62
     7
370
    15
100
AcDbLine
 10
109.2716946868
 20
138.9994217149
 30
0.0
 11
108.7891806298
 21
139.2244217149
 31
0.0
  0
LINE
  5
D2
330
1F
100
AcDbEntity
  8
0
  6
Continuous
 62
     7
370
    15
100
AcDbLine
 10
109.2716946868
 20
94.9994217149
 30
0.0
 11
110.3891806297
 21
94.9994217149
 31
0.0
  0
LINE
  5
D3
330
1F
100
AcDbEntity
  8
0
  6
Continuous
 62
     7
370
    15
100
AcDbLine
 10
110.3891806297
 20
138.9994217149
 30
0.0
 11
109.2716946868
 21
138.9994217149
 31
0.0
  0
SPLINE
  5
D4
330
1F
100
AcDbEntity
  8
0
  6
Continuous
 62
     7
370
    15
100
AcDbSpline
210
0.0
220
0.0
230
1.0
 70
     8
 71
     3
 72
    13
 73
     9
 74
     0
 42
0.000000001
 43
0.00000001
 40
0.0
 40
0.0
 40
0.0
 40
0.0
 40
0.239456844511704
 40
0.3683606603932351
 40
0.5000000001715961
 40
0.6316393399245684
 40
0.7605431557335753
 40
1.0
 40
1.0
 40
1.0
 40
1.0
 10
135.7891806300201
 20
96.19942171529787
 30
0.0
 10
135.7998670221127
 20
96.30005877186703
 30
0.0
 10
135.8163060863477
 20
96.45487051965165
 30
0.0
 10
135.916064164513
 20
96.64112338578995
 30
0.0
 10
136.019313578902
 20
96.76928876639784
 30
0.0
 10
136.1474789595661
 20
96.87253818066768
 30
0.0
 10
136.3337318256588
 20
96.9722962586162
 30
0.0
 10
136.4885435733267
 20
96.98873532268989
 30
0.0
 10
136.5891806298036
 20
96.99942171467588
 30
0.0
  0
SPLINE
  5
D5
330
1F
100
AcDbEntity
  8
0
  6
Continuous
 62
     7
370
    15
100
AcDbSpline
210
0.0
220
0.0
230
1.0
 70
     8
 71
     3
 72
    13
 73
     9
 74
     0
 42
0.000000001
 43
0.00000001
 40
0.0
 40
0.0
 40
0.0
 40
0.0
 40
0.2394568442664172
 40
0.3683606600754245
 40
0.4999999998284062
 40
0.6316393396067618
 40
0.7605431554882957
 40
1.0
 40
1.0
 40
1.0
 40
1.0
 10
136.5891806298036
 20
136.9994217151089
 30
0.0
 10
136.4885435733267
 20
137.0101081070949
 30
0.0
 10
136.3337318256588
 20
137.0265471711686
 30
0.0
 10
136.1474789595661
 20
137.1263052491171
 30
0.0
 10
136.019313578902
 20
137.229554663387
 30
0.0
 10
135.916064164513
 20
137.3577200439948
 30
0.0
 10
135.8163060863477
 20
137.5439729101332
 30
0.0
 10
135.7998670221127
 20
137.6987846579178
 30
0.0
 10
135.7891806300201
 20
137.799421714487
 30
0.0
  0
LINE
  5
D6
330
1F
100
AcDbEntity
  8
0
  6
Continuous
 62
     7
370
    15
100
AcDbLine
 10
136.5891806298
 20
96.9994217149
 30
0.0
 11
195.9891806298
 21
96.9994217149
 31
0.0
  0
LINE
  5
D7
330
1F
100
AcDbEntity
  8
0
  6
Continuous
 62
     7
370
    15
100
AcDbLine
 10
195.9891806298
 20
136.9994217149
 30
0.0
 11
136.5891806298
 21
136.9994217149
 31
0.0
  0
LINE
  5
D8
330
1F
100
AcDbEntity
  8
0
  6
Continuous
 62
     7
370
    15
100
AcDbLine
 10
195.9891806298
 20
96.9994217149
 30
0.0
 11
196.7891806298
 21
97.7994217149
 31
0.0
  0
LINE
  5
D9
330
1F
100
AcDbEntity
  8
0
  6
Continuous
 62
     7
370
    15
100
AcDbLine
 10
196.7891806298
 20
136.1994217149
 30
0.0
 11
195.9891806298
 21
136.9994217149
 31
0.0
  0
LINE
  5
DA
330
1F
100
AcDbEntity
  8
0
  6
Continuous
 62
     7
370
    15
100
AcDbLine
 10
232.7391806298
 20
130.9994217149
 30
0.0
 11
231.9891806298
 21
130.2494217149
 31
0.0
  0
LINE
  5
DB
330
1F
100
AcDbEntity
  8
0
  6
Continuous
 62
     7
370
    15
100
AcDbLine
 10
231.9891806298
 20
103.7494217149
 30
0.0
 11
232.7391806298
 21
102.9994217149
 31
0.0
  0
LINE
  5
DC
330
1F
100
AcDbEntity
  8
0
  6
Continuous
 62
     7
370
    15
100
AcDbLine
 10
239.2391806298
 20
102.9994217149
 30
0.0
 11
239.9891806298
 21
103.7494217149
 31
0.0
  0
LINE
  5
DD
330
1F
100
AcDbEntity
  8
0
  6
Continuous
 62
     7
370
    15
100
AcDbLine
 10
239.9891806298
 20
130.2494217149
 30
0.0
 11
239.2391806298
 21
130.9994217149
 31
0.0
  0
LINE
  5
DE
330
1F
100
AcDbEntity
  8
0
  6
Continuous
 62
     7
370
    15
100
AcDbLine
 10
232.7391806298
 20
102.9994217149
 30
0.0
 11
239.2391806298
 21
102.9994217149
 31
0.0
  0
LINE
  5
DF
330
1F
100
AcDbEntity
  8
0
  6
Continuous
 62
     7
370
    15
100
AcDbLine
 10
239.2391806298
 20
130.9994217149
 30
0.0
 11
232.7391806298
 21
130.9994217149
 31
0.0
  0
SPLINE
  5
E0
330
1F
100
AcDbEntity
  8
0
  6
Continuous
 62
     7
370
    15
100
AcDbSpline
210
0.0
220
0.0
230
1.0
 70
     8
 71
     3
 72
    11
 73
     7
 74
     0
 42
0.000000001
 43
0.00000001
 40
0.0
 40
0.0
 40
0.0
 40
0.0
 40
0.2418856031637827
 40
0.4999999999875943
 40
0.7581143967975748
 40
1.0
 40
1.0
 40
1.0
 40
1.0
 10
43.38918063008888
 20
105.1767549943379
 30
0.0
 10
43.40075778253109
 20
105.0617281238823
 30
0.0
 10
43.42468883152799
 20
104.8239569028006
 30
0.0
 10
43.61727572462555
 20
104.5092554572523
 30
0.0
 10
43.90089124979081
 20
104.2732704044453
 30
0.0
 10
44.13272022153064
 20
104.2152775035576
 30
0.0
 10
44.24487240286601
 20
104.187222207933
 30
0.0
  0
SPLINE
  5
E1
330
1F
100
AcDbEntity
  8
0
  6
Continuous
 62
     7
370
    15
100
AcDbSpline
210
0.0
220
0.0
230
1.0
 70
     8
 71
     3
 72
    11
 73
     7
 74
     0
 42
0.000000001
 43
0.00000001
 40
0.0
 40
0.0
 40
0.0
 40
0.0
 40
0.2418856032047764
 40
0.5000000000148394
 40
0.7581143968373907
 40
0.9999999999999999
 40
0.9999999999999999
 40
0.9999999999999999
 40
0.9999999999999999
 10
44.2448724028163
 20
129.8116212218445
 30
0.0
 10
44.13272022148512
 20
129.7835659262153
 30
0.0
 10
43.90089124975515
 20
129.7255730253184
 30
0.0
 10
43.61727572460806
 20
129.4895879725099
 30
0.0
 10
43.42468883152512
 20
129.1748865269701
 30
0.0
 10
43.40075778253014
 20
128.9371153058979
 30
0.0
 10
43.38918063008888
 20
128.8220884354469
 30
0.0
  0
LINE
  5
E2
330
1F
100
AcDbEntity
  8
0
  6
Continuous
 62
     7
370
    15
100
AcDbLine
 10
214.3891806298
 20
105.9994217149
 30
0.0
 11
226.5169374438
 21
105.9994217149
 31
0.0
  0
LINE
  5
E3
330
1F
100
AcDbEntity
  8
0
  6
Continuous
 62
     7
370
    15
100
AcDbLine
 10
226.5169374438
 20
127.9994217149
 30
0.0
 11
214.3891806298
 21
127.9994217149
 31
0.0
  0
LINE
  5
E4
330
1F
100
AcDbEntity
  8
0
  6
Continuous
 62
     7
370
    15
100
AcDbLine
 10
226.5169374438
 20
105.9994217149
 30
0.0
 11
227.9891806298
 21
106.8494217149
 31
0.0
  0
LINE
  5
E5
330
1F
100
AcDbEntity
  8
0
  6
Continuous
 62
     7
370
    15
100
AcDbLine
 10
227.9891806298
 20
127.1494217149
 30
0.0
 11
226.5169374438
 21
127.9994217149
 31
0.0
  0
ARC
  5
E6
330
1F
100
AcDbEntity
  8
0
  6
Continuous
 62
     7
370
    15
100
AcDbCircle
 10
111.189180628
 20
147.3337362906
 30
0.0
 40
0.3999999981924702
100
AcDbArc
 50
134.9999999264
 51
180.0000004793
  0
ARC
  5
E7
330
1F
100
AcDbEntity
  8
0
  6
Continuous
 62
     7
370
    15
100
AcDbCircle
 10
111.189180628
 20
86.6651071392
 30
0.0
 40
0.3999999981924702
100
AcDbArc
 50
179.9999995207
 51
225.0000000736
  0
ARC
  5
E8
330
1F
100
AcDbEntity
  8
0
  6
Continuous
 62
     7
370
    15
100
AcDbCircle
 10
111.9548660541
 20
85.899421713
 30
0.0
 40
0.3999999981381057
100
AcDbArc
 50
224.9999999501
 51
270.0000001043
  0
ARC
  5
E9
330
1F
100
AcDbEntity
  8
0
  6
Continuous
 62
     7
370
    15
100
AcDbCircle
 10
111.9548660541
 20
148.0994217168
 30
0.0
 40
0.3999999981380957
100
AcDbArc
 50
89.9999998957
 51
135.00000005
  0
ARC
  5
EA
330
1F
100
AcDbEntity
  8
0
  6
Continuous
 62
     7
370
    15
100
AcDbCircle
 10
231.5891806295
 20
111.5994217146
 30
0.0
 40
0.4000000002708788
100
AcDbArc
 50
359.9999999986
 51
89.9999999533
  0
ARC
  5
EB
330
1F
100
AcDbEntity
  8
0
  6
Continuous
 62
     7
370
    15
100
AcDbCircle
 10
231.5891806295
 20
122.3994217152
 30
0.0
 40
0.4000000002708646
100
AcDbArc
 50
270.0000000467
 51
0.0000000014
  0
LINE
  5
EC
330
1F
100
AcDbEntity
  8
0
  6
Continuous
 62
     7
370
    15
100
AcDbLine
 10
227.9891806298
 20
111.9994217149
 30
0.0
 11
231.5891806298
 21
111.9994217149
 31
0.0
  0
LINE
  5
ED
330
1F
100
AcDbEntity
  8
0
  6
Continuous
 62
     7
370
    15
100
AcDbLine
 10
231.5891806298
 20
121.9994217149
 30
0.0
 11
227.9891806298
 21
121.9994217149
 31
0.0
  0
LINE
  5
EE
330
1F
100
AcDbEntity
  8
0
  6
Continuous
 62
     7
370
    15
100
AcDbLine
 10
196.7891806298
 20
96.9994217149
 30
0.0
 11
213.5891806298
 21
96.9994217149
 31
0.0
  0
LINE
  5
EF
330
1F
100
AcDbEntity
  8
0
  6
Continuous
 62
     7
370
    15
100
AcDbLine
 10
213.5891806298
 20
136.9994217149
 30
0.0
 11
196.7891806298
 21
136.9994217149
 31
0.0
  0
LINE
  5
F0
330
1F
100
AcDbEntity
  8
0
  6
Continuous
 62
     7
370
    15
100
AcDbLine
 10
213.5891806298
 20
96.9994217149
 30
0.0
 11
214.3891806298
 21
97.7994217149
 31
0.0
  0
LINE
  5
F1
330
1F
100
AcDbEntity
  8
0
  6
Continuous
 62
     7
370
    15
100
AcDbLine
 10
214.3891806298
 20
136.1994217149
 30
0.0
 11
213.5891806298
 21
136.9994217149
 31
0.0
  0
SPLINE
  5
F2
330
1F
100
AcDbEntity
  8
0
  6
Continuous
 62
     7
370
    15
100
AcDbSpline
210
0.0
220
0.0
230
1.0
 70
     8
 71
     3
 72
    10
 73
     6
 74
     0
 42
0.000000001
 43
0.00000001
 40
0.0
 40
0.0
 40
0.0
 40
0.0
 40
0.5
 40
0.5
 40
1.0
 40
1.0
 40
1.0
 40
1.0
 10
111.6720233405104
 20
86.81139455849697
 30
0.0
 10
111.7052096079329
 20
86.78821385798081
 30
0.0
 10
111.7459381014408
 20
86.76792298356578
 30
0.0
 10
111.8422304989455
 20
86.73846946294962
 30
0.0
 10
111.8977950179874
 20
86.72970075975083
 30
0.0
 10
111.9548660564363
 20
86.72970075971637
 30
0.0
  0
LINE
  5
F3
330
1F
100
AcDbEntity
  8
0
  6
Continuous
 62
     7
370
    15
100
AcDbLine
 10
111.6720233422
 20
147.1874488737
 30
0.0
 11
111.6720233412
 21
86.8113945559
 31
0.0
  0
SPLINE
  5
F4
330
1F
100
AcDbEntity
  8
0
  6
Continuous
 62
     7
370
    15
100
AcDbSpline
210
0.0
220
0.0
230
1.0
 70
     8
 71
     3
 72
    10
 73
     6
 74
     0
 42
0.000000001
 43
0.00000001
 40
0.0
 40
0.0
 40
0.0
 40
0.0
 40
0.5
 40
0.5
 40
1.0
 40
1.0
 40
1.0
 40
1.0
 10
111.9548660564363
 20
147.2691426700685
 30
0.0
 10
111.8978013729863
 20
147.269142670034
 30
0.0
 10
111.8423572981307
 20
147.2604063939486
 30
0.0
 10
111.7459272711429
 20
147.2309234835481
 30
0.0
 10
111.7052145215505
 20
147.2106330040408
 30
0.0
 10
111.6720233401394
 20
147.1874488710287
 30
0.0
  0
LINE
  5
F5
330
1F
100
AcDbEntity
  8
0
  6
Continuous
 62
     7
370
    15
100
AcDbLine
 10
111.9548660556
 20
86.7297007598
 30
0.0
 11
111.9548660556
 21
147.26914267
 31
0.0
  0
SPLINE
  5
F6
330
1F
100
AcDbEntity
  8
0
  6
Continuous
 62
     7
370
    15
100
AcDbSpline
210
0.0
220
0.0
230
1.0
 70
     8
 71
     3
 72
    10
 73
     6
 74
     0
 42
0.000000001
 43
0.00000001
 40
0.0
 40
0.0
 40
0.0
 40
0.0
 40
0.5
 40
0.5
 40
1.0
 40
1.0
 40
1.0
 40
1.0
 10
110.9063379156302
 20
146.3743148542069
 30
0.0
 10
110.8736839374499
 20
146.330683422106
 30
0.0
 10
110.8457037559644
 20
146.2820212505396
 30
0.0
 10
110.8030584536148
 20
146.1703649706837
 30
0.0
 10
110.7891806296721
 20
146.108330585464
 30
0.0
 10
110.7891806297873
 20
146.0443548486924
 30
0.0
  0
LINE
  5
F7
330
1F
100
AcDbEntity
  8
0
  6
Continuous
 62
     7
370
    15
100
AcDbLine
 10
110.9063379208
 20
87.6245285713
 30
0.0
 11
110.9063379141
 21
146.374314854
 31
0.0
  0
SPLINE
  5
F8
330
1F
100
AcDbEntity
  8
0
  6
Continuous
 62
     7
370
    15
100
AcDbSpline
210
0.0
220
0.0
230
1.0
 70
     8
 71
     3
 72
    10
 73
     6
 74
     0
 42
0.000000001
 43
0.00000001
 40
0.0
 40
0.0
 40
0.0
 40
0.0
 40
0.5
 40
0.5
 40
1.0
 40
1.0
 40
1.0
 40
1.0
 10
110.7891806297856
 20
87.95448858109356
 30
0.0
 10
110.7891806296699
 20
87.89045359046735
 30
0.0
 10
110.8030212805792
 20
87.8288046754996
 30
0.0
 10
110.8451749139017
 20
87.71798098180744
 30
0.0
 10
110.873662305426
 20
87.66818891141955
 30
0.0
 10
110.9063379174035
 20
87.62452857320847
 30
0.0
  0
SPLINE
  5
F9
330
1F
100
AcDbEntity
  8
0
  6
Continuous
 62
     7
370
    15
100
AcDbSpline
210
0.0
220
0.0
230
1.0
 70
    24
 71
     3
 72
    42
 73
    38
 74
     0
 42
0.000000001
 43
0.00000001
 40
0.0
 40
0.0
 40
0.0
 40
0.0
 40
0.0069985947142165
 40
0.0139918792832311
 40
0.0209820870818527
 40
0.0279714544343339
 40
0.0349622184714965
 40
0.0419566149839895
 40
0.0489568762819693
 40
0.0755911739069595
 40
0.1022323291432777
 40
0.1310491090309338
 40
0.1598727972892802
 40
0.2216873695506755
 40
0.2873422798676782
 40
0.3214548353067502
 40
0.3562714579994548
 40
0.3916725895398708
 40
0.4275251326164931
 40
0.4636850603189155
 40
0.5000006632425833
 40
0.536316266166251
 40
0.5724761938686735
 40
0.6083287369452955
 40
0.6437298684857119
 40
0.6785464911784164
 40
0.7126590466174885
 40
0.7783139569344911
 40
0.8401285291958862
 40
0.8689453090325397
 40
0.8977689973620058
 40
0.9244032950306516
 40
0.9510444504325848
 40
0.9632880566997742
 40
0.9755205233546218
 40
0.9877538415656733
 40
1.0
 40
1.0
 40
1.0
 40
1.0
 10
110.7891806298037
 20
87.95448857589996
 30
0.0
 10
110.7891806298037
 20
88.0075370468252
 30
0.0
 10
110.7891806298037
 20
88.11359373844046
 30
0.0
 10
110.7891806298037
 20
88.28433399145202
 30
0.0
 10
110.7891806298037
 20
88.46350844589509
 30
0.0
 10
110.7891806298037
 20
88.65195886924496
 30
0.0
 10
110.7891806298037
 20
88.84945868155465
 30
0.0
 10
110.7891806298037
 20
89.05607250663154
 30
0.0
 10
110.7891806298037
 20
89.47332134650867
 30
0.0
 10
110.7891806298037
 20
90.15357040555114
 30
0.0
 10
110.7891806298037
 20
91.20806306991281
 30
0.0
 10
110.7891806298037
 20
92.4217302555729
 30
0.0
 10
110.7891806298037
 20
94.32612315431916
 30
0.0
 10
110.7891806298037
 20
97.17868538212254
 30
0.0
 10
110.7891806298037
 20
100.575397602261
 30
0.0
 10
110.7891806298037
 20
103.6302483998093
 30
0.0
 10
110.7891806298037
 20
106.1037136485267
 30
0.0
 10
110.7891806298037
 20
108.7067256275519
 30
0.0
 10
110.7891806298037
 20
111.4119245205531
 30
0.0
 10
110.7891806298037
 20
114.1876556451152
 30
0.0
 10
110.7891806298037
 20
116.9994217148725
 30
0.0
 10
110.7891806298037
 20
119.8111877847491
 30
0.0
 10
110.7891806298037
 20
122.586918908956
 30
0.0
 10
110.7891806298037
 20
125.2921178032419
 30
0.0
 10
110.7891806298037
 20
127.8951297775711
 30
0.0
 10
110.7891806298037
 20
130.368595043373
 30
0.0
 10
110.7891806298037
 20
133.4234457595486
 30
0.0
 10
110.7891806298037
 20
136.8201585594724
 30
0.0
 10
110.7891806298037
 20
139.6725928309307
 30
0.0
 10
110.7891806298037
 20
141.5770102862222
 30
0.0
 10
110.7891806298037
 20
142.7905838943254
 30
0.0
 10
110.7891806298037
 20
143.8452209902405
 30
0.0
 10
110.7891806298037
 20
144.5845384250481
 30
0.0
 10
110.7891806298037
 20
145.1016325927728
 30
0.0
 10
110.7891806298037
 20
145.4449608063744
 30
0.0
 10
110.7891806298037
 20
145.7624696559417
 30
0.0
 10
110.7891806298037
 20
145.9503602698072
 30
0.0
 10
110.7891806298037
 20
146.0443548538848
 30
0.0
  0
LINE
  5
FA
330
1F
100
AcDbEntity
  8
0
  6
Continuous
 62
     7
370
    15
100
AcDbLine
 10
130.3614449371
 20
116.9994217149
 30
0.0
 11
130.3614449371
 21
85.4994217149
 31
0.0
  0
LINE
  5
FB
330
1F
100
AcDbEntity
  8
0
  6
Continuous
 62
     7
370
    15
100
AcDbLine
 10
130.3614449371
 20
148.4994217149
 30
0.0
 11
130.3614449371
 21
116.9994217149
 31
0.0
  0
SPLINE
  5
FC
330
1F
100
AcDbEntity
  8
0
  6
Continuous
 62
     7
370
    15
100
AcDbSpline
210
0.0
220
0.0
230
1.0
 70
    24
 71
     3
 72
    10
 73
     6
 74
     0
 42
0.000000001
 43
0.00000001
 40
0.0
 40
0.0
 40
0.0
 40
0.0
 40
0.5
 40
0.5
 40
1.0
 40
1.0
 40
1.0
 40
1.0
 10
134.6234952047778
 20
116.9994217148924
 30
0.0
 10
134.6745196626215
 20
116.9994217148924
 30
0.0
 10
134.7275629606212
 20
116.9994217148924
 30
0.0
 10
134.8255741951259
 20
116.9994217148924
 30
0.0
 10
134.8702581771338
 20
116.9994217148924
 30
0.0
 10
134.9063379169553
 20
116.9994217148924
 30
0.0
  0
LINE
  5
FD
330
1F
100
AcDbEntity
  8
0
  6
Continuous
 62
     7
370
    15
100
AcDbLine
 10
127.8891806298
 20
116.9994217149
 30
0.0
 11
127.8891806298
 21
89.7815088535
 31
0.0
  0
LINE
  5
FE
330
1F
100
AcDbEntity
  8
0
  6
Continuous
 62
     7
370
    15
100
AcDbLine
 10
127.8891806298
 20
144.2173345763
 30
0.0
 11
127.8891806298
 21
116.9994217149
 31
0.0
  0
LINE
  5
FF
330
1F
100
AcDbEntity
  8
0
  6
Continuous
 62
     7
370
    15
100
AcDbLine
 10
120.402203885
 20
116.9994217149
 30
0.0
 11
120.402203885
 21
85.4994217149
 31
0.0
  0
LINE
  5
100
330
1F
100
AcDbEntity
  8
0
  6
Continuous
 62
     7
370
    15
100
AcDbLine
 10
120.402203885
 20
148.4994217149
 30
0.0
 11
120.402203885
 21
116.9994217149
 31
0.0
  0
LINE
  5
101
330
1F
100
AcDbEntity
  8
0
  6
Continuous
 62
     7
370
    15
100
AcDbLine
 10
122.8891806298
 20
116.9994217149
 30
0.0
 11
122.8891806298
 21
89.8069917941
 31
0.0
  0
LINE
  5
102
330
1F
100
AcDbEntity
  8
0
  6
Continuous
 62
     7
370
    15
100
AcDbLine
 10
122.8891806298
 20
144.1918516357
 30
0.0
 11
122.8891806298
 21
116.9994217149
 31
0.0
  0
SPLINE
  5
103
330
1F
100
AcDbEntity
  8
0
  6
Continuous
 62
     7
370
    15
100
AcDbSpline
210
0.0
220
0.0
230
1.0
 70
    24
 71
     3
 72
    10
 73
     6
 74
     0
 42
0.000000001
 43
0.00000001
 40
0.0
 40
0.0
 40
0.0
 40
0.0
 40
0.5
 40
0.5
 40
1.0
 40
1.0
 40
1.0
 40
1.0
 10
135.6720233425465
 20
116.9994217148924
 30
0.0
 10
135.708103082394
 20
116.9994217148924
 30
0.0
 10
135.7384336515721
 20
116.9994217148924
 30
0.0
 10
135.7790312342481
 20
116.9994217148924
 30
0.0
 10
135.789180629933
 20
116.9994217148924
 30
0.0
 10
135.7891806298218
 20
116.9994217148924
 30
0.0
  0
SPLINE
  5
104
330
1F
100
AcDbEntity
  8
0
  6
Continuous
 62
     7
370
    15
100
AcDbSpline
210
0.0
220
0.0
230
1.0
 70
    24
 71
     3
 72
    36
 73
    32
 74
     0
 42
0.000000001
 43
0.00000001
 40
0.0
 40
0.0
 40
0.0
 40
0.0
 40
0.0091574914098502
 40
0.0183076636670498
 40
0.0274530496706367
 40
0.0365961862974195
 40
0.0457396122965004
 40
0.0548858661760161
 40
0.064037484090881
 40
0.0731969977403078
 40
0.1145981391471788
 40
0.1560085593964779
 40
0.2026687078268458
 40
0.2493380826174221
 40
0.3001319459910547
 40
0.3537068320759774
 40
0.4100221171689301
 40
0.4689756520191585
 40
0.530395199192124
 40
0.5940327686277181
 40
0.6595633177033128
 40
0.7265890526719669
 40
0.7946499953859905
 40
0.8289570591285538
 40
0.8632740865222682
 40
0.8975811503014232
 40
0.9318981777344112
 40
0.9489281030620823
 40
0.9659441473268439
 40
0.9829626641419905
 40
1.0
 40
1.0
 40
1.0
 40
1.0
 10
135.7891806298037
 20
116.9994217148924
 30
0.0
 10
135.7891806298037
 20
116.8310018750308
 30
0.0
 10
135.7891806298037
 20
116.494296805373
 30
0.0
 10
135.7891806298037
 20
115.9895338579002
 30
0.0
 10
135.7891806298037
 20
115.4853140840742
 30
0.0
 10
135.7891806298037
 20
114.9816377133732
 30
0.0
 10
135.7891806298037
 20
114.4785043971227
 30
0.0
 10
135.7891806298037
 20
113.9759160000525
 30
0.0
 10
135.7891806298037
 20
113.473866102695
 30
0.0
 10
135.7891806298037
 20
112.3842096564319
 30
0.0
 10
135.7891806298037
 20
110.7154905236787
 30
0.0
 10
135.7891806298037
 20
108.4041500449813
 30
0.0
 10
135.7891806298037
 20
106.0537400471497
 30
0.0
 10
135.7891806298037
 20
103.6213329098976
 30
0.0
 10
135.7891806298037
 20
101.1797816391202
 30
0.0
 10
135.7891806298037
 20
98.72819122283413
 30
0.0
 10
135.7891806298037
 20
96.33847841511874
 30
0.0
 10
135.7891806298037
 20
94.06926055204457
 30
0.0
 10
135.7891806298037
 20
91.98558794956281
 30
0.0
 10
135.7891806298037
 20
90.15578085873882
 30
0.0
 10
135.7891806298037
 20
88.64695294746444
 30
0.0
 10
135.7891806298037
 20
87.5196349112607
 30
0.0
 10
135.7891806298037
 20
86.93969887043015
 30
0.0
 10
135.7891806298037
 20
86.70442709789337
 30
0.0
 10
135.7891806298037
 20
86.64546101185887
 30
0.0
 10
135.7891806298037
 20
86.70437170575799
 30
0.0
 10
135.7891806298037
 20
86.8519735951977
 30
0.0
 10
135.7891806298037
 20
87.02762978600363
 30
0.0
 10
135.7891806298037
 20
87.18813679297364
 30
0.0
 10
135.7891806298037
 20
87.37528625305414
 30
0.0
 10
135.7891806298037
 20
87.52404845946532
 30
0.0
 10
135.7891806298037
 20
87.59847066518513
 30
0.0
  0
SPLINE
  5
105
330
1F
100
AcDbEntity
  8
0
  6
Continuous
 62
     7
370
    15
100
AcDbSpline
210
0.0
220
0.0
230
1.0
 70
    24
 71
     3
 72
    35
 73
    31
 74
     0
 42
0.000000001
 43
0.00000001
 40
0.0
 40
0.0
 40
0.0
 40
0.0
 40
0.0097343062289011
 40
0.0194617938948283
 40
0.0291855111022076
 40
0.0389085094873338
 40
0.0486338413631624
 40
0.058364556846754
 40
0.0681037009970362
 40
0.1024107879240909
 40
0.1367278385098947
 40
0.1710349254748393
 40
0.2053519760986202
 40
0.2734129648086437
 40
0.3404387450736981
 40
0.4059693384352374
 40
0.4696069508774889
 40
0.5310265395581586
 40
0.5899801142495452
 40
0.6462954374007109
 40
0.6998703596918682
 40
0.7506642573923032
 40
0.7973244369528376
 40
0.843993843117949
 40
0.8853950124414809
 40
0.9268054608558777
 40
0.9451125162754598
 40
0.9634004181265964
 40
0.9816894770910375
 40
0.9999999999999999
 40
0.9999999999999999
 40
0.9999999999999999
 40
0.9999999999999999
 10
135.7891806298037
 20
146.4003727645997
 30
0.0
 10
135.7891806298037
 20
146.4435601139893
 30
0.0
 10
135.7891806298037
 20
146.5299045614435
 30
0.0
 10
135.7891806298037
 20
146.6476831822246
 30
0.0
 10
135.7891806298037
 20
146.7567863973059
 30
0.0
 10
135.7891806298037
 20
146.8563783992562
 30
0.0
 10
135.7891806298037
 20
146.9466833777455
 30
0.0
 10
135.7891806298037
 20
147.0276398571979
 30
0.0
 10
135.7891806298037
 20
147.159465980706
 30
0.0
 10
135.7891806298037
 20
147.2944383149961
 30
0.0
 10
135.7891806298037
 20
147.3533882621953
 30
0.0
 10
135.7891806298037
 20
147.2944263801386
 30
0.0
 10
135.7891806298037
 20
147.059179481443
 30
0.0
 10
135.7891806298037
 20
146.4792082481221
 30
0.0
 10
135.7891806298037
 20
145.3518905525438
 30
0.0
 10
135.7891806298037
 20
143.8430625531659
 30
0.0
 10
135.7891806298037
 20
142.013255484131
 30
0.0
 10
135.7891806298037
 20
139.9295828790332
 30
0.0
 10
135.7891806298037
 20
137.660365006355
 30
0.0
 10
135.7891806298037
 20
135.2706522368057
 30
0.0
 10
135.7891806298037
 20
132.8190616871674
 30
0.0
 10
135.7891806298037
 20
130.377660023952
 30
0.0
 10
135.7891806298037
 20
127.9452610620561
 30
0.0
 10
135.7891806298037
 20
125.5950252092755
 30
0.0
 10
135.7891806298037
 20
123.2835029943382
 30
0.0
 10
135.7891806298037
 20
121.4488819790047
 30
0.0
 10
135.7891806298037
 20
120.023802052832
 30
0.0
 10
135.7891806298037
 20
119.0177126110224
 30
0.0
 10
135.7891806298037
 20
118.0093351463735
 30
0.0
 10
135.7891806298037
 20
117.3361911145593
 30
0.0
 10
135.7891806298037
 20
116.9994217148924
 30
0.0
  0
LINE
  5
106
330
1F
100
AcDbEntity
  8
0
  6
Continuous
 62
     7
370
    15
100
AcDbLine
 10
108.7891806298
 20
94.7744217149
 30
0.0
 11
108.7891806298
 21
139.2244217149
 31
0.0
  0
LINE
  5
107
330
1F
100
AcDbEntity
  8
0
  6
Continuous
 62
     7
370
    15
100
AcDbLine
 10
109.2716946868
 20
94.9994217149
 30
0.0
 11
109.2716946868
 21
138.9994217149
 31
0.0
  0
SPLINE
  5
108
330
1F
100
AcDbEntity
  8
0
  6
Continuous
 62
     7
370
    15
100
AcDbSpline
210
0.0
220
0.0
230
1.0
 70
    24
 71
     3
 72
    14
 73
    10
 74
     0
 42
0.000000001
 43
0.00000001
 40
0.0
 40
0.0
 40
0.0
 40
0.0
 40
0.25
 40
0.25
 40
0.5
 40
0.5
 40
0.75
 40
0.75
 40
1.0
 40
1.0
 40
1.0
 40
1.0
 10
135.7891806300201
 20
116.9994217148924
 30
0.0
 10
135.7891806300566
 20
116.9994217148924
 30
0.0
 10
135.80636362113
 20
116.9994217148924
 30
0.0
 10
135.8843363573013
 20
116.9994217148924
 30
0.0
 10
135.9453903467012
 20
116.9994217148924
 30
0.0
 10
136.1016000632267
 20
116.9994217148924
 30
0.0
 10
136.196227301747
 20
116.9994217148924
 30
0.0
 10
136.3931824221009
 20
116.9994217148924
 30
0.0
 10
136.4948997251489
 20
116.9994217148924
 30
0.0
 10
136.5891806291849
 20
116.9994217148924
 30
0.0
  0
LINE
  5
109
330
1F
100
AcDbEntity
  8
0
  6
Continuous
 62
     7
370
    15
100
AcDbLine
 10
195.9891806298
 20
96.9994217149
 30
0.0
 11
195.9891806298
 21
136.9994217149
 31
0.0
  0
LINE
  5
10A
330
1F
100
AcDbEntity
  8
0
  6
Continuous
 62
     7
370
    15
100
AcDbLine
 10
231.9891806298
 20
116.9994217149
 30
0.0
 11
231.9891806298
 21
130.2494217149
 31
0.0
  0
LINE
  5
10B
330
1F
100
AcDbEntity
  8
0
  6
Continuous
 62
     7
370
    15
100
AcDbLine
 10
231.9891806298
 20
103.7494217149
 30
0.0
 11
231.9891806298
 21
116.9994217149
 31
0.0
  0
LINE
  5
10C
330
1F
100
AcDbEntity
  8
0
  6
Continuous
 62
     7
370
    15
100
AcDbLine
 10
232.7391806298
 20
116.9994217149
 30
0.0
 11
232.7391806298
 21
102.9994217149
 31
0.0
  0
LINE
  5
10D
330
1F
100
AcDbEntity
  8
0
  6
Continuous
 62
     7
370
    15
100
AcDbLine
 10
232.7391806298
 20
130.9994217149
 30
0.0
 11
232.7391806298
 21
116.9994217149
 31
0.0
  0
LINE
  5
10E
330
1F
100
AcDbEntity
  8
0
  6
Continuous
 62
     7
370
    15
100
AcDbLine
 10
239.9891806298
 20
130.2494217149
 30
0.0
 11
239.9891806298
 21
103.7494217149
 31
0.0
  0
LINE
  5
10F
330
1F
100
AcDbEntity
  8
0
  6
Continuous
 62
     7
370
    15
100
AcDbLine
 10
239.2391806298
 20
130.9994217149
 30
0.0
 11
239.2391806298
 21
102.9994217149
 31
0.0
  0
SPLINE
  5
110
330
1F
100
AcDbEntity
  8
0
  6
Continuous
 62
     7
370
    15
100
AcDbSpline
210
0.0
220
0.0
230
1.0
 70
    24
 71
     3
 72
    14
 73
    10
 74
     0
 42
0.000000001
 43
0.00000001
 40
0.0
 40
0.0
 40
0.0
 40
0.0
 40
0.25
 40
0.25
 40
0.5
 40
0.5
 40
0.75
 40
0.75
 40
1.0
 40
1.0
 40
1.0
 40
1.0
 10
43.38918063008889
 20
116.9994217148924
 30
0.0
 10
43.38918063008079
 20
116.9994217148924
 30
0.0
 10
43.40748481193753
 20
116.9994217148924
 30
0.0
 10
43.48859073606898
 20
116.9994217148924
 30
0.0
 10
43.55157483336962
 20
116.9994217148924
 30
0.0
 10
43.71396903675915
 20
116.9994217148924
 30
0.0
 10
43.81301443279877
 20
116.9994217148924
 30
0.0
 10
44.02477541886485
 20
116.9994217148924
 30
0.0
 10
44.1369969532268
 20
116.9994217148924
 30
0.0
 10
44.2448724028219
 20
116.9994217148924
 30
0.0
  0
SPLINE
  5
111
330
1F
100
AcDbEntity
  8
0
  6
Continuous
 62
     7
370
    15
100
AcDbSpline
210
0.0
220
0.0
230
1.0
 70
    24
 71
     3
 72
    22
 73
    18
 74
     0
 42
0.000000001
 43
0.00000001
 40
0.0
 40
0.0
 40
0.0
 40
0.0
 40
0.125
 40
0.125
 40
0.25
 40
0.25
 40
0.375
 40
0.375
 40
0.5
 40
0.5
 40
0.625
 40
0.625
 40
0.75
 40
0.75
 40
0.875
 40
0.875
 40
1.0
 40
1.0
 40
1.0
 40
1.0
 10
43.38918063008887
 20
116.9994217148924
 30
0.0
 10
43.38918063008887
 20
116.5068106015333
 30
0.0
 10
43.38918063008883
 20
115.9831050753487
 30
0.0
 10
43.38918063008884
 20
114.8769772781649
 30
0.0
 10
43.38918063008887
 20
114.2943955692138
 30
0.0
 10
43.38918063008886
 20
113.0837544970215
 30
0.0
 10
43.38918063008887
 20
112.4555335206632
 30
0.0
 10
43.38918063008886
 20
111.1818716595853
 30
0.0
 10
43.38918063008887
 20
110.536363907618
 30
0.0
 10
43.38918063008886
 20
109.2752794574201
 30
0.0
 10
43.38918063008887
 20
108.6598825512959
 30
0.0
 10
43.38918063008887
 20
107.5239836282468
 30
0.0
 10
43.38918063008888
 20
107.0040183628674
 30
0.0
 10
43.38918063008888
 20
106.1312955599721
 30
0.0
 10
43.38918063008887
 20
105.7793145762745
 30
0.0
 10
43.38918063008887
 20
105.3017441336123
 30
0.0
 10
43.38918063008888
 20
105.1767549943273
 30
0.0
 10
43.38918063008889
 20
105.1767549943379
 30
0.0
  0
SPLINE
  5
112
330
1F
100
AcDbEntity
  8
0
  6
Continuous
 62
     7
370
    15
100
AcDbSpline
210
0.0
220
0.0
230
1.0
 70
    24
 71
     3
 72
    22
 73
    18
 74
     0
 42
0.000000001
 43
0.00000001
 40
0.0
 40
0.0
 40
0.0
 40
0.0
 40
0.1250000000000001
 40
0.1250000000000001
 40
0.2500000000000002
 40
0.2500000000000002
 40
0.3750000000000002
 40
0.3750000000000002
 40
0.5000000000000002
 40
0.5000000000000002
 40
0.6250000000000002
 40
0.6250000000000002
 40
0.7500000000000002
 40
0.7500000000000002
 40
0.8750000000000001
 40
0.8750000000000001
 40
1.0
 40
1.0
 40
1.0
 40
1.0
 10
43.38918063008887
 20
128.8220884354469
 30
0.0
 10
43.38918063008887
 20
128.8220884354363
 30
0.0
 10
43.38918063008891
 20
128.6970992961329
 30
0.0
 10
43.38918063008887
 20
128.2195288534422
 30
0.0
 10
43.38918063008888
 20
127.8675478697345
 30
0.0
 10
43.38918063008887
 20
126.994825066827
 30
0.0
 10
43.38918063008887
 20
126.4748598014457
 30
0.0
 10
43.38918063008887
 20
125.3389608783984
 30
0.0
 10
43.38918063008889
 20
124.723563972278
 30
0.0
 10
43.38918063008887
 20
123.462479522091
 30
0.0
 10
43.38918063008889
 20
122.8169717701306
 30
0.0
 10
43.38918063008887
 20
121.5433099090674
 30
0.0
 10
43.38918063008888
 20
120.9150889327169
 30
0.0
 10
43.38918063008884
 20
119.7044478605395
 30
0.0
 10
43.38918063008889
 20
119.1218661515955
 30
0.0
 10
43.38918063008889
 20
118.0157383544249
 30
0.0
 10
43.38918063008886
 20
117.4920328282462
 30
0.0
 10
43.38918063008888
 20
116.9994217148924
 30
0.0
  0
LINE
  5
113
330
1F
100
AcDbEntity
  8
0
  6
Continuous
 62
     7
370
    15
100
AcDbLine
 10
226.5169374438
 20
105.9994217149
 30
0.0
 11
226.5169374438
 21
127.9994217149
 31
0.0
  0
LINE
  5
114
330
1F
100
AcDbEntity
  8
0
  6
Continuous
 62
     7
370
    15
100
AcDbLine
 10
227.9891806298
 20
127.1494217149
 30
0.0
 11
227.9891806298
 21
106.8494217149
 31
0.0
  0
LINE
  5
115
330
1F
100
AcDbEntity
  8
0
  6
Continuous
 62
     7
370
    15
100
AcDbLine
 10
110.7891806298
 20
147.3337362839
 30
0.0
 11
110.7891806298
 21
146.0443548422
 31
0.0
  0
LINE
  5
116
330
1F
100
AcDbEntity
  8
0
  6
Continuous
 62
     7
370
    15
100
AcDbLine
 10
110.7891806298
 20
87.9544885876
 30
0.0
 11
110.7891806298
 21
86.6651071459
 31
0.0
  0
LINE
  5
117
330
1F
100
AcDbEntity
  8
0
  6
Continuous
 62
     7
370
    15
100
AcDbLine
 10
213.58918063
 20
136.9994217143
 30
0.0
 11
213.5891806303
 21
136.3643384454
 31
0.0
  0
LINE
  5
118
330
1F
100
AcDbEntity
  8
0
  6
Continuous
 62
     7
370
    15
100
AcDbLine
 10
208.7891806274
 20
136.3643384459
 30
0.0
 11
213.5891806303
 21
136.3643384454
 31
0.0
  0
LINE
  5
119
330
1F
100
AcDbEntity
  8
0
  6
Continuous
 62
     7
370
    15
100
AcDbLine
 10
208.7891806274
 20
136.3643384459
 30
0.0
 11
208.7891806274
 21
97.634504984
 31
0.0
  0
LINE
  5
11A
330
1F
100
AcDbEntity
  8
0
  6
Continuous
 62
     7
370
    15
100
AcDbLine
 10
208.7891806274
 20
97.634504984
 30
0.0
 11
213.5891806298
 21
97.634504984
 31
0.0
  0
LINE
  5
11B
330
1F
100
AcDbEntity
  8
0
  6
Continuous
 62
     7
370
    15
100
AcDbLine
 10
213.5891806298
 20
97.634504984
 30
0.0
 11
213.5891806298
 21
96.9994217149
 31
0.0
  0
LINE
  5
11C
330
1F
100
AcDbEntity
  8
0
  6
Continuous
 62
     7
370
    15
100
AcDbLine
 10
196.7891806298
 20
136.9994217149
 30
0.0
 11
196.7891806298
 21
96.9994217149
 31
0.0
  0
ARC
  5
11D
330
1F
100
AcDbEntity
  8
0
  6
Continuous
 62
     7
370
    15
100
AcDbCircle
 10
218.5891806298
 20
116.9994217149
 30
0.0
 40
11.00000000000002
100
AcDbArc
 50
242.9643082127
 51
247.5536494186
  0
LINE
  5
11E
330
1F
100
AcDbEntity
  8
0
  6
Continuous
 62
     7
370
    15
100
AcDbLine
 10
208.7891806314
 20
107.2014627436
 30
0.0
 11
213.5891806302
 21
107.2014627436
 31
0.0
  0
LINE
  5
11F
330
1F
100
AcDbEntity
  8
0
  6
Continuous
 62
     7
370
    15
100
AcDbLine
 10
213.5891806293
 20
126.7973806858
 30
0.0
 11
208.7891806314
 21
126.7973806858
 31
0.0
  0
ARC
  5
120
330
1F
100
AcDbEntity
  8
0
  6
Continuous
 62
     7
370
    15
100
AcDbCircle
 10
218.5891806298
 20
116.9994217149
 30
0.0
 40
11.00000000000002
100
AcDbArc
 50
112.4463505814
 51
117.0356917924
  0
SPLINE
  5
121
330
1F
100
AcDbEntity
  8
0
  6
Continuous
 62
     7
370
    15
100
AcDbSpline
210
0.0
220
0.0
230
1.0
 70
     8
 71
     3
 72
     9
 73
     5
 74
     0
 42
0.000000001
 43
0.00000001
 40
0.0
 40
0.0
 40
0.0
 40
0.0
 40
0.5031551922744635
 40
1.0
 40
1.0
 40
1.0
 40
1.0
 10
213.5891806291935
 20
97.63450498417052
 30
0.0
 10
213.7237482703519
 20
97.73915664463063
 30
0.0
 10
213.9911958555595
 20
97.9471474635011
 30
0.0
 10
214.2570783101247
 20
98.15911349748977
 30
0.0
 10
214.3891806271408
 20
98.26442772089122
 30
0.0
  0
LINE
  5
122
330
1F
100
AcDbEntity
  8
0
  6
Continuous
 62
     7
370
    15
100
AcDbLine
 10
214.3891806302
 20
97.7994217161
 30
0.0
 11
214.3891806285
 21
98.2644277196
 31
0.0
  0
LINE
  5
123
330
1F
100
AcDbEntity
  8
0
  6
Continuous
 62
     7
370
    15
100
AcDbLine
 10
213.5891806302
 20
107.2014627436
 30
0.0
 11
213.5891806298
 21
97.634504984
 31
0.0
  0
LINE
  5
124
330
1F
100
AcDbEntity
  8
0
  6
Continuous
 62
     7
370
    15
100
AcDbLine
 10
214.3891806285
 20
98.2644277196
 30
0.0
 11
214.3891806298
 21
106.8328096932
 31
0.0
  0
SPLINE
  5
125
330
1F
100
AcDbEntity
  8
0
  6
Continuous
 62
     7
370
    15
100
AcDbSpline
210
0.0
220
0.0
230
1.0
 70
     8
 71
     3
 72
     9
 73
     5
 74
     0
 42
0.000000001
 43
0.00000001
 40
0.0
 40
0.0
 40
0.0
 40
0.0
 40
0.4957268613931155
 40
1.0
 40
1.0
 40
1.0
 40
1.0
 10
214.389180631864
 20
135.7344157078752
 30
0.0
 10
214.2573757949293
 20
135.8394938278481
 30
0.0
 10
213.9914938199962
 20
136.051461603162
 30
0.0
 10
213.7240469189555
 20
136.2594536450935
 30
0.0
 10
213.5891806307569
 20
136.3643384448835
 30
0.0
  0
LINE
  5
126
330
1F
100
AcDbEntity
  8
0
  6
Continuous
 62
     7
370
    15
100
AcDbLine
 10
214.3891806298
 20
127.1660337366
 30
0.0
 11
214.3891806308
 21
135.734415709
 31
0.0
  0
LINE
  5
127
330
1F
100
AcDbEntity
  8
0
  6
Continuous
 62
     7
370
    15
100
AcDbLine
 10
213.5891806303
 20
136.3643384454
 30
0.0
 11
213.5891806293
 21
126.7973806858
 31
0.0
  0
LINE
  5
128
330
1F
100
AcDbEntity
  8
0
  6
Continuous
 62
     7
370
    15
100
AcDbLine
 10
214.3891806308
 20
135.734415709
 30
0.0
 11
214.3891806308
 21
136.1994217139
 31
0.0
  0
LINE
  5
129
330
1F
100
AcDbEntity
  8
0
  6
Continuous
 62
     8
370
    15
100
AcDbLine
 10
134.6234952048
 20
116.9994217149
 30
0.0
 11
134.6234952048
 21
85.4994217149
 31
0.0
  0
LINE
  5
12A
330
1F
100
AcDbEntity
  8
0
  6
Continuous
 62
     8
370
    15
100
AcDbLine
 10
134.6234952048
 20
148.4994217149
 30
0.0
 11
134.6234952048
 21
116.9994217214
 31
0.0
  0
LINE
  5
12B
330
1F
100
AcDbEntity
  8
0
  6
Continuous
 62
     8
370
    15
100
AcDbLine
 10
134.9063379178
 20
85.6165790096
 30
0.0
 11
134.9063379178
 21
116.9994217278
 31
0.0
  0
LINE
  5
12C
330
1F
100
AcDbEntity
  8
0
  6
Continuous
 62
     8
370
    15
100
AcDbLine
 10
134.9063379178
 20
116.9994217278
 30
0.0
 11
134.9063379178
 21
148.3822644202
 31
0.0
  0
LINE
  5
12D
330
1F
100
AcDbEntity
  8
0
  6
Continuous
 62
     8
370
    15
100
AcDbLine
 10
111.9548660556
 20
86.7297007598
 30
0.0
 11
111.9548660548
 21
85.4994217149
 31
0.0
  0
LINE
  5
12E
330
1F
100
AcDbEntity
  8
0
  6
Continuous
 62
     8
370
    15
100
AcDbLine
 10
111.9548660548
 20
148.4994217149
 30
0.0
 11
111.9548660548
 21
147.2691426698
 31
0.0
  0
LINE
  5
12F
330
1F
100
AcDbEntity
  8
0
  6
Continuous
 62
     8
370
    15
100
AcDbLine
 10
135.6720233425
 20
116.9994217149
 30
0.0
 11
135.6720233425
 21
86.3822644277
 31
0.0
  0
LINE
  5
130
330
1F
100
AcDbEntity
  8
0
  6
Continuous
 62
     8
370
    15
100
AcDbLine
 10
135.6720233425
 20
147.616579002
 30
0.0
 11
135.6720233425
 21
116.9994217212
 31
0.0
  0
LINE
  5
131
330
1F
100
AcDbEntity
  8
0
  6
Continuous
 62
     8
370
    15
100
AcDbLine
 10
110.9063379172
 20
147.6165790021
 30
0.0
 11
110.9063379172
 21
146.374314856
 31
0.0
  0
LINE
  5
132
330
1F
100
AcDbEntity
  8
0
  6
Continuous
 62
     8
370
    15
100
AcDbLine
 10
110.9063379172
 20
87.6245285738
 30
0.0
 11
110.9063379172
 21
86.3822644276
 31
0.0
  0
LINE
  5
133
330
1F
100
AcDbEntity
  8
0
  6
Continuous
 62
     8
370
    15
100
AcDbLine
 10
111.6720233427
 20
86.8113945571
 30
0.0
 11
111.6720233427
 21
85.616579002
 31
0.0
  0
LINE
  5
134
330
1F
100
AcDbEntity
  8
0
  6
Continuous
 62
     8
370
    15
100
AcDbLine
 10
111.6720233427
 20
148.3822644278
 30
0.0
 11
111.6720233427
 21
147.1874488727
 31
0.0
  0
LINE
  5
135
330
1F
100
AcDbEntity
  8
0
  6
Continuous
 62
     8
370
    15
100
AcDbLine
 10
110.3891806297
 20
94.9994217148
 30
0.0
 11
110.3891806297
 21
138.999421715
 31
0.0
  0
LINE
  5
136
330
1F
100
AcDbEntity
  8
0
  6
Continuous
 62
     8
370
    15
100
AcDbLine
 10
44.2448724028
 20
104.1872222079
 30
0.0
 11
44.2448724028
 21
116.9994217149
 31
0.0
  0
LINE
  5
137
330
1F
100
AcDbEntity
  8
0
  6
Continuous
 62
     8
370
    15
100
AcDbLine
 10
44.2448724028
 20
116.9994217172
 30
0.0
 11
44.2448724028
 21
129.8116212219
 31
0.0
  0
LINE
  5
138
330
1F
100
AcDbEntity
  8
0
  6
Continuous
 62
     8
370
    15
100
AcDbLine
 10
136.5891806298
 20
116.9994217231
 30
0.0
 11
136.5891806298
 21
96.9994217149
 31
0.0
  0
LINE
  5
139
330
1F
100
AcDbEntity
  8
0
  6
Continuous
 62
     8
370
    15
100
AcDbLine
 10
136.5891806298
 20
116.9994217231
 30
0.0
 11
136.5891806298
 21
136.9994216846
 31
0.0
  0
LINE
  5
13A
330
1F
100
AcDbEntity
  8
0
  6
Continuous
 62
     8
370
    15
100
AcDbLine
 10
231.5891806298
 20
121.9994217149
 30
0.0
 11
231.5891806298
 21
111.9994217149
 31
0.0
  0
DIMENSION
  5
13B
330
1F
100
AcDbEntity
  8
DIM
100
AcDbDimension
  2
_D
 10
248.5308353325
 20
127.9994217149
 30
0.0
 11
248.5308353325
 21
116.9994217149
 31
0.0
 70
   160
  1
%%c<>
 71
     2
 42
-1.0
  3
SLDDIMSTYLE0
100
AcDbAlignedDimension
 13
226.5169374438
 23
105.9994217149
 33
0.0
 14
226.5169374438
 24
127.9994217149
 34
0.0
 50
90.0
100
AcDbRotatedDimension
  0
DIMENSION
  5
147
330
1F
100
AcDbEntity
  8
DIM
100
AcDbDimension
  2
_D_1
 10
254.8778837792
 20
96.9994217149
 30
0.0
 11
254.8778837792
 21
116.9994217149
 31
0.0
 70
   160
  1
%%c<>
 71
     2
 42
-1.0
  3
SLDDIMSTYLE0
100
AcDbAlignedDimension
 13
213.5891806298
 23
136.9994217149
 33
0.0
 14
213.5891806298
 24
96.9994217149
 34
0.0
 50
90.0
100
AcDbRotatedDimension
  0
DIMENSION
  5
154
330
1F
100
AcDbEntity
  8
DIM
100
AcDbDimension
  2
_D_2
 10
208.7891806274
 20
80.6558451092
 30
0.0
 11
218.3891806286
 21
80.6558451092
 31
0.0
 70
   160
  1
<>
 71
     2
 42
-1.0
  3
SLDDIMSTYLE1
100
AcDbAlignedDimension
 13
227.9891806298
 23
106.8494217149
 33
0.0
 14
208.7891806274
 24
97.634504984
 34
0.0
100
AcDbRotatedDimension
  0
DIMENSION
  5
15F
330
1F
100
AcDbEntity
  8
DIM
100
AcDbDimension
  2
_D_3
 10
108.7891806298
 20
80.6558451092
 30
0.0
 11
158.7891806286
 21
80.6558451092
 31
0.0
 70
   160
  1
<>
 71
     2
 42
-1.0
  3
SLDDIMSTYLE2
100
AcDbAlignedDimension
 13
208.7891806274
 23
97.634504984
 33
0.0
 14
108.7891806298
 24
94.7744217149
 34
0.0
100
AcDbRotatedDimension
  0
DIMENSION
  5
16A
330
1F
100
AcDbEntity
  8
DIM
100
AcDbDimension
  2
_D_4
 10
239.9891806298
 20
65.757827921
 30
0.0
 11
141.6891806299
 21
65.757827921
 31
0.0
 70
   160
  1
<>
 71
     2
 42
-1.0
  3
SLDDIMSTYLE3
100
AcDbAlignedDimension
 13
43.38918063
 23
116.9994217149
 33
0.0
 14
239.9891806298
 24
103.7494217149
 34
0.0
 50
0.0
100
AcDbRotatedDimension
  0
DIMENSION
  5
175
330
1F
100
AcDbEntity
  8
DIM
100
AcDbDimension
  2
_D_5
 10
37.5092301068
 20
85.4994217149
 30
0.0
 11
37.5092301068
 21
116.9994217149
 31
0.0
 70
   160
  1
%%c<>
 71
     2
 42
-1.0
  3
SLDDIMSTYLE2
100
AcDbAlignedDimension
 13
111.9548660548
 23
148.4994217149
 33
0.0
 14
111.9548660548
 24
85.4994217149
 34
0.0
 50
90.0
100
AcDbRotatedDimension
  0
LINE
  5
180
330
1F
100
AcDbEntity
  8
DIM
  6
CENTERX2
370
     0
100
AcDbLine
 10
241.9891806298
 20
116.9994217149
 30
0.0
 11
105.4821999296
 21
116.9994217149
 31
0.0
  0
LINE
  5
181
330
1F
100
AcDbEntity
  8
DIM
  6
CENTERX2
370
     0
100
AcDbLine
 10
108.7891806298
 20
116.9994217149
 30
0.0
 11
42.2448724028
 21
116.9994217149
 31
0.0
  0
LINE
  5
182
330
1F
100
AcDbEntity
  8
DIM
  6
CENTERX2
370
     0
100
AcDbLine
 10
108.7891806298
 20
116.9994217149
 30
0.0
 11
109.2716946868
 21
116.9994217149
 31
0.0
  0
LINE
  5
183
330
1F
100
AcDbEntity
  8
DIM
  6
CENTERX2
370
     0
100
AcDbLine
 10
112.3891806297
 20
116.9994217149
 30
0.0
 11
109.2716946868
 21
116.9994217149
 31
0.0
  0
ENDSEC
  0
SECTION
  2
OBJECTS
  0
DICTIONARY
  5
C
330
0
100
AcDbDictionary
281
     1
  3
ACAD_GROUP
350
D
  3
ACAD_LAYOUT
350
1A
  3
ACAD_MLINESTYLE
350
17
  3
ACAD_PLOTSETTINGS
350
19
  3
ACAD_PLOTSTYLENAME
350
E
  3
ACAD_SCALELIST
350
47
  0
DICTIONARY
  5
D
102
{ACAD_REACTORS
330
C
102
}
330
C
100
AcDbDictionary
281
     1
  0
DICTIONARY
  5
1A
102
{ACAD_REACTORS
330
C
102
}
330
C
100
AcDbDictionary
281
     1
  3
Layout1
350
1E
  3
Layout2
350
26
  3
Model
350
22
  0
DICTIONARY
  5
17
102
{ACAD_REACTORS
330
C
102
}
330
C
100
AcDbDictionary
281
     1
  3
Standard
350
18
  0
DICTIONARY
  5
19
102
{ACAD_REACTORS
330
C
102
}
330
C
100
AcDbDictionary
281
     1
  0
ACDBDICTIONARYWDFLT
  5
E
102
{ACAD_REACTORS
330
C
102
}
330
C
100
AcDbDictionary
281
     1
  3
Normal
350
F
100
AcDbDictionaryWithDefault
340
F
  0
DICTIONARY
  5
47
102
{ACAD_REACTORS
330
C
102
}
330
C
100
AcDbDictionary
281
     1
  3
A0
350
48
  3
A1
350
49
  3
A2
350
4A
  3
A3
350
4B
  3
A4
350
4C
  3
A5
350
4D
  3
A6
350
4E
  3
A7
350
4F
  3
A8
350
50
  3
A9
350
51
  3
B0
350
52
  3
B1
350
53
  3
B2
350
54
  3
B3
350
55
  3
B4
350
56
  3
B5
350
57
  3
B6
350
58
  3
B7
350
59
  3
B8
350
5A
  3
B9
350
5B
  3
C0
350
5C
  3
C1
350
5D
  3
C2
350
5E
  3
C3
350
5F
  3
C4
350
60
  3
C5
350
61
  3
C6
350
62
  3
C7
350
63
  3
C8
350
64
  3
C9
350
65
  3
D0
350
66
  3
D1
350
67
  3
D2
350
68
  0
LAYOUT
  5
1E
102
{ACAD_REACTORS
330
1A
102
}
330
1A
100
AcDbPlotSettings
  1

  2
none_device
  4

  6

 40
0.0
 41
0.0
 42
0.0
 43
0.0
 44
0.0
 45
0.0
 46
0.0
 47
0.0
 48
0.0
 49
0.0
140
0.0
141
0.0
142
1.0
143
1.0
 70
   688
 72
     1
 73
     0
 74
     5
  7

 75
    16
147
1.0
148
0.0
149
0.0
100
AcDbLayout
  1
Layout1
 70
     1
 71
     1
 10
0.0
 20
0.0
 11
420.0
 21
297.0
 12
0.0
 22
0.0
 32
0.0
 14
1.0000000000E+20
 24
1.0000000000E+20
 34
1.0000000000E+20
 15
-1.0000000000E+20
 25
-1.0000000000E+20
 35
-1.0000000000E+20
146
0.0
 13
0.0
 23
0.0
 33
0.0
 16
1.0
 26
0.0
 36
0.0
 17
0.0
 27
1.0
 37
0.0
 76
     0
330
1B
  0
LAYOUT
  5
26
102
{ACAD_REACTORS
330
1A
102
}
330
1A
100
AcDbPlotSettings
  1

  2
none_device
  4

  6

 40
0.0
 41
0.0
 42
0.0
 43
0.0
 44
0.0
 45
0.0
 46
0.0
 47
0.0
 48
0.0
 49
0.0
140
0.0
141
0.0
142
1.0
143
1.0
 70
   688
 72
     1
 73
     0
 74
     5
  7

 75
    16
147
1.0
148
0.0
149
0.0
100
AcDbLayout
  1
Layout2
 70
     1
 71
     2
 10
0.0
 20
0.0
 11
0.0
 21
0.0
 12
0.0
 22
0.0
 32
0.0
 14
0.0
 24
0.0
 34
0.0
 15
0.0
 25
0.0
 35
0.0
146
0.0
 13
0.0
 23
0.0
 33
0.0
 16
1.0
 26
0.0
 36
0.0
 17
0.0
 27
1.0
 37
0.0
 76
     0
330
23
  0
LAYOUT
  5
22
102
{ACAD_REACTORS
330
1A
102
}
330
1A
100
AcDbPlotSettings
  1

  2
none_device
  4
Letter_(8.50_x_11.00_Inches)
  6

 40
6.35
 41
6.35
 42
6.35000508
 43
6.35000508
 44
215.9
 45
279.4
 46
0.0
 47
0.0
 48
0.0
 49
0.0
140
0.0
141
0.0
142
1.0
143
1.0
 70
  1712
 72
     1
 73
     0
 74
     0
  7

 75
     0
147
1.0
148
0.0
149
0.0
100
AcDbLayout
  1
Model
 70
     1
 71
     0
 10
0.0
 20
0.0
 11
297.0
 21
210.0
 12
0.0
 22
0.0
 32
0.0
 14
0.0
 24
0.0
 34
0.0
 15
297.0
 25
210.0
 35
0.0
146
0.0
 13
0.0
 23
0.0
 33
0.0
 16
1.0
 26
0.0
 36
0.0
 17
0.0
 27
1.0
 37
0.0
 76
     0
330
1F
331
29
  0
MLINESTYLE
  5
18
102
{ACAD_REACTORS
330
17
102
}
330
17
100
AcDbMlineStyle
  2
Standard
 70
     0
  3

 62
   256
 51
90.0
 52
90.0
 71
     2
 49
0.5
 62
   256
  6
BYLAYER
 49
-0.5
 62
   256
  6
BYLAYER
  0
ACDBPLACEHOLDER
  5
F
102
{ACAD_REACTORS
330
E
102
}
330
E
  0
SCALE
  5
48
102
{ACAD_REACTORS
330
47
102
}
330
47
100
AcDbScale
 70
     0
300
1:1
140
1.0
141
1.0
290
     1
  0
SCALE
  5
49
102
{ACAD_REACTORS
330
47
102
}
330
47
100
AcDbScale
 70
     0
300
1:2
140
1.0
141
2.0
290
     0
  0
SCALE
  5
4A
102
{ACAD_REACTORS
330
47
102
}
330
47
100
AcDbScale
 70
     0
300
1:4
140
1.0
141
4.0
290
     0
  0
SCALE
  5
4B
102
{ACAD_REACTORS
330
47
102
}
330
47
100
AcDbScale
 70
     0
300
1:5
140
1.0
141
5.0
290
     0
  0
SCALE
  5
4C
102
{ACAD_REACTORS
330
47
102
}
330
47
100
AcDbScale
 70
     0
300
1:8
140
1.0
141
8.0
290
     0
  0
SCALE
  5
4D
102
{ACAD_REACTORS
330
47
102
}
330
47
100
AcDbScale
 70
     0
300
1:10
140
1.0
141
10.0
290
     0
  0
SCALE
  5
4E
102
{ACAD_REACTORS
330
47
102
}
330
47
100
AcDbScale
 70
     0
300
1:16
140
1.0
141
16.0
290
     0
  0
SCALE
  5
4F
102
{ACAD_REACTORS
330
47
102
}
330
47
100
AcDbScale
 70
     0
300
1:20
140
1.0
141
20.0
290
     0
  0
SCALE
  5
50
102
{ACAD_REACTORS
330
47
102
}
330
47
100
AcDbScale
 70
     0
300
1:30
140
1.0
141
30.0
290
     0
  0
SCALE
  5
51
102
{ACAD_REACTORS
330
47
102
}
330
47
100
AcDbScale
 70
     0
300
1:40
140
1.0
141
40.0
290
     0
  0
SCALE
  5
52
102
{ACAD_REACTORS
330
47
102
}
330
47
100
AcDbScale
 70
     0
300
1:50
140
1.0
141
50.0
290
     0
  0
SCALE
  5
53
102
{ACAD_REACTORS
330
47
102
}
330
47
100
AcDbScale
 70
     0
300
1:100
140
1.0
141
100.0
290
     0
  0
SCALE
  5
54
102
{ACAD_REACTORS
330
47
102
}
330
47
100
AcDbScale
 70
     0
300
2:1
140
2.0
141
1.0
290
     0
  0
SCALE
  5
55
102
{ACAD_REACTORS
330
47
102
}
330
47
100
AcDbScale
 70
     0
300
4:1
140
4.0
141
1.0
290
     0
  0
SCALE
  5
56
102
{ACAD_REACTORS
330
47
102
}
330
47
100
AcDbScale
 70
     0
300
8:1
140
8.0
141
1.0
290
     0
  0
SCALE
  5
57
102
{ACAD_REACTORS
330
47
102
}
330
47
100
AcDbScale
 70
     0
300
10:1
140
10.0
141
1.0
290
     0
  0
SCALE
  5
58
102
{ACAD_REACTORS
330
47
102
}
330
47
100
AcDbScale
 70
     0
300
100:1
140
100.0
141
1.0
290
     0
  0
SCALE
  5
59
102
{ACAD_REACTORS
330
47
102
}
330
47
100
AcDbScale
 70
     0
300
1/128" = 1'-0"
140
0.0078125
141
12.0
290
     0
  0
SCALE
  5
5A
102
{ACAD_REACTORS
330
47
102
}
330
47
100
AcDbScale
 70
     0
300
1/64" = 1'-0"
140
0.015625
141
12.0
290
     0
  0
SCALE
  5
5B
102
{ACAD_REACTORS
330
47
102
}
330
47
100
AcDbScale
 70
     0
300
1/32" = 1'-0"
140
0.03125
141
12.0
290
     0
  0
SCALE
  5
5C
102
{ACAD_REACTORS
330
47
102
}
330
47
100
AcDbScale
 70
     0
300
1/16" = 1'-0"
140
0.0625
141
12.0
290
     0
  0
SCALE
  5
5D
102
{ACAD_REACTORS
330
47
102
}
330
47
100
AcDbScale
 70
     0
300
3/32" = 1'-0"
140
0.09375
141
12.0
290
     0
  0
SCALE
  5
5E
102
{ACAD_REACTORS
330
47
102
}
330
47
100
AcDbScale
 70
     0
300
1/8" = 1'-0"
140
0.125
141
12.0
290
     0
  0
SCALE
  5
5F
102
{ACAD_REACTORS
330
47
102
}
330
47
100
AcDbScale
 70
     0
300
3/16" = 1'-0"
140
0.1875
141
12.0
290
     0
  0
SCALE
  5
60
102
{ACAD_REACTORS
330
47
102
}
330
47
100
AcDbScale
 70
     0
300
1/4" = 1'-0"
140
0.25
141
12.0
290
     0
  0
SCALE
  5
61
102
{ACAD_REACTORS
330
47
102
}
330
47
100
AcDbScale
 70
     0
300
3/8" = 1'-0"
140
0.375
141
12.0
290
     0
  0
SCALE
  5
62
102
{ACAD_REACTORS
330
47
102
}
330
47
100
AcDbScale
 70
     0
300
1/2" = 1'-0"
140
0.5
141
12.0
290
     0
  0
SCALE
  5
63
102
{ACAD_REACTORS
330
47
102
}
330
47
100
AcDbScale
 70
     0
300
3/4" = 1'-0"
140
0.75
141
12.0
290
     0
  0
SCALE
  5
64
102
{ACAD_REACTORS
330
47
102
}
330
47
100
AcDbScale
 70
     0
300
1" = 1'-0"
140
1.0
141
12.0
290
     0
  0
SCALE
  5
65
102
{ACAD_REACTORS
330
47
102
}
330
47
100
AcDbScale
 70
     0
300
1-1/2" = 1'-0"
140
1.5
141
12.0
290
     0
  0
SCALE
  5
66
102
{ACAD_REACTORS
330
47
102
}
330
47
100
AcDbScale
 70
     0
300
3" = 1'-0"
140
3.0
141
12.0
290
     0
  0
SCALE
  5
67
102
{ACAD_REACTORS
330
47
102
}
330
47
100
AcDbScale
 70
     0
300
6" = 1'-0"
140
6.0
141
12.0
290
     0
  0
SCALE
  5
68
102
{ACAD_REACTORS
330
47
102
}
330
47
100
AcDbScale
 70
     0
300
1'-0" = 1'-0"
140
12.0
141
12.0
290
     0
  0
ENDSEC
  0
EOF
