  0
SECTION
  2
HEADER
  9
$ACADVER
  1
AC1015
  9
$ACADMAINTVER
 70
     6
  9
$DWGCODEPAGE
  3
ANSI_1252
  9
$INSBASE
 10
0.0
 20
0.0
 30
0.0
  9
$EXTMIN
 10
0.0
 20
0.0
 30
0.0
  9
$EXTMAX
 10
297.0
 20
210.0
 30
0.0
  9
$LIMMIN
 10
0.0
 20
0.0
  9
$LIMMAX
 10
297.0
 20
210.0
  9
$ORTHOMODE
 70
     0
  9
$REGENMODE
 70
     1
  9
$FILLMODE
 70
     1
  9
$QTEXTMODE
 70
     0
  9
$MIRRTEXT
 70
     1
  9
$LTSCALE
 40
1.0
  9
$ATTMODE
 70
     1
  9
$TEXTSIZE
 40
3.8805555556
  9
$TRACEWID
 40
1.0
  9
$TEXTSTYLE
  7
Standard
  9
$CLAYER
  8
0
  9
$CELTYPE
  6
ByLayer
  9
$CECOLOR
 62
   256
  9
$CELTSCALE
 40
1.0
  9
$DISPSILH
 70
     0
  9
$DIMSCALE
 40
1.0
  9
$DIMASZ
 40
3.302
  9
$DIMEXO
 40
1.0
  9
$DIMDLI
 40
3.75
  9
$DIMRND
 40
0.0
  9
$DIMDLE
 40
0.0
  9
$DIMEXE
 40
1.0
  9
$DIMTP
 40
0.0
  9
$DIMTM
 40
0.0
  9
$DIMTXT
 40
3.8805555556
  9
$DIMCEN
 40
2.5
  9
$DIMTSZ
 40
0.0
  9
$DIMTOL
 70
     0
  9
$DIMLIM
 70
     0
  9
$DIMTIH
 70
     1
  9
$DIMTOH
 70
     1
  9
$DIMSE1
 70
     0
  9
$DIMSE2
 70
     0
  9
$DIMTAD
 70
     1
  9
$DIMZIN
 70
     0
  9
$DIMBLK
  1

  9
$DIMASO
 70
     1
  9
$DIMSHO
 70
     1
  9
$DIMPOST
  1

  9
$DIMAPOST
  1

  9
$DIMALT
 70
     0
  9
$DIMALTD
 70
     3
  9
$DIMALTF
 40
0.0393700787
  9
$DIMLFAC
 40
1.0
  9
$DIMTOFL
 70
     1
  9
$DIMTVP
 40
0.0
  9
$DIMTIX
 70
     0
  9
$DIMSOXD
 70
     0
  9
$DIMSAH
 70
     0
  9
$DIMBLK1
  1

  9
$DIMBLK2
  1

  9
$DIMSTYLE
  2
ISO-25
  9
$DIMCLRD
 70
     0
  9
$DIMCLRE
 70
     0
  9
$DIMCLRT
 70
     0
  9
$DIMTFAC
 40
1.0
  9
$DIMGAP
 40
1.524
  9
$DIMJUST
 70
     0
  9
$DIMSD1
 70
     0
  9
$DIMSD2
 70
     0
  9
$DIMTOLJ
 70
     0
  9
$DIMTZIN
 70
     0
  9
$DIMALTZ
 70
     0
  9
$DIMALTTZ
 70
     0
  9
$DIMUPT
 70
     0
  9
$DIMDEC
 70
     2
  9
$DIMTDEC
 70
     2
  9
$DIMALTU
 70
     2
  9
$DIMALTTD
 70
     3
  9
$DIMTXSTY
  7
Standard
  9
$DIMAUNIT
 70
     0
  9
$DIMADEC
 70
     2
  9
$DIMALTRND
 40
0.0
  9
$DIMAZIN
 70
     0
  9
$DIMDSEP
 70
    44
  9
$DIMATFIT
 70
     3
  9
$DIMFRAC
 70
     0
  9
$DIMLDRBLK
  1

  9
$DIMLUNIT
 70
     2
  9
$DIMLWD
 70
    -2
  9
$DIMLWE
 70
    -2
  9
$DIMTMOVE
 70
     0
  9
$LUNITS
 70
     2
  9
$LUPREC
 70
     2
  9
$SKETCHINC
 40
1.0
  9
$FILLETRAD
 40
10.0
  9
$AUNITS
 70
     1
  9
$AUPREC
 70
     2
  9
$MENU
  1
.
  9
$ELEVATION
 40
0.0
  9
$PELEVATION
 40
0.0
  9
$THICKNESS
 40
0.0
  9
$LIMCHECK
 70
     0
  9
$CHAMFERA
 40
0.0
  9
$CHAMFERB
 40
0.0
  9
$CHAMFERC
 40
0.0
  9
$CHAMFERD
 40
0.0
  9
$SKPOLY
 70
     0
  9
$TDCREATE
 40
2458631.682302396
  9
$TDUCREATE
 40
2458631.453135729
  9
$TDUPDATE
 40
2458631.682303322
  9
$TDUUPDATE
 40
2458631.453136655
  9
$TDINDWG
 40
0.0000000116
  9
$TDUSRTIMER
 40
0.0000000116
  9
$USRTIMER
 70
     1
  9
$ANGBASE
 50
0.0
  9
$ANGDIR
 70
     0
  9
$PDMODE
 70
     0
  9
$PDSIZE
 40
-1.0
  9
$PLINEWID
 40
0.0
  9
$SPLFRAME
 70
     0
  9
$SPLINETYPE
 70
     6
  9
$SPLINESEGS
 70
     8
  9
$HANDSEED
  5
17A
  9
$SURFTAB1
 70
     6
  9
$SURFTAB2
 70
     6
  9
$SURFTYPE
 70
     6
  9
$SURFU
 70
     6
  9
$SURFV
 70
     6
  9
$UCSBASE
  2

  9
$UCSNAME
  2

  9
$UCSORG
 10
0.0
 20
0.0
 30
0.0
  9
$UCSXDIR
 10
1.0
 20
0.0
 30
0.0
  9
$UCSYDIR
 10
0.0
 20
1.0
 30
0.0
  9
$UCSORTHOREF
  2

  9
$UCSORTHOVIEW
 70
     0
  9
$UCSORGTOP
 10
0.0
 20
0.0
 30
0.0
  9
$UCSORGBOTTOM
 10
0.0
 20
0.0
 30
0.0
  9
$UCSORGLEFT
 10
0.0
 20
0.0
 30
0.0
  9
$UCSORGRIGHT
 10
0.0
 20
0.0
 30
0.0
  9
$UCSORGFRONT
 10
0.0
 20
0.0
 30
0.0
  9
$UCSORGBACK
 10
0.0
 20
0.0
 30
0.0
  9
$PUCSBASE
  2

  9
$PUCSNAME
  2

  9
$PUCSORG
 10
0.0
 20
0.0
 30
0.0
  9
$PUCSXDIR
 10
1.0
 20
0.0
 30
0.0
  9
$PUCSYDIR
 10
0.0
 20
1.0
 30
0.0
  9
$PUCSORTHOREF
  2

  9
$PUCSORTHOVIEW
 70
     0
  9
$PUCSORGTOP
 10
0.0
 20
0.0
 30
0.0
  9
$PUCSORGBOTTOM
 10
0.0
 20
0.0
 30
0.0
  9
$PUCSORGLEFT
 10
0.0
 20
0.0
 30
0.0
  9
$PUCSORGRIGHT
 10
0.0
 20
0.0
 30
0.0
  9
$PUCSORGFRONT
 10
0.0
 20
0.0
 30
0.0
  9
$PUCSORGBACK
 10
0.0
 20
0.0
 30
0.0
  9
$USERI1
 70
     0
  9
$USERI2
 70
     0
  9
$USERI3
 70
     0
  9
$USERI4
 70
     0
  9
$USERI5
 70
     0
  9
$USERR1
 40
0.0
  9
$USERR2
 40
0.0
  9
$USERR3
 40
0.0
  9
$USERR4
 40
0.0
  9
$USERR5
 40
0.0
  9
$WORLDVIEW
 70
     1
  9
$SHADEDGE
 70
     3
  9
$SHADEDIF
 70
    70
  9
$TILEMODE
 70
     1
  9
$MAXACTVP
 70
    64
  9
$PINSBASE
 10
0.0
 20
0.0
 30
0.0
  9
$PLIMCHECK
 70
     0
  9
$PEXTMIN
 10
1.0000000000E+20
 20
1.0000000000E+20
 30
1.0000000000E+20
  9
$PEXTMAX
 10
-1.0000000000E+20
 20
-1.0000000000E+20
 30
-1.0000000000E+20
  9
$PLIMMIN
 10
0.0
 20
0.0
  9
$PLIMMAX
 10
420.0
 20
297.0
  9
$UNITMODE
 70
     0
  9
$VISRETAIN
 70
     1
  9
$PLINEGEN
 70
     0
  9
$PSLTSCALE
 70
     1
  9
$TREEDEPTH
 70
  3020
  9
$CMLSTYLE
  2
Standard
  9
$CMLJUST
 70
     0
  9
$CMLSCALE
 40
20.0
  9
$PROXYGRAPHICS
 70
     1
  9
$MEASUREMENT
 70
     1
  9
$CELWEIGHT
370
    -1
  9
$ENDCAPS
280
     0
  9
$JOINSTYLE
280
     0
  9
$LWDISPLAY
290
     1
  9
$INSUNITS
 70
     4
  9
$HYPERLINKBASE
  1

  9
$STYLESHEET
  1

  9
$XEDIT
290
     1
  9
$CEPSNTYPE
380
     0
  9
$PSTYLEMODE
290
     1
  9
$FINGERPRINTGUID
  2
{8A5E1E03-5150-422E-802B-4BFBFE223EB0}
  9
$VERSIONGUID
  2
{FAEB1C32-E019-11D5-929B-00C0DF256EC4}
  9
$EXTNAMES
290
     1
  9
$PSVPSCALE
 40
0.0
  9
$OLESTARTUP
290
     0
  0
ENDSEC
  0
SECTION
  2
CLASSES
  0
CLASS
  1
ACDBDICTIONARYWDFLT
  2
AcDbDictionaryWithDefault
  3
ObjectDBX Classes
 90
        0
280
     0
281
     0
  0
CLASS
  1
VISUALSTYLE
  2
AcDbVisualStyle
  3
ObjectDBX Classes
 90
     4095
280
     0
281
     0
  0
CLASS
  1
MATERIAL
  2
AcDbMaterial
  3
ObjectDBX Classes
 90
     1153
280
     0
281
     0
  0
CLASS
  1
SCALE
  2
AcDbScale
  3
ObjectDBX Classes
 90
     1153
280
     0
281
     0
  0
CLASS
  1
SUN
  2
AcDbSun
  3
SCENEOE
 90
     1153
280
     0
281
     0
  0
CLASS
  1
ACDBPLACEHOLDER
  2
AcDbPlaceHolder
  3
ObjectDBX Classes
 90
        0
280
     0
281
     0
  0
CLASS
  1
LAYOUT
  2
AcDbLayout
  3
ObjectDBX Classes
 90
        0
280
     0
281
     0
  0
ENDSEC
  0
SECTION
  2
TABLES
  0
TABLE
  2
VPORT
  5
8
330
0
100
AcDbSymbolTable
 70
     1
  0
VPORT
  5
29
330
8
100
AcDbSymbolTableRecord
100
AcDbViewportTableRecord
  2
*Active
 70
     0
 10
0.0
 20
0.0
 11
1.0
 21
1.0
 12
148.5
 22
105.0
 13
0.0
 23
0.0
 14
10.0
 24
10.0
 15
10.0
 25
10.0
 16
0.0
 26
0.0
 36
1.0
 17
0.0
 27
0.0
 37
0.0
 40
210.0
 41
1.4142857143
 42
50.0
 43
0.0
 44
0.0
 50
0.0
 51
0.0
 71
     0
 72
  2000
 73
     1
 74
     3
 75
     0
 76
     0
 77
     0
 78
     0
281
     0
 65
     1
110
0.0
120
0.0
130
0.0
111
1.0
121
0.0
131
0.0
112
0.0
122
1.0
132
0.0
 79
     0
146
0.0
  0
ENDTAB
  0
TABLE
  2
LTYPE
  5
5
330
0
100
AcDbSymbolTable
 70
     6
  0
LTYPE
  5
14
330
5
100
AcDbSymbolTableRecord
100
AcDbLinetypeTableRecord
  2
ByBlock
 70
     0
  3

 72
    65
 73
     0
 40
0.0
  0
LTYPE
  5
15
330
5
100
AcDbSymbolTableRecord
100
AcDbLinetypeTableRecord
  2
ByLayer
 70
     0
  3

 72
    65
 73
     0
 40
0.0
  0
LTYPE
  5
16
330
5
100
AcDbSymbolTableRecord
100
AcDbLinetypeTableRecord
  2
Continuous
 70
     0
  3
Solid line
 72
    65
 73
     0
 40
0.0
  0
LTYPE
  5
6A
330
5
100
AcDbSymbolTableRecord
100
AcDbLinetypeTableRecord
  2
HIDDEN
 70
     0
  3
Hidden __ __ __ __ __ __ __ __ __ __ __ __ __ __
 72
    65
 73
     2
 40
1.905
 49
1.27
 74
     0
 49
-0.635
 74
     0
  0
LTYPE
  5
6B
330
5
100
AcDbSymbolTableRecord
100
AcDbLinetypeTableRecord
  2
PHANTOM
 70
     0
  3
Phantom ______  __  __  ______  __  __  ______
 72
    65
 73
     6
 40
12.7
 49
6.35
 74
     0
 49
-1.27
 74
     0
 49
1.27
 74
     0
 49
-1.27
 74
     0
 49
1.27
 74
     0
 49
-1.27
 74
     0
  0
LTYPE
  5
6C
330
5
100
AcDbSymbolTableRecord
100
AcDbLinetypeTableRecord
  2
CENTER
 70
     0
  3
Center ____ _ ____ _ ____ _ ____ _ ____ _ ____
 72
    65
 73
     4
 40
10.16
 49
6.35
 74
     0
 49
-1.27
 74
     0
 49
1.27
 74
     0
 49
-1.27
 74
     0
  0
LTYPE
  5
6D
330
5
100
AcDbSymbolTableRecord
100
AcDbLinetypeTableRecord
  2
CENTERX2
 70
     0
  3
Center (2x) ________  __  ________  __  _____
 72
    65
 73
     4
 40
20.32
 49
12.7
 74
     0
 49
-2.54
 74
     0
 49
2.54
 74
     0
 49
-2.54
 74
     0
  0
LTYPE
  5
6E
330
5
100
AcDbSymbolTableRecord
100
AcDbLinetypeTableRecord
  2
DOT2
 70
     0
  3
Dot (.5x) ........................................
 72
    65
 73
     2
 40
0.635
 49
0.0
 74
     0
 49
-0.635
 74
     0
  0
ENDTAB
  0
TABLE
  2
LAYER
  5
2
330
0
100
AcDbSymbolTable
 70
     8
  0
LAYER
  5
10
330
2
100
AcDbSymbolTableRecord
100
AcDbLayerTableRecord
  2
0
 70
     0
 62
     7
  6
Continuous
370
    -3
390
F
  0
LAYER
  5
6F
330
2
100
AcDbSymbolTableRecord
100
AcDbLayerTableRecord
  2
FORMAT
 70
     0
 62
     7
  6
Continuous
370
    -3
390
F
  0
LAYER
  5
70
330
2
100
AcDbSymbolTableRecord
100
AcDbLayerTableRecord
  2
SLD-0
 70
     0
 62
     2
  6
Continuous
370
    -3
390
F
  0
LAYER
  5
71
330
2
100
AcDbSymbolTableRecord
100
AcDbLayerTableRecord
  2
DIM
 70
     0
 62
   179
  6
Continuous
370
    -3
390
F
  0
LAYER
  5
72
330
2
100
AcDbSymbolTableRecord
100
AcDbLayerTableRecord
  2
SLD-DEFPOINTS
 70
     0
 62
   179
  6
Continuous
370
    -3
390
F
  0
LAYER
  5
73
330
2
100
AcDbSymbolTableRecord
100
AcDbLayerTableRecord
  2
HAT
 70
     0
 62
   135
  6
Continuous
370
    -3
390
F
  0
LAYER
  5
74
330
2
100
AcDbSymbolTableRecord
100
AcDbLayerTableRecord
  2
JOB
 70
     0
 62
   201
  6
Continuous
370
    -3
390
F
  0
LAYER
  5
75
330
2
100
AcDbSymbolTableRecord
100
AcDbLayerTableRecord
  2
INSPECTION_REPORT
 70
     0
 62
   255
  6
Continuous
370
    -3
390
F
  0
ENDTAB
  0
TABLE
  2
STYLE
  5
3
330
0
100
AcDbSymbolTable
 70
     4
  0
STYLE
  5
11
330
3
100
AcDbSymbolTableRecord
100
AcDbTextStyleTableRecord
  2
Standard
 70
     0
 40
0.0
 41
1.0
 50
0.0
 71
     0
 42
3.8805555556
  3
txt
  4

  0
STYLE
  5
96
330
3
100
AcDbSymbolTableRecord
100
AcDbTextStyleTableRecord
  2
SLDTEXTSTYLE0
 70
     0
 40
0.0
 41
0.7
 50
0.0
 71
     0
 42
3.8805555556
  3
TXT
  4

  0
STYLE
  5
98
330
3
100
AcDbSymbolTableRecord
100
AcDbTextStyleTableRecord
  2
SLDTEXTSTYLE1
 70
     0
 40
0.0
 41
0.75
 50
0.0
 71
     0
 42
3.8805555556
  3
TXT
  4

  0
STYLE
  5
AB
330
3
100
AcDbSymbolTableRecord
100
AcDbTextStyleTableRecord
  2
SLDTEXTSTYLE2
 70
     0
 40
0.0
 41
0.6875
 50
0.0
 71
     0
 42
3.8805555556
  3
TXT
  4

  0
ENDTAB
  0
TABLE
  2
VIEW
  5
6
330
0
100
AcDbSymbolTable
 70
     0
  0
ENDTAB
  0
TABLE
  2
UCS
  5
7
330
0
100
AcDbSymbolTable
 70
     0
  0
ENDTAB
  0
TABLE
  2
APPID
  5
9
330
0
100
AcDbSymbolTable
 70
     1
  0
APPID
  5
12
330
9
100
AcDbSymbolTableRecord
100
AcDbRegAppTableRecord
  2
ACAD
 70
     0
  0
ENDTAB
  0
TABLE
  2
DIMSTYLE
  5
A
330
0
100
AcDbSymbolTable
 70
     3
100
AcDbDimStyleTable
  0
DIMSTYLE
105
27
330
A
100
AcDbSymbolTableRecord
100
AcDbDimStyleTableRecord
  2
ISO-25
 70
     0
 41
2.5
 42
0.625
 43
3.75
 44
1.25
 73
     0
 74
     0
 77
     1
 78
     8
140
2.5
141
2.5
143
0.0393700787
147
0.625
171
     3
172
     1
178
     0
271
     2
272
     2
274
     3
278
    44
283
     0
284
     8
340
11
  0
DIMSTYLE
105
139
102
{ACAD_REACTORS
330
138
330
144
330
14F
330
159
330
16E
102
}
330
A
100
AcDbSymbolTableRecord
100
AcDbDimStyleTableRecord
  2
SLDDIMSTYLE0
 70
     0
 41
3.302
 44
0.0
 45
0.000000001
 73
     0
 74
     0
 77
     1
 78
    12
 79
     3
140
2.9104166667
147
0.7276041667
173
     1
178
     0
271
     2
272
     2
276
     2
284
    12
340
96
  0
DIMSTYLE
105
164
102
{ACAD_REACTORS
330
163
102
}
330
A
100
AcDbSymbolTableRecord
100
AcDbDimStyleTableRecord
  2
SLDDIMSTYLE1
 70
     0
 41
3.302
 44
0.0
 45
0.000000001
 73
     0
 74
     0
 77
     1
 78
     4
 79
     1
140
2.9104166667
147
0.7276041667
173
     1
178
     0
271
     2
272
     2
276
     2
284
    12
340
96
  0
ENDTAB
  0
TABLE
  2
BLOCK_RECORD
  5
1
330
0
100
AcDbSymbolTable
 70
     7
  0
BLOCK_RECORD
  5
1F
330
1
100
AcDbSymbolTableRecord
100
AcDbBlockTableRecord
  2
*Model_Space
340
22
  0
BLOCK_RECORD
  5
1B
330
1
100
AcDbSymbolTableRecord
100
AcDbBlockTableRecord
  2
*Paper_Space
340
1E
  0
BLOCK_RECORD
  5
23
330
1
100
AcDbSymbolTableRecord
100
AcDbBlockTableRecord
  2
*Paper_Space0
340
26
  0
BLOCK_RECORD
  5
13A
330
1
100
AcDbSymbolTableRecord
100
AcDbBlockTableRecord
  2
_D
340
0
  0
BLOCK_RECORD
  5
145
330
1
100
AcDbSymbolTableRecord
100
AcDbBlockTableRecord
  2
_D_1
340
0
  0
BLOCK_RECORD
  5
150
330
1
100
AcDbSymbolTableRecord
100
AcDbBlockTableRecord
  2
_D_2
340
0
  0
BLOCK_RECORD
  5
15A
330
1
100
AcDbSymbolTableRecord
100
AcDbBlockTableRecord
  2
_D_3
340
0
  0
BLOCK_RECORD
  5
165
330
1
100
AcDbSymbolTableRecord
100
AcDbBlockTableRecord
  2
_D_4
340
0
  0
BLOCK_RECORD
  5
16F
330
1
100
AcDbSymbolTableRecord
100
AcDbBlockTableRecord
  2
_D_5
340
0
  0
ENDTAB
  0
ENDSEC
  0
SECTION
  2
BLOCKS
  0
BLOCK
  5
20
330
1F
100
AcDbEntity
  8
0
100
AcDbBlockBegin
  2
*Model_Space
 70
     0
 10
0.0
 20
0.0
 30
0.0
  3
*Model_Space
  1
*Model_Space
  0
ENDBLK
  5
21
330
1F
100
AcDbEntity
  8
0
100
AcDbBlockEnd
  0
BLOCK
  5
1C
330
1B
100
AcDbEntity
 67
     1
  8
0
100
AcDbBlockBegin
  2
*Paper_Space
 70
     0
 10
0.0
 20
0.0
 30
0.0
  3
*Paper_Space
  1
*Paper_Space
  0
ENDBLK
  5
1D
330
1B
100
AcDbEntity
 67
     1
  8
0
100
AcDbBlockEnd
  0
BLOCK
  5
24
330
23
100
AcDbEntity
  8
0
100
AcDbBlockBegin
  2
*Paper_Space0
 70
     0
 10
0.0
 20
0.0
 30
0.0
  3
*Paper_Space0
  1
*Paper_Space0
  0
ENDBLK
  5
25
330
23
100
AcDbEntity
  8
0
100
AcDbBlockEnd
  0
BLOCK
  5
13B
330
13A
100
AcDbEntity
  8
0
100
AcDbBlockBegin
  2
_D
 70
     0
 10
0.0
 20
0.0
 30
0.0
  3
_D
  1
_D
  0
SOLID
  5
13D
330
13A
100
AcDbEntity
  8
DIM
100
AcDbTrace
 10
225.0805958801
 20
122.2855705426
 30
0.0
 11
224.5725958801
 21
118.9835705426
 31
0.0
 12
225.5885958801
 22
118.9835705426
 32
0.0
 13
225.5885958801
 23
118.9835705426
 33
0.0
  0
SOLID
  5
13E
330
13A
100
AcDbEntity
  8
DIM
100
AcDbTrace
 10
225.0805958801
 20
90.2855705426
 30
0.0
 11
225.5885958801
 21
93.5875705426
 31
0.0
 12
224.5725958801
 22
93.5875705426
 32
0.0
 13
224.5725958801
 23
93.5875705426
 33
0.0
  0
LINE
  5
13F
330
13A
100
AcDbEntity
  8
DIM
100
AcDbLine
 10
204.5146288365
 20
122.2855705426
 30
0.0
 11
226.0805958801
 21
122.2855705426
 31
0.0
  0
LINE
  5
140
330
13A
100
AcDbEntity
  8
DIM
100
AcDbLine
 10
204.5146288365
 20
90.2855705426
 30
0.0
 11
226.0805958801
 21
90.2855705426
 31
0.0
  0
LINE
  5
141
330
13A
100
AcDbEntity
  8
DIM
100
AcDbLine
 10
225.0805958801
 20
122.2855705426
 30
0.0
 11
225.0805958801
 21
90.2855705426
 31
0.0
  0
MTEXT
  5
142
330
13A
100
AcDbEntity
  8
DIM
100
AcDbMText
 10
221.328871413
 20
102.0680264377
 30
0.0
 40
2.9104166667
 41
0.0
 71
     1
 72
     1
  1
%%c
  7
SLDTEXTSTYLE0
 11
-7.044195017643634E-15
 21
1.0
 31
0.0
 73
     1
 44
1.0
  0
MTEXT
  5
143
330
13A
100
AcDbEntity
  8
DIM
100
AcDbMText
 10
221.328871413
 20
106.5686623373
 30
0.0
 40
2.9104166667
 41
0.0
 71
     1
 72
     1
  1
32
  7
SLDTEXTSTYLE0
 11
-7.044195017643634E-15
 21
1.0
 31
0.0
 73
     1
 44
1.0
  0
ENDBLK
  5
13C
330
13A
100
AcDbEntity
  8
0
100
AcDbBlockEnd
  0
BLOCK
  5
146
330
145
100
AcDbEntity
  8
0
100
AcDbBlockBegin
  2
_D_1
 70
     0
 10
0.0
 20
0.0
 30
0.0
  3
_D_1
  1
_D_1
  0
SOLID
  5
148
330
145
100
AcDbEntity
  8
DIM
100
AcDbTrace
 10
229.9868720225
 20
135.2855705426
 30
0.0
 11
229.4788720225
 21
131.9835705426
 31
0.0
 12
230.4948720225
 22
131.9835705426
 32
0.0
 13
230.4948720225
 23
131.9835705426
 33
0.0
  0
SOLID
  5
149
330
145
100
AcDbEntity
  8
DIM
100
AcDbTrace
 10
229.9868720225
 20
77.2855705426
 30
0.0
 11
230.4948720225
 21
80.5875705426
 31
0.0
 12
229.4788720225
 22
80.5875705426
 32
0.0
 13
229.4788720225
 23
80.5875705426
 33
0.0
  0
LINE
  5
14A
330
145
100
AcDbEntity
  8
DIM
100
AcDbLine
 10
188.1868720225
 20
135.2855705426
 30
0.0
 11
230.9868720225
 21
135.2855705426
 31
0.0
  0
LINE
  5
14B
330
145
100
AcDbEntity
  8
DIM
100
AcDbLine
 10
188.1868720225
 20
77.2855705426
 30
0.0
 11
230.9868720225
 21
77.2855705426
 31
0.0
  0
LINE
  5
14C
330
145
100
AcDbEntity
  8
DIM
100
AcDbLine
 10
229.9868720225
 20
135.2855705426
 30
0.0
 11
229.9868720225
 21
77.2855705426
 31
0.0
  0
MTEXT
  5
14D
330
145
100
AcDbEntity
  8
DIM
100
AcDbMText
 10
226.2351475554
 20
102.0680264377
 30
0.0
 40
2.9104166667
 41
0.0
 71
     1
 72
     1
  1
%%c
  7
SLDTEXTSTYLE0
 11
-7.044195017643634E-15
 21
1.0
 31
0.0
 73
     1
 44
1.0
  0
MTEXT
  5
14E
330
145
100
AcDbEntity
  8
DIM
100
AcDbMText
 10
226.2351475554
 20
106.5686623373
 30
0.0
 40
2.9104166667
 41
0.0
 71
     1
 72
     1
  1
58
  7
SLDTEXTSTYLE0
 11
-7.044195017643634E-15
 21
1.0
 31
0.0
 73
     1
 44
1.0
  0
ENDBLK
  5
147
330
145
100
AcDbEntity
  8
0
100
AcDbBlockEnd
  0
BLOCK
  5
151
330
150
100
AcDbEntity
  8
0
100
AcDbBlockBegin
  2
_D_2
 70
     0
 10
0.0
 20
0.0
 30
0.0
  3
_D_2
  1
_D_2
  0
SOLID
  5
153
330
150
100
AcDbEntity
  8
DIM
100
AcDbTrace
 10
204.9868720225
 20
64.7855455426
 30
0.0
 11
201.6848720225
 21
65.2935455426
 31
0.0
 12
201.6848720225
 22
64.2775455426
 32
0.0
 13
201.6848720225
 23
64.2775455426
 33
0.0
  0
SOLID
  5
154
330
150
100
AcDbEntity
  8
DIM
100
AcDbTrace
 10
180.9868720232
 20
64.7855455426
 30
0.0
 11
184.2888720232
 21
64.2775455426
 31
0.0
 12
184.2888720232
 22
65.2935455426
 32
0.0
 13
184.2888720232
 23
65.2935455426
 33
0.0
  0
LINE
  5
155
330
150
100
AcDbEntity
  8
DIM
100
AcDbLine
 10
204.9868720225
 20
90.1355705426
 30
0.0
 11
204.9868720225
 21
63.7855455426
 31
0.0
  0
LINE
  5
156
330
150
100
AcDbEntity
  8
DIM
100
AcDbLine
 10
180.9868720232
 20
77.1430759836
 30
0.0
 11
180.9868720232
 21
63.7855455426
 31
0.0
  0
LINE
  5
157
330
150
100
AcDbEntity
  8
DIM
100
AcDbLine
 10
204.9868720225
 20
64.7855455426
 30
0.0
 11
180.9868720232
 21
64.7855455426
 31
0.0
  0
MTEXT
  5
158
330
150
100
AcDbEntity
  8
DIM
100
AcDbMText
 10
191.0196458677
 20
68.5372700097
 30
0.0
 40
2.9104166667
 41
0.0
 71
     1
 72
     1
  1
24
  7
SLDTEXTSTYLE0
 73
     1
 44
1.0
  0
ENDBLK
  5
152
330
150
100
AcDbEntity
  8
0
100
AcDbBlockEnd
  0
BLOCK
  5
15B
330
15A
100
AcDbEntity
  8
0
100
AcDbBlockBegin
  2
_D_3
 70
     0
 10
0.0
 20
0.0
 30
0.0
  3
_D_3
  1
_D_3
  0
SOLID
  5
15D
330
15A
100
AcDbEntity
  8
DIM
100
AcDbTrace
 10
180.9868720232
 20
64.7855455426
 30
0.0
 11
177.6848720232
 21
65.2935455426
 31
0.0
 12
177.6848720232
 22
64.2775455426
 32
0.0
 13
177.6848720232
 23
64.2775455426
 33
0.0
  0
SOLID
  5
15E
330
15A
100
AcDbEntity
  8
DIM
100
AcDbTrace
 10
120.9868720225
 20
64.7855455426
 30
0.0
 11
124.2888720225
 21
64.2775455426
 31
0.0
 12
124.2888720225
 22
65.2935455426
 32
0.0
 13
124.2888720225
 23
65.2935455426
 33
0.0
  0
LINE
  5
15F
330
15A
100
AcDbEntity
  8
DIM
100
AcDbLine
 10
180.9868720232
 20
77.1430759836
 30
0.0
 11
180.9868720232
 21
63.7855455426
 31
0.0
  0
LINE
  5
160
330
15A
100
AcDbEntity
  8
DIM
100
AcDbLine
 10
120.9868720225
 20
83.0605705426
 30
0.0
 11
120.9868720225
 21
63.7855455426
 31
0.0
  0
LINE
  5
161
330
15A
100
AcDbEntity
  8
DIM
100
AcDbLine
 10
180.9868720232
 20
64.7855455426
 30
0.0
 11
120.9868720225
 21
64.7855455426
 31
0.0
  0
MTEXT
  5
162
330
15A
100
AcDbEntity
  8
DIM
100
AcDbMText
 10
149.0196458677
 20
68.5372700097
 30
0.0
 40
2.9104166667
 41
0.0
 71
     1
 72
     1
  1
60
  7
SLDTEXTSTYLE0
 73
     1
 44
1.0
  0
ENDBLK
  5
15C
330
15A
100
AcDbEntity
  8
0
100
AcDbBlockEnd
  0
BLOCK
  5
166
330
165
100
AcDbEntity
  8
0
100
AcDbBlockBegin
  2
_D_4
 70
     0
 10
0.0
 20
0.0
 30
0.0
  3
_D_4
  1
_D_4
  0
SOLID
  5
168
330
165
100
AcDbEntity
  8
DIM
100
AcDbTrace
 10
55.5868720227
 20
58.7855455426
 30
0.0
 11
58.8888720227
 21
58.2775455426
 31
0.0
 12
58.8888720227
 22
59.2935455426
 32
0.0
 13
58.8888720227
 23
59.2935455426
 33
0.0
  0
SOLID
  5
169
330
165
100
AcDbEntity
  8
DIM
100
AcDbTrace
 10
219.9868720225
 20
58.7855455426
 30
0.0
 11
216.6848720225
 21
59.2935455426
 31
0.0
 12
216.6848720225
 22
58.2775455426
 32
0.0
 13
216.6848720225
 23
58.2775455426
 33
0.0
  0
LINE
  5
16A
330
165
100
AcDbEntity
  8
DIM
100
AcDbLine
 10
55.5868720227
 20
105.2855705426
 30
0.0
 11
55.5868720227
 21
57.7855455426
 31
0.0
  0
LINE
  5
16B
330
165
100
AcDbEntity
  8
DIM
100
AcDbLine
 10
219.9868720225
 20
85.0355705426
 30
0.0
 11
219.9868720225
 21
57.7855455426
 31
0.0
  0
LINE
  5
16C
330
165
100
AcDbEntity
  8
DIM
100
AcDbLine
 10
55.5868720227
 20
58.7855455426
 30
0.0
 11
219.9868720225
 21
58.7855455426
 31
0.0
  0
MTEXT
  5
16D
330
165
100
AcDbEntity
  8
DIM
100
AcDbMText
 10
132.3513992026
 20
62.5372700097
 30
0.0
 40
2.9104166667
 41
0.0
 71
     1
 72
     1
  1
164.40
  7
SLDTEXTSTYLE0
 73
     1
 44
1.0
  0
ENDBLK
  5
167
330
165
100
AcDbEntity
  8
0
100
AcDbBlockEnd
  0
BLOCK
  5
170
330
16F
100
AcDbEntity
  8
0
100
AcDbBlockBegin
  2
_D_5
 70
     0
 10
0.0
 20
0.0
 30
0.0
  3
_D_5
  1
_D_5
  0
SOLID
  5
172
330
16F
100
AcDbEntity
  8
DIM
100
AcDbTrace
 10
53.3711286579
 20
74.7855705426
 30
0.0
 11
53.8791286579
 21
78.0875705426
 31
0.0
 12
52.8631286579
 22
78.0875705426
 32
0.0
 13
52.8631286579
 23
78.0875705426
 33
0.0
  0
SOLID
  5
173
330
16F
100
AcDbEntity
  8
DIM
100
AcDbTrace
 10
53.3711286579
 20
137.7855705426
 30
0.0
 11
52.8631286579
 21
134.4835705426
 31
0.0
 12
53.8791286579
 22
134.4835705426
 32
0.0
 13
53.8791286579
 23
134.4835705426
 33
0.0
  0
LINE
  5
174
330
16F
100
AcDbEntity
  8
DIM
100
AcDbLine
 10
123.1525574475
 20
74.7855705426
 30
0.0
 11
52.3711286579
 21
74.7855705426
 31
0.0
  0
LINE
  5
175
330
16F
100
AcDbEntity
  8
DIM
100
AcDbLine
 10
123.1525574475
 20
137.7855705426
 30
0.0
 11
52.3711286579
 21
137.7855705426
 31
0.0
  0
LINE
  5
176
330
16F
100
AcDbEntity
  8
DIM
100
AcDbLine
 10
53.3711286579
 20
74.7855705426
 30
0.0
 11
53.3711286579
 21
137.7855705426
 31
0.0
  0
MTEXT
  5
177
330
16F
100
AcDbEntity
  8
DIM
100
AcDbMText
 10
49.6194041908
 20
102.0680264377
 30
0.0
 40
2.9104166667
 41
0.0
 71
     1
 72
     1
  1
%%c
  7
SLDTEXTSTYLE0
 11
6.123233995736766E-17
 21
1.0
 31
0.0
 73
     1
 44
1.0
  0
MTEXT
  5
178
330
16F
100
AcDbEntity
  8
DIM
100
AcDbMText
 10
49.6194041908
 20
106.5686623373
 30
0.0
 40
2.9104166667
 41
0.0
 71
     1
 72
     1
  1
63
  7
SLDTEXTSTYLE0
 11
6.123233995736766E-17
 21
1.0
 31
0.0
 73
     1
 44
1.0
  0
ENDBLK
  5
171
330
16F
100
AcDbEntity
  8
0
100
AcDbBlockEnd
  0
ENDSEC
  0
SECTION
  2
ENTITIES
  0
LINE
  5
76
330
1F
100
AcDbEntity
  8
DIM
100
AcDbLine
 10
104.704424689
 20
9.7909914569
 30
0.0
 11
104.704424689
 21
4.7909914569
 31
0.0
  0
LINE
  5
77
330
1F
100
AcDbEntity
  8
DIM
100
AcDbLine
 10
254.4696016953
 20
9.7909914569
 30
0.0
 11
254.4696016953
 21
4.7909914569
 31
0.0
  0
LINE
  5
78
330
1F
100
AcDbEntity
  8
DIM
100
AcDbLine
 10
237.4517099316
 20
9.7909914569
 30
0.0
 11
237.4517099316
 21
4.7909914569
 31
0.0
  0
LINE
  5
79
330
1F
100
AcDbEntity
  8
DIM
100
AcDbLine
 10
278.904424689
 20
4.7909914569
 30
0.0
 11
278.904424689
 21
9.7909914569
 31
0.0
  0
LINE
  5
7A
330
1F
100
AcDbEntity
  8
DIM
100
AcDbLine
 10
112.504424689
 20
9.7909914569
 30
0.0
 11
112.504424689
 21
4.7909914569
 31
0.0
  0
LINE
  5
7B
330
1F
100
AcDbEntity
  8
DIM
100
AcDbLine
 10
131.6953771228
 20
9.7909914569
 30
0.0
 11
131.6953771228
 21
4.7909914569
 31
0.0
  0
LINE
  5
7C
330
1F
100
AcDbEntity
  8
DIM
100
AcDbLine
 10
291.904424689
 20
4.7909914569
 30
0.0
 11
291.904424689
 21
77.0409914569
 31
0.0
  0
LINE
  5
7D
330
1F
100
AcDbEntity
  8
DIM
100
AcDbLine
 10
285.8190046947
 20
60.0409914569
 30
0.0
 11
291.904424689
 21
60.0409914569
 31
0.0
  0
LINE
  5
7E
330
1F
100
AcDbEntity
  8
DIM
100
AcDbLine
 10
149.1033508525
 20
9.0409914569
 30
0.0
 11
149.1033508525
 21
4.7909914569
 31
0.0
  0
LINE
  5
7F
330
1F
100
AcDbEntity
  8
DIM
100
AcDbLine
 10
196.7639491604
 20
9.7909914569
 30
0.0
 11
196.7639491604
 21
4.7909914569
 31
0.0
  0
LINE
  5
80
330
1F
100
AcDbEntity
  8
DIM
100
AcDbLine
 10
149.1033508525
 20
9.7909914569
 30
0.0
 11
149.1033508525
 21
9.0409914569
 31
0.0
  0
LINE
  5
81
330
1F
100
AcDbEntity
  8
DIM
100
AcDbLine
 10
286.904424689
 20
17.5409194569
 30
0.0
 11
291.904424689
 21
17.5409194569
 31
0.0
  0
LINE
  5
82
330
1F
100
AcDbEntity
  8
DIM
100
AcDbLine
 10
286.904424689
 20
199.7909914569
 30
0.0
 11
9.904424689
 21
199.7909914569
 31
0.0
  0
LINE
  5
83
330
1F
100
AcDbEntity
  8
DIM
100
AcDbLine
 10
291.904424689
 20
204.7909914569
 30
0.0
 11
4.904424689
 21
204.7909914569
 31
0.0
  0
LINE
  5
84
330
1F
100
AcDbEntity
  8
DIM
100
AcDbLine
 10
9.904424689
 20
199.7909914569
 30
0.0
 11
9.904424689
 21
9.7909914569
 31
0.0
  0
LINE
  5
85
330
1F
100
AcDbEntity
  8
DIM
100
AcDbLine
 10
4.904424689
 20
204.7909914569
 30
0.0
 11
4.904424689
 21
4.7909914569
 31
0.0
  0
LINE
  5
86
330
1F
100
AcDbEntity
  8
DIM
100
AcDbLine
 10
9.904424689
 20
54.7909914569
 30
0.0
 11
4.904424689
 21
54.7909914569
 31
0.0
  0
LINE
  5
87
330
1F
100
AcDbEntity
  8
DIM
100
AcDbLine
 10
4.904424689
 20
104.7909914569
 30
0.0
 11
9.904424689
 21
104.7909914569
 31
0.0
  0
LINE
  5
88
330
1F
100
AcDbEntity
  8
DIM
100
AcDbLine
 10
4.904424689
 20
4.7909914569
 30
0.0
 11
291.904424689
 21
4.7909914569
 31
0.0
  0
LINE
  5
89
330
1F
100
AcDbEntity
  8
DIM
100
AcDbLine
 10
9.904424689
 20
9.7909914569
 30
0.0
 11
291.904424689
 21
9.7909914569
 31
0.0
  0
LINE
  5
8A
330
1F
100
AcDbEntity
  8
DIM
100
AcDbLine
 10
48.404424689
 20
4.7909914569
 30
0.0
 11
48.404424689
 21
9.7909914569
 31
0.0
  0
LINE
  5
8B
330
1F
100
AcDbEntity
  8
DIM
100
AcDbLine
 10
98.404424689
 20
9.7909914569
 30
0.0
 11
98.404424689
 21
4.7909914569
 31
0.0
  0
LINE
  5
8C
330
1F
100
AcDbEntity
  8
DIM
100
AcDbLine
 10
9.904424689
 20
154.7909914569
 30
0.0
 11
4.904424689
 21
154.7909914569
 31
0.0
  0
LINE
  5
8D
330
1F
100
AcDbEntity
  8
DIM
100
AcDbLine
 10
48.404424689
 20
199.7909914569
 30
0.0
 11
48.404424689
 21
204.7909914569
 31
0.0
  0
LINE
  5
8E
330
1F
100
AcDbEntity
  8
DIM
100
AcDbLine
 10
98.404424689
 20
204.7909914569
 30
0.0
 11
98.404424689
 21
199.7909914569
 31
0.0
  0
LINE
  5
8F
330
1F
100
AcDbEntity
  8
DIM
100
AcDbLine
 10
148.404424689
 20
204.7909914569
 30
0.0
 11
148.404424689
 21
199.7909914569
 31
0.0
  0
LINE
  5
90
330
1F
100
AcDbEntity
  8
DIM
100
AcDbLine
 10
286.904424689
 20
9.7909914569
 30
0.0
 11
286.904424689
 21
199.7909914569
 31
0.0
  0
LINE
  5
91
330
1F
100
AcDbEntity
  8
DIM
100
AcDbLine
 10
291.904424689
 20
77.0409914569
 30
0.0
 11
291.904424689
 21
204.7909914569
 31
0.0
  0
LINE
  5
92
330
1F
100
AcDbEntity
  8
DIM
100
AcDbLine
 10
291.904424689
 20
104.7909914569
 30
0.0
 11
286.904424689
 21
104.7909914569
 31
0.0
  0
LINE
  5
93
330
1F
100
AcDbEntity
  8
DIM
100
AcDbLine
 10
198.404424689
 20
204.7909914569
 30
0.0
 11
198.404424689
 21
199.7909914569
 31
0.0
  0
LINE
  5
94
330
1F
100
AcDbEntity
  8
DIM
100
AcDbLine
 10
248.404424689
 20
199.7909914569
 30
0.0
 11
248.404424689
 21
204.7909914569
 31
0.0
  0
LINE
  5
95
330
1F
100
AcDbEntity
  8
DIM
100
AcDbLine
 10
286.904424689
 20
154.7909914569
 30
0.0
 11
291.904424689
 21
154.7909914569
 31
0.0
  0
MTEXT
  5
97
330
1F
100
AcDbEntity
  8
DIM
100
AcDbMText
 10
16.7039741965
 20
192.951218434
 30
0.0
 40
4.2333333333
 41
0.0
 71
     1
 72
     1
  1
BT40 CSMA32 060 AD/6.3G 15000 SL SP.S
  7
SLDTEXTSTYLE0
 73
     1
 44
1.0
  0
MTEXT
  5
99
330
1F
100
AcDbEntity
  8
DIM
 62
     7
100
AcDbMText
 10
197.7327786466
 20
7.8019515263
 30
0.0
 40
1.4986
 41
0.0
 71
     1
 72
     1
  1
WEIGHT:
  7
SLDTEXTSTYLE1
 73
     1
 44
1.0
  0
MTEXT
  5
9A
330
1F
100
AcDbEntity
  8
DIM
 62
     7
100
AcDbMText
 10
288.5970767548
 20
81.9406135082
 30
0.0
 40
1.8520833333
 41
0.0
 71
     1
 72
     1
  1
C
  7
SLDTEXTSTYLE1
 73
     1
 44
1.0
  0
MTEXT
  5
9B
330
1F
100
AcDbEntity
  8
DIM
 62
     7
100
AcDbMText
 10
283.0435806195
 20
14.8539819836
 30
0.0
 40
2.9104166667
 41
0.0
 71
     1
 72
     1
  1
A4
  7
SLDTEXTSTYLE1
 73
     1
 44
1.0
  0
MTEXT
  5
9C
330
1F
100
AcDbEntity
  8
DIM
 62
     7
100
AcDbMText
 10
272.5710953557
 20
203.4590078604
 30
0.0
 40
1.8520833333
 41
0.0
 71
     1
 72
     1
  1
6
  7
SLDTEXTSTYLE1
 73
     1
 44
1.0
  0
MTEXT
  5
9D
330
1F
100
AcDbEntity
  8
DIM
 62
     7
100
AcDbMText
 10
222.5710953557
 20
203.4590078604
 30
0.0
 40
1.8520833333
 41
0.0
 71
     1
 72
     1
  1
5
  7
SLDTEXTSTYLE1
 73
     1
 44
1.0
  0
MTEXT
  5
9E
330
1F
100
AcDbEntity
  8
DIM
 62
     7
100
AcDbMText
 10
288.5710993557
 20
180.9590078604
 30
0.0
 40
1.8520833333
 41
0.0
 71
     1
 72
     1
  1
A
  7
SLDTEXTSTYLE1
 73
     1
 44
1.0
  0
MTEXT
  5
9F
330
1F
100
AcDbEntity
  8
DIM
 62
     7
100
AcDbMText
 10
288.5710993557
 20
130.9590078604
 30
0.0
 40
1.8520833333
 41
0.0
 71
     1
 72
     1
  1
B
  7
SLDTEXTSTYLE1
 73
     1
 44
1.0
  0
MTEXT
  5
A0
330
1F
100
AcDbEntity
  8
DIM
 62
     7
100
AcDbMText
 10
172.5710953557
 20
203.4590078604
 30
0.0
 40
1.8520833333
 41
0.0
 71
     1
 72
     1
  1
4
  7
SLDTEXTSTYLE1
 73
     1
 44
1.0
  0
MTEXT
  5
A1
330
1F
100
AcDbEntity
  8
DIM
 62
     7
100
AcDbMText
 10
22.9877620223
 20
203.4590078604
 30
0.0
 40
1.8520833333
 41
0.0
 71
     1
 72
     1
  1
1
  7
SLDTEXTSTYLE1
 73
     1
 44
1.0
  0
MTEXT
  5
A2
330
1F
100
AcDbEntity
  8
DIM
 62
     7
100
AcDbMText
 10
72.5710953557
 20
203.4590078604
 30
0.0
 40
1.8520833333
 41
0.0
 71
     1
 72
     1
  1
2
  7
SLDTEXTSTYLE1
 73
     1
 44
1.0
  0
MTEXT
  5
A3
330
1F
100
AcDbEntity
  8
DIM
 62
     7
100
AcDbMText
 10
122.5710953557
 20
203.4590078604
 30
0.0
 40
1.8520833333
 41
0.0
 71
     1
 72
     1
  1
3
  7
SLDTEXTSTYLE1
 73
     1
 44
1.0
  0
MTEXT
  5
A4
330
1F
100
AcDbEntity
  8
DIM
 62
     7
100
AcDbMText
 10
6.5710913557
 20
180.9590078604
 30
0.0
 40
1.8520833333
 41
0.0
 71
     1
 72
     1
  1
A
  7
SLDTEXTSTYLE1
 73
     1
 44
1.0
  0
MTEXT
  5
A5
330
1F
100
AcDbEntity
  8
DIM
 62
     7
100
AcDbMText
 10
72.5710953557
 20
8.4590078604
 30
0.0
 40
1.8520833333
 41
0.0
 71
     1
 72
     1
  1
2
  7
SLDTEXTSTYLE1
 73
     1
 44
1.0
  0
MTEXT
  5
A6
330
1F
100
AcDbEntity
  8
DIM
 62
     7
100
AcDbMText
 10
22.9877620223
 20
8.4590078604
 30
0.0
 40
1.8520833333
 41
0.0
 71
     1
 72
     1
  1
1
  7
SLDTEXTSTYLE1
 73
     1
 44
1.0
  0
MTEXT
  5
A7
330
1F
100
AcDbEntity
  8
DIM
 62
     7
100
AcDbMText
 10
6.5710913557
 20
30.9590078604
 30
0.0
 40
1.8520833333
 41
0.0
 71
     1
 72
     1
  1
D
  7
SLDTEXTSTYLE1
 73
     1
 44
1.0
  0
MTEXT
  5
A8
330
1F
100
AcDbEntity
  8
DIM
 62
     7
100
AcDbMText
 10
6.5710913557
 20
80.9590078604
 30
0.0
 40
1.8520833333
 41
0.0
 71
     1
 72
     1
  1
C
  7
SLDTEXTSTYLE1
 73
     1
 44
1.0
  0
MTEXT
  5
A9
330
1F
100
AcDbEntity
  8
DIM
 62
     7
100
AcDbMText
 10
6.5710913557
 20
130.9590078604
 30
0.0
 40
1.8520833333
 41
0.0
 71
     1
 72
     1
  1
B
  7
SLDTEXTSTYLE1
 73
     1
 44
1.0
  0
MTEXT
  5
AA
330
1F
100
AcDbEntity
  8
DIM
 62
     7
100
AcDbMText
 10
288.5970767548
 20
81.9406135082
 30
0.0
 40
1.8520833333
 41
0.0
 71
     1
 72
     1
  1
C
  7
SLDTEXTSTYLE1
 73
     1
 44
1.0
  0
MTEXT
  5
AC
330
1F
100
AcDbEntity
  8
DIM
 62
     7
100
AcDbMText
 10
256.5253658125
 20
7.6910787314
 30
0.0
 40
1.5
 41
0.0
 71
     1
 72
     1
  1
SHEET 1 OF 1
  7
SLDTEXTSTYLE2
 73
     1
 44
1.0
  0
MTEXT
  5
AD
330
1F
100
AcDbEntity
  8
DIM
 62
     7
100
AcDbMText
 10
150.3717803834
 20
7.8533674836
 30
0.0
 40
1.5
 41
0.0
 71
     1
 72
     1
  1
MATERIAL:
  7
SLDTEXTSTYLE1
 73
     1
 44
1.0
  0
MTEXT
  5
AE
330
1F
100
AcDbEntity
  8
DIM
 62
     7
100
AcDbMText
 10
272.5710953557
 20
203.4590078604
 30
0.0
 40
1.8520833333
 41
0.0
 71
     1
 72
     1
  1
6
  7
SLDTEXTSTYLE1
 73
     1
 44
1.0
  0
MTEXT
  5
AF
330
1F
100
AcDbEntity
  8
DIM
 62
     7
100
AcDbMText
 10
222.5710953557
 20
203.4590078604
 30
0.0
 40
1.8520833333
 41
0.0
 71
     1
 72
     1
  1
5
  7
SLDTEXTSTYLE1
 73
     1
 44
1.0
  0
MTEXT
  5
B0
330
1F
100
AcDbEntity
  8
DIM
 62
     7
100
AcDbMText
 10
288.5710993557
 20
180.9590078604
 30
0.0
 40
1.8520833333
 41
0.0
 71
     1
 72
     1
  1
A
  7
SLDTEXTSTYLE1
 73
     1
 44
1.0
  0
MTEXT
  5
B1
330
1F
100
AcDbEntity
  8
DIM
 62
     7
100
AcDbMText
 10
288.5710993557
 20
130.9590078604
 30
0.0
 40
1.8520833333
 41
0.0
 71
     1
 72
     1
  1
B
  7
SLDTEXTSTYLE1
 73
     1
 44
1.0
  0
MTEXT
  5
B2
330
1F
100
AcDbEntity
  8
DIM
 62
     7
100
AcDbMText
 10
172.5710953557
 20
203.4590078604
 30
0.0
 40
1.8520833333
 41
0.0
 71
     1
 72
     1
  1
4
  7
SLDTEXTSTYLE1
 73
     1
 44
1.0
  0
MTEXT
  5
B3
330
1F
100
AcDbEntity
  8
DIM
 62
     7
100
AcDbMText
 10
22.9877620223
 20
203.4590078604
 30
0.0
 40
1.8520833333
 41
0.0
 71
     1
 72
     1
  1
1
  7
SLDTEXTSTYLE1
 73
     1
 44
1.0
  0
MTEXT
  5
B4
330
1F
100
AcDbEntity
  8
DIM
 62
     7
100
AcDbMText
 10
72.5710953557
 20
203.4590078604
 30
0.0
 40
1.8520833333
 41
0.0
 71
     1
 72
     1
  1
2
  7
SLDTEXTSTYLE1
 73
     1
 44
1.0
  0
MTEXT
  5
B5
330
1F
100
AcDbEntity
  8
DIM
 62
     7
100
AcDbMText
 10
122.5710953557
 20
203.4590078604
 30
0.0
 40
1.8520833333
 41
0.0
 71
     1
 72
     1
  1
3
  7
SLDTEXTSTYLE1
 73
     1
 44
1.0
  0
MTEXT
  5
B6
330
1F
100
AcDbEntity
  8
DIM
 62
     7
100
AcDbMText
 10
6.5710913557
 20
180.9590078604
 30
0.0
 40
1.8520833333
 41
0.0
 71
     1
 72
     1
  1
A
  7
SLDTEXTSTYLE1
 73
     1
 44
1.0
  0
MTEXT
  5
B7
330
1F
100
AcDbEntity
  8
DIM
 62
     7
100
AcDbMText
 10
72.5710953557
 20
8.4590078604
 30
0.0
 40
1.8520833333
 41
0.0
 71
     1
 72
     1
  1
2
  7
SLDTEXTSTYLE1
 73
     1
 44
1.0
  0
MTEXT
  5
B8
330
1F
100
AcDbEntity
  8
DIM
 62
     7
100
AcDbMText
 10
22.9877620223
 20
8.4590078604
 30
0.0
 40
1.8520833333
 41
0.0
 71
     1
 72
     1
  1
1
  7
SLDTEXTSTYLE1
 73
     1
 44
1.0
  0
MTEXT
  5
B9
330
1F
100
AcDbEntity
  8
DIM
 62
     7
100
AcDbMText
 10
6.5710913557
 20
30.9590078604
 30
0.0
 40
1.8520833333
 41
0.0
 71
     1
 72
     1
  1
D
  7
SLDTEXTSTYLE1
 73
     1
 44
1.0
  0
MTEXT
  5
BA
330
1F
100
AcDbEntity
  8
DIM
 62
     7
100
AcDbMText
 10
6.5710913557
 20
80.9590078604
 30
0.0
 40
1.8520833333
 41
0.0
 71
     1
 72
     1
  1
C
  7
SLDTEXTSTYLE1
 73
     1
 44
1.0
  0
MTEXT
  5
BB
330
1F
100
AcDbEntity
  8
DIM
 62
     7
100
AcDbMText
 10
6.5710913557
 20
130.9590078604
 30
0.0
 40
1.8520833333
 41
0.0
 71
     1
 72
     1
  1
B
  7
SLDTEXTSTYLE1
 73
     1
 44
1.0
  0
LINE
  5
BC
330
1F
100
AcDbEntity
  8
0
  6
Continuous
 62
     7
370
    15
100
AcDbLine
 10
142.577335399
 20
74.7855705426
 30
0.0
 11
146.8211865975
 21
74.7855705426
 31
0.0
  0
LINE
  5
BD
330
1F
100
AcDbEntity
  8
0
  6
Continuous
 62
     7
370
    15
100
AcDbLine
 10
146.8211865975
 20
137.7855705426
 30
0.0
 11
142.577335399
 21
137.7855705426
 31
0.0
  0
SPLINE
  5
BE
330
1F
100
AcDbEntity
  8
0
  6
Continuous
 62
     7
370
    15
100
AcDbSpline
210
0.0
220
0.0
230
1.0
 70
     8
 71
     3
 72
    11
 73
     7
 74
     0
 42
0.000000001
 43
0.00000001
 40
0.0
 40
0.0
 40
0.0
 40
0.0
 40
0.2475748616108597
 40
0.5000000007985717
 40
0.7524251395541847
 40
1.0
 40
1.0
 40
1.0
 40
1.0
 10
146.8211865974693
 20
74.78557054269882
 30
0.0
 10
146.8471218268505
 20
74.78702159155134
 30
0.0
 10
146.899500386721
 20
74.7899521169798
 30
0.0
 10
146.9751345474797
 20
74.8139073151832
 30
0.0
 10
147.045554858375
 20
74.85044986012626
 30
0.0
 10
147.084664287377
 20
74.88541490065693
 30
0.0
 10
147.1040293102625
 20
74.90272783074428
 30
0.0
  0
SPLINE
  5
BF
330
1F
100
AcDbEntity
  8
0
  6
Continuous
 62
     7
370
    15
100
AcDbSpline
210
0.0
220
0.0
230
1.0
 70
     8
 71
     3
 72
    11
 73
     7
 74
     0
 42
0.000000001
 43
0.00000001
 40
0.0
 40
0.0
 40
0.0
 40
0.0
 40
0.2475748604355619
 40
0.4999999991910863
 40
0.7524251383840247
 40
1.0
 40
1.0
 40
1.0
 40
1.0
 10
147.1040293103794
 20
137.6684132543625
 30
0.0
 10
147.0846642874911
 20
137.6857261844658
 30
0.0
 10
147.0455548584828
 20
137.7206912250292
 30
0.0
 10
146.97513454756
 20
137.7572337700099
 30
0.0
 10
146.8995003867638
 20
137.781188968239
 30
0.0
 10
146.8471218268647
 20
137.7841194936707
 30
0.0
 10
146.8211865974693
 20
137.7855705425248
 30
0.0
  0
LINE
  5
C0
330
1F
100
AcDbEntity
  8
0
  6
Continuous
 62
     7
370
    15
100
AcDbLine
 10
124.1525574475
 20
74.7855705426
 30
0.0
 11
132.6011123647
 21
74.7855705426
 31
0.0
  0
LINE
  5
C1
330
1F
100
AcDbEntity
  8
0
  6
Continuous
 62
     7
370
    15
100
AcDbLine
 10
132.6011123647
 20
137.7855705426
 30
0.0
 11
124.1525574475
 21
137.7855705426
 31
0.0
  0
LINE
  5
C2
330
1F
100
AcDbEntity
  8
0
  6
Continuous
 62
     7
370
    15
100
AcDbLine
 10
132.6011123647
 20
74.7855705426
 30
0.0
 11
135.0868720225
 21
79.0910325654
 31
0.0
  0
LINE
  5
C3
330
1F
100
AcDbEntity
  8
0
  6
Continuous
 62
     7
370
    15
100
AcDbLine
 10
135.0868720225
 20
133.4801085199
 30
0.0
 11
132.6011123647
 21
137.7855705426
 31
0.0
  0
LINE
  5
C4
330
1F
100
AcDbEntity
  8
0
  6
Continuous
 62
     7
370
    15
100
AcDbLine
 10
142.577335399
 20
137.7855705426
 30
0.0
 11
140.0868720225
 21
133.4719616933
 31
0.0
  0
LINE
  5
C5
330
1F
100
AcDbEntity
  8
0
  6
Continuous
 62
     7
370
    15
100
AcDbLine
 10
140.0868720225
 20
79.0991793919
 30
0.0
 11
142.577335399
 21
74.7855705426
 31
0.0
  0
LINE
  5
C6
330
1F
100
AcDbEntity
  8
0
  6
Continuous
 62
     7
370
    15
100
AcDbLine
 10
147.1040293105
 20
74.9027278306
 30
0.0
 11
147.8697147352
 21
75.6684132554
 31
0.0
  0
LINE
  5
C7
330
1F
100
AcDbEntity
  8
0
  6
Continuous
 62
     7
370
    15
100
AcDbLine
 10
147.8697147352
 20
136.9027278299
 30
0.0
 11
147.1040293105
 21
137.6684132546
 31
0.0
  0
LINE
  5
C8
330
1F
100
AcDbEntity
  8
0
  6
Continuous
 62
     7
370
    15
100
AcDbLine
 10
123.8697147354
 20
137.6684132555
 30
0.0
 11
123.1040293098
 21
136.90272783
 31
0.0
  0
LINE
  5
C9
330
1F
100
AcDbEntity
  8
0
  6
Continuous
 62
     7
370
    15
100
AcDbLine
 10
123.1040293098
 20
75.6684132553
 30
0.0
 11
123.8697147354
 21
74.9027278297
 31
0.0
  0
LINE
  5
CA
330
1F
100
AcDbEntity
  8
0
  6
Continuous
 62
     7
370
    15
100
AcDbLine
 10
147.9626639038
 20
79.2854966316
 30
0.0
 11
147.9634413794
 21
79.345008734
 31
0.0
  0
LINE
  5
CB
330
1F
100
AcDbEntity
  8
0
  6
Continuous
 62
     7
370
    15
100
AcDbLine
 10
147.9634413824
 20
133.2261321234
 30
0.0
 11
147.9619783163
 21
133.3381229585
 31
0.0
  0
SPLINE
  5
CC
330
1F
100
AcDbEntity
  8
0
  6
Continuous
 62
     7
370
    15
100
AcDbSpline
210
0.0
220
0.0
230
1.0
 70
     8
 71
     3
 72
    13
 73
     9
 74
     0
 42
0.000000001
 43
0.00000001
 40
0.0
 40
0.0
 40
0.0
 40
0.0
 40
0.2394568445117041
 40
0.3683606603932364
 40
0.5000000001715934
 40
0.631639339924576
 40
0.760543155733584
 40
1.0
 40
1.0
 40
1.0
 40
1.0
 10
147.9868720227147
 20
76.4855705430173
 30
0.0
 10
147.9975584148073
 20
76.58620759958646
 30
0.0
 10
148.0139974790423
 20
76.74101934737106
 30
0.0
 10
148.1137555572077
 20
76.9272722135094
 30
0.0
 10
148.2170049715967
 20
77.05543759411725
 30
0.0
 10
148.3451703522608
 20
77.1586870083871
 30
0.0
 10
148.5314232183535
 20
77.25844508633558
 30
0.0
 10
148.6862349660213
 20
77.2748841504093
 30
0.0
 10
148.7868720224983
 20
77.2855705423953
 30
0.0
  0
SPLINE
  5
CD
330
1F
100
AcDbEntity
  8
0
  6
Continuous
 62
     7
370
    15
100
AcDbSpline
210
0.0
220
0.0
230
1.0
 70
     8
 71
     3
 72
    13
 73
     9
 74
     0
 42
0.000000001
 43
0.00000001
 40
0.0
 40
0.0
 40
0.0
 40
0.0
 40
0.2394568442664173
 40
0.3683606600754246
 40
0.4999999998284062
 40
0.6316393396067661
 40
0.7605431554882975
 40
1.0
 40
1.0
 40
1.0
 40
1.0
 10
148.7868720224983
 20
135.2855705428284
 30
0.0
 10
148.6862349660213
 20
135.2962569348144
 30
0.0
 10
148.5314232183535
 20
135.312695998888
 30
0.0
 10
148.3451703522608
 20
135.4124540768366
 30
0.0
 10
148.2170049715967
 20
135.5157034911064
 30
0.0
 10
148.1137555572077
 20
135.6438688717143
 30
0.0
 10
148.0139974790423
 20
135.8301217378526
 30
0.0
 10
147.9975584148073
 20
135.9849334856372
 30
0.0
 10
147.9868720227147
 20
136.0855705422063
 30
0.0
  0
LINE
  5
CE
330
1F
100
AcDbEntity
  8
0
  6
Continuous
 62
     7
370
    15
100
AcDbLine
 10
148.7868720225
 20
77.2855705426
 30
0.0
 11
187.1868720225
 21
77.2855705426
 31
0.0
  0
LINE
  5
CF
330
1F
100
AcDbEntity
  8
0
  6
Continuous
 62
     7
370
    15
100
AcDbLine
 10
187.1868720225
 20
135.2855705426
 30
0.0
 11
148.7868720225
 21
135.2855705426
 31
0.0
  0
LINE
  5
D0
330
1F
100
AcDbEntity
  8
0
  6
Continuous
 62
     7
370
    15
100
AcDbLine
 10
135.0868720225
 20
79.7855705426
 30
0.0
 11
140.0868720225
 21
79.7855705426
 31
0.0
  0
LINE
  5
D1
330
1F
100
AcDbEntity
  8
0
  6
Continuous
 62
     7
370
    15
100
AcDbLine
 10
140.0868720225
 20
132.7855705426
 30
0.0
 11
135.0868720225
 21
132.7855705426
 31
0.0
  0
ARC
  5
D2
330
1F
100
AcDbEntity
  8
0
  6
Continuous
 62
     7
370
    15
100
AcDbCircle
 10
122.5868720222
 20
83.8855705423
 30
0.0
 40
0.4000000002167212
100
AcDbArc
 50
359.9999985623
 51
89.9999999705
  0
ARC
  5
D3
330
1F
100
AcDbEntity
  8
0
  6
Continuous
 62
     7
370
    15
100
AcDbCircle
 10
122.5868720222
 20
128.6855705429
 30
0.0
 40
0.4000000002167212
100
AcDbArc
 50
270.0000000295
 51
0.0000014377
  0
LINE
  5
D4
330
1F
100
AcDbEntity
  8
0
  6
Continuous
 62
     7
370
    15
100
AcDbLine
 10
120.9868720225
 20
84.0605705426
 30
0.0
 11
121.4693860795
 21
84.2855705426
 31
0.0
  0
LINE
  5
D5
330
1F
100
AcDbEntity
  8
0
  6
Continuous
 62
     7
370
    15
100
AcDbLine
 10
121.4693860795
 20
128.2855705426
 30
0.0
 11
120.9868720225
 21
128.5105705426
 31
0.0
  0
LINE
  5
D6
330
1F
100
AcDbEntity
  8
0
  6
Continuous
 62
     7
370
    15
100
AcDbLine
 10
120.9868720225
 20
128.5105705426
 30
0.0
 11
56.4425637955
 21
119.0977700496
 31
0.0
  0
LINE
  5
D7
330
1F
100
AcDbEntity
  8
0
  6
Continuous
 62
     7
370
    15
100
AcDbLine
 10
56.4425637955
 20
93.4733710356
 30
0.0
 11
120.9868720225
 21
84.0605705426
 31
0.0
  0
LINE
  5
D8
330
1F
100
AcDbEntity
  8
0
  6
Continuous
 62
     7
370
    15
100
AcDbLine
 10
121.4693860795
 20
84.2855705426
 30
0.0
 11
122.5868720224
 21
84.2855705426
 31
0.0
  0
LINE
  5
D9
330
1F
100
AcDbEntity
  8
0
  6
Continuous
 62
     7
370
    15
100
AcDbLine
 10
122.5868720224
 20
128.2855705426
 30
0.0
 11
121.4693860795
 21
128.2855705426
 31
0.0
  0
LINE
  5
DA
330
1F
100
AcDbEntity
  8
0
  6
Continuous
 62
     7
370
    15
100
AcDbLine
 10
210.7368720225
 20
127.2855705426
 30
0.0
 11
209.9868720225
 21
126.5355705426
 31
0.0
  0
LINE
  5
DB
330
1F
100
AcDbEntity
  8
0
  6
Continuous
 62
     7
370
    15
100
AcDbLine
 10
209.9868720225
 20
86.0355705426
 30
0.0
 11
210.7368720225
 21
85.2855705426
 31
0.0
  0
LINE
  5
DC
330
1F
100
AcDbEntity
  8
0
  6
Continuous
 62
     7
370
    15
100
AcDbLine
 10
210.7368720225
 20
85.2855705426
 30
0.0
 11
219.2368720225
 21
85.2855705426
 31
0.0
  0
LINE
  5
DD
330
1F
100
AcDbEntity
  8
0
  6
Continuous
 62
     7
370
    15
100
AcDbLine
 10
219.2368720225
 20
127.2855705426
 30
0.0
 11
210.7368720225
 21
127.2855705426
 31
0.0
  0
LINE
  5
DE
330
1F
100
AcDbEntity
  8
0
  6
Continuous
 62
     7
370
    15
100
AcDbLine
 10
219.2368720225
 20
85.2855705426
 30
0.0
 11
219.9868720225
 21
86.0355705426
 31
0.0
  0
LINE
  5
DF
330
1F
100
AcDbEntity
  8
0
  6
Continuous
 62
     7
370
    15
100
AcDbLine
 10
219.9868720225
 20
126.5355705426
 30
0.0
 11
219.2368720225
 21
127.2855705426
 31
0.0
  0
LINE
  5
E0
330
1F
100
AcDbEntity
  8
0
  6
Continuous
 62
     7
370
    15
100
AcDbLine
 10
187.9868720225
 20
90.2855705426
 30
0.0
 11
203.5146288365
 21
90.2855705426
 31
0.0
  0
LINE
  5
E1
330
1F
100
AcDbEntity
  8
0
  6
Continuous
 62
     7
370
    15
100
AcDbLine
 10
203.5146288365
 20
122.2855705426
 30
0.0
 11
187.9868720225
 21
122.2855705426
 31
0.0
  0
LINE
  5
E2
330
1F
100
AcDbEntity
  8
0
  6
Continuous
 62
     7
370
    15
100
AcDbLine
 10
203.5146288365
 20
90.2855705426
 30
0.0
 11
204.9868720225
 21
91.1355705426
 31
0.0
  0
LINE
  5
E3
330
1F
100
AcDbEntity
  8
0
  6
Continuous
 62
     7
370
    15
100
AcDbLine
 10
204.9868720225
 20
121.4355705426
 30
0.0
 11
203.5146288365
 21
122.2855705426
 31
0.0
  0
SPLINE
  5
E4
330
1F
100
AcDbEntity
  8
0
  6
Continuous
 62
     7
370
    15
100
AcDbSpline
210
0.0
220
0.0
230
1.0
 70
     8
 71
     3
 72
    11
 73
     7
 74
     0
 42
0.000000001
 43
0.00000001
 40
0.0
 40
0.0
 40
0.0
 40
0.0
 40
0.2418856031637876
 40
0.4999999999875866
 40
0.7581143967975822
 40
1.0
 40
1.0
 40
1.0
 40
1.0
 10
55.58687202278351
 20
94.4629038220573
 30
0.0
 10
55.59844917522575
 20
94.34787695160175
 30
0.0
 10
55.62238022422272
 20
94.11010573052002
 30
0.0
 10
55.81496711732017
 20
93.79540428497164
 30
0.0
 10
56.09858264248549
 20
93.55941923216476
 30
0.0
 10
56.33041161422529
 20
93.50142633127706
 30
0.0
 10
56.44256379556066
 20
93.4733710356524
 30
0.0
  0
SPLINE
  5
E5
330
1F
100
AcDbEntity
  8
0
  6
Continuous
 62
     7
370
    15
100
AcDbSpline
210
0.0
220
0.0
230
1.0
 70
     8
 71
     3
 72
    11
 73
     7
 74
     0
 42
0.000000001
 43
0.00000001
 40
0.0
 40
0.0
 40
0.0
 40
0.0
 40
0.2418856032047779
 40
0.5000000000148352
 40
0.7581143968373897
 40
1.0
 40
1.0
 40
1.0
 40
1.0
 10
56.44256379551095
 20
119.097770049564
 30
0.0
 10
56.33041161417977
 20
119.0697147539347
 30
0.0
 10
56.09858264244983
 20
119.0117218530378
 30
0.0
 10
55.81496711730274
 20
118.7757368002293
 30
0.0
 10
55.6223802242198
 20
118.4610353546895
 30
0.0
 10
55.5984491752248
 20
118.2232641336173
 30
0.0
 10
55.58687202278353
 20
118.1082372631664
 30
0.0
  0
ARC
  5
E6
330
1F
100
AcDbEntity
  8
0
  6
Continuous
 62
     7
370
    15
100
AcDbCircle
 10
123.3868720207
 20
136.6198851183
 30
0.0
 40
0.3999999981924987
100
AcDbArc
 50
134.9999999264
 51
180.0000004793
  0
ARC
  5
E7
330
1F
100
AcDbEntity
  8
0
  6
Continuous
 62
     7
370
    15
100
AcDbCircle
 10
123.3868720207
 20
75.9512559669
 30
0.0
 40
0.3999999981924987
100
AcDbArc
 50
179.9999995207
 51
225.0000000736
  0
ARC
  5
E8
330
1F
100
AcDbEntity
  8
0
  6
Continuous
 62
     7
370
    15
100
AcDbCircle
 10
124.1525574468
 20
75.1855705407
 30
0.0
 40
0.3999999981380995
100
AcDbArc
 50
224.9999999501
 51
270.0000001043
  0
ARC
  5
E9
330
1F
100
AcDbEntity
  8
0
  6
Continuous
 62
     7
370
    15
100
AcDbCircle
 10
124.1525574468
 20
137.3855705445
 30
0.0
 40
0.3999999981380995
100
AcDbArc
 50
89.9999998957
 51
135.0000000499
  0
ARC
  5
EA
330
1F
100
AcDbEntity
  8
0
  6
Continuous
 62
     7
370
    15
100
AcDbCircle
 10
209.5868720222
 20
97.8855705423
 30
0.0
 40
0.400000000270893
100
AcDbArc
 50
359.9999999986
 51
89.9999999533
  0
ARC
  5
EB
330
1F
100
AcDbEntity
  8
0
  6
Continuous
 62
     7
370
    15
100
AcDbCircle
 10
209.5868720222
 20
114.6855705429
 30
0.0
 40
0.400000000270893
100
AcDbArc
 50
270.0000000467
 51
0.0000000014
  0
LINE
  5
EC
330
1F
100
AcDbEntity
  8
0
  6
Continuous
 62
     7
370
    15
100
AcDbLine
 10
204.9868720225
 20
98.2855705426
 30
0.0
 11
209.5868720225
 21
98.2855705426
 31
0.0
  0
LINE
  5
ED
330
1F
100
AcDbEntity
  8
0
  6
Continuous
 62
     7
370
    15
100
AcDbLine
 10
209.5868720225
 20
114.2855705426
 30
0.0
 11
204.9868720225
 21
114.2855705426
 31
0.0
  0
LINE
  5
EE
330
1F
100
AcDbEntity
  8
0
  6
Continuous
 62
     7
370
    15
100
AcDbLine
 10
187.1868720225
 20
77.2855705426
 30
0.0
 11
187.9868720225
 21
78.0855705426
 31
0.0
  0
LINE
  5
EF
330
1F
100
AcDbEntity
  8
0
  6
Continuous
 62
     7
370
    15
100
AcDbLine
 10
187.9868720225
 20
134.4855705426
 30
0.0
 11
187.1868720225
 21
135.2855705426
 31
0.0
  0
SPLINE
  5
F0
330
1F
100
AcDbEntity
  8
0
  6
Continuous
 62
     7
370
    15
100
AcDbSpline
210
0.0
220
0.0
230
1.0
 70
     8
 71
     3
 72
    10
 73
     6
 74
     0
 42
0.000000001
 43
0.00000001
 40
0.0
 40
0.0
 40
0.0
 40
0.0
 40
0.5
 40
0.5
 40
1.0
 40
1.0
 40
1.0
 40
1.0
 10
123.869714733205
 20
76.0975433862164
 30
0.0
 10
123.9029010006276
 20
76.07436268570022
 30
0.0
 10
123.9436294941354
 20
76.05407181128521
 30
0.0
 10
124.0399218916401
 20
76.02461829066905
 30
0.0
 10
124.0954864106821
 20
76.01584958747024
 30
0.0
 10
124.1525574491309
 20
76.0158495874358
 30
0.0
  0
LINE
  5
F1
330
1F
100
AcDbEntity
  8
0
  6
Continuous
 62
     7
370
    15
100
AcDbLine
 10
123.8697147349
 20
136.4735977014
 30
0.0
 11
123.8697147339
 21
76.0975433836
 31
0.0
  0
SPLINE
  5
F2
330
1F
100
AcDbEntity
  8
0
  6
Continuous
 62
     7
370
    15
100
AcDbSpline
210
0.0
220
0.0
230
1.0
 70
     8
 71
     3
 72
    10
 73
     6
 74
     0
 42
0.000000001
 43
0.00000001
 40
0.0
 40
0.0
 40
0.0
 40
0.0
 40
0.5
 40
0.5
 40
1.0
 40
1.0
 40
1.0
 40
1.0
 10
124.1525574491309
 20
136.5552914977879
 30
0.0
 10
124.0954927656809
 20
136.5552914977534
 30
0.0
 10
124.0400486908253
 20
136.546555221668
 30
0.0
 10
123.9436186638375
 20
136.5170723112675
 30
0.0
 10
123.9029059142452
 20
136.4967818317602
 30
0.0
 10
123.8697147328341
 20
136.4735976987482
 30
0.0
  0
LINE
  5
F3
330
1F
100
AcDbEntity
  8
0
  6
Continuous
 62
     7
370
    15
100
AcDbLine
 10
124.1525574483
 20
76.0158495875
 30
0.0
 11
124.1525574483
 21
136.5552914977
 31
0.0
  0
SPLINE
  5
F4
330
1F
100
AcDbEntity
  8
0
  6
Continuous
 62
     7
370
    15
100
AcDbSpline
210
0.0
220
0.0
230
1.0
 70
     8
 71
     3
 72
    10
 73
     6
 74
     0
 42
0.000000001
 43
0.00000001
 40
0.0
 40
0.0
 40
0.0
 40
0.0
 40
0.5
 40
0.5
 40
1.0
 40
1.0
 40
1.0
 40
1.0
 10
123.1040293083249
 20
135.6604636819263
 30
0.0
 10
123.0713753301446
 20
135.6168322498254
 30
0.0
 10
123.0433951486591
 20
135.568170078259
 30
0.0
 10
123.0007498463094
 20
135.4565137984031
 30
0.0
 10
122.9868720223668
 20
135.3944794131834
 30
0.0
 10
122.9868720224819
 20
135.3305036764118
 30
0.0
  0
LINE
  5
F5
330
1F
100
AcDbEntity
  8
0
  6
Continuous
 62
     7
370
    15
100
AcDbLine
 10
123.1040293135
 20
76.910677399
 30
0.0
 11
123.1040293068
 21
135.6604636817
 31
0.0
  0
SPLINE
  5
F6
330
1F
100
AcDbEntity
  8
0
  6
Continuous
 62
     7
370
    15
100
AcDbSpline
210
0.0
220
0.0
230
1.0
 70
     8
 71
     3
 72
    10
 73
     6
 74
     0
 42
0.000000001
 43
0.00000001
 40
0.0
 40
0.0
 40
0.0
 40
0.0
 40
0.5
 40
0.5
 40
1.0
 40
1.0
 40
1.0
 40
1.0
 10
122.9868720224802
 20
77.24063740881299
 30
0.0
 10
122.9868720223646
 20
77.17660241818677
 30
0.0
 10
123.0007126732738
 20
77.11495350321903
 30
0.0
 10
123.0428663065963
 20
77.00412980952687
 30
0.0
 10
123.0713536981206
 20
76.95433773913896
 30
0.0
 10
123.1040293100982
 20
76.91067740092788
 30
0.0
  0
SPLINE
  5
F7
330
1F
100
AcDbEntity
  8
0
  6
Continuous
 62
     7
370
    15
100
AcDbSpline
210
0.0
220
0.0
230
1.0
 70
    24
 71
     3
 72
    42
 73
    38
 74
     0
 42
0.000000001
 43
0.00000001
 40
0.0
 40
0.0
 40
0.0
 40
0.0
 40
0.0069985947142165
 40
0.0139918792832311
 40
0.0209820870818527
 40
0.0279714544343339
 40
0.0349622184714965
 40
0.0419566149839895
 40
0.0489568762819693
 40
0.0755911739069595
 40
0.1022323291432777
 40
0.1310491090309338
 40
0.1598727972892802
 40
0.2216873695506755
 40
0.2873422798676782
 40
0.3214548353067502
 40
0.3562714579994548
 40
0.3916725895398708
 40
0.4275251326164931
 40
0.4636850603189155
 40
0.5000006632425833
 40
0.536316266166251
 40
0.5724761938686735
 40
0.6083287369452955
 40
0.6437298684857119
 40
0.6785464911784164
 40
0.7126590466174885
 40
0.7783139569344911
 40
0.8401285291958862
 40
0.8689453090325397
 40
0.8977689973620058
 40
0.9244032950306516
 40
0.9510444504325848
 40
0.9632880566997742
 40
0.9755205233546218
 40
0.9877538415656733
 40
1.0
 40
1.0
 40
1.0
 40
1.0
 10
122.9868720224983
 20
77.24063740361939
 30
0.0
 10
122.9868720224983
 20
77.29368587454464
 30
0.0
 10
122.9868720224983
 20
77.39974256615987
 30
0.0
 10
122.9868720224983
 20
77.57048281917143
 30
0.0
 10
122.9868720224983
 20
77.7496572736145
 30
0.0
 10
122.9868720224983
 20
77.9381076969644
 30
0.0
 10
122.9868720224983
 20
78.13560750927408
 30
0.0
 10
122.9868720224983
 20
78.34222133435097
 30
0.0
 10
122.9868720224983
 20
78.75947017422808
 30
0.0
 10
122.9868720224983
 20
79.43971923327057
 30
0.0
 10
122.9868720224983
 20
80.49421189763223
 30
0.0
 10
122.9868720224983
 20
81.70787908329231
 30
0.0
 10
122.9868720224983
 20
83.61227198203859
 30
0.0
 10
122.9868720224983
 20
86.46483420984197
 30
0.0
 10
122.9868720224983
 20
89.86154642998045
 30
0.0
 10
122.9868720224983
 20
92.91639722752873
 30
0.0
 10
122.9868720224983
 20
95.38986247624615
 30
0.0
 10
122.9868720224983
 20
97.99287445527135
 30
0.0
 10
122.9868720224983
 20
100.6980733482725
 30
0.0
 10
122.9868720224983
 20
103.4738044728346
 30
0.0
 10
122.9868720224983
 20
106.2855705425919
 30
0.0
 10
122.9868720224983
 20
109.0973366124685
 30
0.0
 10
122.9868720224983
 20
111.8730677366754
 30
0.0
 10
122.9868720224983
 20
114.5782666309613
 30
0.0
 10
122.9868720224983
 20
117.1812786052906
 30
0.0
 10
122.9868720224983
 20
119.6547438710924
 30
0.0
 10
122.9868720224983
 20
122.709594587268
 30
0.0
 10
122.9868720224983
 20
126.1063073871918
 30
0.0
 10
122.9868720224983
 20
128.9587416586501
 30
0.0
 10
122.9868720224983
 20
130.8631591139416
 30
0.0
 10
122.9868720224983
 20
132.0767327220449
 30
0.0
 10
122.9868720224983
 20
133.1313698179599
 30
0.0
 10
122.9868720224983
 20
133.8706872527675
 30
0.0
 10
122.9868720224983
 20
134.3877814204922
 30
0.0
 10
122.9868720224983
 20
134.7311096340938
 30
0.0
 10
122.9868720224983
 20
135.0486184836611
 30
0.0
 10
122.9868720224983
 20
135.2365090975266
 30
0.0
 10
122.9868720224983
 20
135.3305036816043
 30
0.0
  0
LINE
  5
F8
330
1F
100
AcDbEntity
  8
0
  6
Continuous
 62
     7
370
    15
100
AcDbLine
 10
142.577335399
 20
106.2855705426
 30
0.0
 11
142.577335399
 21
74.7855705426
 31
0.0
  0
LINE
  5
F9
330
1F
100
AcDbEntity
  8
0
  6
Continuous
 62
     7
370
    15
100
AcDbLine
 10
142.577335399
 20
137.7855705426
 30
0.0
 11
142.577335399
 21
106.2855705426
 31
0.0
  0
SPLINE
  5
FA
330
1F
100
AcDbEntity
  8
0
  6
Continuous
 62
     7
370
    15
100
AcDbSpline
210
0.0
220
0.0
230
1.0
 70
    24
 71
     3
 72
    10
 73
     6
 74
     0
 42
0.000000001
 43
0.00000001
 40
0.0
 40
0.0
 40
0.0
 40
0.0
 40
0.5
 40
0.5
 40
1.0
 40
1.0
 40
1.0
 40
1.0
 10
146.8211865974724
 20
106.2855705426118
 30
0.0
 10
146.8722110553161
 20
106.2855705426118
 30
0.0
 10
146.9252543533158
 20
106.2855705426118
 30
0.0
 10
147.0232655878205
 20
106.2855705426118
 30
0.0
 10
147.0679495698285
 20
106.2855705426118
 30
0.0
 10
147.1040293096499
 20
106.2855705426118
 30
0.0
  0
LINE
  5
FB
330
1F
100
AcDbEntity
  8
0
  6
Continuous
 62
     7
370
    15
100
AcDbLine
 10
132.6011123647
 20
106.2855705426
 30
0.0
 11
132.6011123647
 21
74.7855705426
 31
0.0
  0
LINE
  5
FC
330
1F
100
AcDbEntity
  8
0
  6
Continuous
 62
     7
370
    15
100
AcDbLine
 10
132.6011123647
 20
137.7855705426
 30
0.0
 11
132.6011123647
 21
106.2855705426
 31
0.0
  0
LINE
  5
FD
330
1F
100
AcDbEntity
  8
0
  6
Continuous
 62
     7
370
    15
100
AcDbLine
 10
135.0868720225
 20
106.2855705426
 30
0.0
 11
135.0868720225
 21
79.0910325654
 31
0.0
  0
LINE
  5
FE
330
1F
100
AcDbEntity
  8
0
  6
Continuous
 62
     7
370
    15
100
AcDbLine
 10
135.0868720225
 20
133.4801085199
 30
0.0
 11
135.0868720225
 21
106.2855705426
 31
0.0
  0
LINE
  5
FF
330
1F
100
AcDbEntity
  8
0
  6
Continuous
 62
     7
370
    15
100
AcDbLine
 10
140.0868720225
 20
106.2855705426
 30
0.0
 11
140.0868720225
 21
79.0991793919
 31
0.0
  0
LINE
  5
100
330
1F
100
AcDbEntity
  8
0
  6
Continuous
 62
     7
370
    15
100
AcDbLine
 10
140.0868720225
 20
133.4719616933
 30
0.0
 11
140.0868720225
 21
106.2855705426
 31
0.0
  0
LINE
  5
101
330
1F
100
AcDbEntity
  8
0
  6
Continuous
 62
     7
370
    15
100
AcDbLine
 10
147.8697147352
 20
136.9027278299
 30
0.0
 11
147.8697147352
 21
136.9026464151
 31
0.0
  0
SPLINE
  5
102
330
1F
100
AcDbEntity
  8
0
  6
Continuous
 62
     7
370
    15
100
AcDbSpline
210
0.0
220
0.0
230
1.0
 70
    24
 71
     3
 72
    10
 73
     6
 74
     0
 42
0.000000001
 43
0.00000001
 40
0.0
 40
0.0
 40
0.0
 40
0.0
 40
0.5
 40
0.5
 40
1.0
 40
1.0
 40
1.0
 40
1.0
 10
147.8697147352412
 20
106.2855705426118
 30
0.0
 10
147.9057944750886
 20
106.2855705426118
 30
0.0
 10
147.9361250442667
 20
106.2855705426118
 30
0.0
 10
147.9767226269427
 20
106.2855705426118
 30
0.0
 10
147.9868720226276
 20
106.2855705426118
 30
0.0
 10
147.9868720225165
 20
106.2855705426118
 30
0.0
  0
SPLINE
  5
103
330
1F
100
AcDbEntity
  8
0
  6
Continuous
 62
     7
370
    15
100
AcDbSpline
210
0.0
220
0.0
230
1.0
 70
    24
 71
     3
 72
    36
 73
    32
 74
     0
 42
0.000000001
 43
0.00000001
 40
0.0
 40
0.0
 40
0.0
 40
0.0
 40
0.0091574914098502
 40
0.0183076636670498
 40
0.0274530496706367
 40
0.0365961862974195
 40
0.0457396122965004
 40
0.0548858661760161
 40
0.064037484090881
 40
0.0731969977403078
 40
0.1145981391471788
 40
0.1560085593964779
 40
0.2026687078268458
 40
0.2493380826174221
 40
0.3001319459910547
 40
0.3537068320759774
 40
0.4100221171689301
 40
0.4689756520191585
 40
0.530395199192124
 40
0.5940327686277181
 40
0.6595633177033128
 40
0.7265890526719669
 40
0.7946499953859905
 40
0.8289570591285538
 40
0.8632740865222682
 40
0.8975811503014232
 40
0.9318981777344112
 40
0.9489281030620823
 40
0.9659441473268439
 40
0.9829626641419905
 40
1.0
 40
1.0
 40
1.0
 40
1.0
 10
147.9868720224983
 20
106.2855705426118
 30
0.0
 10
147.9868720224983
 20
106.1171507027503
 30
0.0
 10
147.9868720224983
 20
105.7804456330925
 30
0.0
 10
147.9868720224983
 20
105.2756826856197
 30
0.0
 10
147.9868720224983
 20
104.7714629117936
 30
0.0
 10
147.9868720224983
 20
104.2677865410927
 30
0.0
 10
147.9868720224983
 20
103.7646532248421
 30
0.0
 10
147.9868720224983
 20
103.2620648277719
 30
0.0
 10
147.9868720224983
 20
102.7600149304144
 30
0.0
 10
147.9868720224983
 20
101.6703584841514
 30
0.0
 10
147.9868720224983
 20
100.0016393513981
 30
0.0
 10
147.9868720224983
 20
97.69029887270078
 30
0.0
 10
147.9868720224983
 20
95.33988887486912
 30
0.0
 10
147.9868720224983
 20
92.90748173761699
 30
0.0
 10
147.9868720224983
 20
90.46593046683962
 30
0.0
 10
147.9868720224983
 20
88.01434005055356
 30
0.0
 10
147.9868720224983
 20
85.62462724283816
 30
0.0
 10
147.9868720224983
 20
83.35540937976398
 30
0.0
 10
147.9868720224983
 20
81.27173677728224
 30
0.0
 10
147.9868720224983
 20
79.44192968645825
 30
0.0
 10
147.9868720224983
 20
77.93310177518387
 30
0.0
 10
147.9868720224983
 20
76.80578373898011
 30
0.0
 10
147.9868720224983
 20
76.22584769814958
 30
0.0
 10
147.9868720224983
 20
75.9905759256128
 30
0.0
 10
147.9868720224983
 20
75.93160983957829
 30
0.0
 10
147.9868720224983
 20
75.99052053347742
 30
0.0
 10
147.9868720224983
 20
76.13812242291714
 30
0.0
 10
147.9868720224983
 20
76.31377861372306
 30
0.0
 10
147.9868720224983
 20
76.47428562069305
 30
0.0
 10
147.9868720224983
 20
76.66143508077357
 30
0.0
 10
147.9868720224983
 20
76.81019728718475
 30
0.0
 10
147.9868720224983
 20
76.88461949290455
 30
0.0
  0
SPLINE
  5
104
330
1F
100
AcDbEntity
  8
0
  6
Continuous
 62
     7
370
    15
100
AcDbSpline
210
0.0
220
0.0
230
1.0
 70
    24
 71
     3
 72
    35
 73
    31
 74
     0
 42
0.000000001
 43
0.00000001
 40
0.0
 40
0.0
 40
0.0
 40
0.0
 40
0.0097343062289011
 40
0.0194617938948283
 40
0.0291855111022076
 40
0.0389085094873338
 40
0.0486338413631624
 40
0.058364556846754
 40
0.0681037009970362
 40
0.1024107879240909
 40
0.1367278385098947
 40
0.1710349254748393
 40
0.2053519760986202
 40
0.2734129648086437
 40
0.3404387450736981
 40
0.4059693384352374
 40
0.4696069508774889
 40
0.5310265395581586
 40
0.5899801142495452
 40
0.6462954374007109
 40
0.6998703596918682
 40
0.7506642573923032
 40
0.7973244369528376
 40
0.843993843117949
 40
0.8853950124414809
 40
0.9268054608558777
 40
0.9451125162754598
 40
0.9634004181265964
 40
0.9816894770910375
 40
0.9999999999999999
 40
0.9999999999999999
 40
0.9999999999999999
 40
0.9999999999999999
 10
147.9868720224983
 20
135.6865215923191
 30
0.0
 10
147.9868720224983
 20
135.7297089417087
 30
0.0
 10
147.9868720224983
 20
135.8160533891629
 30
0.0
 10
147.9868720224983
 20
135.933832009944
 30
0.0
 10
147.9868720224983
 20
136.0429352250253
 30
0.0
 10
147.9868720224983
 20
136.1425272269757
 30
0.0
 10
147.9868720224983
 20
136.2328322054649
 30
0.0
 10
147.9868720224983
 20
136.3137886849173
 30
0.0
 10
147.9868720224983
 20
136.4456148084254
 30
0.0
 10
147.9868720224983
 20
136.5805871427156
 30
0.0
 10
147.9868720224983
 20
136.6395370899147
 30
0.0
 10
147.9868720224983
 20
136.580575207858
 30
0.0
 10
147.9868720224983
 20
136.3453283091625
 30
0.0
 10
147.9868720224983
 20
135.7653570758416
 30
0.0
 10
147.9868720224983
 20
134.6380393802632
 30
0.0
 10
147.9868720224983
 20
133.1292113808854
 30
0.0
 10
147.9868720224983
 20
131.2994043118505
 30
0.0
 10
147.9868720224983
 20
129.2157317067526
 30
0.0
 10
147.9868720224983
 20
126.9465138340745
 30
0.0
 10
147.9868720224983
 20
124.5568010645251
 30
0.0
 10
147.9868720224983
 20
122.1052105148868
 30
0.0
 10
147.9868720224983
 20
119.6638088516714
 30
0.0
 10
147.9868720224983
 20
117.2314098897755
 30
0.0
 10
147.9868720224983
 20
114.881174036995
 30
0.0
 10
147.9868720224983
 20
112.5696518220577
 30
0.0
 10
147.9868720224983
 20
110.7350308067242
 30
0.0
 10
147.9868720224983
 20
109.3099508805515
 30
0.0
 10
147.9868720224983
 20
108.3038614387418
 30
0.0
 10
147.9868720224983
 20
107.2954839740929
 30
0.0
 10
147.9868720224983
 20
106.6223399422787
 30
0.0
 10
147.9868720224983
 20
106.2855705426118
 30
0.0
  0
SPLINE
  5
105
330
1F
100
AcDbEntity
  8
0
  6
Continuous
 62
     7
370
    15
100
AcDbSpline
210
0.0
220
0.0
230
1.0
 70
    24
 71
     3
 72
    14
 73
    10
 74
     0
 42
0.000000001
 43
0.00000001
 40
0.0
 40
0.0
 40
0.0
 40
0.0
 40
0.25
 40
0.25
 40
0.5
 40
0.5
 40
0.75
 40
0.75
 40
1.0
 40
1.0
 40
1.0
 40
1.0
 10
147.9868720227147
 20
106.2855705426118
 30
0.0
 10
147.9868720227513
 20
106.2855705426118
 30
0.0
 10
148.0040550138246
 20
106.2855705426118
 30
0.0
 10
148.082027749996
 20
106.2855705426118
 30
0.0
 10
148.1430817393958
 20
106.2855705426118
 30
0.0
 10
148.2992914559214
 20
106.2855705426118
 30
0.0
 10
148.3939186944417
 20
106.2855705426118
 30
0.0
 10
148.5908738147956
 20
106.2855705426118
 30
0.0
 10
148.6925911178435
 20
106.2855705426118
 30
0.0
 10
148.7868720218796
 20
106.2855705426118
 30
0.0
  0
LINE
  5
106
330
1F
100
AcDbEntity
  8
0
  6
Continuous
 62
     7
370
    15
100
AcDbLine
 10
187.1868720225
 20
135.2855705426
 30
0.0
 11
187.1868720228
 21
134.4280651007
 31
0.0
  0
LINE
  5
107
330
1F
100
AcDbEntity
  8
0
  6
Continuous
 62
     7
370
    15
100
AcDbLine
 10
187.1868720228
 20
134.4280651007
 30
0.0
 11
180.9868720232
 21
134.4280651016
 31
0.0
  0
LINE
  5
108
330
1F
100
AcDbEntity
  8
0
  6
Continuous
 62
     7
370
    15
100
AcDbLine
 10
180.9868720232
 20
78.1430759836
 30
0.0
 11
180.9868720232
 21
134.4280651016
 31
0.0
  0
LINE
  5
109
330
1F
100
AcDbEntity
  8
0
  6
Continuous
 62
     7
370
    15
100
AcDbLine
 10
180.9868720232
 20
78.1430759836
 30
0.0
 11
187.1868720228
 21
78.1430759845
 31
0.0
  0
LINE
  5
10A
330
1F
100
AcDbEntity
  8
0
  6
Continuous
 62
     7
370
    15
100
AcDbLine
 10
187.1868720228
 20
78.1430759845
 30
0.0
 11
187.1868720228
 21
77.2855705435
 31
0.0
  0
LINE
  5
10B
330
1F
100
AcDbEntity
  8
0
  6
Continuous
 62
     7
370
    15
100
AcDbLine
 10
120.9868720225
 20
84.0605705426
 30
0.0
 11
120.9868720225
 21
128.5105705426
 31
0.0
  0
LINE
  5
10C
330
1F
100
AcDbEntity
  8
0
  6
Continuous
 62
     7
370
    15
100
AcDbLine
 10
121.4693860795
 20
84.2855705426
 30
0.0
 11
121.4693860795
 21
128.2855705426
 31
0.0
  0
LINE
  5
10D
330
1F
100
AcDbEntity
  8
0
  6
Continuous
 62
     7
370
    15
100
AcDbLine
 10
209.9868720225
 20
106.2855705426
 30
0.0
 11
209.9868720225
 21
126.5355705426
 31
0.0
  0
LINE
  5
10E
330
1F
100
AcDbEntity
  8
0
  6
Continuous
 62
     7
370
    15
100
AcDbLine
 10
209.9868720225
 20
86.0355705426
 30
0.0
 11
209.9868720225
 21
106.2855705426
 31
0.0
  0
LINE
  5
10F
330
1F
100
AcDbEntity
  8
0
  6
Continuous
 62
     7
370
    15
100
AcDbLine
 10
210.7368720225
 20
106.2855705426
 30
0.0
 11
210.7368720225
 21
85.2855705426
 31
0.0
  0
LINE
  5
110
330
1F
100
AcDbEntity
  8
0
  6
Continuous
 62
     7
370
    15
100
AcDbLine
 10
210.7368720225
 20
127.2855705426
 30
0.0
 11
210.7368720225
 21
106.2855705426
 31
0.0
  0
LINE
  5
111
330
1F
100
AcDbEntity
  8
0
  6
Continuous
 62
     7
370
    15
100
AcDbLine
 10
219.2368720225
 20
127.2855705426
 30
0.0
 11
219.2368720225
 21
85.2855705426
 31
0.0
  0
LINE
  5
112
330
1F
100
AcDbEntity
  8
0
  6
Continuous
 62
     7
370
    15
100
AcDbLine
 10
219.9868720225
 20
126.5355705426
 30
0.0
 11
219.9868720225
 21
86.0355705426
 31
0.0
  0
LINE
  5
113
330
1F
100
AcDbEntity
  8
0
  6
Continuous
 62
     7
370
    15
100
AcDbLine
 10
203.5146288365
 20
90.2855705426
 30
0.0
 11
203.5146288365
 21
122.2855705426
 31
0.0
  0
ARC
  5
114
330
1F
100
AcDbEntity
  8
0
  6
Continuous
 62
     7
370
    15
100
AcDbCircle
 10
194.1868720225
 20
106.2855705426
 30
0.0
 40
15.99999999999999
100
AcDbArc
 50
244.0555202313
 51
247.2009687281
  0
LINE
  5
115
330
1F
100
AcDbEntity
  8
0
  6
Continuous
 62
     7
370
    15
100
AcDbLine
 10
180.9868720232
 20
91.8980759727
 30
0.0
 11
187.1868720234
 21
91.8980759722
 31
0.0
  0
LINE
  5
116
330
1F
100
AcDbEntity
  8
0
  6
Continuous
 62
     7
370
    15
100
AcDbLine
 10
187.1868720225
 20
120.6730651125
 30
0.0
 11
180.9868720225
 21
120.6730651124
 31
0.0
  0
ARC
  5
117
330
1F
100
AcDbEntity
  8
0
  6
Continuous
 62
     7
370
    15
100
AcDbCircle
 10
194.1868720225
 20
106.2855705426
 30
0.0
 40
16.00000000000001
100
AcDbArc
 50
112.7990312719
 51
115.9444797724
  0
LINE
  5
118
330
1F
100
AcDbEntity
  8
0
  6
Continuous
 62
     7
370
    15
100
AcDbLine
 10
204.9868720225
 20
121.4355705426
 30
0.0
 11
204.9868720225
 21
91.1355705426
 31
0.0
  0
SPLINE
  5
119
330
1F
100
AcDbEntity
  8
0
  6
Continuous
 62
     7
370
    15
100
AcDbSpline
210
0.0
220
0.0
230
1.0
 70
    24
 71
     3
 72
    14
 73
    10
 74
     0
 42
0.000000001
 43
0.00000001
 40
0.0
 40
0.0
 40
0.0
 40
0.0
 40
0.25
 40
0.25
 40
0.5
 40
0.5
 40
0.75
 40
0.75
 40
1.0
 40
1.0
 40
1.0
 40
1.0
 10
55.58687202278353
 20
106.2855705426118
 30
0.0
 10
55.58687202277545
 20
106.2855705426118
 30
0.0
 10
55.60517620463219
 20
106.2855705426118
 30
0.0
 10
55.68628212876364
 20
106.2855705426118
 30
0.0
 10
55.74926622606423
 20
106.2855705426118
 30
0.0
 10
55.91166042945382
 20
106.2855705426118
 30
0.0
 10
56.01070582549342
 20
106.2855705426118
 30
0.0
 10
56.2224668115595
 20
106.2855705426118
 30
0.0
 10
56.33468834592145
 20
106.2855705426118
 30
0.0
 10
56.44256379551656
 20
106.2855705426118
 30
0.0
  0
SPLINE
  5
11A
330
1F
100
AcDbEntity
  8
0
  6
Continuous
 62
     7
370
    15
100
AcDbSpline
210
0.0
220
0.0
230
1.0
 70
    24
 71
     3
 72
    22
 73
    18
 74
     0
 42
0.000000001
 43
0.00000001
 40
0.0
 40
0.0
 40
0.0
 40
0.0
 40
0.125
 40
0.125
 40
0.25
 40
0.25
 40
0.375
 40
0.375
 40
0.5
 40
0.5
 40
0.625
 40
0.625
 40
0.75
 40
0.75
 40
0.875
 40
0.875
 40
1.0
 40
1.0
 40
1.0
 40
1.0
 10
55.58687202278355
 20
106.2855705426118
 30
0.0
 10
55.58687202278353
 20
105.7929594292527
 30
0.0
 10
55.58687202278355
 20
105.2692539030681
 30
0.0
 10
55.58687202278353
 20
104.1631261058843
 30
0.0
 10
55.58687202278356
 20
103.5805443969332
 30
0.0
 10
55.58687202278356
 20
102.369903324741
 30
0.0
 10
55.58687202278356
 20
101.7416823483826
 30
0.0
 10
55.58687202278355
 20
100.4680204873047
 30
0.0
 10
55.58687202278356
 20
99.82251273533745
 30
0.0
 10
55.58687202278355
 20
98.56142828513956
 30
0.0
 10
55.58687202278356
 20
97.94603137901537
 30
0.0
 10
55.58687202278356
 20
96.8101324559662
 30
0.0
 10
55.58687202278355
 20
96.29016719058686
 30
0.0
 10
55.58687202278356
 20
95.41744438769155
 30
0.0
 10
55.58687202278356
 20
95.06546340399393
 30
0.0
 10
55.58687202278353
 20
94.58789296133175
 30
0.0
 10
55.58687202278355
 20
94.46290382204673
 30
0.0
 10
55.58687202278355
 20
94.4629038220573
 30
0.0
  0
SPLINE
  5
11B
330
1F
100
AcDbEntity
  8
0
  6
Continuous
 62
     7
370
    15
100
AcDbSpline
210
0.0
220
0.0
230
1.0
 70
    24
 71
     3
 72
    22
 73
    18
 74
     0
 42
0.000000001
 43
0.00000001
 40
0.0
 40
0.0
 40
0.0
 40
0.0
 40
0.1250000000000001
 40
0.1250000000000001
 40
0.2500000000000002
 40
0.2500000000000002
 40
0.3750000000000002
 40
0.3750000000000002
 40
0.5000000000000002
 40
0.5000000000000002
 40
0.6250000000000002
 40
0.6250000000000002
 40
0.7500000000000002
 40
0.7500000000000002
 40
0.8750000000000001
 40
0.8750000000000001
 40
1.0
 40
1.0
 40
1.0
 40
1.0
 10
55.58687202278352
 20
118.1082372631664
 30
0.0
 10
55.58687202278352
 20
118.1082372631558
 30
0.0
 10
55.58687202278353
 20
117.9832481238524
 30
0.0
 10
55.58687202278352
 20
117.5056776811616
 30
0.0
 10
55.58687202278353
 20
117.1536966974539
 30
0.0
 10
55.58687202278352
 20
116.2809738945464
 30
0.0
 10
55.58687202278352
 20
115.7610086291651
 30
0.0
 10
55.58687202278351
 20
114.6251097061178
 30
0.0
 10
55.58687202278353
 20
114.0097127999975
 30
0.0
 10
55.58687202278352
 20
112.7486283498104
 30
0.0
 10
55.58687202278355
 20
112.1031205978501
 30
0.0
 10
55.58687202278353
 20
110.8294587367868
 30
0.0
 10
55.58687202278353
 20
110.2012377604363
 30
0.0
 10
55.58687202278351
 20
108.9905966882589
 30
0.0
 10
55.58687202278353
 20
108.408014979315
 30
0.0
 10
55.58687202278352
 20
107.3018871821443
 30
0.0
 10
55.58687202278351
 20
106.7781816559656
 30
0.0
 10
55.58687202278352
 20
106.2855705426118
 30
0.0
  0
LINE
  5
11C
330
1F
100
AcDbEntity
  8
0
  6
Continuous
 62
     7
370
    15
100
AcDbLine
 10
122.9868720225
 20
136.6198851116
 30
0.0
 11
122.9868720225
 21
135.3305036699
 31
0.0
  0
LINE
  5
11D
330
1F
100
AcDbEntity
  8
0
  6
Continuous
 62
     7
370
    15
100
AcDbLine
 10
122.9868720225
 20
77.2406374153
 30
0.0
 11
122.9868720225
 21
75.9512559736
 31
0.0
  0
LINE
  5
11E
330
1F
100
AcDbEntity
  8
0
  6
Continuous
 62
     7
370
    15
100
AcDbLine
 10
187.1868720225
 20
120.6730651125
 30
0.0
 11
187.1868720228
 21
134.4280651007
 31
0.0
  0
LINE
  5
11F
330
1F
100
AcDbEntity
  8
0
  6
Continuous
 62
     7
370
    15
100
AcDbLine
 10
187.1868720228
 20
78.1430759845
 30
0.0
 11
187.1868720234
 21
91.8980759722
 31
0.0
  0
LINE
  5
120
330
1F
100
AcDbEntity
  8
0
  6
Continuous
 62
     7
370
    15
100
AcDbLine
 10
187.9868720225
 20
121.0354857966
 30
0.0
 11
187.9868720225
 21
133.7955687252
 31
0.0
  0
SPLINE
  5
121
330
1F
100
AcDbEntity
  8
0
  6
Continuous
 62
     7
370
    15
100
AcDbSpline
210
0.0
220
0.0
230
1.0
 70
     8
 71
     3
 72
     9
 73
     5
 74
     0
 42
0.000000001
 43
0.00000001
 40
0.0
 40
0.0
 40
0.0
 40
0.0
 40
0.4978352971632729
 40
1.0
 40
1.0
 40
1.0
 40
1.0
 10
187.9868720224281
 20
133.7955687252843
 30
0.0
 10
187.8543857949725
 20
133.9012110146705
 30
0.0
 10
187.5882611786375
 20
134.1134143075831
 30
0.0
 10
187.3210540243379
 20
134.3228792162153
 30
0.0
 10
187.1868720231032
 20
134.4280650998134
 30
0.0
  0
LINE
  5
122
330
1F
100
AcDbEntity
  8
0
  6
Continuous
 62
     7
370
    15
100
AcDbLine
 10
187.9868720224
 20
78.0855705425
 30
0.0
 11
187.9868720225
 21
78.77557236
 31
0.0
  0
SPLINE
  5
123
330
1F
100
AcDbEntity
  8
0
  6
Continuous
 62
     7
370
    15
100
AcDbSpline
210
0.0
220
0.0
230
1.0
 70
     8
 71
     3
 72
     9
 73
     5
 74
     0
 42
0.000000001
 43
0.00000001
 40
0.0
 40
0.0
 40
0.0
 40
0.0
 40
0.5021647028366358
 40
0.9999999999999999
 40
0.9999999999999999
 40
0.9999999999999999
 40
0.9999999999999999
 10
187.1868720231032
 20
78.1430759854103
 30
0.0
 10
187.3210540243379
 20
78.24826186900829
 30
0.0
 10
187.5882611786374
 20
78.45772677764052
 30
0.0
 10
187.8543857949725
 20
78.66993007055315
 30
0.0
 10
187.9868720224281
 20
78.77557235993936
 30
0.0
  0
LINE
  5
124
330
1F
100
AcDbEntity
  8
0
  6
Continuous
 62
     7
370
    15
100
AcDbLine
 10
187.9868720225
 20
78.77557236
 30
0.0
 11
187.9868720225
 21
91.5356552886
 31
0.0
  0
LINE
  5
125
330
1F
100
AcDbEntity
  8
0
  6
Continuous
 62
     7
370
    15
100
AcDbLine
 10
187.9868720225
 20
133.7955687252
 30
0.0
 11
187.9868720225
 21
134.4855705427
 31
0.0
  0
LINE
  5
126
330
1F
100
AcDbEntity
  8
0
  6
Continuous
 62
     8
370
    15
100
AcDbLine
 10
146.8211865975
 20
106.2855705426
 30
0.0
 11
146.8211865975
 21
74.7855705426
 31
0.0
  0
LINE
  5
127
330
1F
100
AcDbEntity
  8
0
  6
Continuous
 62
     8
370
    15
100
AcDbLine
 10
146.8211865975
 20
137.7855705426
 30
0.0
 11
146.8211865975
 21
106.2855705491
 31
0.0
  0
LINE
  5
128
330
1F
100
AcDbEntity
  8
0
  6
Continuous
 62
     8
370
    15
100
AcDbLine
 10
147.1040293105
 20
106.2855705555
 30
0.0
 11
147.1040293105
 21
74.9027278306
 31
0.0
  0
LINE
  5
129
330
1F
100
AcDbEntity
  8
0
  6
Continuous
 62
     8
370
    15
100
AcDbLine
 10
147.1040293105
 20
106.2855705555
 30
0.0
 11
147.1040293105
 21
137.6684132322
 31
0.0
  0
LINE
  5
12A
330
1F
100
AcDbEntity
  8
0
  6
Continuous
 62
     8
370
    15
100
AcDbLine
 10
124.1525574483
 20
76.0158495875
 30
0.0
 11
124.1525574475
 21
74.7855705426
 31
0.0
  0
LINE
  5
12B
330
1F
100
AcDbEntity
  8
0
  6
Continuous
 62
     8
370
    15
100
AcDbLine
 10
124.1525574475
 20
137.7855705426
 30
0.0
 11
124.1525574475
 21
136.5552914976
 31
0.0
  0
LINE
  5
12C
330
1F
100
AcDbEntity
  8
0
  6
Continuous
 62
     8
370
    15
100
AcDbLine
 10
147.8697147352
 20
106.2855705426
 30
0.0
 11
147.8697147352
 21
75.6684132554
 31
0.0
  0
LINE
  5
12D
330
1F
100
AcDbEntity
  8
0
  6
Continuous
 62
     8
370
    15
100
AcDbLine
 10
147.8697147352
 20
136.9026464151
 30
0.0
 11
147.8697147352
 21
106.2855705489
 31
0.0
  0
LINE
  5
12E
330
1F
100
AcDbEntity
  8
0
  6
Continuous
 62
     8
370
    15
100
AcDbLine
 10
123.1040293098
 20
136.9027278299
 30
0.0
 11
123.1040293098
 21
135.6604636837
 31
0.0
  0
LINE
  5
12F
330
1F
100
AcDbEntity
  8
0
  6
Continuous
 62
     8
370
    15
100
AcDbLine
 10
123.1040293098
 20
76.9106774015
 30
0.0
 11
123.1040293098
 21
75.6684132554
 31
0.0
  0
LINE
  5
130
330
1F
100
AcDbEntity
  8
0
  6
Continuous
 62
     8
370
    15
100
AcDbLine
 10
123.8697147354
 20
76.0975433848
 30
0.0
 11
123.8697147354
 21
74.9027278297
 31
0.0
  0
LINE
  5
131
330
1F
100
AcDbEntity
  8
0
  6
Continuous
 62
     8
370
    15
100
AcDbLine
 10
123.8697147354
 20
137.6684132555
 30
0.0
 11
123.8697147354
 21
136.4735977004
 31
0.0
  0
LINE
  5
132
330
1F
100
AcDbEntity
  8
0
  6
Continuous
 62
     8
370
    15
100
AcDbLine
 10
148.7868720225
 20
77.285570548
 30
0.0
 11
148.7868720225
 21
106.2855705545
 31
0.0
  0
LINE
  5
133
330
1F
100
AcDbEntity
  8
0
  6
Continuous
 62
     8
370
    15
100
AcDbLine
 10
148.7868720225
 20
106.2855705545
 30
0.0
 11
148.7868720225
 21
135.2855705426
 31
0.0
  0
LINE
  5
134
330
1F
100
AcDbEntity
  8
0
  6
Continuous
 62
     8
370
    15
100
AcDbLine
 10
122.5868720224
 20
84.2855705425
 30
0.0
 11
122.5868720224
 21
128.2855705427
 31
0.0
  0
LINE
  5
135
330
1F
100
AcDbEntity
  8
0
  6
Continuous
 62
     8
370
    15
100
AcDbLine
 10
56.4425637955
 20
93.4733710356
 30
0.0
 11
56.4425637955
 21
106.2855705426
 31
0.0
  0
LINE
  5
136
330
1F
100
AcDbEntity
  8
0
  6
Continuous
 62
     8
370
    15
100
AcDbLine
 10
56.4425637955
 20
106.2855705449
 30
0.0
 11
56.4425637955
 21
119.0977700496
 31
0.0
  0
LINE
  5
137
330
1F
100
AcDbEntity
  8
0
  6
Continuous
 62
     8
370
    15
100
AcDbLine
 10
209.5868720225
 20
114.2855705426
 30
0.0
 11
209.5868720225
 21
98.2855705426
 31
0.0
  0
DIMENSION
  5
138
330
1F
100
AcDbEntity
  8
DIM
100
AcDbDimension
  2
_D
 10
225.0805958801
 20
90.2855705426
 30
0.0
 11
225.0805958801
 21
106.2855705426
 31
0.0
 70
   160
  1
%%c<>
 71
     2
 42
-1.0
  3
SLDDIMSTYLE0
100
AcDbAlignedDimension
 13
203.5146288365
 23
122.2855705426
 33
0.0
 14
203.5146288365
 24
90.2855705426
 34
0.0
 50
90.0
100
AcDbRotatedDimension
  0
DIMENSION
  5
144
330
1F
100
AcDbEntity
  8
DIM
100
AcDbDimension
  2
_D_1
 10
229.9868720225
 20
77.2855705426
 30
0.0
 11
229.9868720225
 21
106.2855705426
 31
0.0
 70
   160
  1
%%c<>
 71
     2
 42
-1.0
  3
SLDDIMSTYLE0
100
AcDbAlignedDimension
 13
187.1868720225
 23
135.2855705426
 33
0.0
 14
187.1868720225
 24
77.2855705426
 34
0.0
 50
90.0
100
AcDbRotatedDimension
  0
DIMENSION
  5
14F
330
1F
100
AcDbEntity
  8
DIM
100
AcDbDimension
  2
_D_2
 10
180.9868720232
 20
64.7855455426
 30
0.0
 11
192.9868720228
 21
64.7855455426
 31
0.0
 70
   160
  1
<>
 71
     2
 42
-1.0
  3
SLDDIMSTYLE0
100
AcDbAlignedDimension
 13
204.9868720225
 23
91.1355705426
 33
0.0
 14
180.9868720232
 24
78.1430759836
 34
0.0
100
AcDbRotatedDimension
  0
DIMENSION
  5
159
330
1F
100
AcDbEntity
  8
DIM
100
AcDbDimension
  2
_D_3
 10
120.9868720225
 20
64.7855455426
 30
0.0
 11
150.9868720228
 21
64.7855455426
 31
0.0
 70
   160
  1
<>
 71
     2
 42
-1.0
  3
SLDDIMSTYLE0
100
AcDbAlignedDimension
 13
180.9868720232
 23
78.1430759836
 33
0.0
 14
120.9868720225
 24
84.0605705426
 34
0.0
100
AcDbRotatedDimension
  0
DIMENSION
  5
163
330
1F
100
AcDbEntity
  8
DIM
100
AcDbDimension
  2
_D_4
 10
219.9868720225
 20
58.7855455426
 30
0.0
 11
137.7868720226
 21
58.7855455426
 31
0.0
 70
   160
  1
<>
 71
     2
 42
-1.0
  3
SLDDIMSTYLE1
100
AcDbAlignedDimension
 13
55.5868720227
 23
106.2855705426
 33
0.0
 14
219.9868720225
 24
86.0355705426
 34
0.0
 50
0.0
100
AcDbRotatedDimension
  0
DIMENSION
  5
16E
330
1F
100
AcDbEntity
  8
DIM
100
AcDbDimension
  2
_D_5
 10
53.3711286579
 20
137.7855705426
 30
0.0
 11
53.3711286579
 21
106.2855705426
 31
0.0
 70
   160
  1
%%c<>
 71
     2
 42
-1.0
  3
SLDDIMSTYLE0
100
AcDbAlignedDimension
 13
124.1525574475
 23
74.7855705426
 33
0.0
 14
124.1525574475
 24
137.7855705426
 34
0.0
 50
90.0
100
AcDbRotatedDimension
  0
LINE
  5
179
330
1F
100
AcDbEntity
  8
DIM
  6
CENTERX2
370
     0
100
AcDbLine
 10
56.0466318805
 20
106.2855705426
 30
0.0
 11
218.9594313792
 21
106.2855705426
 31
0.0
  0
ENDSEC
  0
SECTION
  2
OBJECTS
  0
DICTIONARY
  5
C
330
0
100
AcDbDictionary
281
     1
  3
ACAD_GROUP
350
D
  3
ACAD_LAYOUT
350
1A
  3
ACAD_MLINESTYLE
350
17
  3
ACAD_PLOTSETTINGS
350
19
  3
ACAD_PLOTSTYLENAME
350
E
  3
ACAD_SCALELIST
350
47
  0
DICTIONARY
  5
D
102
{ACAD_REACTORS
330
C
102
}
330
C
100
AcDbDictionary
281
     1
  0
DICTIONARY
  5
1A
102
{ACAD_REACTORS
330
C
102
}
330
C
100
AcDbDictionary
281
     1
  3
Layout1
350
1E
  3
Layout2
350
26
  3
Model
350
22
  0
DICTIONARY
  5
17
102
{ACAD_REACTORS
330
C
102
}
330
C
100
AcDbDictionary
281
     1
  3
Standard
350
18
  0
DICTIONARY
  5
19
102
{ACAD_REACTORS
330
C
102
}
330
C
100
AcDbDictionary
281
     1
  0
ACDBDICTIONARYWDFLT
  5
E
102
{ACAD_REACTORS
330
C
102
}
330
C
100
AcDbDictionary
281
     1
  3
Normal
350
F
100
AcDbDictionaryWithDefault
340
F
  0
DICTIONARY
  5
47
102
{ACAD_REACTORS
330
C
102
}
330
C
100
AcDbDictionary
281
     1
  3
A0
350
48
  3
A1
350
49
  3
A2
350
4A
  3
A3
350
4B
  3
A4
350
4C
  3
A5
350
4D
  3
A6
350
4E
  3
A7
350
4F
  3
A8
350
50
  3
A9
350
51
  3
B0
350
52
  3
B1
350
53
  3
B2
350
54
  3
B3
350
55
  3
B4
350
56
  3
B5
350
57
  3
B6
350
58
  3
B7
350
59
  3
B8
350
5A
  3
B9
350
5B
  3
C0
350
5C
  3
C1
350
5D
  3
C2
350
5E
  3
C3
350
5F
  3
C4
350
60
  3
C5
350
61
  3
C6
350
62
  3
C7
350
63
  3
C8
350
64
  3
C9
350
65
  3
D0
350
66
  3
D1
350
67
  3
D2
350
68
  0
LAYOUT
  5
1E
102
{ACAD_REACTORS
330
1A
102
}
330
1A
100
AcDbPlotSettings
  1

  2
none_device
  4

  6

 40
0.0
 41
0.0
 42
0.0
 43
0.0
 44
0.0
 45
0.0
 46
0.0
 47
0.0
 48
0.0
 49
0.0
140
0.0
141
0.0
142
1.0
143
1.0
 70
   688
 72
     1
 73
     0
 74
     5
  7

 75
    16
147
1.0
148
0.0
149
0.0
100
AcDbLayout
  1
Layout1
 70
     1
 71
     1
 10
0.0
 20
0.0
 11
420.0
 21
297.0
 12
0.0
 22
0.0
 32
0.0
 14
1.0000000000E+20
 24
1.0000000000E+20
 34
1.0000000000E+20
 15
-1.0000000000E+20
 25
-1.0000000000E+20
 35
-1.0000000000E+20
146
0.0
 13
0.0
 23
0.0
 33
0.0
 16
1.0
 26
0.0
 36
0.0
 17
0.0
 27
1.0
 37
0.0
 76
     0
330
1B
  0
LAYOUT
  5
26
102
{ACAD_REACTORS
330
1A
102
}
330
1A
100
AcDbPlotSettings
  1

  2
none_device
  4

  6

 40
0.0
 41
0.0
 42
0.0
 43
0.0
 44
0.0
 45
0.0
 46
0.0
 47
0.0
 48
0.0
 49
0.0
140
0.0
141
0.0
142
1.0
143
1.0
 70
   688
 72
     1
 73
     0
 74
     5
  7

 75
    16
147
1.0
148
0.0
149
0.0
100
AcDbLayout
  1
Layout2
 70
     1
 71
     2
 10
0.0
 20
0.0
 11
0.0
 21
0.0
 12
0.0
 22
0.0
 32
0.0
 14
0.0
 24
0.0
 34
0.0
 15
0.0
 25
0.0
 35
0.0
146
0.0
 13
0.0
 23
0.0
 33
0.0
 16
1.0
 26
0.0
 36
0.0
 17
0.0
 27
1.0
 37
0.0
 76
     0
330
23
  0
LAYOUT
  5
22
102
{ACAD_REACTORS
330
1A
102
}
330
1A
100
AcDbPlotSettings
  1

  2
none_device
  4
Letter_(8.50_x_11.00_Inches)
  6

 40
6.35
 41
6.35
 42
6.35000508
 43
6.35000508
 44
215.9
 45
279.4
 46
0.0
 47
0.0
 48
0.0
 49
0.0
140
0.0
141
0.0
142
1.0
143
1.0
 70
  1712
 72
     1
 73
     0
 74
     0
  7

 75
     0
147
1.0
148
0.0
149
0.0
100
AcDbLayout
  1
Model
 70
     1
 71
     0
 10
0.0
 20
0.0
 11
297.0
 21
210.0
 12
0.0
 22
0.0
 32
0.0
 14
0.0
 24
0.0
 34
0.0
 15
297.0
 25
210.0
 35
0.0
146
0.0
 13
0.0
 23
0.0
 33
0.0
 16
1.0
 26
0.0
 36
0.0
 17
0.0
 27
1.0
 37
0.0
 76
     0
330
1F
331
29
  0
MLINESTYLE
  5
18
102
{ACAD_REACTORS
330
17
102
}
330
17
100
AcDbMlineStyle
  2
Standard
 70
     0
  3

 62
   256
 51
90.0
 52
90.0
 71
     2
 49
0.5
 62
   256
  6
BYLAYER
 49
-0.5
 62
   256
  6
BYLAYER
  0
ACDBPLACEHOLDER
  5
F
102
{ACAD_REACTORS
330
E
102
}
330
E
  0
SCALE
  5
48
102
{ACAD_REACTORS
330
47
102
}
330
47
100
AcDbScale
 70
     0
300
1:1
140
1.0
141
1.0
290
     1
  0
SCALE
  5
49
102
{ACAD_REACTORS
330
47
102
}
330
47
100
AcDbScale
 70
     0
300
1:2
140
1.0
141
2.0
290
     0
  0
SCALE
  5
4A
102
{ACAD_REACTORS
330
47
102
}
330
47
100
AcDbScale
 70
     0
300
1:4
140
1.0
141
4.0
290
     0
  0
SCALE
  5
4B
102
{ACAD_REACTORS
330
47
102
}
330
47
100
AcDbScale
 70
     0
300
1:5
140
1.0
141
5.0
290
     0
  0
SCALE
  5
4C
102
{ACAD_REACTORS
330
47
102
}
330
47
100
AcDbScale
 70
     0
300
1:8
140
1.0
141
8.0
290
     0
  0
SCALE
  5
4D
102
{ACAD_REACTORS
330
47
102
}
330
47
100
AcDbScale
 70
     0
300
1:10
140
1.0
141
10.0
290
     0
  0
SCALE
  5
4E
102
{ACAD_REACTORS
330
47
102
}
330
47
100
AcDbScale
 70
     0
300
1:16
140
1.0
141
16.0
290
     0
  0
SCALE
  5
4F
102
{ACAD_REACTORS
330
47
102
}
330
47
100
AcDbScale
 70
     0
300
1:20
140
1.0
141
20.0
290
     0
  0
SCALE
  5
50
102
{ACAD_REACTORS
330
47
102
}
330
47
100
AcDbScale
 70
     0
300
1:30
140
1.0
141
30.0
290
     0
  0
SCALE
  5
51
102
{ACAD_REACTORS
330
47
102
}
330
47
100
AcDbScale
 70
     0
300
1:40
140
1.0
141
40.0
290
     0
  0
SCALE
  5
52
102
{ACAD_REACTORS
330
47
102
}
330
47
100
AcDbScale
 70
     0
300
1:50
140
1.0
141
50.0
290
     0
  0
SCALE
  5
53
102
{ACAD_REACTORS
330
47
102
}
330
47
100
AcDbScale
 70
     0
300
1:100
140
1.0
141
100.0
290
     0
  0
SCALE
  5
54
102
{ACAD_REACTORS
330
47
102
}
330
47
100
AcDbScale
 70
     0
300
2:1
140
2.0
141
1.0
290
     0
  0
SCALE
  5
55
102
{ACAD_REACTORS
330
47
102
}
330
47
100
AcDbScale
 70
     0
300
4:1
140
4.0
141
1.0
290
     0
  0
SCALE
  5
56
102
{ACAD_REACTORS
330
47
102
}
330
47
100
AcDbScale
 70
     0
300
8:1
140
8.0
141
1.0
290
     0
  0
SCALE
  5
57
102
{ACAD_REACTORS
330
47
102
}
330
47
100
AcDbScale
 70
     0
300
10:1
140
10.0
141
1.0
290
     0
  0
SCALE
  5
58
102
{ACAD_REACTORS
330
47
102
}
330
47
100
AcDbScale
 70
     0
300
100:1
140
100.0
141
1.0
290
     0
  0
SCALE
  5
59
102
{ACAD_REACTORS
330
47
102
}
330
47
100
AcDbScale
 70
     0
300
1/128" = 1'-0"
140
0.0078125
141
12.0
290
     0
  0
SCALE
  5
5A
102
{ACAD_REACTORS
330
47
102
}
330
47
100
AcDbScale
 70
     0
300
1/64" = 1'-0"
140
0.015625
141
12.0
290
     0
  0
SCALE
  5
5B
102
{ACAD_REACTORS
330
47
102
}
330
47
100
AcDbScale
 70
     0
300
1/32" = 1'-0"
140
0.03125
141
12.0
290
     0
  0
SCALE
  5
5C
102
{ACAD_REACTORS
330
47
102
}
330
47
100
AcDbScale
 70
     0
300
1/16" = 1'-0"
140
0.0625
141
12.0
290
     0
  0
SCALE
  5
5D
102
{ACAD_REACTORS
330
47
102
}
330
47
100
AcDbScale
 70
     0
300
3/32" = 1'-0"
140
0.09375
141
12.0
290
     0
  0
SCALE
  5
5E
102
{ACAD_REACTORS
330
47
102
}
330
47
100
AcDbScale
 70
     0
300
1/8" = 1'-0"
140
0.125
141
12.0
290
     0
  0
SCALE
  5
5F
102
{ACAD_REACTORS
330
47
102
}
330
47
100
AcDbScale
 70
     0
300
3/16" = 1'-0"
140
0.1875
141
12.0
290
     0
  0
SCALE
  5
60
102
{ACAD_REACTORS
330
47
102
}
330
47
100
AcDbScale
 70
     0
300
1/4" = 1'-0"
140
0.25
141
12.0
290
     0
  0
SCALE
  5
61
102
{ACAD_REACTORS
330
47
102
}
330
47
100
AcDbScale
 70
     0
300
3/8" = 1'-0"
140
0.375
141
12.0
290
     0
  0
SCALE
  5
62
102
{ACAD_REACTORS
330
47
102
}
330
47
100
AcDbScale
 70
     0
300
1/2" = 1'-0"
140
0.5
141
12.0
290
     0
  0
SCALE
  5
63
102
{ACAD_REACTORS
330
47
102
}
330
47
100
AcDbScale
 70
     0
300
3/4" = 1'-0"
140
0.75
141
12.0
290
     0
  0
SCALE
  5
64
102
{ACAD_REACTORS
330
47
102
}
330
47
100
AcDbScale
 70
     0
300
1" = 1'-0"
140
1.0
141
12.0
290
     0
  0
SCALE
  5
65
102
{ACAD_REACTORS
330
47
102
}
330
47
100
AcDbScale
 70
     0
300
1-1/2" = 1'-0"
140
1.5
141
12.0
290
     0
  0
SCALE
  5
66
102
{ACAD_REACTORS
330
47
102
}
330
47
100
AcDbScale
 70
     0
300
3" = 1'-0"
140
3.0
141
12.0
290
     0
  0
SCALE
  5
67
102
{ACAD_REACTORS
330
47
102
}
330
47
100
AcDbScale
 70
     0
300
6" = 1'-0"
140
6.0
141
12.0
290
     0
  0
SCALE
  5
68
102
{ACAD_REACTORS
330
47
102
}
330
47
100
AcDbScale
 70
     0
300
1'-0" = 1'-0"
140
12.0
141
12.0
290
     0
  0
ENDSEC
  0
EOF
