  0
SECTION
  2
HEADER
  9
$ACADVER
  1
AC1015
  9
$ACADMAINTVER
 70
     6
  9
$DWGCODEPAGE
  3
ANSI_1252
  9
$INSBASE
 10
0.0
 20
0.0
 30
0.0
  9
$EXTMIN
 10
0.0
 20
0.0
 30
0.0
  9
$EXTMAX
 10
371.25
 20
262.5
 30
0.0
  9
$LIMMIN
 10
0.0
 20
0.0
  9
$LIMMAX
 10
371.25
 20
262.5
  9
$ORTHOMODE
 70
     0
  9
$REGENMODE
 70
     1
  9
$FILLMODE
 70
     1
  9
$QTEXTMODE
 70
     0
  9
$MIRRTEXT
 70
     1
  9
$LTSCALE
 40
1.25
  9
$ATTMODE
 70
     1
  9
$TEXTSIZE
 40
4.8506944444
  9
$TRACEWID
 40
1.0
  9
$TEXTSTYLE
  7
Standard
  9
$CLAYER
  8
0
  9
$CELTYPE
  6
ByLayer
  9
$CECOLOR
 62
   256
  9
$CELTSCALE
 40
1.0
  9
$DISPSILH
 70
     0
  9
$DIMSCALE
 40
1.0
  9
$DIMASZ
 40
4.1275
  9
$DIMEXO
 40
1.25
  9
$DIMDLI
 40
3.75
  9
$DIMRND
 40
0.0
  9
$DIMDLE
 40
0.0
  9
$DIMEXE
 40
1.25
  9
$DIMTP
 40
0.0
  9
$DIMTM
 40
0.0
  9
$DIMTXT
 40
4.8506944444
  9
$DIMCEN
 40
2.5
  9
$DIMTSZ
 40
0.0
  9
$DIMTOL
 70
     0
  9
$DIMLIM
 70
     0
  9
$DIMTIH
 70
     1
  9
$DIMTOH
 70
     1
  9
$DIMSE1
 70
     0
  9
$DIMSE2
 70
     0
  9
$DIMTAD
 70
     1
  9
$DIMZIN
 70
     0
  9
$DIMBLK
  1

  9
$DIMASO
 70
     1
  9
$DIMSHO
 70
     1
  9
$DIMPOST
  1

  9
$DIMAPOST
  1

  9
$DIMALT
 70
     0
  9
$DIMALTD
 70
     3
  9
$DIMALTF
 40
0.0393700787
  9
$DIMLFAC
 40
1.0
  9
$DIMTOFL
 70
     1
  9
$DIMTVP
 40
0.0
  9
$DIMTIX
 70
     0
  9
$DIMSOXD
 70
     0
  9
$DIMSAH
 70
     0
  9
$DIMBLK1
  1

  9
$DIMBLK2
  1

  9
$DIMSTYLE
  2
ISO-25
  9
$DIMCLRD
 70
     0
  9
$DIMCLRE
 70
     0
  9
$DIMCLRT
 70
     0
  9
$DIMTFAC
 40
1.0
  9
$DIMGAP
 40
1.905
  9
$DIMJUST
 70
     0
  9
$DIMSD1
 70
     0
  9
$DIMSD2
 70
     0
  9
$DIMTOLJ
 70
     0
  9
$DIMTZIN
 70
     0
  9
$DIMALTZ
 70
     0
  9
$DIMALTTZ
 70
     0
  9
$DIMUPT
 70
     0
  9
$DIMDEC
 70
     2
  9
$DIMTDEC
 70
     2
  9
$DIMALTU
 70
     2
  9
$DIMALTTD
 70
     3
  9
$DIMTXSTY
  7
Standard
  9
$DIMAUNIT
 70
     0
  9
$DIMADEC
 70
     2
  9
$DIMALTRND
 40
0.0
  9
$DIMAZIN
 70
     0
  9
$DIMDSEP
 70
    44
  9
$DIMATFIT
 70
     3
  9
$DIMFRAC
 70
     0
  9
$DIMLDRBLK
  1

  9
$DIMLUNIT
 70
     2
  9
$DIMLWD
 70
    -2
  9
$DIMLWE
 70
    -2
  9
$DIMTMOVE
 70
     0
  9
$LUNITS
 70
     2
  9
$LUPREC
 70
     2
  9
$SKETCHINC
 40
1.0
  9
$FILLETRAD
 40
10.0
  9
$AUNITS
 70
     1
  9
$AUPREC
 70
     2
  9
$MENU
  1
.
  9
$ELEVATION
 40
0.0
  9
$PELEVATION
 40
0.0
  9
$THICKNESS
 40
0.0
  9
$LIMCHECK
 70
     0
  9
$CHAMFERA
 40
0.0
  9
$CHAMFERB
 40
0.0
  9
$CHAMFERC
 40
0.0
  9
$CHAMFERD
 40
0.0
  9
$SKPOLY
 70
     0
  9
$TDCREATE
 40
2458600.673596308
  9
$TDUCREATE
 40
2458600.444429641
  9
$TDUPDATE
 40
2458600.673597581
  9
$TDUUPDATE
 40
2458600.444430914
  9
$TDINDWG
 40
0.0000000116
  9
$TDUSRTIMER
 40
0.0000000116
  9
$USRTIMER
 70
     1
  9
$ANGBASE
 50
0.0
  9
$ANGDIR
 70
     0
  9
$PDMODE
 70
     0
  9
$PDSIZE
 40
-1.0
  9
$PLINEWID
 40
0.0
  9
$SPLFRAME
 70
     0
  9
$SPLINETYPE
 70
     6
  9
$SPLINESEGS
 70
     8
  9
$HANDSEED
  5
1BB
  9
$SURFTAB1
 70
     6
  9
$SURFTAB2
 70
     6
  9
$SURFTYPE
 70
     6
  9
$SURFU
 70
     6
  9
$SURFV
 70
     6
  9
$UCSBASE
  2

  9
$UCSNAME
  2

  9
$UCSORG
 10
0.0
 20
0.0
 30
0.0
  9
$UCSXDIR
 10
1.0
 20
0.0
 30
0.0
  9
$UCSYDIR
 10
0.0
 20
1.0
 30
0.0
  9
$UCSORTHOREF
  2

  9
$UCSORTHOVIEW
 70
     0
  9
$UCSORGTOP
 10
0.0
 20
0.0
 30
0.0
  9
$UCSORGBOTTOM
 10
0.0
 20
0.0
 30
0.0
  9
$UCSORGLEFT
 10
0.0
 20
0.0
 30
0.0
  9
$UCSORGRIGHT
 10
0.0
 20
0.0
 30
0.0
  9
$UCSORGFRONT
 10
0.0
 20
0.0
 30
0.0
  9
$UCSORGBACK
 10
0.0
 20
0.0
 30
0.0
  9
$PUCSBASE
  2

  9
$PUCSNAME
  2

  9
$PUCSORG
 10
0.0
 20
0.0
 30
0.0
  9
$PUCSXDIR
 10
1.0
 20
0.0
 30
0.0
  9
$PUCSYDIR
 10
0.0
 20
1.0
 30
0.0
  9
$PUCSORTHOREF
  2

  9
$PUCSORTHOVIEW
 70
     0
  9
$PUCSORGTOP
 10
0.0
 20
0.0
 30
0.0
  9
$PUCSORGBOTTOM
 10
0.0
 20
0.0
 30
0.0
  9
$PUCSORGLEFT
 10
0.0
 20
0.0
 30
0.0
  9
$PUCSORGRIGHT
 10
0.0
 20
0.0
 30
0.0
  9
$PUCSORGFRONT
 10
0.0
 20
0.0
 30
0.0
  9
$PUCSORGBACK
 10
0.0
 20
0.0
 30
0.0
  9
$USERI1
 70
     0
  9
$USERI2
 70
     0
  9
$USERI3
 70
     0
  9
$USERI4
 70
     0
  9
$USERI5
 70
     0
  9
$USERR1
 40
0.0
  9
$USERR2
 40
0.0
  9
$USERR3
 40
0.0
  9
$USERR4
 40
0.0
  9
$USERR5
 40
0.0
  9
$WORLDVIEW
 70
     1
  9
$SHADEDGE
 70
     3
  9
$SHADEDIF
 70
    70
  9
$TILEMODE
 70
     1
  9
$MAXACTVP
 70
    64
  9
$PINSBASE
 10
0.0
 20
0.0
 30
0.0
  9
$PLIMCHECK
 70
     0
  9
$PEXTMIN
 10
1.0000000000E+20
 20
1.0000000000E+20
 30
1.0000000000E+20
  9
$PEXTMAX
 10
-1.0000000000E+20
 20
-1.0000000000E+20
 30
-1.0000000000E+20
  9
$PLIMMIN
 10
0.0
 20
0.0
  9
$PLIMMAX
 10
420.0
 20
297.0
  9
$UNITMODE
 70
     0
  9
$VISRETAIN
 70
     1
  9
$PLINEGEN
 70
     0
  9
$PSLTSCALE
 70
     1
  9
$TREEDEPTH
 70
  3020
  9
$CMLSTYLE
  2
Standard
  9
$CMLJUST
 70
     0
  9
$CMLSCALE
 40
20.0
  9
$PROXYGRAPHICS
 70
     1
  9
$MEASUREMENT
 70
     1
  9
$CELWEIGHT
370
    -1
  9
$ENDCAPS
280
     0
  9
$JOINSTYLE
280
     0
  9
$LWDISPLAY
290
     1
  9
$INSUNITS
 70
     4
  9
$HYPERLINKBASE
  1

  9
$STYLESHEET
  1

  9
$XEDIT
290
     1
  9
$CEPSNTYPE
380
     0
  9
$PSTYLEMODE
290
     1
  9
$FINGERPRINTGUID
  2
{1FFAEB55-6D85-4ECF-8F3D-7FE7AA061B3C}
  9
$VERSIONGUID
  2
{FAEB1C32-E019-11D5-929B-00C0DF256EC4}
  9
$EXTNAMES
290
     1
  9
$PSVPSCALE
 40
0.0
  9
$OLESTARTUP
290
     0
  0
ENDSEC
  0
SECTION
  2
CLASSES
  0
CLASS
  1
ACDBDICTIONARYWDFLT
  2
AcDbDictionaryWithDefault
  3
ObjectDBX Classes
 90
        0
280
     0
281
     0
  0
CLASS
  1
VISUALSTYLE
  2
AcDbVisualStyle
  3
ObjectDBX Classes
 90
     4095
280
     0
281
     0
  0
CLASS
  1
MATERIAL
  2
AcDbMaterial
  3
ObjectDBX Classes
 90
     1153
280
     0
281
     0
  0
CLASS
  1
SCALE
  2
AcDbScale
  3
ObjectDBX Classes
 90
     1153
280
     0
281
     0
  0
CLASS
  1
SUN
  2
AcDbSun
  3
SCENEOE
 90
     1153
280
     0
281
     0
  0
CLASS
  1
ACDBPLACEHOLDER
  2
AcDbPlaceHolder
  3
ObjectDBX Classes
 90
        0
280
     0
281
     0
  0
CLASS
  1
LAYOUT
  2
AcDbLayout
  3
ObjectDBX Classes
 90
        0
280
     0
281
     0
  0
ENDSEC
  0
SECTION
  2
TABLES
  0
TABLE
  2
VPORT
  5
8
330
0
100
AcDbSymbolTable
 70
     1
  0
VPORT
  5
29
330
8
100
AcDbSymbolTableRecord
100
AcDbViewportTableRecord
  2
*Active
 70
     0
 10
0.0
 20
0.0
 11
1.0
 21
1.0
 12
185.625
 22
131.25
 13
0.0
 23
0.0
 14
10.0
 24
10.0
 15
10.0
 25
10.0
 16
0.0
 26
0.0
 36
1.0
 17
0.0
 27
0.0
 37
0.0
 40
262.5
 41
1.4142857143
 42
50.0
 43
0.0
 44
0.0
 50
0.0
 51
0.0
 71
     0
 72
  2000
 73
     1
 74
     3
 75
     0
 76
     0
 77
     0
 78
     0
281
     0
 65
     1
110
0.0
120
0.0
130
0.0
111
1.0
121
0.0
131
0.0
112
0.0
122
1.0
132
0.0
 79
     0
146
0.0
  0
ENDTAB
  0
TABLE
  2
LTYPE
  5
5
330
0
100
AcDbSymbolTable
 70
     6
  0
LTYPE
  5
14
330
5
100
AcDbSymbolTableRecord
100
AcDbLinetypeTableRecord
  2
ByBlock
 70
     0
  3

 72
    65
 73
     0
 40
0.0
  0
LTYPE
  5
15
330
5
100
AcDbSymbolTableRecord
100
AcDbLinetypeTableRecord
  2
ByLayer
 70
     0
  3

 72
    65
 73
     0
 40
0.0
  0
LTYPE
  5
16
330
5
100
AcDbSymbolTableRecord
100
AcDbLinetypeTableRecord
  2
Continuous
 70
     0
  3
Solid line
 72
    65
 73
     0
 40
0.0
  0
LTYPE
  5
6A
330
5
100
AcDbSymbolTableRecord
100
AcDbLinetypeTableRecord
  2
HIDDEN
 70
     0
  3
Hidden __ __ __ __ __ __ __ __ __ __ __ __ __ __
 72
    65
 73
     2
 40
1.905
 49
1.27
 74
     0
 49
-0.635
 74
     0
  0
LTYPE
  5
6B
330
5
100
AcDbSymbolTableRecord
100
AcDbLinetypeTableRecord
  2
PHANTOM
 70
     0
  3
Phantom ______  __  __  ______  __  __  ______
 72
    65
 73
     6
 40
12.7
 49
6.35
 74
     0
 49
-1.27
 74
     0
 49
1.27
 74
     0
 49
-1.27
 74
     0
 49
1.27
 74
     0
 49
-1.27
 74
     0
  0
LTYPE
  5
6C
330
5
100
AcDbSymbolTableRecord
100
AcDbLinetypeTableRecord
  2
CENTER
 70
     0
  3
Center ____ _ ____ _ ____ _ ____ _ ____ _ ____
 72
    65
 73
     4
 40
10.16
 49
6.35
 74
     0
 49
-1.27
 74
     0
 49
1.27
 74
     0
 49
-1.27
 74
     0
  0
LTYPE
  5
6D
330
5
100
AcDbSymbolTableRecord
100
AcDbLinetypeTableRecord
  2
CENTERX2
 70
     0
  3
Center (2x) ________  __  ________  __  _____
 72
    65
 73
     4
 40
20.32
 49
12.7
 74
     0
 49
-2.54
 74
     0
 49
2.54
 74
     0
 49
-2.54
 74
     0
  0
LTYPE
  5
6E
330
5
100
AcDbSymbolTableRecord
100
AcDbLinetypeTableRecord
  2
DOT2
 70
     0
  3
Dot (.5x) ........................................
 72
    65
 73
     2
 40
0.635
 49
0.0
 74
     0
 49
-0.635
 74
     0
  0
ENDTAB
  0
TABLE
  2
LAYER
  5
2
330
0
100
AcDbSymbolTable
 70
     8
  0
LAYER
  5
10
330
2
100
AcDbSymbolTableRecord
100
AcDbLayerTableRecord
  2
0
 70
     0
 62
     7
  6
Continuous
370
    -3
390
F
  0
LAYER
  5
6F
330
2
100
AcDbSymbolTableRecord
100
AcDbLayerTableRecord
  2
FORMAT
 70
     0
 62
     7
  6
Continuous
370
    -3
390
F
  0
LAYER
  5
70
330
2
100
AcDbSymbolTableRecord
100
AcDbLayerTableRecord
  2
SLD-0
 70
     0
 62
     2
  6
Continuous
370
    -3
390
F
  0
LAYER
  5
71
330
2
100
AcDbSymbolTableRecord
100
AcDbLayerTableRecord
  2
DIM
 70
     0
 62
   179
  6
Continuous
370
    -3
390
F
  0
LAYER
  5
72
330
2
100
AcDbSymbolTableRecord
100
AcDbLayerTableRecord
  2
SLD-DEFPOINTS
 70
     0
 62
   179
  6
Continuous
370
    -3
390
F
  0
LAYER
  5
73
330
2
100
AcDbSymbolTableRecord
100
AcDbLayerTableRecord
  2
HAT
 70
     0
 62
   135
  6
Continuous
370
    -3
390
F
  0
LAYER
  5
74
330
2
100
AcDbSymbolTableRecord
100
AcDbLayerTableRecord
  2
JOB
 70
     0
 62
   201
  6
Continuous
370
    -3
390
F
  0
LAYER
  5
75
330
2
100
AcDbSymbolTableRecord
100
AcDbLayerTableRecord
  2
INSPECTION_REPORT
 70
     0
 62
   255
  6
Continuous
370
    -3
390
F
  0
ENDTAB
  0
TABLE
  2
STYLE
  5
3
330
0
100
AcDbSymbolTable
 70
     4
  0
STYLE
  5
11
330
3
100
AcDbSymbolTableRecord
100
AcDbTextStyleTableRecord
  2
Standard
 70
     0
 40
0.0
 41
1.0
 50
0.0
 71
     0
 42
4.8506944444
  3
txt
  4

  0
STYLE
  5
96
330
3
100
AcDbSymbolTableRecord
100
AcDbTextStyleTableRecord
  2
SLDTEXTSTYLE0
 70
     0
 40
0.0
 41
0.7
 50
0.0
 71
     0
 42
4.8506944444
  3
TXT
  4

  0
STYLE
  5
98
330
3
100
AcDbSymbolTableRecord
100
AcDbTextStyleTableRecord
  2
SLDTEXTSTYLE1
 70
     0
 40
0.0
 41
0.75
 50
0.0
 71
     0
 42
4.8506944444
  3
TXT
  4

  0
STYLE
  5
AB
330
3
100
AcDbSymbolTableRecord
100
AcDbTextStyleTableRecord
  2
SLDTEXTSTYLE2
 70
     0
 40
0.0
 41
0.6875
 50
0.0
 71
     0
 42
4.8506944444
  3
TXT
  4

  0
ENDTAB
  0
TABLE
  2
VIEW
  5
6
330
0
100
AcDbSymbolTable
 70
     0
  0
ENDTAB
  0
TABLE
  2
UCS
  5
7
330
0
100
AcDbSymbolTable
 70
     0
  0
ENDTAB
  0
TABLE
  2
APPID
  5
9
330
0
100
AcDbSymbolTable
 70
     1
  0
APPID
  5
12
330
9
100
AcDbSymbolTableRecord
100
AcDbRegAppTableRecord
  2
ACAD
 70
     0
  0
ENDTAB
  0
TABLE
  2
DIMSTYLE
  5
A
330
0
100
AcDbSymbolTable
 70
     3
100
AcDbDimStyleTable
  0
DIMSTYLE
105
27
330
A
100
AcDbSymbolTableRecord
100
AcDbDimStyleTableRecord
  2
ISO-25
 70
     0
 41
2.5
 42
0.625
 43
3.75
 44
1.25
 73
     0
 74
     0
 77
     1
 78
     8
140
2.5
141
2.5
143
0.0393700787
147
0.625
171
     3
172
     1
178
     0
271
     2
272
     2
274
     3
278
    44
283
     0
284
     8
340
11
  0
DIMSTYLE
105
18F
102
{ACAD_REACTORS
330
18E
330
1AF
102
}
330
A
100
AcDbSymbolTableRecord
100
AcDbDimStyleTableRecord
  2
SLDDIMSTYLE0
 70
     0
 41
4.1275
 44
0.0
 45
0.000000001
 73
     0
 74
     0
 77
     1
 78
     4
 79
     1
140
3.6380208333
147
0.9095052083
173
     1
178
     0
271
     2
272
     2
276
     2
284
    12
340
96
  0
DIMSTYLE
105
19A
102
{ACAD_REACTORS
330
199
330
1A4
102
}
330
A
100
AcDbSymbolTableRecord
100
AcDbDimStyleTableRecord
  2
SLDDIMSTYLE1
 70
     0
 41
4.1275
 44
0.0
 45
0.000000001
 73
     0
 74
     0
 77
     1
 78
    12
 79
     3
140
3.6380208333
147
0.9095052083
173
     1
178
     0
271
     2
272
     2
276
     2
284
    12
340
96
  0
ENDTAB
  0
TABLE
  2
BLOCK_RECORD
  5
1
330
0
100
AcDbSymbolTable
 70
     6
  0
BLOCK_RECORD
  5
1F
330
1
100
AcDbSymbolTableRecord
100
AcDbBlockTableRecord
  2
*Model_Space
340
22
  0
BLOCK_RECORD
  5
1B
330
1
100
AcDbSymbolTableRecord
100
AcDbBlockTableRecord
  2
*Paper_Space
340
1E
  0
BLOCK_RECORD
  5
23
330
1
100
AcDbSymbolTableRecord
100
AcDbBlockTableRecord
  2
*Paper_Space0
340
26
  0
BLOCK_RECORD
  5
FC
330
1
100
AcDbSymbolTableRecord
100
AcDbBlockTableRecord
  2
SW_CENTERMARKSYMBOL_0
340
0
102
{BLKREFS
331
107
102
}
  0
BLOCK_RECORD
  5
190
330
1
100
AcDbSymbolTableRecord
100
AcDbBlockTableRecord
  2
_D
340
0
  0
BLOCK_RECORD
  5
19B
330
1
100
AcDbSymbolTableRecord
100
AcDbBlockTableRecord
  2
_D_1
340
0
  0
BLOCK_RECORD
  5
1A5
330
1
100
AcDbSymbolTableRecord
100
AcDbBlockTableRecord
  2
_D_2
340
0
  0
BLOCK_RECORD
  5
1B0
330
1
100
AcDbSymbolTableRecord
100
AcDbBlockTableRecord
  2
_D_3
340
0
  0
ENDTAB
  0
ENDSEC
  0
SECTION
  2
BLOCKS
  0
BLOCK
  5
20
330
1F
100
AcDbEntity
  8
0
100
AcDbBlockBegin
  2
*Model_Space
 70
     0
 10
0.0
 20
0.0
 30
0.0
  3
*Model_Space
  1
*Model_Space
  0
ENDBLK
  5
21
330
1F
100
AcDbEntity
  8
0
100
AcDbBlockEnd
  0
BLOCK
  5
1C
330
1B
100
AcDbEntity
 67
     1
  8
0
100
AcDbBlockBegin
  2
*Paper_Space
 70
     0
 10
0.0
 20
0.0
 30
0.0
  3
*Paper_Space
  1
*Paper_Space
  0
ENDBLK
  5
1D
330
1B
100
AcDbEntity
 67
     1
  8
0
100
AcDbBlockEnd
  0
BLOCK
  5
24
330
23
100
AcDbEntity
  8
0
100
AcDbBlockBegin
  2
*Paper_Space0
 70
     0
 10
0.0
 20
0.0
 30
0.0
  3
*Paper_Space0
  1
*Paper_Space0
  0
ENDBLK
  5
25
330
23
100
AcDbEntity
  8
0
100
AcDbBlockEnd
  0
BLOCK
  5
FD
330
FC
100
AcDbEntity
  8
0
100
AcDbBlockBegin
  2
SW_CENTERMARKSYMBOL_0
 70
     0
 10
0.0
 20
0.0
 30
0.0
  3
SW_CENTERMARKSYMBOL_0
  1
SW_CENTERMARKSYMBOL_0
  0
LINE
  5
FF
330
FC
100
AcDbEntity
  8
DIM
 62
     0
100
AcDbLine
 10
0.0
 20
0.0
 30
0.0
 11
0.0
 21
2.5
 31
0.0
  0
LINE
  5
100
330
FC
100
AcDbEntity
  8
DIM
 62
     0
100
AcDbLine
 10
0.0
 20
0.0
 30
0.0
 11
-2.5
 21
0.0
 31
0.0
  0
LINE
  5
101
330
FC
100
AcDbEntity
  8
DIM
 62
     0
100
AcDbLine
 10
0.0
 20
0.0
 30
0.0
 11
0.0
 21
-2.5
 31
0.0
  0
LINE
  5
102
330
FC
100
AcDbEntity
  8
DIM
 62
     0
100
AcDbLine
 10
0.0
 20
0.0
 30
0.0
 11
2.5
 21
0.0
 31
0.0
  0
LINE
  5
103
330
FC
100
AcDbEntity
  8
DIM
 62
     0
100
AcDbLine
 10
0.0
 20
5.0
 30
0.0
 11
0.0
 21
33.3671572867
 31
0.0
  0
LINE
  5
104
330
FC
100
AcDbEntity
  8
DIM
 62
     0
100
AcDbLine
 10
-5.0
 20
0.0
 30
0.0
 11
-33.3671572867
 21
0.0
 31
0.0
  0
LINE
  5
105
330
FC
100
AcDbEntity
  8
DIM
 62
     0
100
AcDbLine
 10
0.0
 20
-5.0
 30
0.0
 11
0.0
 21
-33.3671572867
 31
0.0
  0
LINE
  5
106
330
FC
100
AcDbEntity
  8
DIM
 62
     0
100
AcDbLine
 10
5.0
 20
0.0
 30
0.0
 11
33.3671572867
 21
0.0
 31
0.0
  0
ENDBLK
  5
FE
330
FC
100
AcDbEntity
  8
0
100
AcDbBlockEnd
  0
BLOCK
  5
191
330
190
100
AcDbEntity
  8
0
100
AcDbBlockBegin
  2
_D
 70
     0
 10
0.0
 20
0.0
 30
0.0
  3
_D
  1
_D
  0
SOLID
  5
193
330
190
100
AcDbEntity
  8
DIM
100
AcDbTrace
 10
142.7632750619
 20
85.5178129193
 30
0.0
 11
146.8907750619
 21
84.8828129193
 31
0.0
 12
146.8907750619
 22
86.1528129193
 32
0.0
 13
146.8907750619
 23
86.1528129193
 33
0.0
  0
SOLID
  5
194
330
190
100
AcDbEntity
  8
DIM
100
AcDbTrace
 10
311.1632750619
 20
85.5178129193
 30
0.0
 11
307.0357750619
 21
86.1528129193
 31
0.0
 12
307.0357750619
 22
84.8828129193
 32
0.0
 13
307.0357750619
 23
84.8828129193
 33
0.0
  0
LINE
  5
195
330
190
100
AcDbEntity
  8
DIM
100
AcDbLine
 10
142.7632750619
 20
136.0178129198
 30
0.0
 11
142.7632750619
 21
84.2678129193
 31
0.0
  0
LINE
  5
196
330
190
100
AcDbEntity
  8
DIM
100
AcDbLine
 10
311.1632750619
 20
116.0178129198
 30
0.0
 11
311.1632750619
 21
84.2678129193
 31
0.0
  0
LINE
  5
197
330
190
100
AcDbEntity
  8
DIM
100
AcDbLine
 10
142.7632750619
 20
85.5178129193
 30
0.0
 11
311.1632750619
 21
85.5178129193
 31
0.0
  0
MTEXT
  5
198
330
190
100
AcDbEntity
  8
DIM
100
AcDbMText
 10
220.1689340369
 20
90.2074685032
 30
0.0
 40
3.6380208333
 41
0.0
 71
     1
 72
     1
  1
168.40
  7
SLDTEXTSTYLE0
 73
     1
 44
1.0
  0
ENDBLK
  5
192
330
190
100
AcDbEntity
  8
0
100
AcDbBlockEnd
  0
BLOCK
  5
19C
330
19B
100
AcDbEntity
  8
0
100
AcDbBlockBegin
  2
_D_1
 70
     0
 10
0.0
 20
0.0
 30
0.0
  3
_D_1
  1
_D_1
  0
SOLID
  5
19E
330
19B
100
AcDbEntity
  8
DIM
100
AcDbTrace
 10
211.1632750619
 20
97.9174310822
 30
0.0
 11
215.2907750619
 21
97.2824310822
 31
0.0
 12
215.2907750619
 22
98.5524310822
 32
0.0
 13
215.2907750619
 23
98.5524310822
 33
0.0
  0
SOLID
  5
19F
330
19B
100
AcDbEntity
  8
DIM
100
AcDbTrace
 10
311.1632750619
 20
97.9174310822
 30
0.0
 11
307.0357750619
 21
98.5524310822
 31
0.0
 12
307.0357750619
 22
97.2824310822
 32
0.0
 13
307.0357750619
 23
97.2824310822
 33
0.0
  0
LINE
  5
1A0
330
19B
100
AcDbEntity
  8
DIM
100
AcDbLine
 10
211.1632750619
 20
113.7928129198
 30
0.0
 11
211.1632750619
 21
96.6674310822
 31
0.0
  0
LINE
  5
1A1
330
19B
100
AcDbEntity
  8
DIM
100
AcDbLine
 10
311.1632750619
 20
116.0178129198
 30
0.0
 11
311.1632750619
 21
96.6674310822
 31
0.0
  0
LINE
  5
1A2
330
19B
100
AcDbEntity
  8
DIM
100
AcDbLine
 10
211.1632750619
 20
97.9174310822
 30
0.0
 11
311.1632750619
 21
97.9174310822
 31
0.0
  0
MTEXT
  5
1A3
330
19B
100
AcDbEntity
  8
DIM
100
AcDbMText
 10
257.4747260211
 20
102.6070866661
 30
0.0
 40
3.6380208333
 41
0.0
 71
     1
 72
     1
  1
100
  7
SLDTEXTSTYLE0
 73
     1
 44
1.0
  0
ENDBLK
  5
19D
330
19B
100
AcDbEntity
  8
0
100
AcDbBlockEnd
  0
BLOCK
  5
1A6
330
1A5
100
AcDbEntity
  8
0
100
AcDbBlockBegin
  2
_D_2
 70
     0
 10
0.0
 20
0.0
 30
0.0
  3
_D_2
  1
_D_2
  0
SOLID
  5
1A8
330
1A5
100
AcDbEntity
  8
DIM
100
AcDbTrace
 10
318.6570378711
 20
162.2678129198
 30
0.0
 11
318.0220378711
 21
158.1403129198
 31
0.0
 12
319.2920378711
 22
158.1403129198
 32
0.0
 13
319.2920378711
 23
158.1403129198
 33
0.0
  0
SOLID
  5
1A9
330
1A5
100
AcDbEntity
  8
DIM
100
AcDbTrace
 10
318.6570378711
 20
112.2678129198
 30
0.0
 11
319.2920378711
 21
116.3953129198
 31
0.0
 12
318.0220378711
 22
116.3953129198
 32
0.0
 13
318.0220378711
 23
116.3953129198
 33
0.0
  0
LINE
  5
1AA
330
1A5
100
AcDbEntity
  8
DIM
100
AcDbLine
 10
309.5265237159
 20
162.2678129198
 30
0.0
 11
319.9070378711
 21
162.2678129198
 31
0.0
  0
LINE
  5
1AB
330
1A5
100
AcDbEntity
  8
DIM
100
AcDbLine
 10
309.5265237159
 20
112.2678129198
 30
0.0
 11
319.9070378711
 21
112.2678129198
 31
0.0
  0
LINE
  5
1AC
330
1A5
100
AcDbEntity
  8
DIM
100
AcDbLine
 10
318.6570378711
 20
162.2678129198
 30
0.0
 11
318.6570378711
 21
112.2678129198
 31
0.0
  0
MTEXT
  5
1AD
330
1A5
100
AcDbEntity
  8
DIM
100
AcDbMText
 10
313.9673822872
 20
131.9958827887
 30
0.0
 40
3.6380208333
 41
0.0
 71
     1
 72
     1
  1
%%c
  7
SLDTEXTSTYLE0
 11
-7.044195017643634E-15
 21
1.0
 31
0.0
 73
     1
 44
1.0
  0
MTEXT
  5
1AE
330
1A5
100
AcDbEntity
  8
DIM
100
AcDbMText
 10
313.9673822872
 20
137.6216776632
 30
0.0
 40
3.6380208333
 41
0.0
 71
     1
 72
     1
  1
50
  7
SLDTEXTSTYLE0
 11
-7.044195017643634E-15
 21
1.0
 31
0.0
 73
     1
 44
1.0
  0
ENDBLK
  5
1A7
330
1A5
100
AcDbEntity
  8
0
100
AcDbBlockEnd
  0
BLOCK
  5
1B1
330
1B0
100
AcDbEntity
  8
0
100
AcDbBlockBegin
  2
_D_3
 70
     0
 10
0.0
 20
0.0
 30
0.0
  3
_D_3
  1
_D_3
  0
SOLID
  5
1B3
330
1B0
100
AcDbEntity
  8
DIM
100
AcDbTrace
 10
137.2550368109
 20
169.0178129198
 30
0.0
 11
136.6200368109
 21
164.8903129198
 31
0.0
 12
137.8900368109
 22
164.8903129198
 32
0.0
 13
137.8900368109
 23
164.8903129198
 33
0.0
  0
SOLID
  5
1B4
330
1B0
100
AcDbEntity
  8
DIM
100
AcDbTrace
 10
137.2550368109
 20
105.5178129198
 30
0.0
 11
137.8900368109
 21
109.6453129198
 31
0.0
 12
136.6200368109
 22
109.6453129198
 32
0.0
 13
136.6200368109
 23
109.6453129198
 33
0.0
  0
LINE
  5
1B5
330
1B0
100
AcDbEntity
  8
DIM
100
AcDbLine
 10
214.278960487
 20
169.0178129198
 30
0.0
 11
136.0050368109
 21
169.0178129198
 31
0.0
  0
LINE
  5
1B6
330
1B0
100
AcDbEntity
  8
DIM
100
AcDbLine
 10
214.278960487
 20
105.5178129198
 30
0.0
 11
136.0050368109
 21
105.5178129198
 31
0.0
  0
LINE
  5
1B7
330
1B0
100
AcDbEntity
  8
DIM
100
AcDbLine
 10
137.2550368109
 20
169.0178129198
 30
0.0
 11
137.2550368109
 21
105.5178129198
 31
0.0
  0
MTEXT
  5
1B8
330
1B0
100
AcDbEntity
  8
DIM
100
AcDbMText
 10
132.5653812269
 20
128.8900908046
 30
0.0
 40
3.6380208333
 41
0.0
 71
     1
 72
     1
  1
%%c
  7
SLDTEXTSTYLE0
 11
-7.044195017643634E-15
 21
1.0
 31
0.0
 73
     1
 44
1.0
  0
MTEXT
  5
1B9
330
1B0
100
AcDbEntity
  8
DIM
100
AcDbMText
 10
132.5653812269
 20
134.5158856791
 30
0.0
 40
3.6380208333
 41
0.0
 71
     1
 72
     1
  1
63.50
  7
SLDTEXTSTYLE0
 11
-7.044195017643634E-15
 21
1.0
 31
0.0
 73
     1
 44
1.0
  0
ENDBLK
  5
1B2
330
1B0
100
AcDbEntity
  8
0
100
AcDbBlockEnd
  0
ENDSEC
  0
SECTION
  2
ENTITIES
  0
LINE
  5
76
330
1F
100
AcDbEntity
  8
DIM
100
AcDbLine
 10
130.8805308612
 20
12.2387393211
 30
0.0
 11
130.8805308612
 21
5.9887393211
 31
0.0
  0
LINE
  5
77
330
1F
100
AcDbEntity
  8
DIM
100
AcDbLine
 10
318.0870021191
 20
12.2387393211
 30
0.0
 11
318.0870021191
 21
5.9887393211
 31
0.0
  0
LINE
  5
78
330
1F
100
AcDbEntity
  8
DIM
100
AcDbLine
 10
296.8146374145
 20
12.2387393211
 30
0.0
 11
296.8146374145
 21
5.9887393211
 31
0.0
  0
LINE
  5
79
330
1F
100
AcDbEntity
  8
DIM
100
AcDbLine
 10
348.6305308612
 20
5.9887393211
 30
0.0
 11
348.6305308612
 21
12.2387393211
 31
0.0
  0
LINE
  5
7A
330
1F
100
AcDbEntity
  8
DIM
100
AcDbLine
 10
140.6305308612
 20
12.2387393211
 30
0.0
 11
140.6305308612
 21
5.9887393211
 31
0.0
  0
LINE
  5
7B
330
1F
100
AcDbEntity
  8
DIM
100
AcDbLine
 10
164.6192214035
 20
12.2387393211
 30
0.0
 11
164.6192214035
 21
5.9887393211
 31
0.0
  0
LINE
  5
7C
330
1F
100
AcDbEntity
  8
DIM
100
AcDbLine
 10
364.8805308612
 20
5.9887393211
 30
0.0
 11
364.8805308612
 21
96.3012393211
 31
0.0
  0
LINE
  5
7D
330
1F
100
AcDbEntity
  8
DIM
100
AcDbLine
 10
357.2737558684
 20
75.0512393211
 30
0.0
 11
364.8805308612
 21
75.0512393211
 31
0.0
  0
LINE
  5
7E
330
1F
100
AcDbEntity
  8
DIM
100
AcDbLine
 10
186.3791885657
 20
11.3012393211
 30
0.0
 11
186.3791885657
 21
5.9887393211
 31
0.0
  0
LINE
  5
7F
330
1F
100
AcDbEntity
  8
DIM
100
AcDbLine
 10
245.9549364505
 20
12.2387393211
 30
0.0
 11
245.9549364505
 21
5.9887393211
 31
0.0
  0
LINE
  5
80
330
1F
100
AcDbEntity
  8
DIM
100
AcDbLine
 10
186.3791885657
 20
12.2387393211
 30
0.0
 11
186.3791885657
 21
11.3012393211
 31
0.0
  0
LINE
  5
81
330
1F
100
AcDbEntity
  8
DIM
100
AcDbLine
 10
358.6305308612
 20
21.9261493211
 30
0.0
 11
364.8805308612
 21
21.9261493211
 31
0.0
  0
LINE
  5
82
330
1F
100
AcDbEntity
  8
DIM
100
AcDbLine
 10
358.6305308612
 20
249.7387393211
 30
0.0
 11
12.3805308612
 21
249.7387393211
 31
0.0
  0
LINE
  5
83
330
1F
100
AcDbEntity
  8
DIM
100
AcDbLine
 10
364.8805308612
 20
255.9887393211
 30
0.0
 11
6.1305308612
 21
255.9887393211
 31
0.0
  0
LINE
  5
84
330
1F
100
AcDbEntity
  8
DIM
100
AcDbLine
 10
12.3805308612
 20
249.7387393211
 30
0.0
 11
12.3805308612
 21
12.2387393211
 31
0.0
  0
LINE
  5
85
330
1F
100
AcDbEntity
  8
DIM
100
AcDbLine
 10
6.1305308612
 20
255.9887393211
 30
0.0
 11
6.1305308612
 21
5.9887393211
 31
0.0
  0
LINE
  5
86
330
1F
100
AcDbEntity
  8
DIM
100
AcDbLine
 10
12.3805308612
 20
68.4887393211
 30
0.0
 11
6.1305308612
 21
68.4887393211
 31
0.0
  0
LINE
  5
87
330
1F
100
AcDbEntity
  8
DIM
100
AcDbLine
 10
6.1305308612
 20
130.9887393211
 30
0.0
 11
12.3805308612
 21
130.9887393211
 31
0.0
  0
LINE
  5
88
330
1F
100
AcDbEntity
  8
DIM
100
AcDbLine
 10
6.1305308612
 20
5.9887393211
 30
0.0
 11
364.8805308612
 21
5.9887393211
 31
0.0
  0
LINE
  5
89
330
1F
100
AcDbEntity
  8
DIM
100
AcDbLine
 10
12.3805308612
 20
12.2387393211
 30
0.0
 11
364.8805308612
 21
12.2387393211
 31
0.0
  0
LINE
  5
8A
330
1F
100
AcDbEntity
  8
DIM
100
AcDbLine
 10
60.5055308612
 20
5.9887393211
 30
0.0
 11
60.5055308612
 21
12.2387393211
 31
0.0
  0
LINE
  5
8B
330
1F
100
AcDbEntity
  8
DIM
100
AcDbLine
 10
123.0055308612
 20
12.2387393211
 30
0.0
 11
123.0055308612
 21
5.9887393211
 31
0.0
  0
LINE
  5
8C
330
1F
100
AcDbEntity
  8
DIM
100
AcDbLine
 10
12.3805308612
 20
193.4887393211
 30
0.0
 11
6.1305308612
 21
193.4887393211
 31
0.0
  0
LINE
  5
8D
330
1F
100
AcDbEntity
  8
DIM
100
AcDbLine
 10
60.5055308612
 20
249.7387393211
 30
0.0
 11
60.5055308612
 21
255.9887393211
 31
0.0
  0
LINE
  5
8E
330
1F
100
AcDbEntity
  8
DIM
100
AcDbLine
 10
123.0055308612
 20
255.9887393211
 30
0.0
 11
123.0055308612
 21
249.7387393211
 31
0.0
  0
LINE
  5
8F
330
1F
100
AcDbEntity
  8
DIM
100
AcDbLine
 10
185.5055308612
 20
255.9887393211
 30
0.0
 11
185.5055308612
 21
249.7387393211
 31
0.0
  0
LINE
  5
90
330
1F
100
AcDbEntity
  8
DIM
100
AcDbLine
 10
358.6305308612
 20
12.2387393211
 30
0.0
 11
358.6305308612
 21
249.7387393211
 31
0.0
  0
LINE
  5
91
330
1F
100
AcDbEntity
  8
DIM
100
AcDbLine
 10
364.8805308612
 20
96.3012393211
 30
0.0
 11
364.8805308612
 21
255.9887393211
 31
0.0
  0
LINE
  5
92
330
1F
100
AcDbEntity
  8
DIM
100
AcDbLine
 10
364.8805308612
 20
130.9887393211
 30
0.0
 11
358.6305308612
 21
130.9887393211
 31
0.0
  0
LINE
  5
93
330
1F
100
AcDbEntity
  8
DIM
100
AcDbLine
 10
248.0055308612
 20
255.9887393211
 30
0.0
 11
248.0055308612
 21
249.7387393211
 31
0.0
  0
LINE
  5
94
330
1F
100
AcDbEntity
  8
DIM
100
AcDbLine
 10
310.5055308612
 20
249.7387393211
 30
0.0
 11
310.5055308612
 21
255.9887393211
 31
0.0
  0
LINE
  5
95
330
1F
100
AcDbEntity
  8
DIM
100
AcDbLine
 10
358.6305308612
 20
193.4887393211
 30
0.0
 11
364.8805308612
 21
193.4887393211
 31
0.0
  0
MTEXT
  5
97
330
1F
100
AcDbEntity
  8
DIM
100
AcDbMText
 10
17.989628311
 20
242.6535727172
 30
0.0
 40
5.2916666667
 41
0.0
 71
     1
 72
     1
  1
SK 40 ER 32 100 AD/6.3G15000 SL
  7
SLDTEXTSTYLE0
 73
     1
 44
1.0
  0
MTEXT
  5
99
330
1F
100
AcDbEntity
  8
DIM
 62
     7
100
AcDbMText
 10
247.1659733083
 20
9.7524394079
 30
0.0
 40
1.87325
 41
0.0
 71
     1
 72
     1
  1
WEIGHT:
  7
SLDTEXTSTYLE1
 73
     1
 44
1.0
  0
MTEXT
  5
9A
330
1F
100
AcDbEntity
  8
DIM
 62
     7
100
AcDbMText
 10
360.7463459435
 20
102.4257668853
 30
0.0
 40
2.3151041667
 41
0.0
 71
     1
 72
     1
  1
C
  7
SLDTEXTSTYLE1
 73
     1
 44
1.0
  0
MTEXT
  5
9B
330
1F
100
AcDbEntity
  8
DIM
 62
     7
100
AcDbMText
 10
353.8044757743
 20
18.5674774795
 30
0.0
 40
3.6380208333
 41
0.0
 71
     1
 72
     1
  1
A4
  7
SLDTEXTSTYLE1
 73
     1
 44
1.0
  0
MTEXT
  5
9C
330
1F
100
AcDbEntity
  8
DIM
 62
     7
100
AcDbMText
 10
340.7138691946
 20
254.3237598255
 30
0.0
 40
2.3151041667
 41
0.0
 71
     1
 72
     1
  1
6
  7
SLDTEXTSTYLE1
 73
     1
 44
1.0
  0
MTEXT
  5
9D
330
1F
100
AcDbEntity
  8
DIM
 62
     7
100
AcDbMText
 10
278.2138691946
 20
254.3237598255
 30
0.0
 40
2.3151041667
 41
0.0
 71
     1
 72
     1
  1
5
  7
SLDTEXTSTYLE1
 73
     1
 44
1.0
  0
MTEXT
  5
9E
330
1F
100
AcDbEntity
  8
DIM
 62
     7
100
AcDbMText
 10
360.7138741946
 20
226.1987598255
 30
0.0
 40
2.3151041667
 41
0.0
 71
     1
 72
     1
  1
A
  7
SLDTEXTSTYLE1
 73
     1
 44
1.0
  0
MTEXT
  5
9F
330
1F
100
AcDbEntity
  8
DIM
 62
     7
100
AcDbMText
 10
360.7138741946
 20
163.6987598255
 30
0.0
 40
2.3151041667
 41
0.0
 71
     1
 72
     1
  1
B
  7
SLDTEXTSTYLE1
 73
     1
 44
1.0
  0
MTEXT
  5
A0
330
1F
100
AcDbEntity
  8
DIM
 62
     7
100
AcDbMText
 10
215.7138691946
 20
254.3237598255
 30
0.0
 40
2.3151041667
 41
0.0
 71
     1
 72
     1
  1
4
  7
SLDTEXTSTYLE1
 73
     1
 44
1.0
  0
MTEXT
  5
A1
330
1F
100
AcDbEntity
  8
DIM
 62
     7
100
AcDbMText
 10
28.7347025279
 20
254.3237598255
 30
0.0
 40
2.3151041667
 41
0.0
 71
     1
 72
     1
  1
1
  7
SLDTEXTSTYLE1
 73
     1
 44
1.0
  0
MTEXT
  5
A2
330
1F
100
AcDbEntity
  8
DIM
 62
     7
100
AcDbMText
 10
90.7138691946
 20
254.3237598255
 30
0.0
 40
2.3151041667
 41
0.0
 71
     1
 72
     1
  1
2
  7
SLDTEXTSTYLE1
 73
     1
 44
1.0
  0
MTEXT
  5
A3
330
1F
100
AcDbEntity
  8
DIM
 62
     7
100
AcDbMText
 10
153.2138691946
 20
254.3237598255
 30
0.0
 40
2.3151041667
 41
0.0
 71
     1
 72
     1
  1
3
  7
SLDTEXTSTYLE1
 73
     1
 44
1.0
  0
MTEXT
  5
A4
330
1F
100
AcDbEntity
  8
DIM
 62
     7
100
AcDbMText
 10
8.2138641946
 20
226.1987598255
 30
0.0
 40
2.3151041667
 41
0.0
 71
     1
 72
     1
  1
A
  7
SLDTEXTSTYLE1
 73
     1
 44
1.0
  0
MTEXT
  5
A5
330
1F
100
AcDbEntity
  8
DIM
 62
     7
100
AcDbMText
 10
90.7138691946
 20
10.5737598255
 30
0.0
 40
2.3151041667
 41
0.0
 71
     1
 72
     1
  1
2
  7
SLDTEXTSTYLE1
 73
     1
 44
1.0
  0
MTEXT
  5
A6
330
1F
100
AcDbEntity
  8
DIM
 62
     7
100
AcDbMText
 10
28.7347025279
 20
10.5737598255
 30
0.0
 40
2.3151041667
 41
0.0
 71
     1
 72
     1
  1
1
  7
SLDTEXTSTYLE1
 73
     1
 44
1.0
  0
MTEXT
  5
A7
330
1F
100
AcDbEntity
  8
DIM
 62
     7
100
AcDbMText
 10
8.2138641946
 20
38.6987598255
 30
0.0
 40
2.3151041667
 41
0.0
 71
     1
 72
     1
  1
D
  7
SLDTEXTSTYLE1
 73
     1
 44
1.0
  0
MTEXT
  5
A8
330
1F
100
AcDbEntity
  8
DIM
 62
     7
100
AcDbMText
 10
8.2138641946
 20
101.1987598255
 30
0.0
 40
2.3151041667
 41
0.0
 71
     1
 72
     1
  1
C
  7
SLDTEXTSTYLE1
 73
     1
 44
1.0
  0
MTEXT
  5
A9
330
1F
100
AcDbEntity
  8
DIM
 62
     7
100
AcDbMText
 10
8.2138641946
 20
163.6987598255
 30
0.0
 40
2.3151041667
 41
0.0
 71
     1
 72
     1
  1
B
  7
SLDTEXTSTYLE1
 73
     1
 44
1.0
  0
MTEXT
  5
AA
330
1F
100
AcDbEntity
  8
DIM
 62
     7
100
AcDbMText
 10
360.7463459435
 20
102.4257668853
 30
0.0
 40
2.3151041667
 41
0.0
 71
     1
 72
     1
  1
C
  7
SLDTEXTSTYLE1
 73
     1
 44
1.0
  0
MTEXT
  5
AC
330
1F
100
AcDbEntity
  8
DIM
 62
     7
100
AcDbMText
 10
320.6567072656
 20
9.6138484142
 30
0.0
 40
1.875
 41
0.0
 71
     1
 72
     1
  1
SHEET 1 OF 1
  7
SLDTEXTSTYLE2
 73
     1
 44
1.0
  0
MTEXT
  5
AD
330
1F
100
AcDbEntity
  8
DIM
 62
     7
100
AcDbMText
 10
187.9647254793
 20
9.8167093546
 30
0.0
 40
1.875
 41
0.0
 71
     1
 72
     1
  1
MATERIAL:
  7
SLDTEXTSTYLE1
 73
     1
 44
1.0
  0
MTEXT
  5
AE
330
1F
100
AcDbEntity
  8
DIM
 62
     7
100
AcDbMText
 10
340.7138691946
 20
254.3237598255
 30
0.0
 40
2.3151041667
 41
0.0
 71
     1
 72
     1
  1
6
  7
SLDTEXTSTYLE1
 73
     1
 44
1.0
  0
MTEXT
  5
AF
330
1F
100
AcDbEntity
  8
DIM
 62
     7
100
AcDbMText
 10
278.2138691946
 20
254.3237598255
 30
0.0
 40
2.3151041667
 41
0.0
 71
     1
 72
     1
  1
5
  7
SLDTEXTSTYLE1
 73
     1
 44
1.0
  0
MTEXT
  5
B0
330
1F
100
AcDbEntity
  8
DIM
 62
     7
100
AcDbMText
 10
360.7138741946
 20
226.1987598255
 30
0.0
 40
2.3151041667
 41
0.0
 71
     1
 72
     1
  1
A
  7
SLDTEXTSTYLE1
 73
     1
 44
1.0
  0
MTEXT
  5
B1
330
1F
100
AcDbEntity
  8
DIM
 62
     7
100
AcDbMText
 10
360.7138741946
 20
163.6987598255
 30
0.0
 40
2.3151041667
 41
0.0
 71
     1
 72
     1
  1
B
  7
SLDTEXTSTYLE1
 73
     1
 44
1.0
  0
MTEXT
  5
B2
330
1F
100
AcDbEntity
  8
DIM
 62
     7
100
AcDbMText
 10
215.7138691946
 20
254.3237598255
 30
0.0
 40
2.3151041667
 41
0.0
 71
     1
 72
     1
  1
4
  7
SLDTEXTSTYLE1
 73
     1
 44
1.0
  0
MTEXT
  5
B3
330
1F
100
AcDbEntity
  8
DIM
 62
     7
100
AcDbMText
 10
28.7347025279
 20
254.3237598255
 30
0.0
 40
2.3151041667
 41
0.0
 71
     1
 72
     1
  1
1
  7
SLDTEXTSTYLE1
 73
     1
 44
1.0
  0
MTEXT
  5
B4
330
1F
100
AcDbEntity
  8
DIM
 62
     7
100
AcDbMText
 10
90.7138691946
 20
254.3237598255
 30
0.0
 40
2.3151041667
 41
0.0
 71
     1
 72
     1
  1
2
  7
SLDTEXTSTYLE1
 73
     1
 44
1.0
  0
MTEXT
  5
B5
330
1F
100
AcDbEntity
  8
DIM
 62
     7
100
AcDbMText
 10
153.2138691946
 20
254.3237598255
 30
0.0
 40
2.3151041667
 41
0.0
 71
     1
 72
     1
  1
3
  7
SLDTEXTSTYLE1
 73
     1
 44
1.0
  0
MTEXT
  5
B6
330
1F
100
AcDbEntity
  8
DIM
 62
     7
100
AcDbMText
 10
8.2138641946
 20
226.1987598255
 30
0.0
 40
2.3151041667
 41
0.0
 71
     1
 72
     1
  1
A
  7
SLDTEXTSTYLE1
 73
     1
 44
1.0
  0
MTEXT
  5
B7
330
1F
100
AcDbEntity
  8
DIM
 62
     7
100
AcDbMText
 10
90.7138691946
 20
10.5737598255
 30
0.0
 40
2.3151041667
 41
0.0
 71
     1
 72
     1
  1
2
  7
SLDTEXTSTYLE1
 73
     1
 44
1.0
  0
MTEXT
  5
B8
330
1F
100
AcDbEntity
  8
DIM
 62
     7
100
AcDbMText
 10
28.7347025279
 20
10.5737598255
 30
0.0
 40
2.3151041667
 41
0.0
 71
     1
 72
     1
  1
1
  7
SLDTEXTSTYLE1
 73
     1
 44
1.0
  0
MTEXT
  5
B9
330
1F
100
AcDbEntity
  8
DIM
 62
     7
100
AcDbMText
 10
8.2138641946
 20
38.6987598255
 30
0.0
 40
2.3151041667
 41
0.0
 71
     1
 72
     1
  1
D
  7
SLDTEXTSTYLE1
 73
     1
 44
1.0
  0
MTEXT
  5
BA
330
1F
100
AcDbEntity
  8
DIM
 62
     7
100
AcDbMText
 10
8.2138641946
 20
101.1987598255
 30
0.0
 40
2.3151041667
 41
0.0
 71
     1
 72
     1
  1
C
  7
SLDTEXTSTYLE1
 73
     1
 44
1.0
  0
MTEXT
  5
BB
330
1F
100
AcDbEntity
  8
DIM
 62
     7
100
AcDbMText
 10
8.2138641946
 20
163.6987598255
 30
0.0
 40
2.3151041667
 41
0.0
 71
     1
 72
     1
  1
B
  7
SLDTEXTSTYLE1
 73
     1
 44
1.0
  0
SPLINE
  5
BC
330
1F
100
AcDbEntity
  8
0
  6
Continuous
 62
     7
370
    15
100
AcDbSpline
210
0.0
220
0.0
230
1.0
 70
     8
 71
     3
 72
    38
 73
    34
 74
     0
 42
0.000000001
 43
0.00000001
 40
0.0
 40
0.0
 40
0.0
 40
0.0
 40
0.0624999999999999
 40
0.0624999999999999
 40
0.1249999999999999
 40
0.1249999999999999
 40
0.1874999999999999
 40
0.1874999999999999
 40
0.2499999999999999
 40
0.2499999999999999
 40
0.3124999999999999
 40
0.3124999999999999
 40
0.3749999999999999
 40
0.3749999999999999
 40
0.4374999999999999
 40
0.4374999999999999
 40
0.4999999999999999
 40
0.4999999999999999
 40
0.5624999999999999
 40
0.5624999999999999
 40
0.6249999999999999
 40
0.6249999999999999
 40
0.6874999999999999
 40
0.6874999999999999
 40
0.7499999999999999
 40
0.7499999999999999
 40
0.8125
 40
0.8125
 40
0.875
 40
0.875
 40
0.9375
 40
0.9375
 40
1.0
 40
1.0
 40
1.0
 40
1.0
 10
96.61004945441621
 20
137.2678129198163
 30
0.0
 10
96.61004945441621
 20
136.7934311452538
 30
0.0
 10
96.58062582175612
 20
136.2891056233111
 30
0.0
 10
96.43796578461617
 20
135.2239106792861
 30
0.0
 10
96.32466137885196
 20
134.6628877193387
 30
0.0
 10
95.98462452286049
 20
133.4970470701739
 30
0.0
 10
95.75770739971644
 20
132.8920737484195
 30
0.0
 10
95.15977435628456
 20
131.6655444285053
 30
0.0
 10
94.78842344017623
 20
131.0439240375563
 30
0.0
 10
93.87761043305623
 20
129.8295066946763
 30
0.0
 10
93.33771430107569
 20
129.2368828815483
 30
0.0
 10
92.08432803994852
 20
128.1430185081529
 30
0.0
 10
91.37051096190065
 20
127.642294836652
 30
0.0
 10
89.79470991152002
 20
126.8018676097454
 30
0.0
 10
88.93281200682782
 20
126.462911871367
 30
0.0
 10
87.12196484474308
 20
126.0030141793887
 30
0.0
 10
86.17365041449955
 20
125.8826503303163
 30
0.0
 10
84.2761233163329
 20
125.8826503303163
 30
0.0
 10
83.32780888608936
 20
126.0030141793887
 30
0.0
 10
81.51696172400462
 20
126.462911871367
 30
0.0
 10
80.65506381931242
 20
126.8018676097454
 30
0.0
 10
79.0792627689318
 20
127.642294836652
 30
0.0
 10
78.36544569088392
 20
128.1430185081529
 30
0.0
 10
77.11205942975674
 20
129.2368828815483
 30
0.0
 10
76.57216329777621
 20
129.8295066946763
 30
0.0
 10
75.66135029065622
 20
131.0439240375563
 30
0.0
 10
75.2899993745479
 20
131.6655444285053
 30
0.0
 10
74.69206633111601
 20
132.8920737484195
 30
0.0
 10
74.46514920797195
 20
133.4970470701739
 30
0.0
 10
74.12511235198049
 20
134.6628877193387
 30
0.0
 10
74.01180794621628
 20
135.2239106792861
 30
0.0
 10
73.86914790907633
 20
136.2891056233111
 30
0.0
 10
73.83972427641622
 20
136.7934311452538
 30
0.0
 10
73.83972427641622
 20
137.2678129198163
 30
0.0
  0
SPLINE
  5
BD
330
1F
100
AcDbEntity
  8
0
  6
Continuous
 62
     7
370
    15
100
AcDbSpline
210
0.0
220
0.0
230
1.0
 70
     8
 71
     3
 72
    38
 73
    34
 74
     0
 42
0.000000001
 43
0.00000001
 40
0.0
 40
0.0
 40
0.0
 40
0.0
 40
0.0625
 40
0.0625
 40
0.125
 40
0.125
 40
0.1874999999999999
 40
0.1874999999999999
 40
0.2499999999999999
 40
0.2499999999999999
 40
0.3124999999999999
 40
0.3124999999999999
 40
0.3749999999999999
 40
0.3749999999999999
 40
0.4374999999999999
 40
0.4374999999999999
 40
0.5
 40
0.5
 40
0.5625
 40
0.5625
 40
0.625
 40
0.625
 40
0.6875000000000001
 40
0.6875000000000001
 40
0.7500000000000001
 40
0.7500000000000001
 40
0.8125000000000001
 40
0.8125000000000001
 40
0.875
 40
0.875
 40
0.9375
 40
0.9375
 40
1.0
 40
1.0
 40
1.0
 40
1.0
 10
73.83972427641622
 20
137.2678129198163
 30
0.0
 10
73.83972427641622
 20
137.7421946943788
 30
0.0
 10
73.86914790907633
 20
138.2465202163215
 30
0.0
 10
74.01180794621628
 20
139.3117151603466
 30
0.0
 10
74.12511235198049
 20
139.8727381202939
 30
0.0
 10
74.46514920797196
 20
141.0385787694587
 30
0.0
 10
74.69206633111601
 20
141.6435520912132
 30
0.0
 10
75.28999937454789
 20
142.8700814111273
 30
0.0
 10
75.66135029065622
 20
143.4917018020763
 30
0.0
 10
76.57216329777621
 20
144.7061191449563
 30
0.0
 10
77.11205942975674
 20
145.2987429580844
 30
0.0
 10
78.36544569088392
 20
146.3926073314798
 30
0.0
 10
79.0792627689318
 20
146.8933310029807
 30
0.0
 10
80.65506381931242
 20
147.7337582298873
 30
0.0
 10
81.51696172400462
 20
148.0727139682657
 30
0.0
 10
83.32780888608936
 20
148.5326116602439
 30
0.0
 10
84.27612331633287
 20
148.6529755093163
 30
0.0
 10
86.17365041449955
 20
148.6529755093163
 30
0.0
 10
87.12196484474308
 20
148.5326116602439
 30
0.0
 10
88.93281200682782
 20
148.0727139682657
 30
0.0
 10
89.79470991152002
 20
147.7337582298873
 30
0.0
 10
91.37051096190065
 20
146.8933310029807
 30
0.0
 10
92.08432803994852
 20
146.3926073314798
 30
0.0
 10
93.33771430107569
 20
145.2987429580844
 30
0.0
 10
93.87761043305623
 20
144.7061191449563
 30
0.0
 10
94.78842344017623
 20
143.4917018020763
 30
0.0
 10
95.15977435628456
 20
142.8700814111273
 30
0.0
 10
95.75770739971644
 20
141.6435520912132
 30
0.0
 10
95.98462452286049
 20
141.0385787694587
 30
0.0
 10
96.32466137885196
 20
139.8727381202939
 30
0.0
 10
96.43796578461615
 20
139.3117151603466
 30
0.0
 10
96.5806258217561
 20
138.2465202163215
 30
0.0
 10
96.61004945441621
 20
137.7421946943788
 30
0.0
 10
96.61004945441621
 20
137.2678129198163
 30
0.0
  0
SPLINE
  5
BE
330
1F
100
AcDbEntity
  8
0
  6
Continuous
 62
     7
370
    15
100
AcDbSpline
210
0.0
220
0.0
230
1.0
 70
    24
 71
     3
 72
    14
 73
    10
 74
     0
 42
0.000000001
 43
0.00000001
 40
0.0
 40
0.0
 40
0.0
 40
0.0
 40
0.25
 40
0.25
 40
0.5
 40
0.5
 40
0.75
 40
0.75
 40
1.0
 40
1.0
 40
1.0
 40
1.0
 10
72.85019148941622
 20
137.2678129198163
 30
0.0
 10
72.86592347435776
 20
137.2678129198163
 30
0.0
 10
72.9007870716839
 20
137.2678129198163
 30
0.0
 10
73.01363303126666
 20
137.2678129198163
 30
0.0
 10
73.09172762702276
 20
137.2678129198163
 30
0.0
 10
73.27952233755995
 20
137.2678129198163
 30
0.0
 10
73.38880069702584
 20
137.2678129198163
 30
0.0
 10
73.61462973601115
 20
137.2678129198163
 30
0.0
 10
73.7307077274691
 20
137.2678129198163
 30
0.0
 10
73.83972427641622
 20
137.2678129198163
 30
0.0
  0
ARC
  5
BF
330
1F
100
AcDbEntity
  8
0
  6
Continuous
 62
     7
370
    15
100
AcDbCircle
 10
85.2248868654
 20
137.2678129198
 30
0.0
 40
12.37469537600001
100
AcDbArc
 50
359.9999999965
 51
180.0
  0
SPLINE
  5
C0
330
1F
100
AcDbEntity
  8
0
  6
Continuous
 62
     7
370
    15
100
AcDbSpline
210
0.0
220
0.0
230
1.0
 70
    24
 71
     3
 72
    14
 73
    10
 74
     0
 42
0.000000001
 43
0.00000001
 40
0.0
 40
0.0
 40
0.0
 40
0.0
 40
0.25
 40
0.25
 40
0.5
 40
0.5
 40
0.75
 40
0.75
 40
1.0
 40
1.0
 40
1.0
 40
1.0
 10
96.61004945441621
 20
137.2678129198163
 30
0.0
 10
96.71906600336334
 20
137.2678129198163
 30
0.0
 10
96.83514399482128
 20
137.2678129198163
 30
0.0
 10
97.06097303380659
 20
137.2678129198163
 30
0.0
 10
97.17025139327248
 20
137.2678129198163
 30
0.0
 10
97.35804610380968
 20
137.2678129198163
 30
0.0
 10
97.43614069956577
 20
137.2678129198163
 30
0.0
 10
97.54898665914854
 20
137.2678129198163
 30
0.0
 10
97.5838502564747
 20
137.2678129198163
 30
0.0
 10
97.59958224141623
 20
137.2678129198163
 30
0.0
  0
ARC
  5
C1
330
1F
100
AcDbEntity
  8
0
  6
Continuous
 62
     7
370
    15
100
AcDbCircle
 10
85.2248868654
 20
137.2678129198
 30
0.0
 40
12.37469537600001
100
AcDbArc
 50
180.0
 51
359.9999999965
  0
CIRCLE
  5
C2
330
1F
100
AcDbEntity
  8
0
  6
Continuous
 62
     7
370
    15
100
AcDbCircle
 10
85.2248868654
 20
137.2678129198
 30
0.0
 40
22.225
  0
SPLINE
  5
C3
330
1F
100
AcDbEntity
  8
0
  6
Continuous
 62
     7
370
    15
100
AcDbSpline
210
0.0
220
0.0
230
1.0
 70
     8
 71
     3
 72
    46
 73
    42
 74
     0
 42
0.000000001
 43
0.00000001
 40
0.0
 40
0.0
 40
0.0
 40
0.0
 40
0.006060509738736
 40
0.012116063002841
 40
0.0181688504487787
 40
0.0242210657363553
 40
0.0302749031473563
 40
0.0363325552008075
 40
0.0423962102777983
 40
0.0663723762752013
 40
0.0903614245259086
 40
0.1173835313961692
 40
0.1444187375184246
 40
0.1746377134611347
 40
0.2048704270524354
 40
0.2382459271759561
 40
0.2716357371868479
 40
0.307846057408608
 40
0.3440707643473241
 40
0.3824528172843601
 40
0.4208496145247257
 40
0.4604174444221711
 40
0.5000006351371646
 40
0.5395683786452921
 40
0.5791516575954981
 40
0.6175334667211793
 40
0.6559305126791313
 40
0.692140447212708
 40
0.728365538217382
 40
0.7617405441714814
 40
0.7951308492353167
 40
0.8253489820918097
 40
0.8555825399621454
 40
0.8826032238187791
 40
0.9096398523464996
 40
0.9336143211338713
 40
0.9576050666785983
 40
0.9682066401032497
 40
0.9787984729660737
 40
0.9893923377067513
 40
1.0
 40
1.0
 40
1.0
 40
1.0
 10
62.72488685659753
 20
137.2678129190163
 30
0.0
 10
62.72566811139392
 20
137.4105511589532
 30
0.0
 10
62.72722998205207
 20
137.6959109030248
 30
0.0
 10
62.73987959176084
 20
138.1236727278291
 30
0.0
 10
62.76007701005624
 20
138.5509298530225
 30
0.0
 10
62.78856061097158
 20
138.9776825507109
 30
0.0
 10
62.82513185475495
 20
139.4039290581441
 30
0.0
 10
62.86984682437087
 20
139.8296751513722
 30
0.0
 10
62.97467355113697
 20
140.6733712418059
 30
0.0
 10
63.19099383730683
 20
141.9287314591417
 30
0.0
 10
63.62195352230006
 20
143.6430447089176
 30
0.0
 10
64.21138002131067
 20
145.3865306072198
 30
0.0
 10
65.00598466204885
 20
147.2079148969574
 30
0.0
 10
65.9967174014511
 20
149.0182063290004
 30
0.0
 10
67.23959941780775
 20
150.8492580316559
 30
0.0
 10
68.70619047832636
 20
152.6064195585032
 30
0.0
 10
70.4511922742682
 20
154.2969730931743
 30
0.0
 10
72.42265120756096
 20
155.8308161619255
 30
0.0
 10
74.65745089457633
 20
157.1896536336728
 30
0.0
 10
77.08223211709283
 20
158.3025927862862
 30
0.0
 10
79.69942766084849
 20
159.1362697965496
 30
0.0
 10
82.42656497938087
 20
159.6529909182362
 30
0.0
 10
85.22452343157323
 20
159.8252118940486
 30
0.0
 10
88.02284223618584
 20
159.6530387584397
 30
0.0
 10
90.7496516044837
 20
159.1364443652974
 30
0.0
 10
93.3672090777479
 20
158.3027268021323
 30
0.0
 10
95.79170431208603
 20
157.1899816319479
 30
0.0
 10
98.02683144369105
 20
155.8310152866218
 30
0.0
 10
99.99805611438342
 20
154.2974295126997
 30
0.0
 10
101.7433440753733
 20
152.6066786893141
 30
0.0
 10
103.2097576492605
 20
150.8498100364448
 30
0.0
 10
104.4528770840858
 20
149.0185028549174
 30
0.0
 10
105.4434864802812
 20
147.2085300969586
 30
0.0
 10
106.2382716359158
 20
145.386850895811
 30
0.0
 10
106.8276167685777
 20
143.6437050618964
 30
0.0
 10
107.2587416710096
 20
141.929059088172
 30
0.0
 10
107.4931340546685
 20
140.5683031186647
 30
0.0
 10
107.6170804638839
 20
139.5112128383056
 30
0.0
 10
107.6789677120377
 20
138.7650092443875
 30
0.0
 10
107.7177176740467
 20
138.0170128104609
 30
0.0
 10
107.7224960955922
 20
137.5176545404686
 30
0.0
 10
107.724886861218
 20
137.2678129190163
 30
0.0
  0
SPLINE
  5
C4
330
1F
100
AcDbEntity
  8
0
  6
Continuous
 62
     7
370
    15
100
AcDbSpline
210
0.0
220
0.0
230
1.0
 70
     8
 71
     3
 72
    46
 73
    42
 74
     0
 42
0.000000001
 43
0.00000001
 40
0.0
 40
0.0
 40
0.0
 40
0.0
 40
0.0060605090578789
 40
0.0121160618652316
 40
0.0181688490798695
 40
0.0242210643627036
 40
0.0302749019963787
 40
0.0363325545005319
 40
0.0423962102566156
 40
0.0663723762557772
 40
0.0903614245065992
 40
0.1173835313789998
 40
0.1444187375012122
 40
0.1746377134462246
 40
0.20487042703758
 40
0.2382459271647412
 40
0.2716357371745998
 40
0.3078460573984574
 40
0.3440707643378661
 40
0.3824528172762049
 40
0.4208496145182827
 40
0.4604174444176503
 40
0.5000006351337953
 40
0.5395683786438665
 40
0.5791516575952307
 40
0.6175334667239435
 40
0.6559305126818602
 40
0.6921404472187197
 40
0.7283655382229329
 40
0.7617405441792563
 40
0.795130849243458
 40
0.8253489821014625
 40
0.8555825399726453
 40
0.8826032238318968
 40
0.9096398523591116
 40
0.9336143211498046
 40
0.9576050666930713
 40
0.9682066398587207
 40
0.9787984726342449
 40
0.9893923374572966
 40
1.0
 40
1.0
 40
1.0
 40
1.0
 10
107.724886861218
 20
137.2678129190163
 30
0.0
 10
107.7241056098532
 20
137.1250746950989
 30
0.0
 10
107.7225437460266
 20
136.8397149777879
 30
0.0
 10
107.7098941431488
 20
136.4119531850261
 30
0.0
 10
107.6896967292753
 20
135.9846960759669
 30
0.0
 10
107.6612131300428
 20
135.5579433784867
 30
0.0
 10
107.6246418853327
 20
135.131696855337
 30
0.0
 10
107.5799269120365
 20
134.7059507304806
 30
0.0
 10
107.4751001818368
 20
133.8622546136539
 30
0.0
 10
107.2587798937517
 20
132.6068943804418
 30
0.0
 10
106.8278202084503
 20
130.8925811306806
 30
0.0
 10
106.2383937095284
 20
129.1490952323874
 30
0.0
 10
105.4437890687547
 20
127.3277109426294
 30
0.0
 10
104.4530563293737
 20
125.5174195106064
 30
0.0
 10
103.2101743129737
 20
123.6863678079131
 30
0.0
 10
101.7435832524748
 20
121.9292062810836
 30
0.0
 10
99.998581456512
 20
120.2386527464093
 30
0.0
 10
98.02712252324008
 20
118.7048096777235
 30
0.0
 10
95.79232283624773
 20
117.3459722059523
 30
0.0
 10
93.3675416137508
 20
116.2330330533307
 30
0.0
 10
90.75034606997951
 20
115.3993560430832
 30
0.0
 10
88.02320875144103
 20
114.8826349214065
 30
0.0
 10
85.22525029924091
 20
114.7104139455845
 30
0.0
 10
82.426931494635
 20
114.882587081181
 30
0.0
 10
79.70012212630488
 20
115.3991814743491
 30
0.0
 10
77.0825646530483
 20
116.2328990375096
 30
0.0
 10
74.65806941867521
 20
117.3456442077234
 30
0.0
 10
72.42294228710385
 20
118.7046105530358
 30
0.0
 10
70.45171761639719
 20
120.2381963269751
 30
0.0
 10
68.70642965545292
 20
121.9289471503441
 30
0.0
 10
67.24001608155315
 20
123.6858158032115
 30
0.0
 10
65.99689664673768
 20
125.5171229847202
 30
0.0
 10
65.0062872505332
 20
127.3270957427157
 30
0.0
 10
64.2115020948955
 20
129.1487749438537
 30
0.0
 10
63.62215696222803
 20
130.8919207778272
 30
0.0
 10
63.19103205981479
 20
132.6065667515146
 30
0.0
 10
62.95663967718198
 20
133.967322715002
 30
0.0
 10
62.83269326853301
 20
135.0244129871168
 30
0.0
 10
62.77080601888554
 20
135.7706165746295
 30
0.0
 10
62.73205605242978
 20
136.5186130140111
 30
0.0
 10
62.72727762512417
 20
137.0179712917322
 30
0.0
 10
62.72488685659753
 20
137.2678129190163
 30
0.0
  0
ARC
  5
C5
330
1F
100
AcDbEntity
  8
0
  6
Continuous
 62
     7
370
    15
100
AcDbCircle
 10
85.2248868654
 20
137.2678129198
 30
0.0
 40
30.86715728670555
100
AcDbArc
 50
73.7590550431
 51
106.2409449546
  0
SPLINE
  5
C6
330
1F
100
AcDbEntity
  8
0
  6
Continuous
 62
     7
370
    15
100
AcDbSpline
210
0.0
220
0.0
230
1.0
 70
     8
 71
     3
 72
    10
 73
     6
 74
     0
 42
0.000000001
 43
0.00000001
 40
0.0
 40
0.0
 40
0.0
 40
0.0
 40
0.5
 40
0.5
 40
1.0
 40
1.0
 40
1.0
 40
1.0
 10
93.85772957797248
 20
166.9031874869755
 30
0.0
 10
93.89035742250284
 20
166.8596989231238
 30
0.0
 10
93.91849945123137
 20
166.8108612976881
 30
0.0
 10
93.96115187966878
 20
166.6991444067045
 30
0.0
 10
93.97488686722455
 20
166.6374953843008
 30
0.0
 10
93.97488686524318
 20
166.5737474266766
 30
0.0
  0
ARC
  5
C7
330
1F
100
AcDbEntity
  8
0
  6
Continuous
 62
     7
370
    15
100
AcDbCircle
 10
85.2248868654
 20
137.2678129198
 30
0.0
 40
30.58431456962477
100
AcDbArc
 50
73.3757249371
 51
106.6242750308
  0
SPLINE
  5
C8
330
1F
100
AcDbEntity
  8
0
  6
Continuous
 62
     7
370
    15
100
AcDbSpline
210
0.0
220
0.0
230
1.0
 70
     8
 71
     3
 72
    10
 73
     6
 74
     0
 42
0.000000001
 43
0.00000001
 40
0.0
 40
0.0
 40
0.0
 40
0.0
 40
0.5
 40
0.5
 40
1.0
 40
1.0
 40
1.0
 40
1.0
 10
76.59204415208097
 20
166.9031874855112
 30
0.0
 10
76.55959060710924
 20
166.8599312402785
 30
0.0
 10
76.53175399266556
 20
166.8116911891645
 30
0.0
 10
76.48919310266174
 20
166.7010568016921
 30
0.0
 10
76.47526243663864
 20
166.6389896013716
 30
0.0
 10
76.47489440219388
 20
166.5763122451919
 30
0.0
  0
ARC
  5
C9
330
1F
100
AcDbEntity
  8
0
  6
Continuous
 62
     7
370
    15
100
AcDbCircle
 10
85.2248868654
 20
137.2678129198
 30
0.0
 40
30.58431456962478
100
AcDbArc
 50
253.3757249638
 51
286.6242750534
  0
SPLINE
  5
CA
330
1F
100
AcDbEntity
  8
0
  6
Continuous
 62
     7
370
    15
100
AcDbSpline
210
0.0
220
0.0
230
1.0
 70
     8
 71
     3
 72
    10
 73
     6
 74
     0
 42
0.000000001
 43
0.00000001
 40
0.0
 40
0.0
 40
0.0
 40
0.0
 40
0.5
 40
0.5
 40
1.0
 40
1.0
 40
1.0
 40
1.0
 10
93.97488686524318
 20
107.9618784117852
 30
0.0
 10
93.97488686694922
 20
107.8981328647542
 30
0.0
 10
93.96105552443605
 20
107.8363373575627
 30
0.0
 10
93.91886382081074
 20
107.7256112966624
 30
0.0
 10
93.89035508709374
 20
107.6759238046423
 30
0.0
 10
93.85772958103436
 20
107.6324383574468
 30
0.0
  0
ARC
  5
CB
330
1F
100
AcDbEntity
  8
0
  6
Continuous
 62
     7
370
    15
100
AcDbCircle
 10
85.2248868654
 20
137.2678129198
 30
0.0
 40
30.86715728670556
100
AcDbArc
 50
253.7590550431
 51
286.24094496
  0
SPLINE
  5
CC
330
1F
100
AcDbEntity
  8
0
  6
Continuous
 62
     7
370
    15
100
AcDbSpline
210
0.0
220
0.0
230
1.0
 70
     8
 71
     3
 72
     8
 73
     4
 74
     0
 42
0.000000001
 43
0.00000001
 40
0.0
 40
0.0
 40
0.0
 40
0.0
 40
1.0
 40
1.0
 40
1.0
 40
1.0
 10
76.59204415785102
 20
107.6324383465438
 30
0.0
 10
76.54703984559517
 20
107.6924230883752
 30
0.0
 10
76.5097075526106
 20
107.763848532672
 30
0.0
 10
76.4894741243469
 20
107.8458542106525
 30
0.0
  0
SPLINE
  5
CD
330
1F
100
AcDbEntity
  8
0
  6
Continuous
 62
     7
370
    15
100
AcDbSpline
210
0.0
220
0.0
230
1.0
 70
     8
 71
     3
 72
     8
 73
     4
 74
     0
 42
0.000000001
 43
0.00000001
 40
0.0
 40
0.0
 40
0.0
 40
0.0
 40
1.0
 40
1.0
 40
1.0
 40
1.0
 10
76.48947413789539
 20
107.8458541549455
 30
0.0
 10
76.48031661852917
 20
107.8829693799039
 30
0.0
 10
76.47488686496155
 20
107.9225676002819
 30
0.0
 10
76.4748868655604
 20
107.961878406547
 30
0.0
  0
SPLINE
  5
CE
330
1F
100
AcDbEntity
  8
0
  6
Continuous
 62
     7
370
    15
100
AcDbSpline
210
0.0
220
0.0
230
1.0
 70
    24
 71
     3
 72
     8
 73
     4
 74
     0
 42
0.000000001
 43
0.00000001
 40
0.0
 40
0.0
 40
0.0
 40
0.0
 40
1.0
 40
1.0
 40
1.0
 40
1.0
 10
66.72488686541622
 20
112.913135793124
 30
0.0
 10
66.72488686541622
 20
112.7857463737691
 30
0.0
 10
66.72488686541624
 20
112.6585678925053
 30
0.0
 10
66.72488686541624
 20
112.5588793316254
 30
0.0
  0
ARC
  5
CF
330
1F
100
AcDbEntity
  8
0
  6
Continuous
 62
     7
370
    15
100
AcDbCircle
 10
85.2248868654
 20
137.2678129198
 30
0.0
 40
30.86715728670556
100
AcDbArc
 50
216.8228239938
 51
233.1771760094
  0
SPLINE
  5
D0
330
1F
100
AcDbEntity
  8
0
  6
Continuous
 62
     7
370
    15
100
AcDbSpline
210
0.0
220
0.0
230
1.0
 70
    24
 71
     3
 72
     8
 73
     4
 74
     0
 42
0.000000001
 43
0.00000001
 40
0.0
 40
0.0
 40
0.0
 40
0.0
 40
1.0
 40
1.0
 40
1.0
 40
1.0
 10
60.51595327542562
 20
118.7678129198163
 30
0.0
 10
60.61483542800376
 20
118.7678129198163
 30
0.0
 10
60.74104890144561
 20
118.7678129198163
 30
0.0
 10
60.86743072887866
 20
118.7678129198163
 30
0.0
  0
ARC
  5
D1
330
1F
100
AcDbEntity
  8
0
  6
Continuous
 62
     7
370
    15
100
AcDbCircle
 10
85.2248868654
 20
137.2678129198
 30
0.0
 40
30.58431456962479
100
AcDbArc
 50
217.2205831722
 51
232.7794168425
  0
ARC
  5
D2
330
1F
100
AcDbEntity
  8
0
  6
Continuous
 62
     7
370
    15
100
AcDbCircle
 10
85.2248868585
 20
137.2678129177
 30
0.0
 40
30.86715728315902
100
AcDbArc
 50
233.1771760173
 51
253.7590550635
  0
SPLINE
  5
D3
330
1F
100
AcDbEntity
  8
0
  6
Continuous
 62
     7
370
    15
100
AcDbSpline
210
0.0
220
0.0
230
1.0
 70
     8
 71
     3
 72
    22
 73
    18
 74
     0
 42
0.000000001
 43
0.00000001
 40
0.0
 40
0.0
 40
0.0
 40
0.0
 40
0.0500818598004039
 40
0.1001009742748402
 40
0.1500734574845633
 40
0.2000154686283413
 40
0.2499431964919678
 40
0.2998728437545237
 40
0.3498206112271755
 40
0.3998026821010479
 40
0.4498352062806183
 40
0.4999342848781113
 40
0.600061787066295
 40
0.7000024557113077
 40
0.7998858839391753
 40
0.899841887513062
 40
0.9999999999999999
 40
0.9999999999999999
 40
0.9999999999999999
 40
0.9999999999999999
 10
66.7248868681408
 20
112.913135793124
 30
0.0
 10
66.87161027765502
 20
112.8028721830781
 30
0.0
 10
67.16487327347497
 20
112.5824831073399
 30
0.0
 10
67.61195569579598
 20
112.262126199085
 30
0.0
 10
68.06388255988931
 20
111.949578764375
 30
0.0
 10
68.52119421958491
 20
111.6455524124597
 30
0.0
 10
68.98374591088233
 20
111.3498568492716
 30
0.0
 10
69.45157615762342
 20
111.0625431233767
 30
0.0
 10
69.92467465790213
 20
110.7835977721493
 30
0.0
 10
70.40304320257356
 20
110.5130241257645
 30
0.0
 10
70.88668399929963
 20
110.2508227774224
 30
0.0
 10
71.53803675929073
 20
109.9126447419764
 30
0.0
 10
72.3629151906879
 20
109.5121068476955
 30
0.0
 10
73.36850575632224
 20
109.0675658230991
 30
0.0
 10
74.38910511667599
 20
108.6605285418779
 30
0.0
 10
75.42367971594756
 20
108.2875811071048
 30
0.0
 10
76.12424863162543
 20
108.0705190506791
 30
0.0
 10
76.4748868656618
 20
107.9618784095685
 30
0.0
  0
SPLINE
  5
D4
330
1F
100
AcDbEntity
  8
0
  6
Continuous
 62
     7
370
    15
100
AcDbSpline
210
0.0
220
0.0
230
1.0
 70
     8
 71
     3
 72
    31
 73
    27
 74
     0
 42
0.000000001
 43
0.00000001
 40
0.0
 40
0.0
 40
0.0
 40
0.0
 40
0.0132547820123591
 40
0.0264968712764316
 40
0.0397300667029705
 40
0.0529581748652544
 40
0.0661850067287817
 40
0.079414374362035
 40
0.0926500876424864
 40
0.1058959509720582
 40
0.1191557600161537
 40
0.1810884463809925
 40
0.2430471624419542
 40
0.3066892812087729
 40
0.3703583835969362
 40
0.49938299356959
 40
0.6284926043660557
 40
0.6922587072395494
 40
0.756052656237941
 40
0.8181812942486995
 40
0.8803373241552115
 40
0.9042880502402492
 40
0.9282071646265636
 40
0.9521171770684623
 40
0.9760406230125365
 40
1.0
 40
1.0
 40
1.0
 40
1.0
 10
115.8092014354334
 20
137.2678129191497
 30
0.0
 10
115.8083587011365
 20
137.4407930837842
 30
0.0
 10
115.8066740395432
 20
137.7865877676518
 30
0.0
 10
115.7930286656434
 20
138.3049327293555
 30
0.0
 10
115.7712408255306
 20
138.822632529585
 30
0.0
 10
115.7405145171766
 20
139.3396870908691
 30
0.0
 10
115.7010629155671
 20
139.8560961462799
 30
0.0
 10
115.6528286707646
 20
140.3718600680116
 30
0.0
 10
115.5958281663265
 20
140.8869768624346
 30
0.0
 10
115.5300533295781
 20
141.4014533746909
 30
0.0
 10
115.364365769588
 20
142.5436567563416
 30
0.0
 10
115.0224009993996
 20
144.3027470534645
 30
0.0
 10
114.3650038837027
 20
146.6626748005094
 30
0.0
 10
113.5130116123962
 20
148.9841842060443
 30
0.0
 10
112.1064722846668
 20
152.0227501414982
 30
0.0
 10
109.8767709494852
 20
155.605662868426
 30
0.0
 10
107.0855028113486
 20
158.7724659927133
 30
0.0
 10
104.5762149469185
 20
160.9959788362036
 30
0.0
 10
102.5929606060189
 20
162.4822916613359
 30
0.0
 10
100.5150785408866
 20
163.7933790607351
 30
0.0
 10
98.79977007210238
 20
164.6927746420874
 30
0.0
 10
97.49333828462954
 20
165.2889030530363
 30
0.0
 10
96.62949855463211
 20
165.6516596807475
 30
0.0
 10
95.75512051518683
 20
165.9870609425739
 30
0.0
 10
94.8709309742511
 20
166.2976009546866
 30
0.0
 10
94.27371762715346
 20
166.4816525655277
 30
0.0
 10
93.97488688057206
 20
166.5737474266765
 30
0.0
  0
SPLINE
  5
D5
330
1F
100
AcDbEntity
  8
0
  6
Continuous
 62
     7
370
    15
100
AcDbSpline
210
0.0
220
0.0
230
1.0
 70
     8
 71
     3
 72
    31
 73
    27
 74
     0
 42
0.000000001
 43
0.00000001
 40
0.0
 40
0.0
 40
0.0
 40
0.0
 40
0.0133116724883039
 40
0.0266104829800141
 40
0.0399002793452951
 40
0.0531849172870879
 40
0.066468257000281
 40
0.079754159811356
 40
0.09304648481311
 40
0.1063490855090961
 40
0.1196658064823355
 40
0.1817950735702446
 40
0.2439504667220478
 40
0.3077169628212479
 40
0.3715105117133549
 40
0.500620117330448
 40
0.6296447221270358
 40
0.6932864260162216
 40
0.756955940040424
 40
0.8188879793465256
 40
0.8808473402560892
 40
0.9046957897988834
 40
0.9285130513077766
 40
0.9523213476995956
 40
0.9761429269815893
 40
1.0
 40
1.0
 40
1.0
 40
1.0
 10
93.97488688039583
 20
107.961878411929
 30
0.0
 10
94.14110499513002
 20
108.0123938932903
 30
0.0
 10
94.47338062142644
 20
108.1133760469733
 30
0.0
 10
94.96824896973278
 20
108.275493557786
 30
0.0
 10
95.46014147690212
 20
108.4452930163398
 30
0.0
 10
95.94882839068494
 20
108.6235436423073
 30
0.0
 10
96.43437095965953
 20
108.8100393507463
 30
0.0
 10
96.91675299519686
 20
109.0048356717232
 30
0.0
 10
97.39597729412984
 20
109.2079161889502
 30
0.0
 10
97.87204814932392
 20
109.4192907065431
 30
0.0
 10
98.92247919414156
 20
109.9071821150641
 30
0.0
 10
100.5147831438213
 20
110.7420902446338
 30
0.0
 10
102.5923757322142
 20
112.0529279795005
 30
0.0
 10
104.5759352380155
 20
113.5394215686417
 30
0.0
 10
107.0852655405788
 20
115.7628888545533
 30
0.0
 10
109.8767710969719
 20
118.9299631371337
 30
0.0
 10
112.1062812829236
 20
122.5125711369
 30
0.0
 10
113.5128764090284
 20
125.5511095439489
 30
0.0
 10
114.3647833013033
 20
127.8722758844766
 30
0.0
 10
115.0223360355795
 20
130.2325517918507
 30
0.0
 10
115.3906827784937
 20
132.127393115365
 30
0.0
 10
115.586577786111
 20
133.5446997491401
 30
0.0
 10
115.6861786177223
 20
134.4722901515049
 30
0.0
 10
115.7568009479567
 20
135.4021239860381
 30
0.0
 10
115.8010205394154
 20
136.3342182212041
 30
0.0
 10
115.8064731170612
 20
136.9564602799023
 30
0.0
 10
115.8092014354334
 20
137.2678129191497
 30
0.0
  0
SPLINE
  5
D6
330
1F
100
AcDbEntity
  8
0
  6
Continuous
 62
     7
370
    15
100
AcDbSpline
210
0.0
220
0.0
230
1.0
 70
     8
 71
     3
 72
    39
 73
    35
 74
     0
 42
0.000000001
 43
0.00000001
 40
0.0
 40
0.0
 40
0.0
 40
0.0
 40
0.0093873620978629
 40
0.0187596701111277
 40
0.0281199648213955
 40
0.0374712987294032
 40
0.0468167331164975
 40
0.0561593350632972
 40
0.0655021744399345
 40
0.0748483208825801
 40
0.0842008407711207
 40
0.0935627942228398
 40
0.1029372321167724
 40
0.1123271931630534
 40
0.1736200408823091
 40
0.2349299482880478
 40
0.2671836518293358
 40
0.2994546245564944
 40
0.3655428527619528
 40
0.4327326147454438
 40
0.5004775807824501
 40
0.5682037171870316
 40
0.635337940875514
 40
0.701336656506823
 40
0.7335302740257507
 40
0.7657418651793108
 40
0.8268808735565418
 40
0.8880378864401934
 40
0.9067361963478907
 40
0.9253869598269888
 40
0.9440144096439534
 40
0.9626428695479577
 40
0.9812966593368435
 40
1.0
 40
1.0
 40
1.0
 40
1.0
 10
76.4748868596503
 20
166.5737474247507
 30
0.0
 10
76.29822722526232
 20
166.520005320386
 30
0.0
 10
75.94519125748764
 20
166.4126072954192
 30
0.0
 10
75.41978131481828
 20
166.2395976025908
 30
0.0
 10
74.89803405103163
 20
166.0580489295034
 30
0.0
 10
74.38020720626538
 20
165.8670985579768
 30
0.0
 10
73.86623205822877
 20
165.6669772878248
 30
0.0
 10
73.35612722681525
 20
165.4576234299996
 30
0.0
 10
72.84988789390049
 20
165.2390535320922
 30
0.0
 10
72.34751572551248
 20
165.0112634291687
 30
0.0
 10
71.84900984233745
 20
164.7742536927196
 30
0.0
 10
71.35437303066236
 20
164.5280267288032
 30
0.0
 10
70.86359589760282
 20
164.2725729113444
 30
0.0
 10
69.48005345243621
 20
163.5205504921952
 30
0.0
 10
67.28201520267872
 20
162.12586737863
 30
0.0
 10
64.91731515994536
 20
160.1941028798493
 30
0.0
 10
63.14722105772273
 20
158.4619910468351
 30
0.0
 10
61.42571889551218
 20
156.5530128709677
 30
0.0
 10
59.4779771863449
 20
153.9314533834977
 30
0.0
 10
57.54154524433331
 20
150.4714948195641
 30
0.0
 10
56.05866915291559
 20
146.7589349869485
 30
0.0
 10
55.07297774851021
 20
142.8857421209469
 30
0.0
 10
54.60247151205959
 20
138.9520485864151
 30
0.0
 10
54.63367355938196
 20
135.6906865527833
 30
0.0
 10
54.90066923505796
 20
133.1381730379512
 30
0.0
 10
55.31028373666688
 20
130.7015093277422
 30
0.0
 10
56.0814742651956
 20
127.7541462154292
 30
0.0
 10
57.10046481372292
 20
125.1671135867176
 30
0.0
 10
57.94581094673413
 20
123.4233696352122
 30
0.0
 10
58.46161494423689
 20
122.4503175378208
 30
0.0
 10
59.01137098375555
 20
121.4976290649774
 30
0.0
 10
59.59585075017592
 20
120.5658459940773
 30
0.0
 10
60.21220566330865
 20
119.6528247697601
 30
0.0
 10
60.65068117378051
 20
119.0630776274255
 30
0.0
 10
60.8702097281842
 20
118.7678129329821
 30
0.0
  0
ARC
  5
D7
330
1F
100
AcDbEntity
  8
0
  6
Continuous
 62
     7
370
    15
100
AcDbCircle
 10
85.2248868661
 20
137.2678129194
 30
0.0
 40
30.8671572892674
100
AcDbArc
 50
106.2409449555
 51
216.822823989
  0
SPLINE
  5
D8
330
1F
100
AcDbEntity
  8
0
  6
Continuous
 62
     7
370
    15
100
AcDbSpline
210
0.0
220
0.0
230
1.0
 70
    24
 71
     3
 72
    10
 73
     6
 74
     0
 42
0.000000001
 43
0.00000001
 40
0.0
 40
0.0
 40
0.0
 40
0.0
 40
0.5
 40
0.5
 40
1.0
 40
1.0
 40
1.0
 40
1.0
 10
115.8092014354431
 20
137.2678129198163
 30
0.0
 10
115.8602258940803
 20
137.2678129198163
 30
0.0
 10
115.9132691931348
 20
137.2678129198163
 30
0.0
 10
116.0112804294968
 20
137.2678129198163
 30
0.0
 10
116.0559644122781
 20
137.2678129198163
 30
0.0
 10
116.0920441524162
 20
137.2678129198163
 30
0.0
  0
ARC
  5
D9
330
1F
100
AcDbEntity
  8
0
  6
Continuous
 62
     7
370
    15
100
AcDbCircle
 10
85.2248868654
 20
137.2678129198
 30
0.0
 40
30.86715728709903
100
AcDbArc
 50
286.24094496
 51
359.9999999961
  0
ARC
  5
DA
330
1F
100
AcDbEntity
  8
0
  6
Continuous
 62
     7
370
    15
100
AcDbCircle
 10
85.2248868654
 20
137.2678129198
 30
0.0
 40
30.86715728757235
100
AcDbArc
 50
359.9999999961
 51
73.7590550456
  0
SPLINE
  5
DB
330
1F
100
AcDbEntity
  8
0
  6
Continuous
 62
     7
370
    15
100
AcDbSpline
210
0.0
220
0.0
230
1.0
 70
    24
 71
     3
 72
     8
 73
     4
 74
     0
 42
0.000000001
 43
0.00000001
 40
0.0
 40
0.0
 40
0.0
 40
0.0
 40
0.0005364352012432
 40
0.0005364352012432
 40
0.0005364352012432
 40
0.0005364352012432
 10
93.73028241888542
 20
167.7357466292855
 30
0.0
 10
93.63494773192926
 20
167.6404119423294
 30
0.0
 10
93.53954025898462
 20
167.5450044693847
 30
0.0
 10
93.44405739587444
 20
167.4495216062745
 30
0.0
  0
ARC
  5
DC
330
1F
100
AcDbEntity
  8
0
  6
Continuous
 62
     7
370
    15
100
AcDbCircle
 10
85.2248868654
 20
137.2678129198
 30
0.0
 40
31.63284271208674
100
AcDbArc
 50
359.9999999956
 51
74.4024500298
  0
ARC
  5
DD
330
1F
100
AcDbEntity
  8
0
  6
Continuous
 62
     7
370
    15
100
AcDbCircle
 10
85.2248868654
 20
137.2678129198
 30
0.0
 40
31.63284271391236
100
AcDbArc
 50
285.7334817396
 51
359.9999999956
  0
SPLINE
  5
DE
330
1F
100
AcDbEntity
  8
0
  6
Continuous
 62
     7
370
    15
100
AcDbSpline
210
0.0
220
0.0
230
1.0
 70
     8
 71
     3
 72
     8
 73
     4
 74
     0
 42
0.000000001
 43
0.00000001
 40
0.0
 40
0.0
 40
0.0
 40
0.0
 40
0.0005532767344487
 40
0.0005532767344487
 40
0.0005532767344487
 40
0.0005532767344487
 10
93.41427084609862
 20
107.0471467111746
 30
0.0
 10
93.54390885790683
 20
106.9713537800609
 30
0.0
 10
93.67333046796661
 20
106.8956873700925
 30
0.0
 10
93.80254227564657
 20
106.8201436194444
 30
0.0
  0
SPLINE
  5
DF
330
1F
100
AcDbEntity
  8
0
  6
Continuous
 62
     7
370
    15
100
AcDbSpline
210
0.0
220
0.0
230
1.0
 70
     8
 71
     3
 72
     9
 73
     5
 74
     0
 42
0.000000001
 43
0.00000001
 40
0.0
 40
0.0
 40
0.0
 40
0.0
 40
0.501306738790161
 40
1.0
 40
1.0
 40
1.0
 40
1.0
 10
93.41427084617212
 20
107.0471467102832
 30
0.0
 10
93.4886265677243
 20
107.144567229801
 30
0.0
 10
93.63695036989705
 20
107.3389003834963
 30
0.0
 10
93.78426484573822
 20
107.5347629930204
 30
0.0
 10
93.85772958211888
 20
107.6324383565131
 30
0.0
  0
ARC
  5
E0
330
1F
100
AcDbEntity
  8
0
  6
Continuous
 62
     7
370
    15
100
AcDbCircle
 10
85.2248868654
 20
137.2678129198
 30
0.0
 40
31.63284271251189
100
AcDbArc
 50
74.4024500298
 51
105.7334817355
  0
SPLINE
  5
E1
330
1F
100
AcDbEntity
  8
0
  6
Continuous
 62
     7
370
    15
100
AcDbSpline
210
0.0
220
0.0
230
1.0
 70
     8
 71
     3
 72
     9
 73
     5
 74
     0
 42
0.000000001
 43
0.00000001
 40
0.0
 40
0.0
 40
0.0
 40
0.0
 40
0.5013065652865825
 40
1.0
 40
1.0
 40
1.0
 40
1.0
 10
77.03550288790825
 20
167.4884791247855
 30
0.0
 10
76.96114719195924
 20
167.3910586408485
 30
0.0
 10
76.81282338952411
 20
167.19672549087
 30
0.0
 10
76.66550891429254
 20
167.000862883718
 30
0.0
 10
76.5920441526563
 20
166.9031874874255
 30
0.0
  0
SPLINE
  5
E2
330
1F
100
AcDbEntity
  8
0
  6
Continuous
 62
     7
370
    15
100
AcDbSpline
210
0.0
220
0.0
230
1.0
 70
    24
 71
     3
 72
     8
 73
     4
 74
     0
 42
0.000000001
 43
0.00000001
 40
0.0
 40
0.0
 40
0.0
 40
0.0
 40
0.0005532767357167
 40
0.0005532767357167
 40
0.0005532767357167
 40
0.0005532767357167
 10
77.0355028879902
 20
167.4884791245983
 30
0.0
 10
76.90586487589214
 20
167.5642720558963
 30
0.0
 10
76.77644326582775
 20
167.6399384674389
 30
0.0
 10
76.64723145785901
 20
167.7154822182707
 30
0.0
  0
SPLINE
  5
E3
330
1F
100
AcDbEntity
  8
0
  6
Continuous
 62
     7
370
    15
100
AcDbSpline
210
0.0
220
0.0
230
1.0
 70
     8
 71
     3
 72
     9
 73
     5
 74
     0
 42
0.000000001
 43
0.00000001
 40
0.0
 40
0.0
 40
0.0
 40
0.0
 40
0.5013664800997716
 40
1.0
 40
1.0
 40
1.0
 40
1.0
 10
77.0057164192677
 20
107.0861043087318
 30
0.0
 10
76.93636219889906
 20
107.1770750523613
 30
0.0
 10
76.79803180961011
 20
107.3585206560071
 30
0.0
 10
76.66058149345943
 20
107.5412989584243
 30
0.0
 10
76.59204415850581
 20
107.63243834672
 30
0.0
  0
SPLINE
  5
E4
330
1F
100
AcDbEntity
  8
0
  6
Continuous
 62
     7
370
    15
100
AcDbSpline
210
0.0
220
0.0
230
1.0
 70
    24
 71
     3
 72
     8
 73
     4
 74
     0
 42
0.000000001
 43
0.00000001
 40
0.0
 40
0.0
 40
0.0
 40
0.0
 40
0.0005364351986017
 40
0.0005364351986017
 40
0.0005364351986017
 40
0.0005364351986017
 10
76.71949131171976
 20
106.7998792101199
 30
0.0
 10
76.81482599820635
 20
106.8952138966064
 30
0.0
 10
76.9102334706807
 20
106.9906213690808
 30
0.0
 10
77.00571633331985
 20
107.0861042317199
 30
0.0
  0
ARC
  5
E5
330
1F
100
AcDbEntity
  8
0
  6
Continuous
 62
     7
370
    15
100
AcDbCircle
 10
85.2248868654
 20
137.2678129198
 30
0.0
 40
31.63284270956344
100
AcDbArc
 50
234.2086512586
 51
254.4024500297
  0
SPLINE
  5
E6
330
1F
100
AcDbEntity
  8
0
  6
Continuous
 62
     7
370
    15
100
AcDbSpline
210
0.0
220
0.0
230
1.0
 70
     8
 71
     3
 72
     9
 73
     5
 74
     0
 42
0.000000001
 43
0.00000001
 40
0.0
 40
0.0
 40
0.0
 40
0.0
 40
0.4967202194678044
 40
1.0
 40
1.0
 40
1.0
 40
1.0
 10
66.72488686591427
 20
112.5588793315727
 30
0.0
 10
66.72488678682879
 20
112.4012578109331
 30
0.0
 10
66.72488662761346
 20
112.0839332598842
 30
0.0
 10
66.72488678551656
 20
111.7678455817146
 30
0.0
 10
66.724886864986
 20
111.6087650444164
 30
0.0
  0
SPLINE
  5
E7
330
1F
100
AcDbEntity
  8
0
  6
Continuous
 62
     7
370
    15
100
AcDbSpline
210
0.0
220
0.0
230
1.0
 70
     8
 71
     3
 72
     9
 73
     5
 74
     0
 42
0.000000001
 43
0.00000001
 40
0.0
 40
0.0
 40
0.0
 40
0.0
 40
0.503279781138185
 40
1.0
 40
1.0
 40
1.0
 40
1.0
 10
59.56583898723662
 20
118.7678129194504
 30
0.0
 10
59.72491952481433
 20
118.7678128397615
 30
0.0
 10
60.04100720315882
 20
118.7678126814225
 30
0.0
 10
60.35833175419616
 20
118.7678128408512
 30
0.0
 10
60.51595327463766
 20
118.7678129200427
 30
0.0
  0
ARC
  5
E8
330
1F
100
AcDbEntity
  8
0
  6
Continuous
 62
     7
370
    15
100
AcDbCircle
 10
85.2248868654
 20
137.2678129198
 30
0.0
 40
31.63284271185186
100
AcDbArc
 50
105.7334817355
 51
215.7913487382
  0
ARC
  5
E9
330
1F
100
AcDbEntity
  8
0
  6
Continuous
 62
     7
370
    15
100
AcDbCircle
 10
85.2248868654
 20
137.2678129198
 30
0.0
 40
31.6328427125119
100
AcDbArc
 50
215.7913487369
 51
234.2086512631
  0
ARC
  5
EA
330
1F
100
AcDbEntity
  8
0
  6
Continuous
 62
     7
370
    15
100
AcDbCircle
 10
85.2248868654
 20
137.2678129198
 30
0.0
 40
31.63284271251191
100
AcDbArc
 50
254.4024500297
 51
285.7334817362
  0
SPLINE
  5
EB
330
1F
100
AcDbEntity
  8
0
  6
Continuous
 62
     7
370
    15
100
AcDbSpline
210
0.0
220
0.0
230
1.0
 70
    24
 71
     3
 72
     8
 73
     4
 74
     0
 42
0.000000001
 43
0.00000001
 40
0.0
 40
0.0
 40
0.0
 40
0.0
 40
1.0
 40
1.0
 40
1.0
 40
1.0
 10
93.80254227570913
 20
106.8201436194078
 30
0.0
 10
93.8053113645386
 20
106.8185246701816
 30
0.0
 10
93.80805220225308
 20
106.8169222379845
 30
0.0
 10
93.81076440487315
 20
106.8153365473103
 30
0.0
  0
SPLINE
  5
EC
330
1F
100
AcDbEntity
  8
0
  6
Continuous
 62
     7
370
    15
100
AcDbSpline
210
0.0
220
0.0
230
1.0
 70
    24
 71
     3
 72
    10
 73
     6
 74
     0
 42
0.000000001
 43
0.00000001
 40
0.0
 40
0.0
 40
0.0
 40
0.0
 40
0.5
 40
0.5
 40
1.0
 40
1.0
 40
1.0
 40
1.0
 10
93.81076440478763
 20
106.8153365473603
 30
0.0
 10
93.84838784594704
 20
106.7933399828937
 30
0.0
 10
93.88134987005739
 20
106.7740687183324
 30
0.0
 10
93.92876359538363
 20
106.7463482591293
 30
0.0
 10
93.94279390287856
 20
106.738145432546
 30
0.0
 10
93.94279390296654
 20
106.7381454324946
 30
0.0
  0
ARC
  5
ED
330
1F
100
AcDbEntity
  8
0
  6
Continuous
 62
     7
370
    15
100
AcDbCircle
 10
85.2248868654
 20
137.2678129198
 30
0.0
 40
31.75000000000001
100
AcDbArc
 50
254.2833781166
 51
285.9369715325
  0
SPLINE
  5
EE
330
1F
100
AcDbEntity
  8
0
  6
Continuous
 62
     7
370
    15
100
AcDbSpline
210
0.0
220
0.0
230
1.0
 70
    24
 71
     3
 72
     8
 73
     4
 74
     0
 42
0.000000001
 43
0.00000001
 40
0.0
 40
0.0
 40
0.0
 40
0.0
 40
1.0
 40
1.0
 40
1.0
 40
1.0
 10
76.62445582732944
 20
106.7048437257296
 30
0.0
 10
76.62445582715365
 20
106.7048437255538
 30
0.0
 10
76.66173542360652
 20
106.7421233220106
 30
0.0
 10
76.71949131190676
 20
106.7998792103109
 30
0.0
  0
SPLINE
  5
EF
330
1F
100
AcDbEntity
  8
0
  6
Continuous
 62
     7
370
    15
100
AcDbSpline
210
0.0
220
0.0
230
1.0
 70
    24
 71
     3
 72
     8
 73
     4
 74
     0
 42
0.000000001
 43
0.00000001
 40
0.0
 40
0.0
 40
0.0
 40
0.0
 40
1.0
 40
1.0
 40
1.0
 40
1.0
 10
66.72488686541624
 20
111.6087650442679
 30
0.0
 10
66.72488686541624
 20
111.5231057921136
 30
0.0
 10
66.72488686541655
 20
111.4644701132466
 30
0.0
 10
66.72488686541655
 20
111.4644701132066
 30
0.0
  0
ARC
  5
F0
330
1F
100
AcDbEntity
  8
0
  6
Continuous
 62
     7
370
    15
100
AcDbCircle
 10
85.2248868654
 20
137.2678129198
 30
0.0
 40
31.75000000000001
100
AcDbArc
 50
215.6390613326
 51
234.3609386674
  0
SPLINE
  5
F1
330
1F
100
AcDbEntity
  8
0
  6
Continuous
 62
     7
370
    15
100
AcDbSpline
210
0.0
220
0.0
230
1.0
 70
    24
 71
     3
 72
     8
 73
     4
 74
     0
 42
0.000000001
 43
0.00000001
 40
0.0
 40
0.0
 40
0.0
 40
0.0
 40
1.0
 40
1.0
 40
1.0
 40
1.0
 10
59.4215440589533
 20
118.7678129198163
 30
0.0
 10
59.421544058942
 20
118.7678129198163
 30
0.0
 10
59.48031784848945
 20
118.7678129198164
 30
0.0
 10
59.56583898679718
 20
118.7678129198164
 30
0.0
  0
ARC
  5
F2
330
1F
100
AcDbEntity
  8
0
  6
Continuous
 62
     7
370
    15
100
AcDbCircle
 10
85.2248868654
 20
137.2678129198
 30
0.0
 40
31.75
100
AcDbArc
 50
74.2833781209
 51
105.9369715333
  0
SPLINE
  5
F3
330
1F
100
AcDbEntity
  8
0
  6
Continuous
 62
     7
370
    15
100
AcDbSpline
210
0.0
220
0.0
230
1.0
 70
    24
 71
     3
 72
     8
 73
     4
 74
     0
 42
0.000000001
 43
0.00000001
 40
0.0
 40
0.0
 40
0.0
 40
0.0
 40
1.0
 40
1.0
 40
1.0
 40
1.0
 10
93.82531790364129
 20
167.8307821140414
 30
0.0
 10
93.82531790364428
 20
167.8307821140444
 30
0.0
 10
93.78803564545983
 20
167.7934998558581
 30
0.0
 10
93.73028241888566
 20
167.7357466292839
 30
0.0
  0
SPLINE
  5
F4
330
1F
100
AcDbEntity
  8
0
  6
Continuous
 62
     7
370
    15
100
AcDbSpline
210
0.0
220
0.0
230
1.0
 70
    24
 71
     3
 72
    10
 73
     6
 74
     0
 42
0.000000001
 43
0.00000001
 40
0.0
 40
0.0
 40
0.0
 40
0.0
 40
0.5
 40
0.5
 40
1.0
 40
1.0
 40
1.0
 40
1.0
 10
76.64723145799273
 20
167.7154822181925
 30
0.0
 10
76.60737787430008
 20
167.7387826366571
 30
0.0
 10
76.57233020624639
 20
167.7592732740401
 30
0.0
 10
76.52201677933488
 20
167.7886890452908
 30
0.0
 10
76.50697982759063
 20
167.7974804069604
 30
0.0
 10
76.50697982755922
 20
167.7974804069788
 30
0.0
  0
ARC
  5
F5
330
1F
100
AcDbEntity
  8
0
  6
Continuous
 62
     7
370
    15
100
AcDbCircle
 10
85.2248868654
 20
137.2678129198
 30
0.0
 40
31.75
100
AcDbArc
 50
0.0
 51
74.2833781209
  0
SPLINE
  5
F6
330
1F
100
AcDbEntity
  8
0
  6
Continuous
 62
     7
370
    15
100
AcDbSpline
210
0.0
220
0.0
230
1.0
 70
    24
 71
     3
 72
    10
 73
     6
 74
     0
 42
0.000000001
 43
0.00000001
 40
0.0
 40
0.0
 40
0.0
 40
0.0
 40
0.5
 40
0.5
 40
1.0
 40
1.0
 40
1.0
 40
1.0
 10
116.8577295774162
 20
137.2678129198163
 30
0.0
 10
116.8938093173601
 20
137.2678129198163
 30
0.0
 10
116.9241398866737
 20
137.2678129198163
 30
0.0
 10
116.964737469612
 20
137.2678129198163
 30
0.0
 10
116.974886865416
 20
137.2678129198163
 30
0.0
 10
116.9748868654162
 20
137.2678129198163
 30
0.0
  0
ARC
  5
F7
330
1F
100
AcDbEntity
  8
0
  6
Continuous
 62
     7
370
    15
100
AcDbCircle
 10
85.2248868654
 20
137.2678129198
 30
0.0
 40
31.75
100
AcDbArc
 50
285.9369715325
 51
0.0
  0
ARC
  5
F8
330
1F
100
AcDbEntity
  8
0
  6
Continuous
 62
     7
370
    15
100
AcDbCircle
 10
85.2248868654
 20
137.2678129198
 30
0.0
 40
31.75000000000001
100
AcDbArc
 50
234.3609386674
 51
254.2833781166
  0
ARC
  5
F9
330
1F
100
AcDbEntity
  8
0
  6
Continuous
 62
     7
370
    15
100
AcDbCircle
 10
85.2248868654
 20
137.2678129198
 30
0.0
 40
31.75000000000001
100
AcDbArc
 50
105.9369715333
 51
215.6390613326
  0
SPLINE
  5
FA
330
1F
100
AcDbEntity
  8
0
  6
Continuous
 62
     8
370
    15
100
AcDbSpline
210
0.0
220
0.0
230
1.0
 70
    24
 71
     3
 72
     9
 73
     5
 74
     0
 42
0.000000001
 43
0.00000001
 40
0.0
 40
0.0
 40
0.0
 40
0.0
 40
0.5634001873711906
 40
1.0
 40
1.0
 40
1.0
 40
1.0
 10
107.7248877594859
 20
137.2678129198163
 30
0.0
 10
107.6525407663402
 20
137.2678129198163
 30
0.0
 10
107.5241293906122
 20
137.2678129198163
 30
0.0
 10
107.4302105320377
 20
137.2678129198163
 30
0.0
 10
107.3892055759818
 20
137.2678129198163
 30
0.0
  0
SPLINE
  5
FB
330
1F
100
AcDbEntity
  8
0
  6
Continuous
 62
     8
370
    15
100
AcDbSpline
210
0.0
220
0.0
230
1.0
 70
    24
 71
     3
 72
     9
 73
     5
 74
     0
 42
0.000000001
 43
0.00000001
 40
0.0
 40
0.0
 40
0.0
 40
0.0
 40
0.4412697676001843
 40
1.0
 40
1.0
 40
1.0
 40
1.0
 10
62.999886901179
 20
137.2678129198163
 30
0.0
 10
62.96322783687514
 20
137.2678129198163
 30
0.0
 10
62.88015152620189
 20
137.2678129198163
 30
0.0
 10
62.78054124622656
 20
137.2678129198163
 30
0.0
 10
62.72488597134654
 20
137.2678129198163
 30
0.0
  0
INSERT
  5
107
330
1F
100
AcDbEntity
  8
DIM
100
AcDbBlockReference
  2
SW_CENTERMARKSYMBOL_0
 10
85.2248868654
 20
137.2678129198
 30
0.0
  0
LINE
  5
108
330
1F
100
AcDbEntity
  8
0
  6
Continuous
 62
     7
370
    15
100
AcDbLine
 10
225.7851121265
 20
105.5178119065
 30
0.0
 11
229.0975899685
 21
105.5178119065
 31
0.0
  0
LINE
  5
109
330
1F
100
AcDbEntity
  8
0
  6
Continuous
 62
     7
370
    15
100
AcDbLine
 10
229.0975899685
 20
169.0178139331
 30
0.0
 11
225.7851121265
 21
169.0178139331
 31
0.0
  0
LINE
  5
10A
330
1F
100
AcDbEntity
  8
0
  6
Continuous
 62
     7
370
    15
100
AcDbLine
 10
215.5289604578
 20
105.5178119065
 30
0.0
 11
218.7414384697
 21
105.5178119065
 31
0.0
  0
LINE
  5
10B
330
1F
100
AcDbEntity
  8
0
  6
Continuous
 62
     7
370
    15
100
AcDbLine
 10
218.7414384697
 20
169.0178139331
 30
0.0
 11
215.5289604578
 21
169.0178139331
 31
0.0
  0
LINE
  5
10C
330
1F
100
AcDbEntity
  8
0
  6
Continuous
 62
     7
370
    15
100
AcDbLine
 10
225.7851121265
 20
169.0178139331
 30
0.0
 11
224.1632753301
 21
166.2087103548
 31
0.0
  0
LINE
  5
10D
330
1F
100
AcDbEntity
  8
0
  6
Continuous
 62
     7
370
    15
100
AcDbLine
 10
224.1632753301
 20
108.3269154849
 30
0.0
 11
225.7851121265
 21
105.5178119065
 31
0.0
  0
LINE
  5
10E
330
1F
100
AcDbEntity
  8
0
  6
Continuous
 62
     7
370
    15
100
AcDbLine
 10
220.3632752661
 20
109.2678120555
 30
0.0
 11
224.1632753301
 21
109.2678120555
 31
0.0
  0
LINE
  5
10F
330
1F
100
AcDbEntity
  8
0
  6
Continuous
 62
     7
370
    15
100
AcDbLine
 10
224.1632753301
 20
165.2678137841
 30
0.0
 11
220.3632752661
 21
165.2678137841
 31
0.0
  0
LINE
  5
110
330
1F
100
AcDbEntity
  8
0
  6
Continuous
 62
     7
370
    15
100
AcDbLine
 10
308.276526748
 20
112.2678125473
 30
0.0
 11
311.163276552
 21
117.2678133669
 31
0.0
  0
LINE
  5
111
330
1F
100
AcDbEntity
  8
0
  6
Continuous
 62
     7
370
    15
100
AcDbLine
 10
311.163276552
 20
157.2678124728
 30
0.0
 11
308.276526748
 21
162.2678132923
 31
0.0
  0
LINE
  5
112
330
1F
100
AcDbEntity
  8
0
  6
Continuous
 62
     7
370
    15
100
AcDbLine
 10
308.276526748
 20
162.2678132923
 30
0.0
 11
290.1632786978
 21
162.2678132923
 31
0.0
  0
LINE
  5
113
330
1F
100
AcDbEntity
  8
0
  6
Continuous
 62
     7
370
    15
100
AcDbLine
 10
290.1632786978
 20
112.2678125473
 30
0.0
 11
308.276526748
 21
112.2678125473
 31
0.0
  0
LINE
  5
114
330
1F
100
AcDbEntity
  8
0
  6
Continuous
 62
     7
370
    15
100
AcDbLine
 10
290.1632786978
 20
162.2678132923
 30
0.0
 11
288.663275658
 21
160.7678121152
 31
0.0
  0
LINE
  5
115
330
1F
100
AcDbEntity
  8
0
  6
Continuous
 62
     7
370
    15
100
AcDbLine
 10
288.663275658
 20
113.7678137245
 30
0.0
 11
290.1632786978
 21
112.2678125473
 31
0.0
  0
SPLINE
  5
116
330
1F
100
AcDbEntity
  8
0
  6
Continuous
 62
     7
370
    15
100
AcDbSpline
210
0.0
220
0.0
230
1.0
 70
     8
 71
     3
 72
    13
 73
     9
 74
     0
 42
0.000000001
 43
0.00000001
 40
0.0
 40
0.0
 40
0.0
 40
0.0
 40
0.2394562675100168
 40
0.3683601406657668
 40
0.4999996297598138
 40
0.6316387436204166
 40
0.7605427441093002
 40
1.0
 40
1.0
 40
1.0
 40
1.0
 10
213.8632751319432
 20
115.2678130390256
 30
0.0
 10
213.9261732738976
 20
115.2611343046717
 30
0.0
 10
214.0229306845883
 20
115.2508602803096
 30
0.0
 10
214.1393387678122
 20
115.1885112128312
 30
0.0
 10
214.2194418040532
 20
115.1239797626367
 30
0.0
 10
214.2839730195966
 20
115.0438764741378
 30
0.0
 10
214.3463216606175
 20
114.9274679955114
 30
0.0
 10
214.3565960209656
 20
114.8307103739125
 30
0.0
 10
214.363274981069
 20
114.7678120257466
 30
0.0
  0
SPLINE
  5
117
330
1F
100
AcDbEntity
  8
0
  6
Continuous
 62
     7
370
    15
100
AcDbSpline
210
0.0
220
0.0
230
1.0
 70
     8
 71
     3
 72
    13
 73
     9
 74
     0
 42
0.000000001
 43
0.00000001
 40
0.0
 40
0.0
 40
0.0
 40
0.0
 40
0.2394572558906999
 40
0.3683612563795835
 40
0.5000003702401864
 40
0.6316398593342333
 40
0.7605437324899833
 40
1.0
 40
1.0
 40
1.0
 40
1.0
 10
214.363274981069
 20
159.767813813886
 30
0.0
 10
214.3565960209656
 20
159.7049154657201
 30
0.0
 10
214.3463216606175
 20
159.6081578441212
 30
0.0
 10
214.2839730195966
 20
159.4917493654949
 30
0.0
 10
214.2194418040532
 20
159.4116460769959
 30
0.0
 10
214.1393387678122
 20
159.3471146268014
 30
0.0
 10
214.0229306845883
 20
159.2847655593231
 30
0.0
 10
213.9261732738976
 20
159.2744915349609
 30
0.0
 10
213.8632751319432
 20
159.2678128006071
 30
0.0
  0
LINE
  5
118
330
1F
100
AcDbEntity
  8
0
  6
Continuous
 62
     7
370
    15
100
AcDbLine
 10
211.1632750619
 20
115.0428129556
 30
0.0
 11
211.645789126
 21
115.267813039
 31
0.0
  0
LINE
  5
119
330
1F
100
AcDbEntity
  8
0
  6
Continuous
 62
     7
370
    15
100
AcDbLine
 10
211.645789126
 20
159.2678128006
 30
0.0
 11
211.1632750619
 21
159.4928128841
 31
0.0
  0
LINE
  5
11A
330
1F
100
AcDbEntity
  8
0
  6
Continuous
 62
     7
370
    15
100
AcDbLine
 10
211.1632750619
 20
159.4928128841
 30
0.0
 11
143.6189637769
 21
149.6425083103
 31
0.0
  0
LINE
  5
11B
330
1F
100
AcDbEntity
  8
0
  6
Continuous
 62
     7
370
    15
100
AcDbLine
 10
143.6189637769
 20
124.8931175294
 30
0.0
 11
211.1632750619
 21
115.0428129556
 31
0.0
  0
LINE
  5
11C
330
1F
100
AcDbEntity
  8
0
  6
Continuous
 62
     7
370
    15
100
AcDbLine
 10
211.645789126
 20
115.267813039
 30
0.0
 11
213.8632751319
 21
115.267813039
 31
0.0
  0
LINE
  5
11D
330
1F
100
AcDbEntity
  8
0
  6
Continuous
 62
     7
370
    15
100
AcDbLine
 10
213.8632751319
 20
159.2678128006
 30
0.0
 11
211.645789126
 21
159.2678128006
 31
0.0
  0
SPLINE
  5
11E
330
1F
100
AcDbEntity
  8
0
  6
Continuous
 62
     7
370
    15
100
AcDbSpline
210
0.0
220
0.0
230
1.0
 70
     8
 71
     3
 72
    11
 73
     7
 74
     0
 42
0.000000001
 43
0.00000001
 40
0.0
 40
0.0
 40
0.0
 40
0.0
 40
0.2695103129284175
 40
0.5617366403973562
 40
0.7894227163044216
 40
1.0
 40
1.0
 40
1.0
 40
1.0
 10
230.2632742810869
 20
115.489529279074
 30
0.0
 10
230.295026945744
 20
115.775153327303
 30
0.0
 10
230.3612085881989
 20
116.3704756046789
 30
0.0
 10
230.9008208954344
 20
117.0526623877235
 30
0.0
 10
231.5785584226245
 20
117.4509065065401
 30
0.0
 10
232.041054135981
 20
117.4960982364288
 30
0.0
 10
232.2632746089125
 20
117.5178120108455
 30
0.0
  0
SPLINE
  5
11F
330
1F
100
AcDbEntity
  8
0
  6
Continuous
 62
     7
370
    15
100
AcDbSpline
210
0.0
220
0.0
230
1.0
 70
     8
 71
     3
 72
    11
 73
     7
 74
     0
 42
0.000000001
 43
0.00000001
 40
0.0
 40
0.0
 40
0.0
 40
0.0
 40
0.2706713183203621
 40
0.5632119464523062
 40
0.7903895278937901
 40
1.0
 40
1.0
 40
1.0
 40
1.0
 10
232.2632746089125
 20
157.0178138287872
 30
0.0
 10
231.9768683329257
 20
157.0538336927688
 30
0.0
 10
231.3809151407824
 20
157.1287837016207
 30
0.0
 10
230.7066768659654
 20
157.6803016719809
 30
0.0
 10
230.3202154634576
 20
158.3631650757681
 30
0.0
 10
230.2817388469009
 20
158.8246393862893
 30
0.0
 10
230.2632742810869
 20
159.0460965605586
 30
0.0
  0
LINE
  5
120
330
1F
100
AcDbEntity
  8
0
  6
Continuous
 62
     7
370
    15
100
AcDbLine
 10
288.663275658
 20
157.217813489
 30
0.0
 11
274.1632760752
 21
157.217813489
 31
0.0
  0
LINE
  5
121
330
1F
100
AcDbEntity
  8
0
  6
Continuous
 62
     7
370
    15
100
AcDbLine
 10
274.1632760752
 20
117.3178123506
 30
0.0
 11
288.663275658
 21
117.3178123506
 31
0.0
  0
LINE
  5
122
330
1F
100
AcDbEntity
  8
0
  6
Continuous
 62
     7
370
    15
100
AcDbLine
 10
274.1632760752
 20
157.217813489
 30
0.0
 11
273.7343759525
 21
157.0178138288
 31
0.0
  0
LINE
  5
123
330
1F
100
AcDbEntity
  8
0
  6
Continuous
 62
     7
370
    15
100
AcDbLine
 10
273.7343759525
 20
117.5178120108
 30
0.0
 11
274.1632760752
 21
117.3178123506
 31
0.0
  0
LINE
  5
124
330
1F
100
AcDbEntity
  8
0
  6
Continuous
 62
     7
370
    15
100
AcDbLine
 10
232.2632746089
 20
117.5178120108
 30
0.0
 11
273.7343759525
 21
117.5178120108
 31
0.0
  0
LINE
  5
125
330
1F
100
AcDbEntity
  8
0
  6
Continuous
 62
     7
370
    15
100
AcDbLine
 10
273.7343759525
 20
157.0178138288
 30
0.0
 11
232.2632746089
 21
157.0178138288
 31
0.0
  0
SPLINE
  5
126
330
1F
100
AcDbEntity
  8
0
  6
Continuous
 62
     7
370
    15
100
AcDbSpline
210
0.0
220
0.0
230
1.0
 70
     8
 71
     3
 72
    11
 73
     7
 74
     0
 42
0.000000001
 43
0.00000001
 40
0.0
 40
0.0
 40
0.0
 40
0.0
 40
0.2418860895924856
 40
0.4999977846006939
 40
0.7581134239561622
 40
1.0
 40
1.0
 40
1.0
 40
1.0
 10
143.6189637768888
 20
149.6425083102792
 30
0.0
 10
143.5068111466444
 20
149.6144535438202
 30
0.0
 10
143.2749827403321
 20
149.5564621103294
 30
0.0
 10
142.9913729227765
 20
149.32047200683
 30
0.0
 10
142.798782393671
 20
149.0057745476288
 30
0.0
 10
142.7748498949549
 20
148.7680025027496
 30
0.0
 10
142.7632720459127
 20
148.6529752807825
 30
0.0
  0
SPLINE
  5
127
330
1F
100
AcDbEntity
  8
0
  6
Continuous
 62
     7
370
    15
100
AcDbSpline
210
0.0
220
0.0
230
1.0
 70
     8
 71
     3
 72
    11
 73
     7
 74
     0
 42
0.000000001
 43
0.00000001
 40
0.0
 40
0.0
 40
0.0
 40
0.0
 40
0.2418865760438377
 40
0.5000022153993059
 40
0.7581139104075142
 40
1.0
 40
1.0
 40
1.0
 40
1.0
 10
142.7632720459127
 20
125.8826505588501
 30
0.0
 10
142.7748498949549
 20
125.767623336883
 30
0.0
 10
142.798782393671
 20
125.5298512920038
 30
0.0
 10
142.9913729227764
 20
125.2151538328026
 30
0.0
 10
143.2749827403321
 20
124.9791637293033
 30
0.0
 10
143.5068111466444
 20
124.9211722958124
 30
0.0
 10
143.6189637768888
 20
124.8931175293534
 30
0.0
  0
ARC
  5
128
330
1F
100
AcDbEntity
  8
0
  6
Continuous
 62
     7
370
    15
100
AcDbCircle
 10
214.7632750603
 20
167.8521274958
 30
0.0
 40
0.3999999982177656
100
AcDbArc
 50
135.000000097
 51
180.0000004552
  0
ARC
  5
129
330
1F
100
AcDbEntity
  8
0
  6
Continuous
 62
     7
370
    15
100
AcDbCircle
 10
214.7632750603
 20
106.6834983438
 30
0.0
 40
0.3999999982177656
100
AcDbArc
 50
179.9999995448
 51
224.9999999031
  0
LINE
  5
12A
330
1F
100
AcDbEntity
  8
0
  6
Continuous
 62
     7
370
    15
100
AcDbLine
 10
215.2461177919
 20
168.9006572785
 30
0.0
 11
214.4804323342
 21
168.1349704238
 31
0.0
  0
ARC
  5
12B
330
1F
100
AcDbEntity
  8
0
  6
Continuous
 62
     7
370
    15
100
AcDbCircle
 10
229.097589638
 20
105.9178129149
 30
0.0
 40
0.399999995354907
100
AcDbArc
 50
269.9999998446
 51
315.0000005595
  0
ARC
  5
12C
330
1F
100
AcDbEntity
  8
0
  6
Continuous
 62
     7
370
    15
100
AcDbCircle
 10
215.5289604876
 20
105.9178129215
 30
0.0
 40
0.4000000016911827
100
AcDbArc
 50
225.0000001079
 51
269.9999999152
  0
LINE
  5
12D
330
1F
100
AcDbEntity
  8
0
  6
Continuous
 62
     7
370
    15
100
AcDbLine
 10
218.7414384697
 20
105.5178119065
 30
0.0
 11
220.3632752661
 21
108.3269154849
 31
0.0
  0
LINE
  5
12E
330
1F
100
AcDbEntity
  8
0
  6
Continuous
 62
     7
370
    15
100
AcDbLine
 10
214.4804323342
 20
106.4006554159
 30
0.0
 11
215.2461177919
 21
105.6349685611
 31
0.0
  0
ARC
  5
12F
330
1F
100
AcDbEntity
  8
0
  6
Continuous
 62
     7
370
    15
100
AcDbCircle
 10
229.097589638
 20
168.6178129247
 30
0.0
 40
0.3999999953549171
100
AcDbArc
 50
44.9999994405
 51
90.0000001554
  0
ARC
  5
130
330
1F
100
AcDbEntity
  8
0
  6
Continuous
 62
     7
370
    15
100
AcDbCircle
 10
215.5289604876
 20
168.6178129181
 30
0.0
 40
0.4000000016911827
100
AcDbArc
 50
90.0000000848
 51
134.9999998921
  0
LINE
  5
131
330
1F
100
AcDbEntity
  8
0
  6
Continuous
 62
     7
370
    15
100
AcDbLine
 10
220.3632752661
 20
166.2087103548
 30
0.0
 11
218.7414384697
 21
169.0178139331
 31
0.0
  0
LINE
  5
132
330
1F
100
AcDbEntity
  8
0
  6
Continuous
 62
     7
370
    15
100
AcDbLine
 10
229.3804326344
 20
105.6349685611
 30
0.0
 11
230.1461176265
 21
106.4006554159
 31
0.0
  0
LINE
  5
133
330
1F
100
AcDbEntity
  8
0
  6
Continuous
 62
     7
370
    15
100
AcDbLine
 10
230.1461176265
 20
168.1349704238
 30
0.0
 11
229.3804326344
 21
168.9006572785
 31
0.0
  0
ARC
  5
134
330
1F
100
AcDbEntity
  8
0
  6
Continuous
 62
     7
370
    15
100
AcDbCircle
 10
229.8632750636
 20
167.8521274958
 30
0.0
 40
0.3999999982049474
100
AcDbArc
 50
359.9999995081
 51
44.9999999822
  0
ARC
  5
135
330
1F
100
AcDbEntity
  8
0
  6
Continuous
 62
     7
370
    15
100
AcDbCircle
 10
229.8632750636
 20
106.6834983438
 30
0.0
 40
0.3999999982049474
100
AcDbArc
 50
315.0000000178
 51
0.0000004919
  0
LINE
  5
136
330
1F
100
AcDbEntity
  8
0
  6
Continuous
 62
     7
370
    15
100
AcDbLine
 10
225.7851121265
 20
105.5178119065
 30
0.0
 11
225.7851121265
 21
169.0178139331
 31
0.0
  0
LINE
  5
137
330
1F
100
AcDbEntity
  8
0
  6
Continuous
 62
     7
370
    15
100
AcDbLine
 10
229.0975899685
 20
137.2678129198
 30
0.0
 11
229.0975899685
 21
167.8307818445
 31
0.0
  0
LINE
  5
138
330
1F
100
AcDbEntity
  8
0
  6
Continuous
 62
     7
370
    15
100
AcDbLine
 10
229.0975899685
 20
106.7381462278
 30
0.0
 11
229.0975899685
 21
137.2678129198
 31
0.0
  0
LINE
  5
139
330
1F
100
AcDbEntity
  8
0
  6
Continuous
 62
     7
370
    15
100
AcDbLine
 10
215.5289604578
 20
106.7381462278
 30
0.0
 11
215.5289604578
 21
137.2678129198
 31
0.0
  0
LINE
  5
13A
330
1F
100
AcDbEntity
  8
0
  6
Continuous
 62
     7
370
    15
100
AcDbLine
 10
215.5289604578
 20
137.2678129198
 30
0.0
 11
215.5289604578
 21
167.8307818445
 31
0.0
  0
LINE
  5
13B
330
1F
100
AcDbEntity
  8
0
  6
Continuous
 62
     7
370
    15
100
AcDbLine
 10
218.7414384697
 20
167.8307818445
 30
0.0
 11
218.7414384697
 21
137.2678129198
 31
0.0
  0
LINE
  5
13C
330
1F
100
AcDbEntity
  8
0
  6
Continuous
 62
     7
370
    15
100
AcDbLine
 10
218.7414384697
 20
137.2678129198
 30
0.0
 11
218.7414384697
 21
106.7381462278
 31
0.0
  0
LINE
  5
13D
330
1F
100
AcDbEntity
  8
0
  6
Continuous
 62
     7
370
    15
100
AcDbLine
 10
218.7414384697
 20
105.5178119065
 30
0.0
 11
218.7414384697
 21
106.7381462278
 31
0.0
  0
LINE
  5
13E
330
1F
100
AcDbEntity
  8
0
  6
Continuous
 62
     7
370
    15
100
AcDbLine
 10
218.7414384697
 20
167.8307818445
 30
0.0
 11
218.7414384697
 21
169.0178139331
 31
0.0
  0
SPLINE
  5
13F
330
1F
100
AcDbEntity
  8
0
  6
Continuous
 62
     7
370
    15
100
AcDbSpline
210
0.0
220
0.0
230
1.0
 70
    24
 71
     3
 72
    10
 73
     6
 74
     0
 42
0.000000001
 43
0.00000001
 40
0.0
 40
0.0
 40
0.0
 40
0.0
 40
0.5
 40
0.5
 40
1.0
 40
1.0
 40
1.0
 40
1.0
 10
229.0975896369077
 20
137.2678129198163
 30
0.0
 10
229.1486140949885
 20
137.2678129198163
 30
0.0
 10
229.2016573932879
 20
137.2678129198163
 30
0.0
 10
229.2996686280502
 20
137.2678129198163
 30
0.0
 10
229.3443526100034
 20
137.2678129198163
 30
0.0
 10
229.3804323494466
 20
137.2678129198163
 30
0.0
  0
LINE
  5
140
330
1F
100
AcDbEntity
  8
0
  6
Continuous
 62
     7
370
    15
100
AcDbLine
 10
229.3804326344
 20
137.2678129164
 30
0.0
 11
229.3804326344
 21
106.8201435926
 31
0.0
  0
SPLINE
  5
141
330
1F
100
AcDbEntity
  8
0
  6
Continuous
 62
     7
370
    15
100
AcDbSpline
210
0.0
220
0.0
230
1.0
 70
     8
 71
     3
 72
    10
 73
     6
 74
     0
 42
0.000000001
 43
0.00000001
 40
0.0
 40
0.0
 40
0.0
 40
0.0
 40
0.5
 40
0.5
 40
1.0
 40
1.0
 40
1.0
 40
1.0
 10
229.0975896367562
 20
106.7381454325813
 30
0.0
 10
229.1546692007345
 20
106.7381454324818
 30
0.0
 10
229.2102363919255
 20
106.7469443416852
 30
0.0
 10
229.3066162257833
 20
106.7765466842046
 30
0.0
 10
229.3472486924036
 20
106.7968786712795
 30
0.0
 10
229.3804323524882
 20
106.8201436226842
 30
0.0
  0
LINE
  5
142
330
1F
100
AcDbEntity
  8
0
  6
Continuous
 62
     7
370
    15
100
AcDbLine
 10
229.3804326344
 20
167.7357459637
 30
0.0
 11
229.3804326344
 21
137.2678129164
 31
0.0
  0
SPLINE
  5
143
330
1F
100
AcDbEntity
  8
0
  6
Continuous
 62
     7
370
    15
100
AcDbSpline
210
0.0
220
0.0
230
1.0
 70
     8
 71
     3
 72
     8
 73
     4
 74
     0
 42
0.000000001
 43
0.00000001
 40
0.0
 40
0.0
 40
0.0
 40
0.0
 40
1.0
 40
1.0
 40
1.0
 40
1.0
 10
229.3804323511849
 20
167.7357466281984
 30
0.0
 10
229.3092434450497
 20
167.7935273601694
 30
0.0
 10
229.2061361256682
 20
167.8307821140436
 30
0.0
 10
229.0975896367557
 20
167.8307821138261
 30
0.0
  0
SPLINE
  5
144
330
1F
100
AcDbEntity
  8
0
  6
Continuous
 62
     7
370
    15
100
AcDbSpline
210
0.0
220
0.0
230
1.0
 70
     8
 71
     3
 72
    10
 73
     6
 74
     0
 42
0.000000001
 43
0.00000001
 40
0.0
 40
0.0
 40
0.0
 40
0.0
 40
0.5
 40
0.5
 40
1.0
 40
1.0
 40
1.0
 40
1.0
 10
215.253145399034
 20
106.8153365473603
 30
0.0
 10
215.2861059755451
 20
106.7933399828937
 30
0.0
 10
215.3263372211704
 20
106.7740687183324
 30
0.0
 10
215.4201110375749
 20
106.7463482591293
 30
0.0
 10
215.4738766065795
 20
106.738145432546
 30
0.0
 10
215.5289604870228
 20
106.7381454324946
 30
0.0
  0
SPLINE
  5
145
330
1F
100
AcDbEntity
  8
0
  6
Continuous
 62
     7
370
    15
100
AcDbSpline
210
0.0
220
0.0
230
1.0
 70
     8
 71
     3
 72
     8
 73
     4
 74
     0
 42
0.000000001
 43
0.00000001
 40
0.0
 40
0.0
 40
0.0
 40
0.0
 40
1.0
 40
1.0
 40
1.0
 40
1.0
 10
215.2461177756934
 20
106.8201436194078
 30
0.0
 10
215.2484269428414
 20
106.8185246701816
 30
0.0
 10
215.2507693334006
 20
106.8169222379845
 30
0.0
 10
215.2531453989321
 20
106.8153365473103
 30
0.0
  0
LINE
  5
146
330
1F
100
AcDbEntity
  8
0
  6
Continuous
 62
     7
370
    15
100
AcDbLine
 10
215.2461177919
 20
106.8201435926
 30
0.0
 11
215.2461177919
 21
137.2678129174
 31
0.0
  0
SPLINE
  5
147
330
1F
100
AcDbEntity
  8
0
  6
Continuous
 62
     7
370
    15
100
AcDbSpline
210
0.0
220
0.0
230
1.0
 70
    24
 71
     3
 72
    10
 73
     6
 74
     0
 42
0.000000001
 43
0.00000001
 40
0.0
 40
0.0
 40
0.0
 40
0.0
 40
0.5
 40
0.5
 40
1.0
 40
1.0
 40
1.0
 40
1.0
 10
215.2461177739078
 20
137.2678129198163
 30
0.0
 10
215.2821975138516
 20
137.2678129198163
 30
0.0
 10
215.3268814961341
 20
137.2678129198163
 30
0.0
 10
215.4248927310742
 20
137.2678129198163
 30
0.0
 10
215.4779360292206
 20
137.2678129198163
 30
0.0
 10
215.5289604869451
 20
137.2678129198163
 30
0.0
  0
LINE
  5
148
330
1F
100
AcDbEntity
  8
0
  6
Continuous
 62
     7
370
    15
100
AcDbLine
 10
215.2461177919
 20
137.2678129174
 30
0.0
 11
215.2461177919
 21
167.7357459637
 31
0.0
  0
SPLINE
  5
149
330
1F
100
AcDbEntity
  8
0
  6
Continuous
 62
     7
370
    15
100
AcDbSpline
210
0.0
220
0.0
230
1.0
 70
     8
 71
     3
 72
     8
 73
     4
 74
     0
 42
0.000000001
 43
0.00000001
 40
0.0
 40
0.0
 40
0.0
 40
0.0
 40
1.0
 40
1.0
 40
1.0
 40
1.0
 10
215.5289604869016
 20
167.8307821140414
 30
0.0
 10
215.4204600709072
 20
167.8307821140444
 30
0.0
 10
215.3172727929708
 20
167.7934998558581
 30
0.0
 10
215.2461177739647
 20
167.7357466292839
 30
0.0
  0
LINE
  5
14A
330
1F
100
AcDbEntity
  8
0
  6
Continuous
 62
     7
370
    15
100
AcDbLine
 10
224.1632753301
 20
166.2087103548
 30
0.0
 11
224.1632753301
 21
108.3269154849
 31
0.0
  0
SPLINE
  5
14B
330
1F
100
AcDbEntity
  8
0
  6
Continuous
 62
     7
370
    15
100
AcDbSpline
210
0.0
220
0.0
230
1.0
 70
     8
 71
     3
 72
     8
 73
     4
 74
     0
 42
0.000000001
 43
0.00000001
 40
0.0
 40
0.0
 40
0.0
 40
0.0
 40
0.000837255004582
 40
0.000837255004582
 40
0.000837255004582
 40
0.000837255004582
 10
218.7414384218511
 20
106.7381454342641
 30
0.0
 10
218.8488639951466
 20
106.8681517172183
 30
0.0
 10
218.9555531285331
 20
106.9983137214787
 30
0.0
 10
219.0614572783915
 20
107.1286376016016
 30
0.0
  0
LINE
  5
14C
330
1F
100
AcDbEntity
  8
0
  6
Continuous
 62
     7
370
    15
100
AcDbLine
 10
218.7414384697
 20
137.2678129198
 30
0.0
 11
220.3632752661
 21
137.2678129198
 31
0.0
  0
LINE
  5
14D
330
1F
100
AcDbEntity
  8
0
  6
Continuous
 62
     7
370
    15
100
AcDbLine
 10
220.3632752661
 20
109.4690187099
 30
0.0
 11
220.3632752661
 21
137.2678129198
 31
0.0
  0
SPLINE
  5
14E
330
1F
100
AcDbEntity
  8
0
  6
Continuous
 62
     7
370
    15
100
AcDbSpline
210
0.0
220
0.0
230
1.0
 70
     8
 71
     3
 72
     8
 73
     4
 74
     0
 42
0.000000001
 43
0.00000001
 40
0.0000000000192562
 40
0.0000000000192562
 40
0.0000000000192562
 40
0.0000000000192562
 40
0.0026780796350986
 40
0.0026780796350986
 40
0.0026780796350986
 40
0.0026780796350986
 10
219.0614573010053
 20
107.1286375871949
 30
0.0
 10
219.4963218848605
 20
107.908249005738
 30
0.0
 10
219.9303352747656
 20
108.6883361698718
 30
0.0
 10
220.3632750619078
 20
109.4690181223491
 30
0.0
  0
SPLINE
  5
14F
330
1F
100
AcDbEntity
  8
0
  6
Continuous
 62
     7
370
    15
100
AcDbSpline
210
0.0
220
0.0
230
1.0
 70
     8
 71
     3
 72
     8
 73
     4
 74
     0
 42
0.000000001
 43
0.00000001
 40
0.0000000000565945
 40
0.0000000000565945
 40
0.0000000000565945
 40
0.0000000000565945
 40
0.0008709498345046
 40
0.0008709498345046
 40
0.0008709498345046
 40
0.0008709498345046
 10
219.1320851662549
 20
167.2803510400189
 30
0.0
 10
219.0022364148891
 20
167.4639580070514
 30
0.0
 10
218.8720122609446
 20
167.6474324383126
 30
0.0
 10
218.7414384200071
 20
167.8307821137689
 30
0.0
  0
SPLINE
  5
150
330
1F
100
AcDbEntity
  8
0
  6
Continuous
 62
     7
370
    15
100
AcDbSpline
210
0.0
220
0.0
230
1.0
 70
     8
 71
     3
 72
     8
 73
     4
 74
     0
 42
0.000000001
 43
0.00000001
 40
0.0
 40
0.0
 40
0.0
 40
0.0
 40
0.0025330787421051
 40
0.0025330787421051
 40
0.0025330787421051
 40
0.0025330787421051
 10
219.1320851762487
 20
167.2803510124956
 30
0.0
 10
219.5433163226731
 20
166.5429013192343
 30
0.0
 10
219.9537761994155
 20
165.8050207275547
 30
0.0
 10
220.363275065828
 20
165.0666077101399
 30
0.0
  0
LINE
  5
151
330
1F
100
AcDbEntity
  8
0
  6
Continuous
 62
     7
370
    15
100
AcDbLine
 10
220.3632752661
 20
137.2678129198
 30
0.0
 11
220.3632752661
 21
165.0666071298
 31
0.0
  0
LINE
  5
152
330
1F
100
AcDbEntity
  8
0
  6
Continuous
 62
     7
370
    15
100
AcDbLine
 10
214.4804323342
 20
107.6324375542
 30
0.0
 11
214.4804323342
 21
137.2678129177
 31
0.0
  0
LINE
  5
153
330
1F
100
AcDbEntity
  8
0
  6
Continuous
 62
     7
370
    15
100
AcDbLine
 10
214.4804323342
 20
137.2678129177
 30
0.0
 11
214.4804323342
 21
166.9031882854
 31
0.0
  0
SPLINE
  5
154
330
1F
100
AcDbEntity
  8
0
  6
Continuous
 62
     7
370
    15
100
AcDbSpline
210
0.0
220
0.0
230
1.0
 70
     8
 71
     3
 72
     9
 73
     5
 74
     0
 42
0.000000001
 43
0.00000001
 40
0.0
 40
0.0
 40
0.0
 40
0.0
 40
0.5013664788243524
 40
1.0
 40
1.0
 40
1.0
 40
1.0
 10
214.8941046104132
 20
167.449521525085
 30
0.0
 10
214.8247503998655
 20
167.358550781656
 30
0.0
 10
214.6864200298129
 20
167.1771051779485
 30
0.0
 10
214.5489696942758
 20
166.9943268753669
 30
0.0
 10
214.4804323494801
 20
166.9031874867561
 30
0.0
  0
SPLINE
  5
155
330
1F
100
AcDbEntity
  8
0
  6
Continuous
 62
     7
370
    15
100
AcDbSpline
210
0.0
220
0.0
230
1.0
 70
     8
 71
     3
 72
     8
 73
     4
 74
     0
 42
0.000000001
 43
0.00000001
 40
0.0
 40
0.0
 40
0.0
 40
0.0
 40
0.0005364352012432
 40
0.0005364352012432
 40
0.0005364352012432
 40
0.0005364352012432
 10
215.2461177739623
 20
167.7357466292855
 30
0.0
 10
215.1286604155218
 20
167.6404119423294
 30
0.0
 10
215.0113210984364
 20
167.5450044693847
 30
0.0
 10
214.8941047095207
 20
167.4495216062745
 30
0.0
  0
SPLINE
  5
156
330
1F
100
AcDbEntity
  8
0
  6
Continuous
 62
     7
370
    15
100
AcDbSpline
210
0.0
220
0.0
230
1.0
 70
     8
 71
     3
 72
     8
 73
     4
 74
     0
 42
0.000000001
 43
0.00000001
 40
0.0
 40
0.0
 40
0.0
 40
0.0
 40
0.0005532767344487
 40
0.0005532767344487
 40
0.0005532767344487
 40
0.0005532767344487
 10
214.9238910881595
 20
107.0471467111746
 30
0.0
 10
215.0309528057032
 20
106.9713537800609
 30
0.0
 10
215.1383669318536
 20
106.8956873700925
 30
0.0
 10
215.2461177757941
 20
106.8201436194444
 30
0.0
  0
SPLINE
  5
157
330
1F
100
AcDbEntity
  8
0
  6
Continuous
 62
     7
370
    15
100
AcDbSpline
210
0.0
220
0.0
230
1.0
 70
     8
 71
     3
 72
     9
 73
     5
 74
     0
 42
0.000000001
 43
0.00000001
 40
0.0
 40
0.0
 40
0.0
 40
0.0
 40
0.501306738790161
 40
1.0
 40
1.0
 40
1.0
 40
1.0
 10
214.9238910811519
 20
107.0471467102832
 30
0.0
 10
214.8495353595997
 20
107.144567229801
 30
0.0
 10
214.7012115574269
 20
107.3389003834963
 30
0.0
 10
214.5538970815858
 20
107.5347629930204
 30
0.0
 10
214.4804323452051
 20
107.6324383565131
 30
0.0
  0
SPLINE
  5
158
330
1F
100
AcDbEntity
  8
0
  6
Continuous
 62
     7
370
    15
100
AcDbSpline
210
0.0
220
0.0
230
1.0
 70
     8
 71
     3
 72
     8
 73
     4
 74
     0
 42
0.000000001
 43
0.00000001
 40
0.0
 40
0.0
 40
0.0
 40
0.0
 40
0.0008530937296102
 40
0.0008530937296102
 40
0.0008530937296102
 40
0.0008530937296102
 10
229.9398951087636
 20
167.2803510120674
 30
0.0
 10
229.7537192122468
 20
167.4323407287345
 30
0.0
 10
229.5672249698489
 20
167.5841357281919
 30
0.0
 10
229.3804323511893
 20
167.7357466282011
 30
0.0
  0
LINE
  5
159
330
1F
100
AcDbEntity
  8
0
  6
Continuous
 62
     7
370
    15
100
AcDbLine
 10
230.1461176265
 20
167.0667881342
 30
0.0
 11
229.9398948688
 21
167.2803515764
 31
0.0
  0
LINE
  5
15A
330
1F
100
AcDbEntity
  8
0
  6
Continuous
 62
     7
370
    15
100
AcDbLine
 10
230.1461176265
 20
167.0667881342
 30
0.0
 11
230.1461176265
 21
137.2678129182
 31
0.0
  0
LINE
  5
15B
330
1F
100
AcDbEntity
  8
0
  6
Continuous
 62
     7
370
    15
100
AcDbLine
 10
230.1461176265
 20
137.2678129182
 30
0.0
 11
230.1461176265
 21
107.4688377055
 31
0.0
  0
SPLINE
  5
15C
330
1F
100
AcDbEntity
  8
0
  6
Continuous
 62
     7
370
    15
100
AcDbSpline
210
0.0
220
0.0
230
1.0
 70
     8
 71
     3
 72
     8
 73
     4
 74
     0
 42
0.000000001
 43
0.00000001
 40
0.0
 40
0.0
 40
0.0
 40
0.0
 40
0.0004729524062039
 40
0.0004729524062039
 40
0.0004729524062039
 40
0.0004729524062039
 10
229.8175640083946
 20
107.1286375912411
 30
0.0
 10
229.927103459088
 20
107.2420169726755
 30
0.0
 10
230.0366216148606
 20
107.3554169319349
 30
0.0
 10
230.1461177746739
 20
107.4688381221016
 30
0.0
  0
SPLINE
  5
15D
330
1F
100
AcDbEntity
  8
0
  6
Continuous
 62
     7
370
    15
100
AcDbSpline
210
0.0
220
0.0
230
1.0
 70
     8
 71
     3
 72
     8
 73
     4
 74
     0
 42
0.000000001
 43
0.00000001
 40
0.0
 40
0.0
 40
0.0
 40
0.0
 40
0.000751447134276
 40
0.000751447134276
 40
0.000751447134276
 40
0.000751447134276
 10
229.3804323530519
 20
106.8201436214899
 30
0.0
 10
229.5267769539119
 20
106.9227453239935
 30
0.0
 10
229.6725007369421
 20
107.0255734123688
 30
0.0
 10
229.81756399253
 20
107.1286376074656
 30
0.0
  0
SPLINE
  5
15E
330
1F
100
AcDbEntity
  8
0
  6
Continuous
 62
     7
370
    15
100
AcDbSpline
210
0.0
220
0.0
230
1.0
 70
    24
 71
     3
 72
    10
 73
     6
 74
     0
 42
0.000000001
 43
0.00000001
 40
0.0
 40
0.0
 40
0.0
 40
0.0
 40
0.5
 40
0.5
 40
1.0
 40
1.0
 40
1.0
 40
1.0
 10
214.3632750620808
 20
137.2678129198163
 30
0.0
 10
214.363275061288
 20
137.2678129198163
 30
0.0
 10
214.3734244566466
 20
137.2678129198163
 30
0.0
 10
214.4140220392997
 20
137.2678129198163
 30
0.0
 10
214.4443526087696
 20
137.2678129198163
 30
0.0
 10
214.4804323489078
 20
137.2678129198163
 30
0.0
  0
SPLINE
  5
15F
330
1F
100
AcDbEntity
  8
0
  6
Continuous
 62
     7
370
    15
100
AcDbSpline
210
0.0
220
0.0
230
1.0
 70
     8
 71
     3
 72
    10
 73
     6
 74
     0
 42
0.000000001
 43
0.00000001
 40
0.0
 40
0.0
 40
0.0
 40
0.0
 40
0.5
 40
0.5
 40
1.0
 40
1.0
 40
1.0
 40
1.0
 10
214.3632750620808
 20
107.9618784117852
 30
0.0
 10
214.3632750603748
 20
107.8981328647542
 30
0.0
 10
214.3771064028884
 20
107.8363373575627
 30
0.0
 10
214.4192981065137
 20
107.7256112966624
 30
0.0
 10
214.4478068402304
 20
107.6759238046423
 30
0.0
 10
214.4804323462897
 20
107.6324383574468
 30
0.0
  0
SPLINE
  5
160
330
1F
100
AcDbEntity
  8
0
  6
Continuous
 62
     7
370
    15
100
AcDbSpline
210
0.0
220
0.0
230
1.0
 70
    24
 71
     3
 72
    31
 73
    27
 74
     0
 42
0.000000001
 43
0.00000001
 40
0.0
 40
0.0
 40
0.0
 40
0.0
 40
0.0133116724883039
 40
0.0266104829800141
 40
0.0399002793452951
 40
0.0531849172870879
 40
0.066468257000281
 40
0.079754159811356
 40
0.09304648481311
 40
0.1063490855090961
 40
0.1196658064823355
 40
0.1817950735702446
 40
0.2439504667220478
 40
0.3077169628212479
 40
0.3715105117133549
 40
0.500620117330448
 40
0.6296447221270358
 40
0.6932864260162216
 40
0.756955940040424
 40
0.8188879793465256
 40
0.8808473402560892
 40
0.9046957897988834
 40
0.9285130513077766
 40
0.9523213476995956
 40
0.9761429269815893
 40
1.0
 40
1.0
 40
1.0
 40
1.0
 10
214.3632750619078
 20
107.961878411929
 30
0.0
 10
214.3632750619078
 20
108.0123938932903
 30
0.0
 10
214.3632750619078
 20
108.1133760469733
 30
0.0
 10
214.3632750619078
 20
108.275493557786
 30
0.0
 10
214.3632750619078
 20
108.4452930163398
 30
0.0
 10
214.3632750619078
 20
108.6235436423073
 30
0.0
 10
214.3632750619078
 20
108.8100393507463
 30
0.0
 10
214.3632750619078
 20
109.0048356717232
 30
0.0
 10
214.3632750619078
 20
109.2079161889502
 30
0.0
 10
214.3632750619078
 20
109.4192907065431
 30
0.0
 10
214.3632750619078
 20
109.9071821150641
 30
0.0
 10
214.3632750619078
 20
110.7420902446338
 30
0.0
 10
214.3632750619078
 20
112.0529279795005
 30
0.0
 10
214.3632750619078
 20
113.5394215686417
 30
0.0
 10
214.3632750619078
 20
115.7628888545533
 30
0.0
 10
214.3632750619078
 20
118.9299631371337
 30
0.0
 10
214.3632750619078
 20
122.5125711369
 30
0.0
 10
214.3632750619078
 20
125.5511095439489
 30
0.0
 10
214.3632750619078
 20
127.8722758844766
 30
0.0
 10
214.3632750619078
 20
130.2325517918507
 30
0.0
 10
214.3632750619078
 20
132.127393115365
 30
0.0
 10
214.3632750619078
 20
133.5446997491401
 30
0.0
 10
214.3632750619078
 20
134.4722901515049
 30
0.0
 10
214.3632750619078
 20
135.4021239860381
 30
0.0
 10
214.3632750619078
 20
136.3342182212041
 30
0.0
 10
214.3632750619078
 20
136.9564602799023
 30
0.0
 10
214.3632750619078
 20
137.2678129191497
 30
0.0
  0
SPLINE
  5
161
330
1F
100
AcDbEntity
  8
0
  6
Continuous
 62
     7
370
    15
100
AcDbSpline
210
0.0
220
0.0
230
1.0
 70
    24
 71
     3
 72
    31
 73
    27
 74
     0
 42
0.000000001
 43
0.00000001
 40
0.0
 40
0.0
 40
0.0
 40
0.0
 40
0.0132547820123591
 40
0.0264968712764316
 40
0.0397300667029705
 40
0.0529581748652544
 40
0.0661850067287817
 40
0.079414374362035
 40
0.0926500876424864
 40
0.1058959509720582
 40
0.1191557600161537
 40
0.1810884463809925
 40
0.2430471624419542
 40
0.3066892812087729
 40
0.3703583835969362
 40
0.49938299356959
 40
0.6284926043660557
 40
0.6922587072395494
 40
0.756052656237941
 40
0.8181812942486995
 40
0.8803373241552115
 40
0.9042880502402492
 40
0.9282071646265636
 40
0.9521171770684623
 40
0.9760406230125365
 40
1.0
 40
1.0
 40
1.0
 40
1.0
 10
214.3632750619078
 20
137.2678129191497
 30
0.0
 10
214.3632750619078
 20
137.4407930837842
 30
0.0
 10
214.3632750619078
 20
137.7865877676518
 30
0.0
 10
214.3632750619078
 20
138.3049327293555
 30
0.0
 10
214.3632750619078
 20
138.822632529585
 30
0.0
 10
214.3632750619078
 20
139.3396870908691
 30
0.0
 10
214.3632750619078
 20
139.8560961462799
 30
0.0
 10
214.3632750619078
 20
140.3718600680116
 30
0.0
 10
214.3632750619078
 20
140.8869768624346
 30
0.0
 10
214.3632750619078
 20
141.4014533746909
 30
0.0
 10
214.3632750619078
 20
142.5436567563416
 30
0.0
 10
214.3632750619078
 20
144.3027470534645
 30
0.0
 10
214.3632750619078
 20
146.6626748005094
 30
0.0
 10
214.3632750619078
 20
148.9841842060443
 30
0.0
 10
214.3632750619078
 20
152.0227501414982
 30
0.0
 10
214.3632750619078
 20
155.605662868426
 30
0.0
 10
214.3632750619078
 20
158.7724659927133
 30
0.0
 10
214.3632750619078
 20
160.9959788362036
 30
0.0
 10
214.3632750619078
 20
162.4822916613359
 30
0.0
 10
214.3632750619078
 20
163.7933790607351
 30
0.0
 10
214.3632750619078
 20
164.6927746420874
 30
0.0
 10
214.3632750619078
 20
165.2889030530363
 30
0.0
 10
214.3632750619078
 20
165.6516596807475
 30
0.0
 10
214.3632750619078
 20
165.9870609425739
 30
0.0
 10
214.3632750619078
 20
166.2976009546866
 30
0.0
 10
214.3632750619078
 20
166.4816525655277
 30
0.0
 10
214.3632750619078
 20
166.5737474266765
 30
0.0
  0
SPLINE
  5
162
330
1F
100
AcDbEntity
  8
0
  6
Continuous
 62
     7
370
    15
100
AcDbSpline
210
0.0
220
0.0
230
1.0
 70
     8
 71
     3
 72
    10
 73
     6
 74
     0
 42
0.000000001
 43
0.00000001
 40
0.0
 40
0.0
 40
0.0
 40
0.0
 40
0.5
 40
0.5
 40
1.0
 40
1.0
 40
1.0
 40
1.0
 10
214.4804323493515
 20
166.9031874869755
 30
0.0
 10
214.4478045048212
 20
166.8596989231238
 30
0.0
 10
214.4196624760926
 20
166.8108612976881
 30
0.0
 10
214.3770100476552
 20
166.6991444067045
 30
0.0
 10
214.3632750600994
 20
166.6374953843008
 30
0.0
 10
214.3632750620808
 20
166.5737474266766
 30
0.0
  0
SPLINE
  5
163
330
1F
100
AcDbEntity
  8
0
  6
Continuous
 62
     7
370
    15
100
AcDbSpline
210
0.0
220
0.0
230
1.0
 70
    24
 71
     3
 72
    31
 73
    27
 74
     0
 42
0.000000001
 43
0.00000001
 40
0.0
 40
0.0
 40
0.0
 40
0.0
 40
0.0132812016276926
 40
0.0265491186919267
 40
0.0398077152385838
 40
0.053060963676847
 40
0.0663128412253784
 40
0.0795673263369126
 40
0.0928283951172993
 40
0.106100017755096
 40
0.1193861549776922
 40
0.1814697477025651
 40
0.2435789043856598
 40
0.3073751402709176
 40
0.3711978865606937
 40
0.5004548220512559
 40
0.6296492533733385
 40
0.6933536988963068
 40
0.7570854423686716
 40
0.8190239570172848
 40
0.8809898899669507
 40
0.9048104694842793
 40
0.9285987886313996
 40
0.9523778222354777
 40
0.9761705720226982
 40
1.0
 40
1.0
 40
1.0
 40
1.0
 10
230.2632750619078
 20
166.7737072051146
 30
0.0
 10
230.2632750619078
 20
166.7263930824623
 30
0.0
 10
230.2632750619078
 20
166.6318121632569
 30
0.0
 10
230.2632750619078
 20
166.4788674446786
 30
0.0
 10
230.2632750619078
 20
166.3179227456478
 30
0.0
 10
230.2632750619078
 20
166.1481784472839
 30
0.0
 10
230.2632750619078
 20
165.9698487681979
 30
0.0
 10
230.2632750619078
 20
165.7828759927528
 30
0.0
 10
230.2632750619078
 20
165.5872771592711
 30
0.0
 10
230.2632750619078
 20
165.3830421719005
 30
0.0
 10
230.2632750619078
 20
164.9097365570164
 30
0.0
 10
230.2632750619078
 20
164.0936457980353
 30
0.0
 10
230.2632750619078
 20
162.7996923853536
 30
0.0
 10
230.2632750619078
 20
161.3214647594073
 30
0.0
 10
230.2632750619078
 20
159.0964077418084
 30
0.0
 10
230.2632750619078
 20
155.9058759327401
 30
0.0
 10
230.2632750619078
 20
152.2756605333367
 30
0.0
 10
230.2632750619078
 20
149.1886175528527
 30
0.0
 10
230.2632750619078
 20
146.8282016243867
 30
0.0
 10
230.2632750619078
 20
144.4263404459068
 30
0.0
 10
230.2632750619078
 20
142.4976986532658
 30
0.0
 10
230.2632750619078
 20
141.0552102273588
 30
0.0
 10
230.2632750619078
 20
140.1117167695493
 30
0.0
 10
230.2632750619078
 20
139.1658616361282
 30
0.0
 10
230.2632750619078
 20
138.2176269869281
 30
0.0
 10
230.2632750619078
 20
137.5845801312608
 30
0.0
 10
230.2632750619078
 20
137.2678129198163
 30
0.0
  0
SPLINE
  5
164
330
1F
100
AcDbEntity
  8
0
  6
Continuous
 62
     7
370
    15
100
AcDbSpline
210
0.0
220
0.0
230
1.0
 70
    24
 71
     3
 72
    10
 73
     6
 74
     0
 42
0.000000001
 43
0.00000001
 40
0.0
 40
0.0
 40
0.0
 40
0.0
 40
0.5
 40
0.5
 40
1.0
 40
1.0
 40
1.0
 40
1.0
 10
230.2632750617347
 20
137.2678129198163
 30
0.0
 10
230.2632750625708
 20
137.2678129198163
 30
0.0
 10
230.2531256672356
 20
137.2678129198163
 30
0.0
 10
230.2125280845821
 20
137.2678129198163
 30
0.0
 10
230.1821975150883
 20
137.2678129198163
 30
0.0
 10
230.1461177749078
 20
137.2678129198163
 30
0.0
  0
SPLINE
  5
165
330
1F
100
AcDbEntity
  8
0
  6
Continuous
 62
     7
370
    15
100
AcDbSpline
210
0.0
220
0.0
230
1.0
 70
     8
 71
     3
 72
     8
 73
     4
 74
     0
 42
0.000000001
 43
0.00000001
 40
0.0
 40
0.0
 40
0.0
 40
0.0
 40
1.0
 40
1.0
 40
1.0
 40
1.0
 10
230.2632750617347
 20
166.7737072058354
 30
0.0
 10
230.2632750640496
 20
166.8822159478478
 30
0.0
 10
230.2215095709753
 20
166.9886934043606
 30
0.0
 10
230.146117775017
 20
167.0667877171188
 30
0.0
  0
SPLINE
  5
166
330
1F
100
AcDbEntity
  8
0
  6
Continuous
 62
     7
370
    15
100
AcDbSpline
210
0.0
220
0.0
230
1.0
 70
    24
 71
     3
 72
    31
 73
    27
 74
     0
 42
0.000000001
 43
0.00000001
 40
0.0
 40
0.0
 40
0.0
 40
0.0
 40
0.0132396092829651
 40
0.0264660619749989
 40
0.0396832851243741
 40
0.0528952140093957
 40
0.0661057886396717
 40
0.0793189502362784
 40
0.0925386377065146
 40
0.1057687841289894
 40
0.1190133132646836
 40
0.1809527911301388
 40
0.2429177637800338
 40
0.3066226289496453
 40
0.3703539547299943
 40
0.4995483900206427
 40
0.628805329481684
 40
0.6926011615669297
 40
0.7564243174596635
 40
0.8185072677955773
 40
0.8806170735308714
 40
0.9045126188426981
 40
0.9283754862329857
 40
0.9522288665536466
 40
0.9760959783113874
 40
1.0
 40
1.0
 40
1.0
 40
1.0
 10
230.2632750619078
 20
137.2678129198163
 30
0.0
 10
230.2632750619078
 20
137.0918222312584
 30
0.0
 10
230.2632750619078
 20
136.7400157412896
 30
0.0
 10
230.2632750619078
 20
136.2126721291667
 30
0.0
 10
230.2632750619078
 20
135.6860092278304
 30
0.0
 10
230.2632750619078
 20
135.1600271229243
 30
0.0
 10
230.2632750619078
 20
134.6347261008007
 30
0.0
 10
230.2632750619078
 20
134.1101057729924
 30
0.0
 10
230.2632750619078
 20
133.5861682482251
 30
0.0
 10
230.2632750619078
 20
133.0629063051479
 30
0.0
 10
230.2632750619078
 20
131.9002365539742
 30
0.0
 10
230.2632750619078
 20
130.1096144248627
 30
0.0
 10
230.2632750619078
 20
127.7081015714507
 30
0.0
 10
230.2632750619078
 20
125.3473391879243
 30
0.0
 10
230.2632750619078
 20
122.2602677270404
 30
0.0
 10
230.2632750619078
 20
118.6297497179999
 30
0.0
 10
230.2632750619078
 20
115.4394855918994
 30
0.0
 10
230.2632750619078
 20
113.2143814234059
 30
0.0
 10
230.2632750619078
 20
111.7363282565473
 30
0.0
 10
230.2632750619078
 20
110.4421297492667
 30
0.0
 10
230.2632750619078
 20
109.5630958182019
 30
0.0
 10
230.2632750619078
 20
108.9855652945031
 30
0.0
 10
230.2632750619078
 20
108.6363904441193
 30
0.0
 10
230.2632750619078
 20
108.3157051635368
 30
0.0
 10
230.2632750619078
 20
108.0209169327484
 30
0.0
 10
230.2632750619078
 20
107.8482958583817
 30
0.0
 10
230.2632750619078
 20
107.7619186341484
 30
0.0
  0
SPLINE
  5
167
330
1F
100
AcDbEntity
  8
0
  6
Continuous
 62
     7
370
    15
100
AcDbSpline
210
0.0
220
0.0
230
1.0
 70
     8
 71
     3
 72
     8
 73
     4
 74
     0
 42
0.000000001
 43
0.00000001
 40
0.0
 40
0.0
 40
0.0
 40
0.0
 40
1.0
 40
1.0
 40
1.0
 40
1.0
 10
230.1461177746451
 20
107.4688381221293
 30
0.0
 10
230.2215038986625
 20
107.5469265595682
 30
0.0
 10
230.2632750641376
 20
107.6534175610429
 30
0.0
 10
230.2632750617347
 20
107.7619186341466
 30
0.0
  0
LINE
  5
168
330
1F
100
AcDbEntity
  8
0
  6
Continuous
 62
     7
370
    15
100
AcDbLine
 10
311.163276552
 20
157.2678124728
 30
0.0
 11
311.163276552
 21
117.2678133669
 31
0.0
  0
LINE
  5
169
330
1F
100
AcDbEntity
  8
0
  6
Continuous
 62
     7
370
    15
100
AcDbLine
 10
308.276526748
 20
162.2678132923
 30
0.0
 11
308.276526748
 21
112.2678125473
 31
0.0
  0
LINE
  5
16A
330
1F
100
AcDbEntity
  8
0
  6
Continuous
 62
     7
370
    15
100
AcDbLine
 10
290.1632786978
 20
162.2678132923
 30
0.0
 11
290.1632786978
 21
112.2678125473
 31
0.0
  0
LINE
  5
16B
330
1F
100
AcDbEntity
  8
0
  6
Continuous
 62
     7
370
    15
100
AcDbLine
 10
288.663275658
 20
160.7678121152
 30
0.0
 11
288.663275658
 21
113.7678137245
 31
0.0
  0
SPLINE
  5
16C
330
1F
100
AcDbEntity
  8
0
  6
Continuous
 62
     7
370
    15
100
AcDbSpline
210
0.0
220
0.0
230
1.0
 70
    24
 71
     3
 72
    14
 73
    10
 74
     0
 42
0.000000001
 43
0.00000001
 40
0.0
 40
0.0
 40
0.0
 40
0.0
 40
0.25
 40
0.25
 40
0.5
 40
0.5
 40
0.75
 40
0.75
 40
1.0
 40
1.0
 40
1.0
 40
1.0
 10
214.3632750619078
 20
137.2678129198163
 30
0.0
 10
214.3632750617066
 20
137.2678129198163
 30
0.0
 10
214.3525356944577
 20
137.2678129198163
 30
0.0
 10
214.3038027358152
 20
137.2678129198163
 30
0.0
 10
214.2656439928631
 20
137.2678129198163
 30
0.0
 10
214.1680129199948
 20
137.2678129198163
 30
0.0
 10
214.1088708954654
 20
137.2678129198163
 30
0.0
 10
213.9857739439249
 20
137.2678129198163
 30
0.0
 10
213.9222006286822
 20
137.2678129198163
 30
0.0
 10
213.8632750629078
 20
137.2678129198163
 30
0.0
  0
LINE
  5
16D
330
1F
100
AcDbEntity
  8
0
  6
Continuous
 62
     7
370
    15
100
AcDbLine
 10
211.645789126
 20
137.2678129198
 30
0.0
 11
211.645789126
 21
159.2678128006
 31
0.0
  0
LINE
  5
16E
330
1F
100
AcDbEntity
  8
0
  6
Continuous
 62
     7
370
    15
100
AcDbLine
 10
211.645789126
 20
115.267813039
 30
0.0
 11
211.645789126
 21
137.2678129198
 31
0.0
  0
LINE
  5
16F
330
1F
100
AcDbEntity
  8
0
  6
Continuous
 62
     7
370
    15
100
AcDbLine
 10
211.1632750619
 20
115.0428129556
 30
0.0
 11
211.1632750619
 21
159.4928128841
 31
0.0
  0
SPLINE
  5
170
330
1F
100
AcDbEntity
  8
0
  6
Continuous
 62
     7
370
    15
100
AcDbSpline
210
0.0
220
0.0
230
1.0
 70
    24
 71
     3
 72
    14
 73
    10
 74
     0
 42
0.000000001
 43
0.00000001
 40
0.0
 40
0.0
 40
0.0
 40
0.0
 40
0.25
 40
0.25
 40
0.5
 40
0.5
 40
0.75
 40
0.75
 40
1.0
 40
1.0
 40
1.0
 40
1.0
 10
230.2632750619078
 20
137.2678129198163
 30
0.0
 10
230.2632750621964
 20
137.2678129198163
 30
0.0
 10
230.3062325401164
 20
137.2678129198163
 30
0.0
 10
230.5011643810428
 20
137.2678129198163
 30
0.0
 10
230.6537993548014
 20
137.2678129198163
 30
0.0
 10
231.0443236465551
 20
137.2678129198163
 30
0.0
 10
231.2808917430335
 20
137.2678129198163
 30
0.0
 10
231.7732795441441
 20
137.2678129198163
 30
0.0
 10
232.0275728018132
 20
137.2678129198163
 30
0.0
 10
232.2632750619078
 20
137.2678129198163
 30
0.0
  0
LINE
  5
171
330
1F
100
AcDbEntity
  8
0
  6
Continuous
 62
     7
370
    15
100
AcDbLine
 10
274.1632760752
 20
157.217813489
 30
0.0
 11
274.1632760752
 21
117.3178123506
 31
0.0
  0
LINE
  5
172
330
1F
100
AcDbEntity
  8
0
  6
Continuous
 62
     7
370
    15
100
AcDbLine
 10
273.7343759525
 20
157.0178138288
 30
0.0
 11
273.7343759525
 21
117.5178120108
 31
0.0
  0
SPLINE
  5
173
330
1F
100
AcDbEntity
  8
0
  6
Continuous
 62
     7
370
    15
100
AcDbSpline
210
0.0
220
0.0
230
1.0
 70
    24
 71
     3
 72
    14
 73
    10
 74
     0
 42
0.000000001
 43
0.00000001
 40
0.0
 40
0.0
 40
0.0
 40
0.0
 40
0.25
 40
0.25
 40
0.5
 40
0.5
 40
0.75
 40
0.75
 40
1.0
 40
1.0
 40
1.0
 40
1.0
 10
142.7632750619078
 20
137.2678129198163
 30
0.0
 10
142.7632750619077
 20
137.2678129198163
 30
0.0
 10
142.781579243763
 20
137.2678129198163
 30
0.0
 10
142.8626851678915
 20
137.2678129198163
 30
0.0
 10
142.9256692651912
 20
137.2678129198163
 30
0.0
 10
143.0880634686026
 20
137.2678129198163
 30
0.0
 10
143.1871088646654
 20
137.2678129198163
 30
0.0
 10
143.3988698508144
 20
137.2678129198163
 30
0.0
 10
143.511091385236
 20
137.2678129198163
 30
0.0
 10
143.6189668349078
 20
137.2678129198163
 30
0.0
  0
SPLINE
  5
174
330
1F
100
AcDbEntity
  8
0
  6
Continuous
 62
     7
370
    15
100
AcDbSpline
210
0.0
220
0.0
230
1.0
 70
    24
 71
     3
 72
    22
 73
    18
 74
     0
 42
0.000000001
 43
0.00000001
 40
0.0
 40
0.0
 40
0.0
 40
0.0
 40
0.125
 40
0.125
 40
0.2500000000000001
 40
0.2500000000000001
 40
0.3750000000000001
 40
0.3750000000000001
 40
0.5
 40
0.5
 40
0.625
 40
0.625
 40
0.75
 40
0.75
 40
0.875
 40
0.875
 40
1.0
 40
1.0
 40
1.0
 40
1.0
 10
142.7632750619078
 20
148.6529755093163
 30
0.0
 10
142.7632750619078
 20
148.6529755093061
 30
0.0
 10
142.7632750619078
 20
148.5326116602249
 30
0.0
 10
142.7632750619078
 20
148.0727139682329
 30
0.0
 10
142.7632750619078
 20
147.7337582298496
 30
0.0
 10
142.7632750619078
 20
146.8933310029372
 30
0.0
 10
142.7632750619078
 20
146.3926073314353
 30
0.0
 10
142.7632750619078
 20
145.2987429580408
 30
0.0
 10
142.7632750619078
 20
144.7061191449146
 30
0.0
 10
142.7632750619078
 20
143.4917018020398
 30
0.0
 10
142.7632750619078
 20
142.8700814110942
 30
0.0
 10
142.7632750619078
 20
141.6435520911871
 30
0.0
 10
142.7632750619078
 20
141.0385787694364
 30
0.0
 10
142.7632750619078
 20
139.8727381202787
 30
0.0
 10
142.7632750619078
 20
139.3117151603348
 30
0.0
 10
142.7632750619078
 20
138.2465202163161
 30
0.0
 10
142.7632750619078
 20
137.7421946943763
 30
0.0
 10
142.7632750619078
 20
137.2678129198163
 30
0.0
  0
SPLINE
  5
175
330
1F
100
AcDbEntity
  8
0
  6
Continuous
 62
     7
370
    15
100
AcDbSpline
210
0.0
220
0.0
230
1.0
 70
    24
 71
     3
 72
    22
 73
    18
 74
     0
 42
0.000000001
 43
0.00000001
 40
0.0
 40
0.0
 40
0.0
 40
0.0
 40
0.125
 40
0.125
 40
0.25
 40
0.25
 40
0.375
 40
0.375
 40
0.5
 40
0.5
 40
0.625
 40
0.625
 40
0.75
 40
0.75
 40
0.875
 40
0.875
 40
1.0
 40
1.0
 40
1.0
 40
1.0
 10
142.7632750619078
 20
137.2678129198163
 30
0.0
 10
142.7632750619078
 20
136.7934311452513
 30
0.0
 10
142.7632750619078
 20
136.2891056233057
 30
0.0
 10
142.7632750619078
 20
135.2239106792744
 30
0.0
 10
142.7632750619078
 20
134.6628877193235
 30
0.0
 10
142.7632750619078
 20
133.4970470701516
 30
0.0
 10
142.7632750619078
 20
132.8920737483934
 30
0.0
 10
142.7632750619078
 20
131.6655444284721
 30
0.0
 10
142.7632750619078
 20
131.0439240375198
 30
0.0
 10
142.7632750619078
 20
129.8295066946346
 30
0.0
 10
142.7632750619078
 20
129.2368828815047
 30
0.0
 10
142.7632750619078
 20
128.1430185081084
 30
0.0
 10
142.7632750619078
 20
127.6422948366084
 30
0.0
 10
142.7632750619078
 20
126.8018676097077
 30
0.0
 10
142.7632750619078
 20
126.4629118713342
 30
0.0
 10
142.7632750619078
 20
126.0030141793697
 30
0.0
 10
142.7632750619078
 20
125.8826503303061
 30
0.0
 10
142.7632750619078
 20
125.8826503303163
 30
0.0
  0
LINE
  5
176
330
1F
100
AcDbEntity
  8
0
  6
Continuous
 62
     7
370
    15
100
AcDbLine
 10
214.3632749811
 20
166.5737478258
 30
0.0
 11
214.3632749811
 21
167.8521277579
 31
0.0
  0
LINE
  5
177
330
1F
100
AcDbEntity
  8
0
  6
Continuous
 62
     7
370
    15
100
AcDbLine
 10
214.3632749811
 20
106.6834980818
 30
0.0
 11
214.3632749811
 21
107.9618780138
 31
0.0
  0
LINE
  5
178
330
1F
100
AcDbEntity
  8
0
  6
Continuous
 62
     7
370
    15
100
AcDbLine
 10
220.3632752661
 20
108.3269154849
 30
0.0
 11
220.3632752661
 21
109.4690187099
 31
0.0
  0
LINE
  5
179
330
1F
100
AcDbEntity
  8
0
  6
Continuous
 62
     7
370
    15
100
AcDbLine
 10
220.3632752661
 20
165.0666071298
 30
0.0
 11
220.3632752661
 21
166.2087103548
 31
0.0
  0
LINE
  5
17A
330
1F
100
AcDbEntity
  8
0
  6
Continuous
 62
     7
370
    15
100
AcDbLine
 10
230.2632742811
 20
166.7737065079
 30
0.0
 11
230.2632742811
 21
167.8521277579
 31
0.0
  0
LINE
  5
17B
330
1F
100
AcDbEntity
  8
0
  6
Continuous
 62
     7
370
    15
100
AcDbLine
 10
230.2632742811
 20
106.6834980818
 30
0.0
 11
230.2632742811
 21
107.7619193318
 31
0.0
  0
LINE
  5
17C
330
1F
100
AcDbEntity
  8
0
  6
Continuous
 62
     8
370
    15
100
AcDbLine
 10
229.0975899685
 20
105.5178119065
 30
0.0
 11
229.0975899685
 21
106.7381462278
 31
0.0
  0
LINE
  5
17D
330
1F
100
AcDbEntity
  8
0
  6
Continuous
 62
     8
370
    15
100
AcDbLine
 10
229.0975899685
 20
167.8307818445
 30
0.0
 11
229.0975899685
 21
169.0178139331
 31
0.0
  0
LINE
  5
17E
330
1F
100
AcDbEntity
  8
0
  6
Continuous
 62
     8
370
    15
100
AcDbLine
 10
215.5289604578
 20
105.5178119065
 30
0.0
 11
215.5289604578
 21
106.7381462278
 31
0.0
  0
LINE
  5
17F
330
1F
100
AcDbEntity
  8
0
  6
Continuous
 62
     8
370
    15
100
AcDbLine
 10
215.5289604578
 20
167.8307818445
 30
0.0
 11
215.5289604578
 21
169.0178139331
 31
0.0
  0
LINE
  5
180
330
1F
100
AcDbEntity
  8
0
  6
Continuous
 62
     8
370
    15
100
AcDbLine
 10
213.8632751319
 20
137.2678129198
 30
0.0
 11
213.8632751319
 21
115.267813039
 31
0.0
  0
LINE
  5
181
330
1F
100
AcDbEntity
  8
0
  6
Continuous
 62
     8
370
    15
100
AcDbLine
 10
213.8632751319
 20
137.2678129198
 30
0.0
 11
213.8632751319
 21
159.2678128006
 31
0.0
  0
LINE
  5
182
330
1F
100
AcDbEntity
  8
0
  6
Continuous
 62
     8
370
    15
100
AcDbLine
 10
143.6189637769
 20
137.2678129191
 30
0.0
 11
143.6189637769
 21
124.8931175294
 31
0.0
  0
LINE
  5
183
330
1F
100
AcDbEntity
  8
0
  6
Continuous
 62
     8
370
    15
100
AcDbLine
 10
143.6189637769
 20
149.6425083103
 30
0.0
 11
143.6189637769
 21
137.2678129191
 31
0.0
  0
LINE
  5
184
330
1F
100
AcDbEntity
  8
0
  6
Continuous
 62
     8
370
    15
100
AcDbLine
 10
232.2632746089
 20
137.2678129198
 30
0.0
 11
232.2632746089
 21
117.5178120108
 31
0.0
  0
LINE
  5
185
330
1F
100
AcDbEntity
  8
0
  6
Continuous
 62
     8
370
    15
100
AcDbLine
 10
232.2632746089
 20
157.0178138288
 30
0.0
 11
232.2632746089
 21
137.2678129198
 31
0.0
  0
LINE
  5
186
330
1F
100
AcDbEntity
  8
0
  6
Continuous
 62
     8
370
    15
100
AcDbLine
 10
214.4804323342
 20
166.9031882854
 30
0.0
 11
214.4804323342
 21
168.1349704238
 31
0.0
  0
LINE
  5
187
330
1F
100
AcDbEntity
  8
0
  6
Continuous
 62
     8
370
    15
100
AcDbLine
 10
214.4804323342
 20
106.4006554159
 30
0.0
 11
214.4804323342
 21
107.6324375542
 31
0.0
  0
LINE
  5
188
330
1F
100
AcDbEntity
  8
0
  6
Continuous
 62
     8
370
    15
100
AcDbLine
 10
215.2461177919
 20
167.7357459637
 30
0.0
 11
215.2461177919
 21
168.9006572785
 31
0.0
  0
LINE
  5
189
330
1F
100
AcDbEntity
  8
0
  6
Continuous
 62
     8
370
    15
100
AcDbLine
 10
229.3804326344
 20
105.6349685611
 30
0.0
 11
229.3804326344
 21
106.8201435926
 31
0.0
  0
LINE
  5
18A
330
1F
100
AcDbEntity
  8
0
  6
Continuous
 62
     8
370
    15
100
AcDbLine
 10
215.2461177919
 20
105.6349685611
 30
0.0
 11
215.2461177919
 21
106.8201435926
 31
0.0
  0
LINE
  5
18B
330
1F
100
AcDbEntity
  8
0
  6
Continuous
 62
     8
370
    15
100
AcDbLine
 10
229.3804326344
 20
167.7357459637
 30
0.0
 11
229.3804326344
 21
168.9006572785
 31
0.0
  0
LINE
  5
18C
330
1F
100
AcDbEntity
  8
0
  6
Continuous
 62
     8
370
    15
100
AcDbLine
 10
230.1461176265
 20
106.4006554159
 30
0.0
 11
230.1461176265
 21
107.4688377055
 31
0.0
  0
LINE
  5
18D
330
1F
100
AcDbEntity
  8
0
  6
Continuous
 62
     8
370
    15
100
AcDbLine
 10
230.1461176265
 20
167.0667881342
 30
0.0
 11
230.1461176265
 21
168.1349704238
 31
0.0
  0
DIMENSION
  5
18E
330
1F
100
AcDbEntity
  8
DIM
100
AcDbDimension
  2
_D
 10
311.1632750619
 20
85.5178129193
 30
0.0
 11
226.9632750619
 21
85.5178129193
 31
0.0
 70
   160
  1
<>
 71
     2
 42
-1.0
  3
SLDDIMSTYLE0
100
AcDbAlignedDimension
 13
142.7632750619
 23
137.2678129198
 33
0.0
 14
311.1632750619
 24
117.2678129198
 34
0.0
100
AcDbRotatedDimension
  0
DIMENSION
  5
199
330
1F
100
AcDbEntity
  8
DIM
100
AcDbDimension
  2
_D_1
 10
311.1632750619
 20
97.9174310822
 30
0.0
 11
261.1632750619
 21
97.9174310822
 31
0.0
 70
   160
  1
<>
 71
     2
 42
-1.0
  3
SLDDIMSTYLE1
100
AcDbAlignedDimension
 13
211.1632750619
 23
115.0428129198
 33
0.0
 14
311.1632750619
 24
117.2678129198
 34
0.0
100
AcDbRotatedDimension
  0
DIMENSION
  5
1A4
330
1F
100
AcDbEntity
  8
DIM
100
AcDbDimension
  2
_D_2
 10
318.6570378711
 20
112.2678129198
 30
0.0
 11
318.6570378711
 21
137.2678129198
 31
0.0
 70
   160
  1
%%c<>
 71
     2
 42
-1.0
  3
SLDDIMSTYLE1
100
AcDbAlignedDimension
 13
308.2765237159
 23
162.2678129198
 33
0.0
 14
308.2765237159
 24
112.2678129198
 34
0.0
 50
90.0
100
AcDbRotatedDimension
  0
DIMENSION
  5
1AF
330
1F
100
AcDbEntity
  8
DIM
100
AcDbDimension
  2
_D_3
 10
137.2550368109
 20
105.5178129198
 30
0.0
 11
137.2550368109
 21
137.2678129198
 31
0.0
 70
   160
  1
%%c<>
 71
     2
 42
-1.0
  3
SLDDIMSTYLE0
100
AcDbAlignedDimension
 13
215.528960487
 23
169.0178129198
 33
0.0
 14
215.528960487
 24
105.5178129198
 34
0.0
 50
90.0
100
AcDbRotatedDimension
  0
LINE
  5
1BA
330
1F
100
AcDbEntity
  8
DIM
  6
CENTERX2
 48
1.6
370
     0
100
AcDbLine
 10
140.9723503107
 20
137.2678129198
 30
0.0
 11
313.1993405661
 21
137.2678129198
 31
0.0
  0
ENDSEC
  0
SECTION
  2
OBJECTS
  0
DICTIONARY
  5
C
330
0
100
AcDbDictionary
281
     1
  3
ACAD_GROUP
350
D
  3
ACAD_LAYOUT
350
1A
  3
ACAD_MLINESTYLE
350
17
  3
ACAD_PLOTSETTINGS
350
19
  3
ACAD_PLOTSTYLENAME
350
E
  3
ACAD_SCALELIST
350
47
  0
DICTIONARY
  5
D
102
{ACAD_REACTORS
330
C
102
}
330
C
100
AcDbDictionary
281
     1
  0
DICTIONARY
  5
1A
102
{ACAD_REACTORS
330
C
102
}
330
C
100
AcDbDictionary
281
     1
  3
Layout1
350
1E
  3
Layout2
350
26
  3
Model
350
22
  0
DICTIONARY
  5
17
102
{ACAD_REACTORS
330
C
102
}
330
C
100
AcDbDictionary
281
     1
  3
Standard
350
18
  0
DICTIONARY
  5
19
102
{ACAD_REACTORS
330
C
102
}
330
C
100
AcDbDictionary
281
     1
  0
ACDBDICTIONARYWDFLT
  5
E
102
{ACAD_REACTORS
330
C
102
}
330
C
100
AcDbDictionary
281
     1
  3
Normal
350
F
100
AcDbDictionaryWithDefault
340
F
  0
DICTIONARY
  5
47
102
{ACAD_REACTORS
330
C
102
}
330
C
100
AcDbDictionary
281
     1
  3
A0
350
48
  3
A1
350
49
  3
A2
350
4A
  3
A3
350
4B
  3
A4
350
4C
  3
A5
350
4D
  3
A6
350
4E
  3
A7
350
4F
  3
A8
350
50
  3
A9
350
51
  3
B0
350
52
  3
B1
350
53
  3
B2
350
54
  3
B3
350
55
  3
B4
350
56
  3
B5
350
57
  3
B6
350
58
  3
B7
350
59
  3
B8
350
5A
  3
B9
350
5B
  3
C0
350
5C
  3
C1
350
5D
  3
C2
350
5E
  3
C3
350
5F
  3
C4
350
60
  3
C5
350
61
  3
C6
350
62
  3
C7
350
63
  3
C8
350
64
  3
C9
350
65
  3
D0
350
66
  3
D1
350
67
  3
D2
350
68
  0
LAYOUT
  5
1E
102
{ACAD_REACTORS
330
1A
102
}
330
1A
100
AcDbPlotSettings
  1

  2
none_device
  4

  6

 40
0.0
 41
0.0
 42
0.0
 43
0.0
 44
0.0
 45
0.0
 46
0.0
 47
0.0
 48
0.0
 49
0.0
140
0.0
141
0.0
142
1.0
143
1.0
 70
   688
 72
     1
 73
     0
 74
     5
  7

 75
    16
147
1.0
148
0.0
149
0.0
100
AcDbLayout
  1
Layout1
 70
     1
 71
     1
 10
0.0
 20
0.0
 11
420.0
 21
297.0
 12
0.0
 22
0.0
 32
0.0
 14
1.0000000000E+20
 24
1.0000000000E+20
 34
1.0000000000E+20
 15
-1.0000000000E+20
 25
-1.0000000000E+20
 35
-1.0000000000E+20
146
0.0
 13
0.0
 23
0.0
 33
0.0
 16
1.0
 26
0.0
 36
0.0
 17
0.0
 27
1.0
 37
0.0
 76
     0
330
1B
  0
LAYOUT
  5
26
102
{ACAD_REACTORS
330
1A
102
}
330
1A
100
AcDbPlotSettings
  1

  2
none_device
  4

  6

 40
0.0
 41
0.0
 42
0.0
 43
0.0
 44
0.0
 45
0.0
 46
0.0
 47
0.0
 48
0.0
 49
0.0
140
0.0
141
0.0
142
1.0
143
1.0
 70
   688
 72
     1
 73
     0
 74
     5
  7

 75
    16
147
1.0
148
0.0
149
0.0
100
AcDbLayout
  1
Layout2
 70
     1
 71
     2
 10
0.0
 20
0.0
 11
0.0
 21
0.0
 12
0.0
 22
0.0
 32
0.0
 14
0.0
 24
0.0
 34
0.0
 15
0.0
 25
0.0
 35
0.0
146
0.0
 13
0.0
 23
0.0
 33
0.0
 16
1.0
 26
0.0
 36
0.0
 17
0.0
 27
1.0
 37
0.0
 76
     0
330
23
  0
LAYOUT
  5
22
102
{ACAD_REACTORS
330
1A
102
}
330
1A
100
AcDbPlotSettings
  1

  2
none_device
  4
Letter_(8.50_x_11.00_Inches)
  6

 40
6.35
 41
6.35
 42
6.35000508
 43
6.35000508
 44
215.9
 45
279.4
 46
0.0
 47
0.0
 48
0.0
 49
0.0
140
0.0
141
0.0
142
1.0
143
1.0
 70
  1712
 72
     1
 73
     0
 74
     0
  7

 75
     0
147
1.0
148
0.0
149
0.0
100
AcDbLayout
  1
Model
 70
     1
 71
     0
 10
0.0
 20
0.0
 11
371.25
 21
262.5
 12
0.0
 22
0.0
 32
0.0
 14
0.0
 24
0.0
 34
0.0
 15
371.25
 25
262.5
 35
0.0
146
0.0
 13
0.0
 23
0.0
 33
0.0
 16
1.0
 26
0.0
 36
0.0
 17
0.0
 27
1.0
 37
0.0
 76
     0
330
1F
331
29
  0
MLINESTYLE
  5
18
102
{ACAD_REACTORS
330
17
102
}
330
17
100
AcDbMlineStyle
  2
Standard
 70
     0
  3

 62
   256
 51
90.0
 52
90.0
 71
     2
 49
0.5
 62
   256
  6
BYLAYER
 49
-0.5
 62
   256
  6
BYLAYER
  0
ACDBPLACEHOLDER
  5
F
102
{ACAD_REACTORS
330
E
102
}
330
E
  0
SCALE
  5
48
102
{ACAD_REACTORS
330
47
102
}
330
47
100
AcDbScale
 70
     0
300
1:1
140
1.0
141
1.0
290
     1
  0
SCALE
  5
49
102
{ACAD_REACTORS
330
47
102
}
330
47
100
AcDbScale
 70
     0
300
1:2
140
1.0
141
2.0
290
     0
  0
SCALE
  5
4A
102
{ACAD_REACTORS
330
47
102
}
330
47
100
AcDbScale
 70
     0
300
1:4
140
1.0
141
4.0
290
     0
  0
SCALE
  5
4B
102
{ACAD_REACTORS
330
47
102
}
330
47
100
AcDbScale
 70
     0
300
1:5
140
1.0
141
5.0
290
     0
  0
SCALE
  5
4C
102
{ACAD_REACTORS
330
47
102
}
330
47
100
AcDbScale
 70
     0
300
1:8
140
1.0
141
8.0
290
     0
  0
SCALE
  5
4D
102
{ACAD_REACTORS
330
47
102
}
330
47
100
AcDbScale
 70
     0
300
1:10
140
1.0
141
10.0
290
     0
  0
SCALE
  5
4E
102
{ACAD_REACTORS
330
47
102
}
330
47
100
AcDbScale
 70
     0
300
1:16
140
1.0
141
16.0
290
     0
  0
SCALE
  5
4F
102
{ACAD_REACTORS
330
47
102
}
330
47
100
AcDbScale
 70
     0
300
1:20
140
1.0
141
20.0
290
     0
  0
SCALE
  5
50
102
{ACAD_REACTORS
330
47
102
}
330
47
100
AcDbScale
 70
     0
300
1:30
140
1.0
141
30.0
290
     0
  0
SCALE
  5
51
102
{ACAD_REACTORS
330
47
102
}
330
47
100
AcDbScale
 70
     0
300
1:40
140
1.0
141
40.0
290
     0
  0
SCALE
  5
52
102
{ACAD_REACTORS
330
47
102
}
330
47
100
AcDbScale
 70
     0
300
1:50
140
1.0
141
50.0
290
     0
  0
SCALE
  5
53
102
{ACAD_REACTORS
330
47
102
}
330
47
100
AcDbScale
 70
     0
300
1:100
140
1.0
141
100.0
290
     0
  0
SCALE
  5
54
102
{ACAD_REACTORS
330
47
102
}
330
47
100
AcDbScale
 70
     0
300
2:1
140
2.0
141
1.0
290
     0
  0
SCALE
  5
55
102
{ACAD_REACTORS
330
47
102
}
330
47
100
AcDbScale
 70
     0
300
4:1
140
4.0
141
1.0
290
     0
  0
SCALE
  5
56
102
{ACAD_REACTORS
330
47
102
}
330
47
100
AcDbScale
 70
     0
300
8:1
140
8.0
141
1.0
290
     0
  0
SCALE
  5
57
102
{ACAD_REACTORS
330
47
102
}
330
47
100
AcDbScale
 70
     0
300
10:1
140
10.0
141
1.0
290
     0
  0
SCALE
  5
58
102
{ACAD_REACTORS
330
47
102
}
330
47
100
AcDbScale
 70
     0
300
100:1
140
100.0
141
1.0
290
     0
  0
SCALE
  5
59
102
{ACAD_REACTORS
330
47
102
}
330
47
100
AcDbScale
 70
     0
300
1/128" = 1'-0"
140
0.0078125
141
12.0
290
     0
  0
SCALE
  5
5A
102
{ACAD_REACTORS
330
47
102
}
330
47
100
AcDbScale
 70
     0
300
1/64" = 1'-0"
140
0.015625
141
12.0
290
     0
  0
SCALE
  5
5B
102
{ACAD_REACTORS
330
47
102
}
330
47
100
AcDbScale
 70
     0
300
1/32" = 1'-0"
140
0.03125
141
12.0
290
     0
  0
SCALE
  5
5C
102
{ACAD_REACTORS
330
47
102
}
330
47
100
AcDbScale
 70
     0
300
1/16" = 1'-0"
140
0.0625
141
12.0
290
     0
  0
SCALE
  5
5D
102
{ACAD_REACTORS
330
47
102
}
330
47
100
AcDbScale
 70
     0
300
3/32" = 1'-0"
140
0.09375
141
12.0
290
     0
  0
SCALE
  5
5E
102
{ACAD_REACTORS
330
47
102
}
330
47
100
AcDbScale
 70
     0
300
1/8" = 1'-0"
140
0.125
141
12.0
290
     0
  0
SCALE
  5
5F
102
{ACAD_REACTORS
330
47
102
}
330
47
100
AcDbScale
 70
     0
300
3/16" = 1'-0"
140
0.1875
141
12.0
290
     0
  0
SCALE
  5
60
102
{ACAD_REACTORS
330
47
102
}
330
47
100
AcDbScale
 70
     0
300
1/4" = 1'-0"
140
0.25
141
12.0
290
     0
  0
SCALE
  5
61
102
{ACAD_REACTORS
330
47
102
}
330
47
100
AcDbScale
 70
     0
300
3/8" = 1'-0"
140
0.375
141
12.0
290
     0
  0
SCALE
  5
62
102
{ACAD_REACTORS
330
47
102
}
330
47
100
AcDbScale
 70
     0
300
1/2" = 1'-0"
140
0.5
141
12.0
290
     0
  0
SCALE
  5
63
102
{ACAD_REACTORS
330
47
102
}
330
47
100
AcDbScale
 70
     0
300
3/4" = 1'-0"
140
0.75
141
12.0
290
     0
  0
SCALE
  5
64
102
{ACAD_REACTORS
330
47
102
}
330
47
100
AcDbScale
 70
     0
300
1" = 1'-0"
140
1.0
141
12.0
290
     0
  0
SCALE
  5
65
102
{ACAD_REACTORS
330
47
102
}
330
47
100
AcDbScale
 70
     0
300
1-1/2" = 1'-0"
140
1.5
141
12.0
290
     0
  0
SCALE
  5
66
102
{ACAD_REACTORS
330
47
102
}
330
47
100
AcDbScale
 70
     0
300
3" = 1'-0"
140
3.0
141
12.0
290
     0
  0
SCALE
  5
67
102
{ACAD_REACTORS
330
47
102
}
330
47
100
AcDbScale
 70
     0
300
6" = 1'-0"
140
6.0
141
12.0
290
     0
  0
SCALE
  5
68
102
{ACAD_REACTORS
330
47
102
}
330
47
100
AcDbScale
 70
     0
300
1'-0" = 1'-0"
140
12.0
141
12.0
290
     0
  0
ENDSEC
  0
EOF
