  0
SECTION
  2
HEADER
  9
$ACADVER
  1
AC1015
  9
$ACADMAINTVER
 70
     6
  9
$DWGCODEPAGE
  3
ANSI_1252
  9
$INSBASE
 10
0.0
 20
0.0
 30
0.0
  9
$EXTMIN
 10
0.0
 20
0.0
 30
0.0
  9
$EXTMAX
 10
247.5
 20
175.0
 30
0.0
  9
$LIMMIN
 10
0.0
 20
0.0
  9
$LIMMAX
 10
247.5
 20
175.0
  9
$ORTHOMODE
 70
     0
  9
$REGENMODE
 70
     1
  9
$FILLMODE
 70
     1
  9
$QTEXTMODE
 70
     0
  9
$MIRRTEXT
 70
     1
  9
$LTSCALE
 40
0.8333333333
  9
$ATTMODE
 70
     1
  9
$TEXTSIZE
 40
2.9398148148
  9
$TRACEWID
 40
1.0
  9
$TEXTSTYLE
  7
Standard
  9
$CLAYER
  8
0
  9
$CELTYPE
  6
ByLayer
  9
$CECOLOR
 62
   256
  9
$CELTSCALE
 40
1.0
  9
$DISPSILH
 70
     0
  9
$DIMSCALE
 40
1.0
  9
$DIMASZ
 40
2.7516666667
  9
$DIMEXO
 40
0.8333333333
  9
$DIMDLI
 40
3.75
  9
$DIMRND
 40
0.0
  9
$DIMDLE
 40
0.0
  9
$DIMEXE
 40
0.8333333333
  9
$DIMTP
 40
0.0
  9
$DIMTM
 40
0.0
  9
$DIMTXT
 40
3.2337962963
  9
$DIMCEN
 40
2.5
  9
$DIMTSZ
 40
0.0
  9
$DIMTOL
 70
     0
  9
$DIMLIM
 70
     0
  9
$DIMTIH
 70
     1
  9
$DIMTOH
 70
     1
  9
$DIMSE1
 70
     0
  9
$DIMSE2
 70
     0
  9
$DIMTAD
 70
     1
  9
$DIMZIN
 70
     0
  9
$DIMBLK
  1

  9
$DIMASO
 70
     1
  9
$DIMSHO
 70
     1
  9
$DIMPOST
  1

  9
$DIMAPOST
  1

  9
$DIMALT
 70
     0
  9
$DIMALTD
 70
     3
  9
$DIMALTF
 40
0.0393700787
  9
$DIMLFAC
 40
1.0
  9
$DIMTOFL
 70
     1
  9
$DIMTVP
 40
0.0
  9
$DIMTIX
 70
     0
  9
$DIMSOXD
 70
     0
  9
$DIMSAH
 70
     0
  9
$DIMBLK1
  1

  9
$DIMBLK2
  1

  9
$DIMSTYLE
  2
ISO-25
  9
$DIMCLRD
 70
     0
  9
$DIMCLRE
 70
     0
  9
$DIMCLRT
 70
     0
  9
$DIMTFAC
 40
1.0
  9
$DIMGAP
 40
1.27
  9
$DIMJUST
 70
     0
  9
$DIMSD1
 70
     0
  9
$DIMSD2
 70
     0
  9
$DIMTOLJ
 70
     0
  9
$DIMTZIN
 70
     0
  9
$DIMALTZ
 70
     0
  9
$DIMALTTZ
 70
     0
  9
$DIMUPT
 70
     0
  9
$DIMDEC
 70
     2
  9
$DIMTDEC
 70
     2
  9
$DIMALTU
 70
     2
  9
$DIMALTTD
 70
     3
  9
$DIMTXSTY
  7
Standard
  9
$DIMAUNIT
 70
     0
  9
$DIMADEC
 70
     2
  9
$DIMALTRND
 40
0.0
  9
$DIMAZIN
 70
     0
  9
$DIMDSEP
 70
    44
  9
$DIMATFIT
 70
     3
  9
$DIMFRAC
 70
     0
  9
$DIMLDRBLK
  1

  9
$DIMLUNIT
 70
     2
  9
$DIMLWD
 70
    -2
  9
$DIMLWE
 70
    -2
  9
$DIMTMOVE
 70
     0
  9
$LUNITS
 70
     2
  9
$LUPREC
 70
     2
  9
$SKETCHINC
 40
1.0
  9
$FILLETRAD
 40
10.0
  9
$AUNITS
 70
     1
  9
$AUPREC
 70
     2
  9
$MENU
  1
.
  9
$ELEVATION
 40
0.0
  9
$PELEVATION
 40
0.0
  9
$THICKNESS
 40
0.0
  9
$LIMCHECK
 70
     0
  9
$CHAMFERA
 40
0.0
  9
$CHAMFERB
 40
0.0
  9
$CHAMFERC
 40
0.0
  9
$CHAMFERD
 40
0.0
  9
$SKPOLY
 70
     0
  9
$TDCREATE
 40
2458622.662385371
  9
$TDUCREATE
 40
2458622.433218704
  9
$TDUPDATE
 40
2458622.662386296
  9
$TDUUPDATE
 40
2458622.43321963
  9
$TDINDWG
 40
0.0000000116
  9
$TDUSRTIMER
 40
0.0000000116
  9
$USRTIMER
 70
     1
  9
$ANGBASE
 50
0.0
  9
$ANGDIR
 70
     0
  9
$PDMODE
 70
     0
  9
$PDSIZE
 40
-1.0
  9
$PLINEWID
 40
0.0
  9
$SPLFRAME
 70
     0
  9
$SPLINETYPE
 70
     6
  9
$SPLINESEGS
 70
     8
  9
$HANDSEED
  5
166
  9
$SURFTAB1
 70
     6
  9
$SURFTAB2
 70
     6
  9
$SURFTYPE
 70
     6
  9
$SURFU
 70
     6
  9
$SURFV
 70
     6
  9
$UCSBASE
  2

  9
$UCSNAME
  2

  9
$UCSORG
 10
0.0
 20
0.0
 30
0.0
  9
$UCSXDIR
 10
1.0
 20
0.0
 30
0.0
  9
$UCSYDIR
 10
0.0
 20
1.0
 30
0.0
  9
$UCSORTHOREF
  2

  9
$UCSORTHOVIEW
 70
     0
  9
$UCSORGTOP
 10
0.0
 20
0.0
 30
0.0
  9
$UCSORGBOTTOM
 10
0.0
 20
0.0
 30
0.0
  9
$UCSORGLEFT
 10
0.0
 20
0.0
 30
0.0
  9
$UCSORGRIGHT
 10
0.0
 20
0.0
 30
0.0
  9
$UCSORGFRONT
 10
0.0
 20
0.0
 30
0.0
  9
$UCSORGBACK
 10
0.0
 20
0.0
 30
0.0
  9
$PUCSBASE
  2

  9
$PUCSNAME
  2

  9
$PUCSORG
 10
0.0
 20
0.0
 30
0.0
  9
$PUCSXDIR
 10
1.0
 20
0.0
 30
0.0
  9
$PUCSYDIR
 10
0.0
 20
1.0
 30
0.0
  9
$PUCSORTHOREF
  2

  9
$PUCSORTHOVIEW
 70
     0
  9
$PUCSORGTOP
 10
0.0
 20
0.0
 30
0.0
  9
$PUCSORGBOTTOM
 10
0.0
 20
0.0
 30
0.0
  9
$PUCSORGLEFT
 10
0.0
 20
0.0
 30
0.0
  9
$PUCSORGRIGHT
 10
0.0
 20
0.0
 30
0.0
  9
$PUCSORGFRONT
 10
0.0
 20
0.0
 30
0.0
  9
$PUCSORGBACK
 10
0.0
 20
0.0
 30
0.0
  9
$USERI1
 70
     0
  9
$USERI2
 70
     0
  9
$USERI3
 70
     0
  9
$USERI4
 70
     0
  9
$USERI5
 70
     0
  9
$USERR1
 40
0.0
  9
$USERR2
 40
0.0
  9
$USERR3
 40
0.0
  9
$USERR4
 40
0.0
  9
$USERR5
 40
0.0
  9
$WORLDVIEW
 70
     1
  9
$SHADEDGE
 70
     3
  9
$SHADEDIF
 70
    70
  9
$TILEMODE
 70
     1
  9
$MAXACTVP
 70
    64
  9
$PINSBASE
 10
0.0
 20
0.0
 30
0.0
  9
$PLIMCHECK
 70
     0
  9
$PEXTMIN
 10
1.0000000000E+20
 20
1.0000000000E+20
 30
1.0000000000E+20
  9
$PEXTMAX
 10
-1.0000000000E+20
 20
-1.0000000000E+20
 30
-1.0000000000E+20
  9
$PLIMMIN
 10
0.0
 20
0.0
  9
$PLIMMAX
 10
420.0
 20
297.0
  9
$UNITMODE
 70
     0
  9
$VISRETAIN
 70
     1
  9
$PLINEGEN
 70
     0
  9
$PSLTSCALE
 70
     1
  9
$TREEDEPTH
 70
  3020
  9
$CMLSTYLE
  2
Standard
  9
$CMLJUST
 70
     0
  9
$CMLSCALE
 40
20.0
  9
$PROXYGRAPHICS
 70
     1
  9
$MEASUREMENT
 70
     1
  9
$CELWEIGHT
370
    -1
  9
$ENDCAPS
280
     0
  9
$JOINSTYLE
280
     0
  9
$LWDISPLAY
290
     1
  9
$INSUNITS
 70
     4
  9
$HYPERLINKBASE
  1

  9
$STYLESHEET
  1

  9
$XEDIT
290
     1
  9
$CEPSNTYPE
380
     0
  9
$PSTYLEMODE
290
     1
  9
$FINGERPRINTGUID
  2
{2A4563F1-AAAE-41FD-A39E-719809F20DE6}
  9
$VERSIONGUID
  2
{FAEB1C32-E019-11D5-929B-00C0DF256EC4}
  9
$EXTNAMES
290
     1
  9
$PSVPSCALE
 40
0.0
  9
$OLESTARTUP
290
     0
  0
ENDSEC
  0
SECTION
  2
CLASSES
  0
CLASS
  1
ACDBDICTIONARYWDFLT
  2
AcDbDictionaryWithDefault
  3
ObjectDBX Classes
 90
        0
280
     0
281
     0
  0
CLASS
  1
VISUALSTYLE
  2
AcDbVisualStyle
  3
ObjectDBX Classes
 90
     4095
280
     0
281
     0
  0
CLASS
  1
MATERIAL
  2
AcDbMaterial
  3
ObjectDBX Classes
 90
     1153
280
     0
281
     0
  0
CLASS
  1
SCALE
  2
AcDbScale
  3
ObjectDBX Classes
 90
     1153
280
     0
281
     0
  0
CLASS
  1
SUN
  2
AcDbSun
  3
SCENEOE
 90
     1153
280
     0
281
     0
  0
CLASS
  1
ACDBPLACEHOLDER
  2
AcDbPlaceHolder
  3
ObjectDBX Classes
 90
        0
280
     0
281
     0
  0
CLASS
  1
LAYOUT
  2
AcDbLayout
  3
ObjectDBX Classes
 90
        0
280
     0
281
     0
  0
ENDSEC
  0
SECTION
  2
TABLES
  0
TABLE
  2
VPORT
  5
8
330
0
100
AcDbSymbolTable
 70
     1
  0
VPORT
  5
29
330
8
100
AcDbSymbolTableRecord
100
AcDbViewportTableRecord
  2
*Active
 70
     0
 10
0.0
 20
0.0
 11
1.0
 21
1.0
 12
123.75
 22
87.5
 13
0.0
 23
0.0
 14
10.0
 24
10.0
 15
10.0
 25
10.0
 16
0.0
 26
0.0
 36
1.0
 17
0.0
 27
0.0
 37
0.0
 40
175.0
 41
1.4142857143
 42
50.0
 43
0.0
 44
0.0
 50
0.0
 51
0.0
 71
     0
 72
  2000
 73
     1
 74
     3
 75
     0
 76
     0
 77
     0
 78
     0
281
     0
 65
     1
110
0.0
120
0.0
130
0.0
111
1.0
121
0.0
131
0.0
112
0.0
122
1.0
132
0.0
 79
     0
146
0.0
  0
ENDTAB
  0
TABLE
  2
LTYPE
  5
5
330
0
100
AcDbSymbolTable
 70
     6
  0
LTYPE
  5
14
330
5
100
AcDbSymbolTableRecord
100
AcDbLinetypeTableRecord
  2
ByBlock
 70
     0
  3

 72
    65
 73
     0
 40
0.0
  0
LTYPE
  5
15
330
5
100
AcDbSymbolTableRecord
100
AcDbLinetypeTableRecord
  2
ByLayer
 70
     0
  3

 72
    65
 73
     0
 40
0.0
  0
LTYPE
  5
16
330
5
100
AcDbSymbolTableRecord
100
AcDbLinetypeTableRecord
  2
Continuous
 70
     0
  3
Solid line
 72
    65
 73
     0
 40
0.0
  0
LTYPE
  5
6A
330
5
100
AcDbSymbolTableRecord
100
AcDbLinetypeTableRecord
  2
HIDDEN
 70
     0
  3
Hidden __ __ __ __ __ __ __ __ __ __ __ __ __ __
 72
    65
 73
     2
 40
1.905
 49
1.27
 74
     0
 49
-0.635
 74
     0
  0
LTYPE
  5
6B
330
5
100
AcDbSymbolTableRecord
100
AcDbLinetypeTableRecord
  2
PHANTOM
 70
     0
  3
Phantom ______  __  __  ______  __  __  ______
 72
    65
 73
     6
 40
12.7
 49
6.35
 74
     0
 49
-1.27
 74
     0
 49
1.27
 74
     0
 49
-1.27
 74
     0
 49
1.27
 74
     0
 49
-1.27
 74
     0
  0
LTYPE
  5
6C
330
5
100
AcDbSymbolTableRecord
100
AcDbLinetypeTableRecord
  2
CENTER
 70
     0
  3
Center ____ _ ____ _ ____ _ ____ _ ____ _ ____
 72
    65
 73
     4
 40
10.16
 49
6.35
 74
     0
 49
-1.27
 74
     0
 49
1.27
 74
     0
 49
-1.27
 74
     0
  0
LTYPE
  5
6D
330
5
100
AcDbSymbolTableRecord
100
AcDbLinetypeTableRecord
  2
CENTERX2
 70
     0
  3
Center (2x) ________  __  ________  __  _____
 72
    65
 73
     4
 40
20.32
 49
12.7
 74
     0
 49
-2.54
 74
     0
 49
2.54
 74
     0
 49
-2.54
 74
     0
  0
LTYPE
  5
6E
330
5
100
AcDbSymbolTableRecord
100
AcDbLinetypeTableRecord
  2
DOT2
 70
     0
  3
Dot (.5x) ........................................
 72
    65
 73
     2
 40
0.635
 49
0.0
 74
     0
 49
-0.635
 74
     0
  0
ENDTAB
  0
TABLE
  2
LAYER
  5
2
330
0
100
AcDbSymbolTable
 70
     8
  0
LAYER
  5
10
330
2
100
AcDbSymbolTableRecord
100
AcDbLayerTableRecord
  2
0
 70
     0
 62
     7
  6
Continuous
370
    -3
390
F
  0
LAYER
  5
6F
330
2
100
AcDbSymbolTableRecord
100
AcDbLayerTableRecord
  2
FORMAT
 70
     0
 62
     7
  6
Continuous
370
    -3
390
F
  0
LAYER
  5
70
330
2
100
AcDbSymbolTableRecord
100
AcDbLayerTableRecord
  2
SLD-0
 70
     0
 62
     2
  6
Continuous
370
    -3
390
F
  0
LAYER
  5
71
330
2
100
AcDbSymbolTableRecord
100
AcDbLayerTableRecord
  2
DIM
 70
     0
 62
   179
  6
Continuous
370
    -3
390
F
  0
LAYER
  5
72
330
2
100
AcDbSymbolTableRecord
100
AcDbLayerTableRecord
  2
SLD-DEFPOINTS
 70
     0
 62
   179
  6
Continuous
370
    -3
390
F
  0
LAYER
  5
73
330
2
100
AcDbSymbolTableRecord
100
AcDbLayerTableRecord
  2
HAT
 70
     0
 62
   135
  6
Continuous
370
    -3
390
F
  0
LAYER
  5
74
330
2
100
AcDbSymbolTableRecord
100
AcDbLayerTableRecord
  2
JOB
 70
     0
 62
   201
  6
Continuous
370
    -3
390
F
  0
LAYER
  5
75
330
2
100
AcDbSymbolTableRecord
100
AcDbLayerTableRecord
  2
INSPECTION_REPORT
 70
     0
 62
   255
  6
Continuous
370
    -3
390
F
  0
ENDTAB
  0
TABLE
  2
STYLE
  5
3
330
0
100
AcDbSymbolTable
 70
     4
  0
STYLE
  5
11
330
3
100
AcDbSymbolTableRecord
100
AcDbTextStyleTableRecord
  2
Standard
 70
     0
 40
0.0
 41
1.0
 50
0.0
 71
     0
 42
2.9398148148
  3
txt
  4

  0
STYLE
  5
96
330
3
100
AcDbSymbolTableRecord
100
AcDbTextStyleTableRecord
  2
SLDTEXTSTYLE0
 70
     0
 40
0.0
 41
0.7
 50
0.0
 71
     0
 42
2.9398148148
  3
TXT
  4

  0
STYLE
  5
98
330
3
100
AcDbSymbolTableRecord
100
AcDbTextStyleTableRecord
  2
SLDTEXTSTYLE1
 70
     0
 40
0.0
 41
0.75
 50
0.0
 71
     0
 42
2.9398148148
  3
TXT
  4

  0
STYLE
  5
AB
330
3
100
AcDbSymbolTableRecord
100
AcDbTextStyleTableRecord
  2
SLDTEXTSTYLE2
 70
     0
 40
0.0
 41
0.6875
 50
0.0
 71
     0
 42
2.9398148148
  3
TXT
  4

  0
ENDTAB
  0
TABLE
  2
VIEW
  5
6
330
0
100
AcDbSymbolTable
 70
     0
  0
ENDTAB
  0
TABLE
  2
UCS
  5
7
330
0
100
AcDbSymbolTable
 70
     0
  0
ENDTAB
  0
TABLE
  2
APPID
  5
9
330
0
100
AcDbSymbolTable
 70
     1
  0
APPID
  5
12
330
9
100
AcDbSymbolTableRecord
100
AcDbRegAppTableRecord
  2
ACAD
 70
     0
  0
ENDTAB
  0
TABLE
  2
DIMSTYLE
  5
A
330
0
100
AcDbSymbolTable
 70
     4
100
AcDbDimStyleTable
  0
DIMSTYLE
105
27
330
A
100
AcDbSymbolTableRecord
100
AcDbDimStyleTableRecord
  2
ISO-25
 70
     0
 41
2.5
 42
0.625
 43
3.75
 44
1.25
 73
     0
 74
     0
 77
     1
 78
     8
140
2.5
141
2.5
143
0.0393700787
147
0.625
171
     3
172
     1
178
     0
271
     2
272
     2
274
     3
278
    44
283
     0
284
     8
340
11
  0
DIMSTYLE
105
139
102
{ACAD_REACTORS
330
138
330
15A
102
}
330
A
100
AcDbSymbolTableRecord
100
AcDbDimStyleTableRecord
  2
SLDDIMSTYLE0
 70
     0
 41
2.7516666667
 44
0.0
 45
0.000000001
 73
     0
 74
     0
 77
     1
 78
    12
 79
     3
140
2.4253472222
147
0.6063368056
173
     1
178
     0
271
     2
272
     2
276
     2
284
    12
340
96
  0
DIMSTYLE
105
145
102
{ACAD_REACTORS
330
144
102
}
330
A
100
AcDbSymbolTableRecord
100
AcDbDimStyleTableRecord
  2
SLDDIMSTYLE1
 70
     0
 41
2.7516666667
 44
0.0
 45
0.000000001
 73
     0
 74
     0
 77
     1
 78
    12
 79
     3
140
2.4253472222
147
0.6063368056
173
     1
178
     0
271
     0
272
     2
276
     2
284
    12
340
96
  0
DIMSTYLE
105
150
102
{ACAD_REACTORS
330
14F
102
}
330
A
100
AcDbSymbolTableRecord
100
AcDbDimStyleTableRecord
  2
SLDDIMSTYLE2
 70
     0
 41
2.7516666667
 44
0.0
 45
0.000000001
 73
     0
 74
     0
 77
     1
 78
     4
 79
     1
140
2.4253472222
147
0.6063368056
173
     1
178
     0
271
     2
272
     2
276
     2
284
    12
340
96
  0
ENDTAB
  0
TABLE
  2
BLOCK_RECORD
  5
1
330
0
100
AcDbSymbolTable
 70
     5
  0
BLOCK_RECORD
  5
1F
330
1
100
AcDbSymbolTableRecord
100
AcDbBlockTableRecord
  2
*Model_Space
340
22
  0
BLOCK_RECORD
  5
1B
330
1
100
AcDbSymbolTableRecord
100
AcDbBlockTableRecord
  2
*Paper_Space
340
1E
  0
BLOCK_RECORD
  5
23
330
1
100
AcDbSymbolTableRecord
100
AcDbBlockTableRecord
  2
*Paper_Space0
340
26
  0
BLOCK_RECORD
  5
13A
330
1
100
AcDbSymbolTableRecord
100
AcDbBlockTableRecord
  2
_D
340
0
  0
BLOCK_RECORD
  5
146
330
1
100
AcDbSymbolTableRecord
100
AcDbBlockTableRecord
  2
_D_1
340
0
  0
BLOCK_RECORD
  5
151
330
1
100
AcDbSymbolTableRecord
100
AcDbBlockTableRecord
  2
_D_2
340
0
  0
BLOCK_RECORD
  5
15B
330
1
100
AcDbSymbolTableRecord
100
AcDbBlockTableRecord
  2
_D_3
340
0
  0
ENDTAB
  0
ENDSEC
  0
SECTION
  2
BLOCKS
  0
BLOCK
  5
20
330
1F
100
AcDbEntity
  8
0
100
AcDbBlockBegin
  2
*Model_Space
 70
     0
 10
0.0
 20
0.0
 30
0.0
  3
*Model_Space
  1
*Model_Space
  0
ENDBLK
  5
21
330
1F
100
AcDbEntity
  8
0
100
AcDbBlockEnd
  0
BLOCK
  5
1C
330
1B
100
AcDbEntity
 67
     1
  8
0
100
AcDbBlockBegin
  2
*Paper_Space
 70
     0
 10
0.0
 20
0.0
 30
0.0
  3
*Paper_Space
  1
*Paper_Space
  0
ENDBLK
  5
1D
330
1B
100
AcDbEntity
 67
     1
  8
0
100
AcDbBlockEnd
  0
BLOCK
  5
24
330
23
100
AcDbEntity
  8
0
100
AcDbBlockBegin
  2
*Paper_Space0
 70
     0
 10
0.0
 20
0.0
 30
0.0
  3
*Paper_Space0
  1
*Paper_Space0
  0
ENDBLK
  5
25
330
23
100
AcDbEntity
  8
0
100
AcDbBlockEnd
  0
BLOCK
  5
13B
330
13A
100
AcDbEntity
  8
0
100
AcDbBlockBegin
  2
_D
 70
     0
 10
0.0
 20
0.0
 30
0.0
  3
_D
  1
_D
  0
SOLID
  5
13D
330
13A
100
AcDbEntity
  8
DIM
100
AcDbTrace
 10
183.2831426629
 20
117.3729235924
 30
0.0
 11
182.8598093296
 21
114.6212569258
 31
0.0
 12
183.7064759962
 22
114.6212569258
 32
0.0
 13
183.7064759962
 23
114.6212569258
 33
0.0
  0
SOLID
  5
13E
330
13A
100
AcDbEntity
  8
DIM
100
AcDbTrace
 10
183.2831426629
 20
63.3729235924
 30
0.0
 11
183.7064759962
 21
66.1245902591
 31
0.0
 12
182.8598093296
 22
66.1245902591
 32
0.0
 13
182.8598093296
 23
66.1245902591
 33
0.0
  0
LINE
  5
13F
330
13A
100
AcDbEntity
  8
DIM
100
AcDbLine
 10
157.6226031818
 20
117.3729235924
 30
0.0
 11
184.1164759962
 21
117.3729235924
 31
0.0
  0
LINE
  5
140
330
13A
100
AcDbEntity
  8
DIM
100
AcDbLine
 10
157.6226031818
 20
63.3729235924
 30
0.0
 11
184.1164759962
 21
63.3729235924
 31
0.0
  0
LINE
  5
141
330
13A
100
AcDbEntity
  8
DIM
100
AcDbLine
 10
183.2831426629
 20
117.3729235924
 30
0.0
 11
183.2831426629
 21
63.3729235924
 31
0.0
  0
MTEXT
  5
142
330
13A
100
AcDbEntity
  8
DIM
100
AcDbMText
 10
180.156705607
 20
86.858303505
 30
0.0
 40
2.4253472222
 41
0.0
 71
     1
 72
     1
  1
%%c
  7
SLDTEXTSTYLE0
 11
-7.044195017643634E-15
 21
1.0
 31
0.0
 73
     1
 44
1.0
  0
MTEXT
  5
143
330
13A
100
AcDbEntity
  8
DIM
100
AcDbMText
 10
180.156705607
 20
90.6088334213
 30
0.0
 40
2.4253472222
 41
0.0
 71
     1
 72
     1
  1
54
  7
SLDTEXTSTYLE0
 11
-7.044195017643634E-15
 21
1.0
 31
0.0
 73
     1
 44
1.0
  0
ENDBLK
  5
13C
330
13A
100
AcDbEntity
  8
0
100
AcDbBlockEnd
  0
BLOCK
  5
147
330
146
100
AcDbEntity
  8
0
100
AcDbBlockBegin
  2
_D_1
 70
     0
 10
0.0
 20
0.0
 30
0.0
  3
_D_1
  1
_D_1
  0
SOLID
  5
149
330
146
100
AcDbEntity
  8
DIM
100
AcDbTrace
 10
177.2892698484
 20
50.0395412084
 30
0.0
 11
174.5376031817
 21
50.4628745417
 31
0.0
 12
174.5376031817
 22
49.616207875
 32
0.0
 13
174.5376031817
 23
49.616207875
 33
0.0
  0
SOLID
  5
14A
330
146
100
AcDbEntity
  8
DIM
100
AcDbTrace
 10
72.4064271365
 20
50.0395412083
 30
0.0
 11
75.1580938032
 21
49.616207875
 31
0.0
 12
75.1580938032
 22
50.4628745416
 32
0.0
 13
75.1580938032
 23
50.4628745416
 33
0.0
  0
LINE
  5
14B
330
146
100
AcDbEntity
  8
DIM
100
AcDbLine
 10
177.2892698484
 20
89.5395902591
 30
0.0
 11
177.2892698484
 21
49.206207875
 31
0.0
  0
LINE
  5
14C
330
146
100
AcDbEntity
  8
DIM
100
AcDbLine
 10
72.4064271365
 20
89.5395902563
 30
0.0
 11
72.4064271365
 21
49.206207875
 31
0.0
  0
LINE
  5
14D
330
146
100
AcDbEntity
  8
DIM
100
AcDbLine
 10
177.2892698484
 20
50.0395412084
 30
0.0
 11
72.4064271365
 21
50.0395412083
 31
0.0
  0
MTEXT
  5
14E
330
146
100
AcDbEntity
  8
DIM
100
AcDbMText
 10
122.3888157985
 20
53.1659782643
 30
0.0
 40
2.4253472222
 41
0.0
 71
     1
 72
     1
  1
105
  7
SLDTEXTSTYLE0
 73
     1
 44
1.0
  0
ENDBLK
  5
148
330
146
100
AcDbEntity
  8
0
100
AcDbBlockEnd
  0
BLOCK
  5
152
330
151
100
AcDbEntity
  8
0
100
AcDbBlockBegin
  2
_D_2
 70
     0
 10
0.0
 20
0.0
 30
0.0
  3
_D_2
  1
_D_2
  0
SOLID
  5
154
330
151
100
AcDbEntity
  8
DIM
100
AcDbTrace
 10
177.2892698481
 20
43.9007327382
 30
0.0
 11
174.5376031814
 21
44.3240660716
 31
0.0
 12
174.5376031814
 22
43.4773994049
 32
0.0
 13
174.5376031814
 23
43.4773994049
 33
0.0
  0
SOLID
  5
155
330
151
100
AcDbEntity
  8
DIM
100
AcDbTrace
 10
40.3892698484
 20
43.900732739
 30
0.0
 11
43.1409365151
 21
43.4773994057
 31
0.0
 12
43.1409365151
 22
44.3240660723
 32
0.0
 13
43.1409365151
 23
44.3240660723
 33
0.0
  0
LINE
  5
156
330
151
100
AcDbEntity
  8
DIM
100
AcDbLine
 10
177.2892698484
 20
89.5395902591
 30
0.0
 11
177.2892698481
 21
43.0673994049
 31
0.0
  0
LINE
  5
157
330
151
100
AcDbEntity
  8
DIM
100
AcDbLine
 10
40.3892698487
 20
89.5395902591
 30
0.0
 11
40.3892698484
 21
43.0673994057
 31
0.0
  0
LINE
  5
158
330
151
100
AcDbEntity
  8
DIM
100
AcDbLine
 10
177.2892698481
 20
43.9007327382
 30
0.0
 11
40.3892698484
 21
43.900732739
 31
0.0
  0
MTEXT
  5
159
330
151
100
AcDbEntity
  8
DIM
100
AcDbMText
 10
104.309709165
 20
47.0271697945
 30
0.0
 40
2.4253472222
 41
0.0
 71
     1
 72
     1
  1
136.90
  7
SLDTEXTSTYLE0
 73
     1
 44
1.0
  0
ENDBLK
  5
153
330
151
100
AcDbEntity
  8
0
100
AcDbBlockEnd
  0
BLOCK
  5
15C
330
15B
100
AcDbEntity
  8
0
100
AcDbBlockBegin
  2
_D_3
 70
     0
 10
0.0
 20
0.0
 30
0.0
  3
_D_3
  1
_D_3
  0
SOLID
  5
15E
330
15B
100
AcDbEntity
  8
DIM
100
AcDbTrace
 10
35.3955863116
 20
121.8729235924
 30
0.0
 11
34.9722529782
 21
119.1212569258
 31
0.0
 12
35.8189196449
 22
119.1212569258
 32
0.0
 13
35.8189196449
 23
119.1212569258
 33
0.0
  0
SOLID
  5
15F
330
15B
100
AcDbEntity
  8
DIM
100
AcDbTrace
 10
35.3955863116
 20
58.8729235924
 30
0.0
 11
35.8189196449
 21
61.6245902591
 31
0.0
 12
34.9722529782
 22
61.6245902591
 32
0.0
 13
34.9722529782
 23
61.6245902591
 33
0.0
  0
LINE
  5
160
330
15B
100
AcDbEntity
  8
DIM
100
AcDbLine
 10
72.4216219402
 20
121.8729235924
 30
0.0
 11
34.5622529782
 21
121.8729235924
 31
0.0
  0
LINE
  5
161
330
15B
100
AcDbEntity
  8
DIM
100
AcDbLine
 10
72.4216219402
 20
58.8729235924
 30
0.0
 11
34.5622529782
 21
58.8729235924
 31
0.0
  0
LINE
  5
162
330
15B
100
AcDbEntity
  8
DIM
100
AcDbLine
 10
35.3955863116
 20
121.8729235924
 30
0.0
 11
35.3955863116
 21
58.8729235924
 31
0.0
  0
MTEXT
  5
163
330
15B
100
AcDbEntity
  8
DIM
100
AcDbMText
 10
32.2691492556
 20
86.858303505
 30
0.0
 40
2.4253472222
 41
0.0
 71
     1
 72
     1
  1
%%c
  7
SLDTEXTSTYLE0
 11
-7.044195017643634E-15
 21
1.0
 31
0.0
 73
     1
 44
1.0
  0
MTEXT
  5
164
330
15B
100
AcDbEntity
  8
DIM
100
AcDbMText
 10
32.2691492556
 20
90.6088334213
 30
0.0
 40
2.4253472222
 41
0.0
 71
     1
 72
     1
  1
63
  7
SLDTEXTSTYLE0
 11
-7.044195017643634E-15
 21
1.0
 31
0.0
 73
     1
 44
1.0
  0
ENDBLK
  5
15D
330
15B
100
AcDbEntity
  8
0
100
AcDbBlockEnd
  0
ENDSEC
  0
SECTION
  2
ENTITIES
  0
LINE
  5
76
330
1F
100
AcDbEntity
  8
DIM
100
AcDbLine
 10
87.2536872408
 20
8.1591595474
 30
0.0
 11
87.2536872408
 21
3.9924928807
 31
0.0
  0
LINE
  5
77
330
1F
100
AcDbEntity
  8
DIM
100
AcDbLine
 10
212.0580014127
 20
8.1591595474
 30
0.0
 11
212.0580014127
 21
3.9924928807
 31
0.0
  0
LINE
  5
78
330
1F
100
AcDbEntity
  8
DIM
100
AcDbLine
 10
197.876424943
 20
8.1591595474
 30
0.0
 11
197.876424943
 21
3.9924928807
 31
0.0
  0
LINE
  5
79
330
1F
100
AcDbEntity
  8
DIM
100
AcDbLine
 10
232.4203539075
 20
3.9924928807
 30
0.0
 11
232.4203539075
 21
8.1591595474
 31
0.0
  0
LINE
  5
7A
330
1F
100
AcDbEntity
  8
DIM
100
AcDbLine
 10
93.7536872408
 20
8.1591595474
 30
0.0
 11
93.7536872408
 21
3.9924928807
 31
0.0
  0
LINE
  5
7B
330
1F
100
AcDbEntity
  8
DIM
100
AcDbLine
 10
109.7461476023
 20
8.1591595474
 30
0.0
 11
109.7461476023
 21
3.9924928807
 31
0.0
  0
LINE
  5
7C
330
1F
100
AcDbEntity
  8
DIM
100
AcDbLine
 10
243.2536872408
 20
3.9924928807
 30
0.0
 11
243.2536872408
 21
64.200826214
 31
0.0
  0
LINE
  5
7D
330
1F
100
AcDbEntity
  8
DIM
100
AcDbLine
 10
238.1825039122
 20
50.0341595474
 30
0.0
 11
243.2536872408
 21
50.0341595474
 31
0.0
  0
LINE
  5
7E
330
1F
100
AcDbEntity
  8
DIM
100
AcDbLine
 10
124.2527923771
 20
7.5341595474
 30
0.0
 11
124.2527923771
 21
3.9924928807
 31
0.0
  0
LINE
  5
7F
330
1F
100
AcDbEntity
  8
DIM
100
AcDbLine
 10
163.9699576337
 20
8.1591595474
 30
0.0
 11
163.9699576337
 21
3.9924928807
 31
0.0
  0
LINE
  5
80
330
1F
100
AcDbEntity
  8
DIM
100
AcDbLine
 10
124.2527923771
 20
8.1591595474
 30
0.0
 11
124.2527923771
 21
7.5341595474
 31
0.0
  0
LINE
  5
81
330
1F
100
AcDbEntity
  8
DIM
100
AcDbLine
 10
239.0870205742
 20
14.6174328807
 30
0.0
 11
243.2536872408
 21
14.6174328807
 31
0.0
  0
LINE
  5
82
330
1F
100
AcDbEntity
  8
DIM
100
AcDbLine
 10
239.0870205742
 20
166.4924928807
 30
0.0
 11
8.2536872408
 21
166.4924928807
 31
0.0
  0
LINE
  5
83
330
1F
100
AcDbEntity
  8
DIM
100
AcDbLine
 10
243.2536872408
 20
170.6591595474
 30
0.0
 11
4.0870205742
 21
170.6591595474
 31
0.0
  0
LINE
  5
84
330
1F
100
AcDbEntity
  8
DIM
100
AcDbLine
 10
8.2536872408
 20
166.4924928807
 30
0.0
 11
8.2536872408
 21
8.1591595474
 31
0.0
  0
LINE
  5
85
330
1F
100
AcDbEntity
  8
DIM
100
AcDbLine
 10
4.0870205742
 20
170.6591595474
 30
0.0
 11
4.0870205742
 21
3.9924928807
 31
0.0
  0
LINE
  5
86
330
1F
100
AcDbEntity
  8
DIM
100
AcDbLine
 10
8.2536872408
 20
45.6591595474
 30
0.0
 11
4.0870205742
 21
45.6591595474
 31
0.0
  0
LINE
  5
87
330
1F
100
AcDbEntity
  8
DIM
100
AcDbLine
 10
4.0870205742
 20
87.325826214
 30
0.0
 11
8.2536872408
 21
87.325826214
 31
0.0
  0
LINE
  5
88
330
1F
100
AcDbEntity
  8
DIM
100
AcDbLine
 10
4.0870205742
 20
3.9924928807
 30
0.0
 11
243.2536872408
 21
3.9924928807
 31
0.0
  0
LINE
  5
89
330
1F
100
AcDbEntity
  8
DIM
100
AcDbLine
 10
8.2536872408
 20
8.1591595474
 30
0.0
 11
243.2536872408
 21
8.1591595474
 31
0.0
  0
LINE
  5
8A
330
1F
100
AcDbEntity
  8
DIM
100
AcDbLine
 10
40.3370205742
 20
3.9924928807
 30
0.0
 11
40.3370205742
 21
8.1591595474
 31
0.0
  0
LINE
  5
8B
330
1F
100
AcDbEntity
  8
DIM
100
AcDbLine
 10
82.0036872408
 20
8.1591595474
 30
0.0
 11
82.0036872408
 21
3.9924928807
 31
0.0
  0
LINE
  5
8C
330
1F
100
AcDbEntity
  8
DIM
100
AcDbLine
 10
8.2536872408
 20
128.9924928807
 30
0.0
 11
4.0870205742
 21
128.9924928807
 31
0.0
  0
LINE
  5
8D
330
1F
100
AcDbEntity
  8
DIM
100
AcDbLine
 10
40.3370205742
 20
166.4924928807
 30
0.0
 11
40.3370205742
 21
170.6591595474
 31
0.0
  0
LINE
  5
8E
330
1F
100
AcDbEntity
  8
DIM
100
AcDbLine
 10
82.0036872408
 20
170.6591595474
 30
0.0
 11
82.0036872408
 21
166.4924928807
 31
0.0
  0
LINE
  5
8F
330
1F
100
AcDbEntity
  8
DIM
100
AcDbLine
 10
123.6703539075
 20
170.6591595474
 30
0.0
 11
123.6703539075
 21
166.4924928807
 31
0.0
  0
LINE
  5
90
330
1F
100
AcDbEntity
  8
DIM
100
AcDbLine
 10
239.0870205742
 20
8.1591595474
 30
0.0
 11
239.0870205742
 21
166.4924928807
 31
0.0
  0
LINE
  5
91
330
1F
100
AcDbEntity
  8
DIM
100
AcDbLine
 10
243.2536872408
 20
64.200826214
 30
0.0
 11
243.2536872408
 21
170.6591595474
 31
0.0
  0
LINE
  5
92
330
1F
100
AcDbEntity
  8
DIM
100
AcDbLine
 10
243.2536872408
 20
87.325826214
 30
0.0
 11
239.0870205742
 21
87.325826214
 31
0.0
  0
LINE
  5
93
330
1F
100
AcDbEntity
  8
DIM
100
AcDbLine
 10
165.3370205742
 20
170.6591595474
 30
0.0
 11
165.3370205742
 21
166.4924928807
 31
0.0
  0
LINE
  5
94
330
1F
100
AcDbEntity
  8
DIM
100
AcDbLine
 10
207.0036872408
 20
166.4924928807
 30
0.0
 11
207.0036872408
 21
170.6591595474
 31
0.0
  0
LINE
  5
95
330
1F
100
AcDbEntity
  8
DIM
100
AcDbLine
 10
239.0870205742
 20
128.9924928807
 30
0.0
 11
243.2536872408
 21
128.9924928807
 31
0.0
  0
MTEXT
  5
97
330
1F
100
AcDbEntity
  8
DIM
100
AcDbMText
 10
11.817091638
 20
162.8797460317
 30
0.0
 40
3.5277777778
 41
0.0
 71
     1
 72
     1
  1
HSK-A 63 C20 105 AD/6.3G20000 SL
  7
SLDTEXTSTYLE0
 73
     1
 44
1.0
  0
MTEXT
  5
99
330
1F
100
AcDbEntity
  8
DIM
 62
     7
100
AcDbMText
 10
164.7773155389
 20
6.5016262719
 30
0.0
 40
1.2488333333
 41
0.0
 71
     1
 72
     1
  1
WEIGHT:
  7
SLDTEXTSTYLE1
 73
     1
 44
1.0
  0
MTEXT
  5
9A
330
1F
100
AcDbEntity
  8
DIM
 62
     7
100
AcDbMText
 10
240.4975639623
 20
68.2838445902
 30
0.0
 40
1.5434027778
 41
0.0
 71
     1
 72
     1
  1
C
  7
SLDTEXTSTYLE1
 73
     1
 44
1.0
  0
MTEXT
  5
9B
330
1F
100
AcDbEntity
  8
DIM
 62
     7
100
AcDbMText
 10
235.8696505162
 20
12.3783183197
 30
0.0
 40
2.4253472222
 41
0.0
 71
     1
 72
     1
  1
A4
  7
SLDTEXTSTYLE1
 73
     1
 44
1.0
  0
MTEXT
  5
9C
330
1F
100
AcDbEntity
  8
DIM
 62
     7
100
AcDbMText
 10
227.1425794631
 20
169.549173217
 30
0.0
 40
1.5434027778
 41
0.0
 71
     1
 72
     1
  1
6
  7
SLDTEXTSTYLE1
 73
     1
 44
1.0
  0
MTEXT
  5
9D
330
1F
100
AcDbEntity
  8
DIM
 62
     7
100
AcDbMText
 10
185.4759127964
 20
169.549173217
 30
0.0
 40
1.5434027778
 41
0.0
 71
     1
 72
     1
  1
5
  7
SLDTEXTSTYLE1
 73
     1
 44
1.0
  0
MTEXT
  5
9E
330
1F
100
AcDbEntity
  8
DIM
 62
     7
100
AcDbMText
 10
240.4759161297
 20
150.799173217
 30
0.0
 40
1.5434027778
 41
0.0
 71
     1
 72
     1
  1
A
  7
SLDTEXTSTYLE1
 73
     1
 44
1.0
  0
MTEXT
  5
9F
330
1F
100
AcDbEntity
  8
DIM
 62
     7
100
AcDbMText
 10
240.4759161297
 20
109.1325065503
 30
0.0
 40
1.5434027778
 41
0.0
 71
     1
 72
     1
  1
B
  7
SLDTEXTSTYLE1
 73
     1
 44
1.0
  0
MTEXT
  5
A0
330
1F
100
AcDbEntity
  8
DIM
 62
     7
100
AcDbMText
 10
143.8092461297
 20
169.549173217
 30
0.0
 40
1.5434027778
 41
0.0
 71
     1
 72
     1
  1
4
  7
SLDTEXTSTYLE1
 73
     1
 44
1.0
  0
MTEXT
  5
A1
330
1F
100
AcDbEntity
  8
DIM
 62
     7
100
AcDbMText
 10
19.1564683519
 20
169.549173217
 30
0.0
 40
1.5434027778
 41
0.0
 71
     1
 72
     1
  1
1
  7
SLDTEXTSTYLE1
 73
     1
 44
1.0
  0
MTEXT
  5
A2
330
1F
100
AcDbEntity
  8
DIM
 62
     7
100
AcDbMText
 10
60.4759127964
 20
169.549173217
 30
0.0
 40
1.5434027778
 41
0.0
 71
     1
 72
     1
  1
2
  7
SLDTEXTSTYLE1
 73
     1
 44
1.0
  0
MTEXT
  5
A3
330
1F
100
AcDbEntity
  8
DIM
 62
     7
100
AcDbMText
 10
102.1425794631
 20
169.549173217
 30
0.0
 40
1.5434027778
 41
0.0
 71
     1
 72
     1
  1
3
  7
SLDTEXTSTYLE1
 73
     1
 44
1.0
  0
MTEXT
  5
A4
330
1F
100
AcDbEntity
  8
DIM
 62
     7
100
AcDbMText
 10
5.4759094631
 20
150.799173217
 30
0.0
 40
1.5434027778
 41
0.0
 71
     1
 72
     1
  1
A
  7
SLDTEXTSTYLE1
 73
     1
 44
1.0
  0
MTEXT
  5
A5
330
1F
100
AcDbEntity
  8
DIM
 62
     7
100
AcDbMText
 10
60.4759127964
 20
7.049173217
 30
0.0
 40
1.5434027778
 41
0.0
 71
     1
 72
     1
  1
2
  7
SLDTEXTSTYLE1
 73
     1
 44
1.0
  0
MTEXT
  5
A6
330
1F
100
AcDbEntity
  8
DIM
 62
     7
100
AcDbMText
 10
19.1564683519
 20
7.049173217
 30
0.0
 40
1.5434027778
 41
0.0
 71
     1
 72
     1
  1
1
  7
SLDTEXTSTYLE1
 73
     1
 44
1.0
  0
MTEXT
  5
A7
330
1F
100
AcDbEntity
  8
DIM
 62
     7
100
AcDbMText
 10
5.4759094631
 20
25.799173217
 30
0.0
 40
1.5434027778
 41
0.0
 71
     1
 72
     1
  1
D
  7
SLDTEXTSTYLE1
 73
     1
 44
1.0
  0
MTEXT
  5
A8
330
1F
100
AcDbEntity
  8
DIM
 62
     7
100
AcDbMText
 10
5.4759094631
 20
67.4658398837
 30
0.0
 40
1.5434027778
 41
0.0
 71
     1
 72
     1
  1
C
  7
SLDTEXTSTYLE1
 73
     1
 44
1.0
  0
MTEXT
  5
A9
330
1F
100
AcDbEntity
  8
DIM
 62
     7
100
AcDbMText
 10
5.4759094631
 20
109.1325065503
 30
0.0
 40
1.5434027778
 41
0.0
 71
     1
 72
     1
  1
B
  7
SLDTEXTSTYLE1
 73
     1
 44
1.0
  0
MTEXT
  5
AA
330
1F
100
AcDbEntity
  8
DIM
 62
     7
100
AcDbMText
 10
240.4975639623
 20
68.2838445902
 30
0.0
 40
1.5434027778
 41
0.0
 71
     1
 72
     1
  1
C
  7
SLDTEXTSTYLE1
 73
     1
 44
1.0
  0
MTEXT
  5
AC
330
1F
100
AcDbEntity
  8
DIM
 62
     7
100
AcDbMText
 10
213.7711381771
 20
6.4092322762
 30
0.0
 40
1.25
 41
0.0
 71
     1
 72
     1
  1
SHEET 1 OF 1
  7
SLDTEXTSTYLE2
 73
     1
 44
1.0
  0
MTEXT
  5
AD
330
1F
100
AcDbEntity
  8
DIM
 62
     7
100
AcDbMText
 10
125.3098169862
 20
6.544472903
 30
0.0
 40
1.25
 41
0.0
 71
     1
 72
     1
  1
MATERIAL:
  7
SLDTEXTSTYLE1
 73
     1
 44
1.0
  0
MTEXT
  5
AE
330
1F
100
AcDbEntity
  8
DIM
 62
     7
100
AcDbMText
 10
227.1425794631
 20
169.549173217
 30
0.0
 40
1.5434027778
 41
0.0
 71
     1
 72
     1
  1
6
  7
SLDTEXTSTYLE1
 73
     1
 44
1.0
  0
MTEXT
  5
AF
330
1F
100
AcDbEntity
  8
DIM
 62
     7
100
AcDbMText
 10
185.4759127964
 20
169.549173217
 30
0.0
 40
1.5434027778
 41
0.0
 71
     1
 72
     1
  1
5
  7
SLDTEXTSTYLE1
 73
     1
 44
1.0
  0
MTEXT
  5
B0
330
1F
100
AcDbEntity
  8
DIM
 62
     7
100
AcDbMText
 10
240.4759161297
 20
150.799173217
 30
0.0
 40
1.5434027778
 41
0.0
 71
     1
 72
     1
  1
A
  7
SLDTEXTSTYLE1
 73
     1
 44
1.0
  0
MTEXT
  5
B1
330
1F
100
AcDbEntity
  8
DIM
 62
     7
100
AcDbMText
 10
240.4759161297
 20
109.1325065503
 30
0.0
 40
1.5434027778
 41
0.0
 71
     1
 72
     1
  1
B
  7
SLDTEXTSTYLE1
 73
     1
 44
1.0
  0
MTEXT
  5
B2
330
1F
100
AcDbEntity
  8
DIM
 62
     7
100
AcDbMText
 10
143.8092461297
 20
169.549173217
 30
0.0
 40
1.5434027778
 41
0.0
 71
     1
 72
     1
  1
4
  7
SLDTEXTSTYLE1
 73
     1
 44
1.0
  0
MTEXT
  5
B3
330
1F
100
AcDbEntity
  8
DIM
 62
     7
100
AcDbMText
 10
19.1564683519
 20
169.549173217
 30
0.0
 40
1.5434027778
 41
0.0
 71
     1
 72
     1
  1
1
  7
SLDTEXTSTYLE1
 73
     1
 44
1.0
  0
MTEXT
  5
B4
330
1F
100
AcDbEntity
  8
DIM
 62
     7
100
AcDbMText
 10
60.4759127964
 20
169.549173217
 30
0.0
 40
1.5434027778
 41
0.0
 71
     1
 72
     1
  1
2
  7
SLDTEXTSTYLE1
 73
     1
 44
1.0
  0
MTEXT
  5
B5
330
1F
100
AcDbEntity
  8
DIM
 62
     7
100
AcDbMText
 10
102.1425794631
 20
169.549173217
 30
0.0
 40
1.5434027778
 41
0.0
 71
     1
 72
     1
  1
3
  7
SLDTEXTSTYLE1
 73
     1
 44
1.0
  0
MTEXT
  5
B6
330
1F
100
AcDbEntity
  8
DIM
 62
     7
100
AcDbMText
 10
5.4759094631
 20
150.799173217
 30
0.0
 40
1.5434027778
 41
0.0
 71
     1
 72
     1
  1
A
  7
SLDTEXTSTYLE1
 73
     1
 44
1.0
  0
MTEXT
  5
B7
330
1F
100
AcDbEntity
  8
DIM
 62
     7
100
AcDbMText
 10
60.4759127964
 20
7.049173217
 30
0.0
 40
1.5434027778
 41
0.0
 71
     1
 72
     1
  1
2
  7
SLDTEXTSTYLE1
 73
     1
 44
1.0
  0
MTEXT
  5
B8
330
1F
100
AcDbEntity
  8
DIM
 62
     7
100
AcDbMText
 10
19.1564683519
 20
7.049173217
 30
0.0
 40
1.5434027778
 41
0.0
 71
     1
 72
     1
  1
1
  7
SLDTEXTSTYLE1
 73
     1
 44
1.0
  0
MTEXT
  5
B9
330
1F
100
AcDbEntity
  8
DIM
 62
     7
100
AcDbMText
 10
5.4759094631
 20
25.799173217
 30
0.0
 40
1.5434027778
 41
0.0
 71
     1
 72
     1
  1
D
  7
SLDTEXTSTYLE1
 73
     1
 44
1.0
  0
MTEXT
  5
BA
330
1F
100
AcDbEntity
  8
DIM
 62
     7
100
AcDbMText
 10
5.4759094631
 20
67.4658398837
 30
0.0
 40
1.5434027778
 41
0.0
 71
     1
 72
     1
  1
C
  7
SLDTEXTSTYLE1
 73
     1
 44
1.0
  0
MTEXT
  5
BB
330
1F
100
AcDbEntity
  8
DIM
 62
     7
100
AcDbMText
 10
5.4759094631
 20
109.1325065503
 30
0.0
 40
1.5434027778
 41
0.0
 71
     1
 72
     1
  1
B
  7
SLDTEXTSTYLE1
 73
     1
 44
1.0
  0
LINE
  5
BC
330
1F
100
AcDbEntity
  8
0
  6
Continuous
 62
     7
370
    15
100
AcDbLine
 10
73.2549552735
 20
58.8729235924
 30
0.0
 11
87.0094474888
 21
58.8729235924
 31
0.0
  0
LINE
  5
BD
330
1F
100
AcDbEntity
  8
0
  6
Continuous
 62
     7
370
    15
100
AcDbLine
 10
87.0094474888
 20
121.8729235924
 30
0.0
 11
73.2549552735
 21
121.8729235924
 31
0.0
  0
LINE
  5
BE
330
1F
100
AcDbEntity
  8
0
  6
Continuous
 62
     7
370
    15
100
AcDbLine
 10
93.6667689235
 20
58.8729235924
 30
0.0
 11
97.3235844235
 21
58.8729235924
 31
0.0
  0
LINE
  5
BF
330
1F
100
AcDbEntity
  8
0
  6
Continuous
 62
     7
370
    15
100
AcDbLine
 10
97.3235844235
 20
121.8729235924
 30
0.0
 11
93.6667689235
 21
121.8729235924
 31
0.0
  0
SPLINE
  5
C0
330
1F
100
AcDbEntity
  8
0
  6
Continuous
 62
     7
370
    15
100
AcDbSpline
210
0.0
220
0.0
230
1.0
 70
     8
 71
     3
 72
    11
 73
     7
 74
     0
 42
0.000000001
 43
0.00000001
 40
0.0
 40
0.0
 40
0.0
 40
0.0
 40
0.2475748615829451
 40
0.5000000007403317
 40
0.7524251394956389
 40
0.9999999999999999
 40
0.9999999999999999
 40
0.9999999999999999
 40
0.9999999999999999
 10
73.25495527349771
 20
121.8729235923322
 30
0.0
 10
73.22902004420096
 20
121.8714725434873
 30
0.0
 10
73.17664148450125
 20
121.8685420180742
 30
0.0
 10
73.10100732396715
 20
121.8445868200184
 30
0.0
 10
73.030587013239
 20
121.8080442752946
 30
0.0
 10
72.9914775842777
 20
121.773079234957
 30
0.0
 10
72.97211256141004
 20
121.7557663049632
 30
0.0
  0
SPLINE
  5
C1
330
1F
100
AcDbEntity
  8
0
  6
Continuous
 62
     7
370
    15
100
AcDbSpline
210
0.0
220
0.0
230
1.0
 70
     8
 71
     3
 72
    11
 73
     7
 74
     0
 42
0.000000001
 43
0.00000001
 40
0.0
 40
0.0
 40
0.0
 40
0.0
 40
0.2475748605043852
 40
0.4999999992596799
 40
0.7524251384170517
 40
1.0
 40
1.0
 40
1.0
 40
1.0
 10
72.97211256141004
 20
58.99008087987517
 30
0.0
 10
72.9914775842777
 20
58.97276794988134
 30
0.0
 10
73.03058701323899
 20
58.9378029095438
 30
0.0
 10
73.10100732396715
 20
58.90126036481991
 30
0.0
 10
73.17664148450125
 20
58.87730516676422
 30
0.0
 10
73.22902004420096
 20
58.87437464135108
 30
0.0
 10
73.25495527349771
 20
58.87292359250618
 30
0.0
  0
LINE
  5
C2
330
1F
100
AcDbEntity
  8
0
  6
Continuous
 62
     7
370
    15
100
AcDbLine
 10
93.6667689235
 20
121.8729235924
 30
0.0
 11
92.1892698485
 21
119.3138201264
 31
0.0
  0
LINE
  5
C3
330
1F
100
AcDbEntity
  8
0
  6
Continuous
 62
     7
370
    15
100
AcDbLine
 10
92.1892698485
 20
61.4320270584
 30
0.0
 11
93.6667689235
 21
58.8729235924
 31
0.0
  0
LINE
  5
C4
330
1F
100
AcDbEntity
  8
0
  6
Continuous
 62
     7
370
    15
100
AcDbLine
 10
87.0094474888
 20
58.8729235924
 30
0.0
 11
88.3892698485
 21
61.2628460248
 31
0.0
  0
LINE
  5
C5
330
1F
100
AcDbEntity
  8
0
  6
Continuous
 62
     7
370
    15
100
AcDbLine
 10
88.3892698485
 20
119.48300116
 30
0.0
 11
87.0094474888
 21
121.8729235924
 31
0.0
  0
LINE
  5
C6
330
1F
100
AcDbEntity
  8
0
  6
Continuous
 62
     7
370
    15
100
AcDbLine
 10
72.9721125613
 20
121.7557663053
 30
0.0
 11
72.4064271365
 21
121.1900808804
 31
0.0
  0
LINE
  5
C7
330
1F
100
AcDbEntity
  8
0
  6
Continuous
 62
     7
370
    15
100
AcDbLine
 10
72.4064271365
 20
59.5557663044
 30
0.0
 11
72.9721125613
 21
58.9900808796
 31
0.0
  0
SPLINE
  5
C8
330
1F
100
AcDbEntity
  8
0
  6
Continuous
 62
     7
370
    15
100
AcDbSpline
210
0.0
220
0.0
230
1.0
 70
     8
 71
     3
 72
    12
 73
     8
 74
     0
 42
0.000000001
 43
0.00000001
 40
0.0
 40
0.0
 40
0.0
 40
0.0
 40
0.0097768330250618
 40
0.3578596417409395
 40
0.6453669542455402
 40
0.8657740486494008
 40
1.0
 40
1.0
 40
1.0
 40
1.0
 10
72.32801133471075
 20
118.6337112975822
 30
0.0
 10
72.32793025892737
 20
118.6285256126885
 30
0.0
 10
72.32496265676787
 20
118.4387149313076
 30
0.0
 10
72.31969621127543
 20
118.0346090885186
 30
0.0
 10
72.31241322638968
 20
117.4759915208321
 30
0.0
 10
72.30693682511925
 20
117.0244319550052
 30
0.0
 10
72.30291801716537
 20
116.7571590966778
 30
0.0
 10
72.3013969284587
 20
116.6559983218749
 30
0.0
  0
SPLINE
  5
C9
330
1F
100
AcDbEntity
  8
0
  6
Continuous
 62
     7
370
    15
100
AcDbSpline
210
0.0
220
0.0
230
1.0
 70
     8
 71
     3
 72
    11
 73
     7
 74
     0
 42
0.000000001
 43
0.00000001
 40
0.0
 40
0.0
 40
0.0
 40
0.0
 40
0.1600378335609623
 40
0.4227440965697593
 40
0.7654280374733097
 40
1.0
 40
1.0
 40
1.0
 40
1.0
 10
72.3013954896439
 20
64.08994678121948
 30
0.0
 10
72.30291710625633
 20
63.98868494448514
 30
0.0
 10
72.3069364960833
 20
63.72119917106053
 30
0.0
 10
72.3124125449954
 20
63.27185906145245
 30
0.0
 10
72.31841207715375
 20
62.80140610130849
 30
0.0
 10
72.32239703861885
 20
62.51598057649924
 30
0.0
 10
72.32401635550397
 20
62.39999592374495
 30
0.0
  0
SPLINE
  5
CA
330
1F
100
AcDbEntity
  8
0
  6
Continuous
 62
     7
370
    15
100
AcDbSpline
210
0.0
220
0.0
230
1.0
 70
     8
 71
     3
 72
    11
 73
     7
 74
     0
 42
0.000000001
 43
0.00000001
 40
0.0
 40
0.0
 40
0.0
 40
0.0
 40
0.2475748679496336
 40
0.4999999972602585
 40
0.7524251279437332
 40
1.0
 40
1.0
 40
1.0
 40
1.0
 10
97.6064271374069
 20
121.7557661918967
 30
0.0
 10
97.58706211485791
 20
121.7730791261077
 30
0.0
 10
97.54795268787274
 20
121.8080441737709
 30
0.0
 10
97.47753237403428
 20
121.8445867327758
 30
0.0
 10
97.40189820934962
 20
121.8685419423503
 30
0.0
 10
97.34951965208131
 20
121.8714724741347
 30
0.0
 10
97.32358442299504
 20
121.87292352619
 30
0.0
  0
SPLINE
  5
CB
330
1F
100
AcDbEntity
  8
0
  6
Continuous
 62
     7
370
    15
100
AcDbSpline
210
0.0
220
0.0
230
1.0
 70
     8
 71
     3
 72
    11
 73
     7
 74
     0
 42
0.000000001
 43
0.00000001
 40
0.0
 40
0.0
 40
0.0
 40
0.0
 40
0.2476323684695742
 40
0.5001159580714805
 40
0.7525398532503942
 40
1.0
 40
1.0
 40
1.0
 40
1.0
 10
97.32358442346865
 20
58.87292359722549
 30
0.0
 10
97.34967739586877
 20
58.87439244513653
 30
0.0
 10
97.40237451285499
 20
58.8773589163003
 30
0.0
 10
97.47842401945738
 20
58.90160085413989
 30
0.0
 10
97.54914907337702
 20
58.93856240132593
 30
0.0
 10
97.58832765655413
 20
58.97389250320334
 30
0.0
 10
97.60772243040019
 20
58.99138214372382
 30
0.0
  0
LINE
  5
CC
330
1F
100
AcDbEntity
  8
0
  6
Continuous
 62
     7
370
    15
100
AcDbLine
 10
98.1721125612
 20
121.1900808797
 30
0.0
 11
97.6064271365
 21
121.7557663044
 31
0.0
  0
LINE
  5
CD
330
1F
100
AcDbEntity
  8
0
  6
Continuous
 62
     7
370
    15
100
AcDbLine
 10
97.6064271365
 20
58.9900808804
 30
0.0
 11
98.1721125612
 21
59.5557663052
 31
0.0
  0
LINE
  5
CE
330
1F
100
AcDbEntity
  8
0
  6
Continuous
 62
     7
370
    15
100
AcDbLine
 10
98.1721125612
 20
59.555766305
 30
0.0
 11
98.259185988
 21
59.6864181838
 31
0.0
  0
LINE
  5
CF
330
1F
100
AcDbEntity
  8
0
  6
Continuous
 62
     7
370
    15
100
AcDbLine
 10
98.2591859876
 20
121.0594290019
 30
0.0
 11
98.1721125612
 21
121.1900808799
 31
0.0
  0
LINE
  5
D0
330
1F
100
AcDbEntity
  8
0
  6
Continuous
 62
     7
370
    15
100
AcDbLine
 10
88.3892698485
 20
62.8729235924
 30
0.0
 11
92.1892698485
 21
62.8729235924
 31
0.0
  0
LINE
  5
D1
330
1F
100
AcDbEntity
  8
0
  6
Continuous
 62
     7
370
    15
100
AcDbLine
 10
92.1892698485
 20
117.8729235924
 30
0.0
 11
88.3892698485
 21
117.8729235924
 31
0.0
  0
LINE
  5
D2
330
1F
100
AcDbEntity
  8
0
  6
Continuous
 62
     7
370
    15
100
AcDbLine
 10
137.5892698485
 20
117.3729235924
 30
0.0
 11
136.7892698485
 21
116.5729235924
 31
0.0
  0
LINE
  5
D3
330
1F
100
AcDbEntity
  8
0
  6
Continuous
 62
     7
370
    15
100
AcDbLine
 10
136.7892698485
 20
64.1729235924
 30
0.0
 11
137.5892698485
 21
63.3729235924
 31
0.0
  0
LINE
  5
D4
330
1F
100
AcDbEntity
  8
0
  6
Continuous
 62
     7
370
    15
100
AcDbLine
 10
137.5892698485
 20
63.3729235924
 30
0.0
 11
156.7892698485
 21
63.3729235924
 31
0.0
  0
LINE
  5
D5
330
1F
100
AcDbEntity
  8
0
  6
Continuous
 62
     7
370
    15
100
AcDbLine
 10
156.7892698485
 20
117.3729235924
 30
0.0
 11
137.5892698485
 21
117.3729235924
 31
0.0
  0
LINE
  5
D6
330
1F
100
AcDbEntity
  8
0
  6
Continuous
 62
     7
370
    15
100
AcDbLine
 10
167.9591428295
 20
63.8729235924
 30
0.0
 11
176.5480888935
 21
66.1743247544
 31
0.0
  0
LINE
  5
D7
330
1F
100
AcDbEntity
  8
0
  6
Continuous
 62
     7
370
    15
100
AcDbLine
 10
176.5480888935
 20
114.5715224304
 30
0.0
 11
167.9591428295
 21
116.8729235924
 31
0.0
  0
LINE
  5
D8
330
1F
100
AcDbEntity
  8
0
  6
Continuous
 62
     7
370
    15
100
AcDbLine
 10
156.7892698485
 20
63.8729235924
 30
0.0
 11
167.9591428295
 21
63.8729235924
 31
0.0
  0
LINE
  5
D9
330
1F
100
AcDbEntity
  8
0
  6
Continuous
 62
     7
370
    15
100
AcDbLine
 10
167.9591428295
 20
116.8729235924
 30
0.0
 11
156.7892698485
 21
116.8729235924
 31
0.0
  0
SPLINE
  5
DA
330
1F
100
AcDbEntity
  8
0
  6
Continuous
 62
     7
370
    15
100
AcDbSpline
210
0.0
220
0.0
230
1.0
 70
     8
 71
     3
 72
    15
 73
    11
 74
     0
 42
0.000000001
 43
0.00000001
 40
0.0
 40
0.0
 40
0.0
 40
0.0
 40
0.1485925981982396
 40
0.276050174664508
 40
0.3759311613593532
 40
0.4500615150641914
 40
0.5454527544517593
 40
0.6724807004008351
 40
0.8268223597769205
 40
0.9999999999999999
 40
0.9999999999999999
 40
0.9999999999999999
 40
0.9999999999999999
 10
98.28926984858049
 20
64.37292359414762
 30
0.0
 10
98.31010854616395
 20
64.68428242634934
 30
0.0
 10
98.34882195569742
 20
65.26271406463295
 30
0.0
 10
98.61787629761199
 20
66.01017710540457
 30
0.0
 10
98.92608808439955
 20
66.56182962481694
 30
0.0
 10
99.26732415001133
 20
67.01147340324239
 30
0.0
 10
99.70544588583493
 20
67.45369896493679
 30
0.0
 10
100.3531581042616
 20
67.90810724350065
 30
0.0
 10
101.2392746027653
 20
68.29057710213519
 30
0.0
 10
101.9261046582688
 20
68.34444215033135
 30
0.0
 10
102.2892698469827
 20
68.37292359233655
 30
0.0
  0
SPLINE
  5
DB
330
1F
100
AcDbEntity
  8
0
  6
Continuous
 62
     7
370
    15
100
AcDbSpline
210
0.0
220
0.0
230
1.0
 70
     8
 71
     3
 72
    15
 73
    11
 74
     0
 42
0.000000001
 43
0.00000001
 40
0.0
 40
0.0
 40
0.0
 40
0.0
 40
0.1485925982124474
 40
0.2760501746890069
 40
0.3759311613932324
 40
0.4500615151019658
 40
0.545452754484734
 40
0.6724807004286032
 40
0.826822359794723
 40
0.9999999999999999
 40
0.9999999999999999
 40
0.9999999999999999
 40
0.9999999999999999
 10
102.2892698469827
 20
112.3729235925018
 30
0.0
 10
101.9779110147526
 20
112.3937622900982
 30
0.0
 10
101.3994793764203
 20
112.4324756996555
 30
0.0
 10
100.6520163355782
 20
112.7015300415762
 30
0.0
 10
100.100363816111
 20
113.009741828367
 30
0.0
 10
99.65072003765681
 20
113.35097789397
 30
0.0
 10
99.20849447594988
 20
113.7890996297624
 30
0.0
 10
98.75408619737799
 20
114.4368118481319
 30
0.0
 10
98.37161633874038
 20
115.3229283465637
 30
0.0
 10
98.31775129057101
 20
116.0097584020124
 30
0.0
 10
98.2892698485805
 20
116.3729235906907
 30
0.0
  0
SPLINE
  5
DC
330
1F
100
AcDbEntity
  8
0
  6
Continuous
 62
     7
370
    15
100
AcDbSpline
210
0.0
220
0.0
230
1.0
 70
     8
 71
     3
 72
    13
 73
     9
 74
     0
 42
0.000000001
 43
0.00000001
 40
0.0
 40
0.0
 40
0.0
 40
0.0
 40
0.2394568442746129
 40
0.3683606600807631
 40
0.4999999998355586
 40
0.631639339621362
 40
0.7605431555102151
 40
1.0
 40
1.0
 40
1.0
 40
1.0
 10
136.7892698482927
 20
114.8729235920746
 30
0.0
 10
136.7759118582919
 20
114.7471272714369
 30
0.0
 10
136.7553630281722
 20
114.5536125867922
 30
0.0
 10
136.6306654305872
 20
114.3207965041615
 30
0.0
 10
136.5016036626307
 20
114.1605897783502
 30
0.0
 10
136.3413969367612
 20
114.0315280103945
 30
0.0
 10
136.1085808539954
 20
113.906830412727
 30
0.0
 10
135.9150661692271
 20
113.8862815823979
 30
0.0
 10
135.7892698484978
 20
113.8729235922599
 30
0.0
  0
SPLINE
  5
DD
330
1F
100
AcDbEntity
  8
0
  6
Continuous
 62
     7
370
    15
100
AcDbSpline
210
0.0
220
0.0
230
1.0
 70
     8
 71
     3
 72
    13
 73
     9
 74
     0
 42
0.000000001
 43
0.00000001
 40
0.0
 40
0.0
 40
0.0
 40
0.0
 40
0.2394568444897921
 40
0.368360660378652
 40
0.5000000001644446
 40
0.6316393399192278
 40
0.760543155725383
 40
1.0
 40
1.0
 40
1.0
 40
1.0
 10
135.7892698484978
 20
66.87292359257843
 30
0.0
 10
135.9150661692271
 20
66.85956560244044
 30
0.0
 10
136.1085808539954
 20
66.83901677211136
 30
0.0
 10
136.3413969367612
 20
66.7143191744439
 30
0.0
 10
136.5016036626307
 20
66.58525740648814
 30
0.0
 10
136.6306654305872
 20
66.42505068067685
 30
0.0
 10
136.7553630281722
 20
66.19223459804618
 30
0.0
 10
136.7759118582919
 20
65.99871991340147
 30
0.0
 10
136.7892698482927
 20
65.87292359276378
 30
0.0
  0
SPLINE
  5
DE
330
1F
100
AcDbEntity
  8
0
  6
Continuous
 62
     7
370
    15
100
AcDbSpline
210
0.0
220
0.0
230
1.0
 70
     8
 71
     3
 72
     9
 73
     5
 74
     0
 42
0.000000001
 43
0.00000001
 40
0.0
 40
0.0
 40
0.0
 40
0.0
 40
0.4198797808853286
 40
1.0
 40
1.0
 40
1.0
 40
1.0
 10
72.4064271364977
 20
114.3362443197207
 30
0.0
 10
72.37450621959344
 20
114.3171824192923
 30
0.0
 10
72.29848227569946
 20
114.2717839474053
 30
0.0
 10
72.20958547726987
 20
114.2661765545394
 30
0.0
 10
72.15801464708632
 20
114.2629235925614
 30
0.0
  0
SPLINE
  5
DF
330
1F
100
AcDbEntity
  8
0
  6
Continuous
 62
     7
370
    15
100
AcDbSpline
210
0.0
220
0.0
230
1.0
 70
     8
 71
     3
 72
     9
 73
     5
 74
     0
 42
0.000000001
 43
0.00000001
 40
0.0
 40
0.0
 40
0.0
 40
0.0
 40
0.5801202186240544
 40
1.0
 40
1.0
 40
1.0
 40
1.0
 10
72.15801464708632
 20
66.482923592277
 30
0.0
 10
72.20958547722095
 20
66.47967063030134
 30
0.0
 10
72.2984822756414
 20
66.47406323743478
 30
0.0
 10
72.37450621955003
 20
66.4286647655818
 30
0.0
 10
72.4064271364977
 20
66.40960286514537
 30
0.0
  0
SPLINE
  5
E0
330
1F
100
AcDbEntity
  8
0
  6
Continuous
 62
     7
370
    15
100
AcDbSpline
210
0.0
220
0.0
230
1.0
 70
     8
 71
     3
 72
    11
 73
     7
 74
     0
 42
0.000000001
 43
0.00000001
 40
0.0
 40
0.0
 40
0.0
 40
0.0
 40
0.2431854421921205
 40
0.4999999998014036
 40
0.7568145575264266
 40
1.0
 40
1.0
 40
1.0
 40
1.0
 10
177.2892698482721
 20
113.6055966038857
 30
0.0
 10
177.2794370961169
 20
113.7117608018109
 30
0.0
 10
177.2592205238115
 20
113.9300390772828
 30
0.0
 10
177.096061507194
 20
114.2246696173176
 30
0.0
 10
176.8536989202569
 20
114.4585251204477
 30
0.0
 10
176.6480907305201
 20
114.53454740485
 30
0.0
 10
176.5480888933652
 20
114.5715224305758
 30
0.0
  0
SPLINE
  5
E1
330
1F
100
AcDbEntity
  8
0
  6
Continuous
 62
     7
370
    15
100
AcDbSpline
210
0.0
220
0.0
230
1.0
 70
     8
 71
     3
 72
    11
 73
     7
 74
     0
 42
0.000000001
 43
0.00000001
 40
0.0
 40
0.0
 40
0.0
 40
0.0
 40
0.2431854424807957
 40
0.500000000205985
 40
0.7568145578114773
 40
1.0
 40
1.0
 40
1.0
 40
1.0
 10
176.5480888935287
 20
66.17432475430637
 30
0.0
 10
176.6480907306677
 20
66.2112997800444
 30
0.0
 10
176.8536989203687
 20
66.28732206447077
 30
0.0
 10
177.0960615072475
 20
66.52117756759856
 30
0.0
 10
177.2592205238203
 20
66.81580810760235
 30
0.0
 10
177.2794370961197
 20
67.03408638304273
 30
0.0
 10
177.2892698482722
 20
67.14025058095271
 30
0.0
  0
LINE
  5
E2
330
1F
100
AcDbEntity
  8
0
  6
Continuous
 62
     7
370
    15
100
AcDbLine
 10
69.2892698485
 20
114.5432498434
 30
0.0
 11
41.5292265155
 21
113.1525032114
 31
0.0
  0
LINE
  5
E3
330
1F
100
AcDbEntity
  8
0
  6
Continuous
 62
     7
370
    15
100
AcDbLine
 10
41.5292265155
 20
67.5933439734
 30
0.0
 11
69.2892698485
 21
66.2025973414
 31
0.0
  0
LINE
  5
E4
330
1F
100
AcDbEntity
  8
0
  6
Continuous
 62
     7
370
    15
100
AcDbLine
 10
69.2892698485
 20
66.2025973414
 30
0.0
 11
69.8904314335
 21
66.4829235924
 31
0.0
  0
LINE
  5
E5
330
1F
100
AcDbEntity
  8
0
  6
Continuous
 62
     7
370
    15
100
AcDbLine
 10
69.8904314335
 20
114.2629235924
 30
0.0
 11
69.2892698485
 21
114.5432498434
 31
0.0
  0
LINE
  5
E6
330
1F
100
AcDbEntity
  8
0
  6
Continuous
 62
     7
370
    15
100
AcDbLine
 10
69.8904314335
 20
66.4829235924
 30
0.0
 11
72.1580146471
 21
66.4829235924
 31
0.0
  0
LINE
  5
E7
330
1F
100
AcDbEntity
  8
0
  6
Continuous
 62
     7
370
    15
100
AcDbLine
 10
72.1580146471
 20
114.2629235924
 30
0.0
 11
69.8904314335
 21
114.2629235924
 31
0.0
  0
SPLINE
  5
E8
330
1F
100
AcDbEntity
  8
0
  6
Continuous
 62
     7
370
    15
100
AcDbSpline
210
0.0
220
0.0
230
1.0
 70
     8
 71
     3
 72
    13
 73
     9
 74
     0
 42
0.000000001
 43
0.00000001
 40
0.0
 40
0.0
 40
0.0
 40
0.0
 40
0.2394568445759135
 40
0.3683606604730432
 40
0.5000000002339126
 40
0.6316393399415358
 40
0.7605431557027693
 40
1.0
 40
1.0
 40
1.0
 40
1.0
 10
131.7892698482315
 20
67.37292359210527
 30
0.0
 10
131.7959488433769
 20
67.31002543177406
 30
0.0
 10
131.8062232586578
 20
67.21326808945138
 30
0.0
 10
131.8685720574692
 20
67.09686004814824
 30
0.0
 10
131.9331029413852
 20
67.01675668527544
 30
0.0
 10
132.0132063041981
 20
66.95222580134397
 30
0.0
 10
132.1296143454085
 20
66.88987700258502
 30
0.0
 10
132.2263716876585
 20
66.8796025875239
 30
0.0
 10
132.2892698479399
 20
66.87292359252172
 30
0.0
  0
SPLINE
  5
E9
330
1F
100
AcDbEntity
  8
0
  6
Continuous
 62
     7
370
    15
100
AcDbSpline
210
0.0
220
0.0
230
1.0
 70
     8
 71
     3
 72
    13
 73
     9
 74
     0
 42
0.000000001
 43
0.00000001
 40
0.0
 40
0.0
 40
0.0
 40
0.0
 40
0.2394568442972219
 40
0.368360660058456
 40
0.4999999997660824
 40
0.6316393395269613
 40
0.7605431554240994
 40
1.0
 40
1.0
 40
1.0
 40
1.0
 10
132.2892698479399
 20
113.8729235923166
 30
0.0
 10
132.2263716876585
 20
113.8662445973144
 30
0.0
 10
132.1296143454085
 20
113.8559701822533
 30
0.0
 10
132.0132063041981
 20
113.7936213834944
 30
0.0
 10
131.9331029413852
 20
113.7290904995629
 30
0.0
 10
131.8685720574692
 20
113.6489871366901
 30
0.0
 10
131.8062232586578
 20
113.532579095387
 30
0.0
 10
131.7959488433769
 20
113.4358217530643
 30
0.0
 10
131.7892698482315
 20
113.3729235927331
 30
0.0
  0
LINE
  5
EA
330
1F
100
AcDbEntity
  8
0
  6
Continuous
 62
     7
370
    15
100
AcDbLine
 10
132.2892698479
 20
66.8729235924
 30
0.0
 11
135.7892698485
 21
66.8729235924
 31
0.0
  0
LINE
  5
EB
330
1F
100
AcDbEntity
  8
0
  6
Continuous
 62
     7
370
    15
100
AcDbLine
 10
135.7892698485
 20
113.8729235924
 30
0.0
 11
132.2892698479
 21
113.8729235924
 31
0.0
  0
SPLINE
  5
EC
330
1F
100
AcDbEntity
  8
0
  6
Continuous
 62
     7
370
    15
100
AcDbSpline
210
0.0
220
0.0
230
1.0
 70
     8
 71
     3
 72
    11
 73
     7
 74
     0
 42
0.000000001
 43
0.00000001
 40
0.0
 40
0.0
 40
0.0
 40
0.0
 40
0.2407440523285197
 40
0.4999999999623143
 40
0.7592559476373528
 40
0.9999999999999999
 40
0.9999999999999999
 40
0.9999999999999999
 40
0.9999999999999999
 10
41.52922651555836
 20
113.1525032108263
 30
0.0
 10
41.38369853350829
 20
113.1295051274761
 30
0.0
 10
41.08145226692037
 20
113.0817405344862
 30
0.0
 10
40.69917526560825
 20
112.8006244969595
 30
0.0
 10
40.43753900641563
 20
112.4047603787059
 30
0.0
 10
40.40495747071318
 20
112.1005027484671
 30
0.0
 10
40.38926984883996
 20
111.9540063187462
 30
0.0
  0
SPLINE
  5
ED
330
1F
100
AcDbEntity
  8
0
  6
Continuous
 62
     7
370
    15
100
AcDbSpline
210
0.0
220
0.0
230
1.0
 70
     8
 71
     3
 72
    11
 73
     7
 74
     0
 42
0.000000001
 43
0.00000001
 40
0.0
 40
0.0
 40
0.0
 40
0.0
 40
0.2407440523619975
 40
0.5000000000363445
 40
0.7592559476701886
 40
1.0
 40
1.0
 40
1.0
 40
1.0
 10
40.38926984883994
 20
68.79184086609212
 30
0.0
 10
40.40495747071255
 20
68.64534443637415
 30
0.0
 10
40.4375390064137
 20
68.3410868061413
 30
0.0
 10
40.69917526559669
 20
67.94522268789261
 30
0.0
 10
41.08145226689723
 20
67.66410665036376
 30
0.0
 10
41.38369853347965
 20
67.6163420573671
 30
0.0
 10
41.52922651552745
 20
67.59334397401364
 30
0.0
  0
LINE
  5
EE
330
1F
100
AcDbEntity
  8
0
  6
Continuous
 62
     7
370
    15
100
AcDbLine
 10
102.289269847
 20
68.3729235924
 30
0.0
 11
131.7892698485
 21
68.3729235924
 31
0.0
  0
LINE
  5
EF
330
1F
100
AcDbEntity
  8
0
  6
Continuous
 62
     7
370
    15
100
AcDbLine
 10
131.7892698485
 20
112.3729235924
 30
0.0
 11
102.289269847
 21
112.3729235924
 31
0.0
  0
SPLINE
  5
F0
330
1F
100
AcDbEntity
  8
0
  6
Continuous
 62
     7
370
    15
100
AcDbSpline
210
0.0
220
0.0
230
1.0
 70
     8
 71
     3
 72
    10
 73
     6
 74
     0
 42
0.000000001
 43
0.00000001
 40
0.0
 40
0.0
 40
0.0
 40
0.0
 40
0.3269054136561485
 40
0.6606875901495702
 40
1.0
 40
1.0
 40
1.0
 40
1.0
 10
97.32358442299504
 20
99.90815405444718
 30
0.0
 10
97.34080264447032
 20
99.9076112178685
 30
0.0
 10
97.3756012889037
 20
99.90651412563317
 30
0.0
 10
97.42736312161908
 20
99.89835378050174
 30
0.0
 10
97.46013650173961
 20
99.88874733780783
 30
0.0
 10
97.47665782699355
 20
99.88390465256462
 30
0.0
  0
SPLINE
  5
F1
330
1F
100
AcDbEntity
  8
0
  6
Continuous
 62
     7
370
    15
100
AcDbSpline
210
0.0
220
0.0
230
1.0
 70
     8
 71
     3
 72
    11
 73
     7
 74
     0
 42
0.000000001
 43
0.00000001
 40
0.0
 40
0.0
 40
0.0
 40
0.0
 40
0.2452613025516161
 40
0.4995333251163089
 40
0.742878840391587
 40
1.0
 40
1.0
 40
1.0
 40
1.0
 10
97.47665782699355
 20
99.88390465256462
 30
0.0
 10
97.4886043594851
 20
99.87964176941277
 30
0.0
 10
97.51293633129242
 20
99.87095938791488
 30
0.0
 10
97.54637051949163
 20
99.85468896889982
 30
0.0
 10
97.57814589854681
 20
99.83612074320139
 30
0.0
 10
97.59682863924492
 20
99.82204512094138
 30
0.0
 10
97.60642713639577
 20
99.81481358985383
 30
0.0
  0
LINE
  5
F2
330
1F
100
AcDbEntity
  8
0
  6
Continuous
 62
     7
370
    15
100
AcDbLine
 10
97.6064271367
 20
80.8544616516
 30
0.0
 11
97.6064271367
 21
99.8148135891
 31
0.0
  0
SPLINE
  5
F3
330
1F
100
AcDbEntity
  8
0
  6
Continuous
 62
     7
370
    15
100
AcDbSpline
210
0.0
220
0.0
230
1.0
 70
     8
 71
     3
 72
    10
 73
     6
 74
     0
 42
0.000000001
 43
0.00000001
 40
0.0
 40
0.0
 40
0.0
 40
0.0
 40
0.3043413753291139
 40
0.637870353560808
 40
0.9999999999999999
 40
0.9999999999999999
 40
0.9999999999999999
 40
0.9999999999999999
 10
97.47665784225741
 20
80.74865985187907
 30
0.0
 10
97.49189357654016
 20
80.75724536786234
 30
0.0
 10
97.5238262153514
 20
80.77523978649772
 30
0.0
 10
97.5676989290934
 20
80.8109339649069
 30
0.0
 10
97.59316868741786
 20
80.83956011958878
 30
0.0
 10
97.60642713667707
 20
80.85446165161358
 30
0.0
  0
SPLINE
  5
F4
330
1F
100
AcDbEntity
  8
0
  6
Continuous
 62
     7
370
    15
100
AcDbSpline
210
0.0
220
0.0
230
1.0
 70
     8
 71
     3
 72
    10
 73
     6
 74
     0
 42
0.000000001
 43
0.00000001
 40
0.0
 40
0.0
 40
0.0
 40
0.0
 40
0.3225867415682834
 40
0.6552969125063984
 40
1.0
 40
1.0
 40
1.0
 40
1.0
 10
97.32358442299504
 20
80.71157087830126
 30
0.0
 10
97.34083434298813
 20
80.71241406870924
 30
0.0
 10
97.37587552061834
 20
80.7141269105586
 30
0.0
 10
97.4279131148731
 20
80.72678863193292
 30
0.0
 10
97.46021895240364
 20
80.74128390385442
 30
0.0
 10
97.47665784225741
 20
80.74865985187907
 30
0.0
  0
LINE
  5
F5
330
1F
100
AcDbEntity
  8
0
  6
Continuous
 62
     7
370
    15
100
AcDbLine
 10
97.323584423
 20
80.7115708783
 30
0.0
 11
97.323584423
 21
99.9081540595
 31
0.0
  0
LINE
  5
F6
330
1F
100
AcDbEntity
  8
0
  6
Continuous
 62
     7
370
    15
100
AcDbLine
 10
87.0094474888
 20
90.3729235924
 30
0.0
 11
87.0094474888
 21
121.8729235924
 31
0.0
  0
LINE
  5
F7
330
1F
100
AcDbEntity
  8
0
  6
Continuous
 62
     7
370
    15
100
AcDbLine
 10
87.0094474888
 20
58.8729235924
 30
0.0
 11
87.0094474888
 21
90.3729235924
 31
0.0
  0
LINE
  5
F8
330
1F
100
AcDbEntity
  8
0
  6
Continuous
 62
     7
370
    15
100
AcDbLine
 10
93.6667689235
 20
90.3729235924
 30
0.0
 11
93.6667689235
 21
121.8729235924
 31
0.0
  0
LINE
  5
F9
330
1F
100
AcDbEntity
  8
0
  6
Continuous
 62
     7
370
    15
100
AcDbLine
 10
93.6667689235
 20
58.8729235924
 30
0.0
 11
93.6667689235
 21
90.3729235924
 31
0.0
  0
SPLINE
  5
FA
330
1F
100
AcDbEntity
  8
0
  6
Continuous
 62
     7
370
    15
100
AcDbSpline
210
0.0
220
0.0
230
1.0
 70
    24
 71
     3
 72
    10
 73
     6
 74
     0
 42
0.000000001
 43
0.00000001
 40
0.0
 40
0.0
 40
0.0
 40
0.0
 40
0.5
 40
0.5
 40
1.0
 40
1.0
 40
1.0
 40
1.0
 10
72.97211256134614
 20
90.37292359241918
 30
0.0
 10
73.00819230116761
 20
90.37292359241918
 30
0.0
 10
73.05287628317558
 20
90.37292359241918
 30
0.0
 10
73.15088751768025
 20
90.37292359241918
 30
0.0
 10
73.20393081567993
 20
90.37292359241918
 30
0.0
 10
73.25495527352363
 20
90.37292359241918
 30
0.0
  0
LINE
  5
FB
330
1F
100
AcDbEntity
  8
0
  6
Continuous
 62
     7
370
    15
100
AcDbLine
 10
92.1892698485
 20
61.4320270584
 30
0.0
 11
92.1892698485
 21
119.3138201264
 31
0.0
  0
LINE
  5
FC
330
1F
100
AcDbEntity
  8
0
  6
Continuous
 62
     7
370
    15
100
AcDbLine
 10
88.3892698485
 20
90.3729235924
 30
0.0
 11
88.3892698485
 21
119.48300116
 31
0.0
  0
LINE
  5
FD
330
1F
100
AcDbEntity
  8
0
  6
Continuous
 62
     7
370
    15
100
AcDbLine
 10
88.3892698485
 20
61.2628460248
 30
0.0
 11
88.3892698485
 21
90.3729235924
 31
0.0
  0
SPLINE
  5
FE
330
1F
100
AcDbEntity
  8
0
  6
Continuous
 62
     7
370
    15
100
AcDbSpline
210
0.0
220
0.0
230
1.0
 70
     8
 71
     3
 72
     8
 73
     4
 74
     0
 42
0.000000001
 43
0.00000001
 40
0.0
 40
0.0
 40
0.0
 40
0.0
 40
0.000356188179627
 40
0.000356188179627
 40
0.000356188179627
 40
0.000356188179627
 10
97.84266117613426
 20
99.62631491886002
 30
0.0
 10
97.76396225686918
 20
99.68917646878636
 30
0.0
 10
97.68521717058356
 20
99.75200913410237
 30
0.0
 10
97.60642713655879
 20
99.81481358995605
 30
0.0
  0
SPLINE
  5
FF
330
1F
100
AcDbEntity
  8
0
  6
Continuous
 62
     7
370
    15
100
AcDbSpline
210
0.0
220
0.0
230
1.0
 70
     8
 71
     3
 72
     9
 73
     5
 74
     0
 42
0.000000001
 43
0.00000001
 40
0.0
 40
0.0
 40
0.0
 40
0.0
 40
0.4989115197700451
 40
1.0
 40
1.0
 40
1.0
 40
1.0
 10
98.17211256192734
 20
99.95576630540394
 30
0.0
 10
98.1174754799063
 20
99.90112922746658
 30
0.0
 10
98.00796291133261
 20
99.79161666707803
 30
0.0
 10
97.89784166440505
 20
99.68149541219938
 30
0.0
 10
97.84266117614108
 20
99.62631491995121
 30
0.0
  0
LINE
  5
100
330
1F
100
AcDbEntity
  8
0
  6
Continuous
 62
     7
370
    15
100
AcDbLine
 10
98.1721125612
 20
80.7900808797
 30
0.0
 11
98.1721125612
 21
99.9557663143
 31
0.0
  0
SPLINE
  5
101
330
1F
100
AcDbEntity
  8
0
  6
Continuous
 62
     7
370
    15
100
AcDbSpline
210
0.0
220
0.0
230
1.0
 70
    24
 71
     3
 72
     9
 73
     5
 74
     0
 42
0.000000001
 43
0.00000001
 40
0.0
 40
0.0
 40
0.0
 40
0.0
 40
0.5010187853203432
 40
1.0
 40
1.0
 40
1.0
 40
1.0
 10
97.83164327262547
 20
81.13055016829142
 30
0.0
 10
97.88866639090634
 20
81.07352705001055
 30
0.0
 10
98.00248072272709
 20
80.9597127181898
 30
0.0
 10
98.11564547566256
 20
80.84654796525433
 30
0.0
 10
98.17211256154123
 20
80.79008087937567
 30
0.0
  0
SPLINE
  5
102
330
1F
100
AcDbEntity
  8
0
  6
Continuous
 62
     7
370
    15
100
AcDbSpline
210
0.0
220
0.0
230
1.0
 70
     8
 71
     3
 72
     8
 73
     4
 74
     0
 42
0.000000001
 43
0.00000001
 40
0.0
 40
0.0
 40
0.0
 40
0.0
 40
0.0003863016479837
 40
0.0003863016479837
 40
0.0003863016479837
 40
0.0003863016479837
 10
97.60642713950081
 20
80.85446165191662
 30
0.0
 10
97.68166641117563
 20
80.94638542144814
 30
0.0
 10
97.7567402484366
 20
81.03841415520387
 30
0.0
 10
97.83164327392414
 20
81.13055016737036
 30
0.0
  0
SPLINE
  5
103
330
1F
100
AcDbEntity
  8
0
  6
Continuous
 62
     7
370
    15
100
AcDbSpline
210
0.0
220
0.0
230
1.0
 70
    24
 71
     3
 72
    10
 73
     6
 74
     0
 42
0.000000001
 43
0.00000001
 40
0.0
 40
0.0
 40
0.0
 40
0.0
 40
0.5
 40
0.5
 40
1.0
 40
1.0
 40
1.0
 40
1.0
 10
72.28926984847959
 20
90.37292359241918
 30
0.0
 10
72.28926984836843
 20
90.37292359241918
 30
0.0
 10
72.29941924405334
 20
90.37292359241918
 30
0.0
 10
72.34001682672934
 20
90.37292359241918
 30
0.0
 10
72.37034739590743
 20
90.37292359241918
 30
0.0
 10
72.40642713575491
 20
90.37292359241918
 30
0.0
  0
SPLINE
  5
104
330
1F
100
AcDbEntity
  8
0
  6
Continuous
 62
     7
370
    15
100
AcDbSpline
210
0.0
220
0.0
230
1.0
 70
    24
 71
     3
 72
    28
 73
    24
 74
     0
 42
0.000000001
 43
0.00000001
 40
0.0
 40
0.0
 40
0.0
 40
0.0
 40
0.1249999999999998
 40
0.1249999999999998
 40
0.2499999999999996
 40
0.2499999999999996
 40
0.3749999999999995
 40
0.3749999999999995
 40
0.4999999999999994
 40
0.4999999999999994
 40
0.6249999999999993
 40
0.6249999999999993
 40
0.6874999999999993
 40
0.6874999999999993
 40
0.7499999999999994
 40
0.7499999999999994
 40
0.8124999999999997
 40
0.8124999999999997
 40
0.8749999999999998
 40
0.8749999999999998
 40
0.9374999999999999
 40
0.9374999999999999
 40
1.0
 40
1.0
 40
1.0
 40
1.0
 10
72.28926984847959
 20
90.37292359241918
 30
0.0
 10
72.28926984847959
 20
91.75120862532252
 30
0.0
 10
72.28926984847959
 20
93.2239255405756
 30
0.0
 10
72.28926984847959
 20
96.34568445286034
 30
0.0
 10
72.28926984847959
 20
97.99534838971297
 30
0.0
 10
72.28926984847959
 20
101.4223749223687
 30
0.0
 10
72.28926984847959
 20
103.2003291831746
 30
0.0
 10
72.28926984847959
 20
106.7790928222903
 30
0.0
 10
72.28926984847959
 20
108.5799755651023
 30
0.0
 10
72.28926984847959
 20
112.0313325427363
 30
0.0
 10
72.28926984847959
 20
113.6806726310391
 30
0.0
 10
72.28926984847959
 20
115.8705819635535
 30
0.0
 10
72.28926984847959
 20
116.5528825486006
 30
0.0
 10
72.28926984847959
 20
117.7930707460734
 30
0.0
 10
72.28926984847959
 20
118.3508634648856
 30
0.0
 10
72.28926984847959
 20
119.3155550410667
 30
0.0
 10
72.28926984847959
 20
119.722361152823
 30
0.0
 10
72.28926984847959
 20
120.3642353747258
 30
0.0
 10
72.28926984847959
 20
120.5992314813727
 30
0.0
 10
72.28926984847959
 20
120.8848226636835
 30
0.0
 10
72.28926984847959
 20
120.9353828573276
 30
0.0
 10
72.28926984847959
 20
120.8492820892948
 30
0.0
 10
72.28926984847959
 20
120.7126318344327
 30
0.0
 10
72.28926984847959
 20
120.4860752078594
 30
0.0
  0
SPLINE
  5
105
330
1F
100
AcDbEntity
  8
0
  6
Continuous
 62
     7
370
    15
100
AcDbSpline
210
0.0
220
0.0
230
1.0
 70
    24
 71
     3
 72
    28
 73
    24
 74
     0
 42
0.000000001
 43
0.00000001
 40
0.0
 40
0.0
 40
0.0
 40
0.0
 40
0.0625
 40
0.0625
 40
0.1249999999999999
 40
0.1249999999999999
 40
0.1874999999999999
 40
0.1874999999999999
 40
0.2499999999999998
 40
0.2499999999999998
 40
0.3124999999999998
 40
0.3124999999999998
 40
0.3749999999999997
 40
0.3749999999999997
 40
0.4999999999999997
 40
0.4999999999999997
 40
0.6249999999999998
 40
0.6249999999999998
 40
0.7499999999999997
 40
0.7499999999999997
 40
0.8749999999999998
 40
0.8749999999999998
 40
1.0
 40
1.0
 40
1.0
 40
1.0
 10
72.28926984847959
 20
60.2597719769804
 30
0.0
 10
72.28926984847959
 20
60.03321535040671
 30
0.0
 10
72.28926984847959
 20
59.8965650955442
 30
0.0
 10
72.28926984847959
 20
59.81046432751062
 30
0.0
 10
72.28926984847959
 20
59.86102452115441
 30
0.0
 10
72.28926984847959
 20
60.14661570346448
 30
0.0
 10
72.28926984847959
 20
60.3816118101111
 30
0.0
 10
72.28926984847959
 20
61.02348603201334
 30
0.0
 10
72.28926984847959
 20
61.43029214376951
 30
0.0
 10
72.28926984847959
 20
62.39498371995013
 30
0.0
 10
72.28926984847959
 20
62.95277643876221
 30
0.0
 10
72.28926984847959
 20
64.19296463623483
 30
0.0
 10
72.28926984847959
 20
64.87526522128186
 30
0.0
 10
72.28926984847959
 20
67.06517455379614
 30
0.0
 10
72.28926984847959
 20
68.71451464209908
 30
0.0
 10
72.28926984847959
 20
72.16587161973342
 30
0.0
 10
72.28926984847959
 20
73.96675436254556
 30
0.0
 10
72.28926984847959
 20
77.54551800166182
 30
0.0
 10
72.28926984847959
 20
79.32347226246796
 30
0.0
 10
72.28926984847959
 20
82.75049879512423
 30
0.0
 10
72.28926984847959
 20
84.40016273197713
 30
0.0
 10
72.28926984847959
 20
87.52192164426233
 30
0.0
 10
72.28926984847959
 20
88.99463855951565
 30
0.0
 10
72.28926984847959
 20
90.37292359241918
 30
0.0
  0
SPLINE
  5
106
330
1F
100
AcDbEntity
  8
0
  6
Continuous
 62
     7
370
    15
100
AcDbSpline
210
0.0
220
0.0
230
1.0
 70
    24
 71
     3
 72
    10
 73
     6
 74
     0
 42
0.000000001
 43
0.00000001
 40
0.0
 40
0.0
 40
0.0
 40
0.0
 40
0.5
 40
0.5
 40
1.0
 40
1.0
 40
1.0
 40
1.0
 10
98.1721125642825
 20
99.95576630820395
 30
0.0
 10
98.20475483391448
 20
99.98840857783591
 30
0.0
 10
98.2327237858934
 20
100.0163775298149
 30
0.0
 10
98.2753591984099
 20
100.0590129423314
 30
0.0
 10
98.28926984947965
 20
100.0729235934111
 30
0.0
 10
98.28926984851334
 20
100.0729235924448
 30
0.0
  0
LINE
  5
107
330
1F
100
AcDbEntity
  8
0
  6
Continuous
 62
     7
370
    15
100
AcDbLine
 10
98.2892698485
 20
80.6729236148
 30
0.0
 11
98.2892698485
 21
100.0729235322
 31
0.0
  0
SPLINE
  5
108
330
1F
100
AcDbEntity
  8
0
  6
Continuous
 62
     7
370
    15
100
AcDbSpline
210
0.0
220
0.0
230
1.0
 70
    24
 71
     3
 72
    10
 73
     6
 74
     0
 42
0.000000001
 43
0.00000001
 40
0.0
 40
0.0
 40
0.0
 40
0.0
 40
0.5
 40
0.5
 40
1.0
 40
1.0
 40
1.0
 40
1.0
 10
98.28926984851584
 20
80.67292359240106
 30
0.0
 10
98.28926984973361
 20
80.67292359118328
 30
0.0
 10
98.27534959945129
 20
80.68684384146562
 30
0.0
 10
98.23319619169733
 20
80.72899724921955
 30
0.0
 10
98.20478398014842
 20
80.75740946076849
 30
0.0
 10
98.17211255966149
 20
80.79008088125542
 30
0.0
  0
SPLINE
  5
109
330
1F
100
AcDbEntity
  8
0
  6
Continuous
 62
     7
370
    15
100
AcDbSpline
210
0.0
220
0.0
230
1.0
 70
    24
 71
     3
 72
    20
 73
    16
 74
     0
 42
0.000000001
 43
0.00000001
 40
0.0
 40
0.0
 40
0.0
 40
0.0
 40
0.0838982754716619
 40
0.1808833720485589
 40
0.2765854891447077
 40
0.3700110756258161
 40
0.4604117681231137
 40
0.5491134838900018
 40
0.6118773171535504
 40
0.6746271147297228
 40
0.7332032793211145
 40
0.7917652984964908
 40
0.8640491731514603
 40
0.9334795504665977
 40
1.0
 40
1.0
 40
1.0
 40
1.0
 10
98.28926984849772
 20
59.8661291406204
 30
0.0
 10
98.28926984849772
 20
59.88717244855908
 30
0.0
 10
98.28926984849772
 20
59.93254149193458
 30
0.0
 10
98.28926984849772
 20
60.54467389134467
 30
0.0
 10
98.28926984849772
 20
61.56013249933819
 30
0.0
 10
98.28926984849772
 20
62.95834769383004
 30
0.0
 10
98.28926984849772
 20
64.67383779999469
 30
0.0
 10
98.28926984849772
 20
66.48624213454846
 30
0.0
 10
98.28926984849772
 20
68.28908940825897
 30
0.0
 10
98.28926984849771
 20
69.97133280942522
 30
0.0
 10
98.28926984849774
 20
71.729852654517
 30
0.0
 10
98.28926984849771
 20
73.68880574538433
 30
0.0
 10
98.28926984849772
 20
75.87579942344682
 30
0.0
 10
98.28926984849772
 20
78.25515032110813
 30
0.0
 10
98.28926984849772
 20
79.87858194921228
 30
0.0
 10
98.28926984849772
 20
80.67292358134182
 30
0.0
  0
SPLINE
  5
10A
330
1F
100
AcDbEntity
  8
0
  6
Continuous
 62
     7
370
    15
100
AcDbSpline
210
0.0
220
0.0
230
1.0
 70
    24
 71
     3
 72
    23
 73
    19
 74
     0
 42
0.000000001
 43
0.00000001
 40
0.0
 40
0.0
 40
0.0
 40
0.0
 40
0.0571426033392747
 40
0.1157968189340581
 40
0.175914099091662
 40
0.2388582633574357
 40
0.3030978927952356
 40
0.3685812441673793
 40
0.4362678735931089
 40
0.5048483806324793
 40
0.5742593032101782
 40
0.6448838302609049
 40
0.7158396225603031
 40
0.7870567814049386
 40
0.8582652507246966
 40
0.929178382935416
 40
0.9997267433672717
 40
0.9999999999999999
 40
0.9999999999999999
 40
0.9999999999999999
 40
0.9999999999999999
 10
98.28926984849772
 20
100.0729235936312
 30
0.0
 10
98.28926984849772
 20
100.7560951312635
 30
0.0
 10
98.28926984849774
 20
102.1405103700025
 30
0.0
 10
98.28926984849772
 20
104.1680852151217
 30
0.0
 10
98.28926984849771
 20
106.1892190626419
 30
0.0
 10
98.28926984849772
 20
108.1772260526649
 30
0.0
 10
98.28926984849772
 20
110.1094423657293
 30
0.0
 10
98.28926984849774
 20
111.9581559150196
 30
0.0
 10
98.28926984849772
 20
113.6975241271609
 30
0.0
 10
98.28926984849772
 20
115.3012494605542
 30
0.0
 10
98.28926984849772
 20
116.7418667057469
 30
0.0
 10
98.28926984849772
 20
117.9970455072234
 30
0.0
 10
98.28926984849771
 20
119.0476669038012
 30
0.0
 10
98.28926984849777
 20
119.8735012204814
 30
0.0
 10
98.28926984849757
 20
120.474801336321
 30
0.0
 10
98.28926984849825
 20
120.8093628397307
 30
0.0
 10
98.28926984849657
 20
120.9456119931027
 30
0.0
 10
98.28926984849774
 20
120.9069395619854
 30
0.0
 10
98.28926984849772
 20
120.9067903490932
 30
0.0
  0
LINE
  5
10B
330
1F
100
AcDbEntity
  8
0
  6
Continuous
 62
     7
370
    15
100
AcDbLine
 10
136.7892698485
 20
64.1729235924
 30
0.0
 11
136.7892698485
 21
116.5729235924
 31
0.0
  0
LINE
  5
10C
330
1F
100
AcDbEntity
  8
0
  6
Continuous
 62
     7
370
    15
100
AcDbLine
 10
137.5892698485
 20
117.3729235924
 30
0.0
 11
137.5892698485
 21
63.3729235924
 31
0.0
  0
LINE
  5
10D
330
1F
100
AcDbEntity
  8
0
  6
Continuous
 62
     7
370
    15
100
AcDbLine
 10
156.7892698485
 20
117.3729235924
 30
0.0
 11
156.7892698485
 21
63.3729235924
 31
0.0
  0
LINE
  5
10E
330
1F
100
AcDbEntity
  8
0
  6
Continuous
 62
     7
370
    15
100
AcDbLine
 10
167.9591428295
 20
90.3729235924
 30
0.0
 11
167.9591428295
 21
63.8729235924
 31
0.0
  0
LINE
  5
10F
330
1F
100
AcDbEntity
  8
0
  6
Continuous
 62
     7
370
    15
100
AcDbLine
 10
167.9591428295
 20
116.8729235924
 30
0.0
 11
167.9591428295
 21
90.3729235924
 31
0.0
  0
SPLINE
  5
110
330
1F
100
AcDbEntity
  8
0
  6
Continuous
 62
     7
370
    15
100
AcDbSpline
210
0.0
220
0.0
230
1.0
 70
    24
 71
     3
 72
    14
 73
    10
 74
     0
 42
0.000000001
 43
0.00000001
 40
0.0
 40
0.0
 40
0.0
 40
0.0
 40
0.25
 40
0.25
 40
0.5
 40
0.5
 40
0.75
 40
0.75
 40
1.0
 40
1.0
 40
1.0
 40
1.0
 10
102.2892698469827
 20
90.37292359241918
 30
0.0
 10
101.817865326327
 20
90.37292359241918
 30
0.0
 10
101.3092788106516
 20
90.37292359241918
 30
0.0
 10
100.3245032081593
 20
90.37292359241918
 30
0.0
 10
99.85136701527277
 20
90.37292359241918
 30
0.0
 10
99.07031843224384
 20
90.37292359241918
 30
0.0
 10
98.76504848512761
 20
90.37292359241918
 30
0.0
 10
98.37518480414452
 20
90.37292359241918
 30
0.0
 10
98.289269848766
 20
90.37292359241918
 30
0.0
 10
98.28926984858049
 20
90.37292359241918
 30
0.0
  0
SPLINE
  5
111
330
1F
100
AcDbEntity
  8
0
  6
Continuous
 62
     7
370
    15
100
AcDbSpline
210
0.0
220
0.0
230
1.0
 70
    24
 71
     3
 72
    14
 73
    10
 74
     0
 42
0.000000001
 43
0.00000001
 40
0.0
 40
0.0
 40
0.0
 40
0.0
 40
0.25
 40
0.25
 40
0.5
 40
0.5
 40
0.75
 40
0.75
 40
1.0
 40
1.0
 40
1.0
 40
1.0
 10
136.7892698482927
 20
90.37292359241918
 30
0.0
 10
136.789269848315
 20
90.37292359241918
 30
0.0
 10
136.7677911095091
 20
90.37292359241918
 30
0.0
 10
136.6703251892764
 20
90.37292359241918
 30
0.0
 10
136.5940077024716
 20
90.37292359241918
 30
0.0
 10
136.3987455566302
 20
90.37292359241918
 30
0.0
 10
136.2804615083516
 20
90.37292359241918
 30
0.0
 10
136.0342676076329
 20
90.37292359241918
 30
0.0
 10
135.9071209786763
 20
90.37292359241918
 30
0.0
 10
135.7892698484977
 20
90.37292359241918
 30
0.0
  0
SPLINE
  5
112
330
1F
100
AcDbEntity
  8
0
  6
Continuous
 62
     7
370
    15
100
AcDbSpline
210
0.0
220
0.0
230
1.0
 70
    24
 71
     3
 72
    22
 73
    18
 74
     0
 42
0.000000001
 43
0.00000001
 40
0.0
 40
0.0
 40
0.0
 40
0.0
 40
0.1250000000000002
 40
0.1250000000000002
 40
0.2500000000000003
 40
0.2500000000000003
 40
0.3750000000000004
 40
0.3750000000000004
 40
0.5000000000000004
 40
0.5000000000000004
 40
0.6250000000000003
 40
0.6250000000000003
 40
0.7500000000000002
 40
0.7500000000000002
 40
0.8750000000000001
 40
0.8750000000000001
 40
1.0
 40
1.0
 40
1.0
 40
1.0
 10
177.2892698482722
 20
113.6055966038857
 30
0.0
 10
177.2892698482722
 20
113.6055966039064
 30
0.0
 10
177.2892698482722
 20
113.3599809681425
 30
0.0
 10
177.2892698482721
 20
112.4215092851828
 30
0.0
 10
177.2892698482722
 20
111.7298329236827
 30
0.0
 10
177.2892698482722
 20
110.0148489874387
 30
0.0
 10
177.2892698482722
 20
108.993067415361
 30
0.0
 10
177.2892698482722
 20
106.7609171841955
 30
0.0
 10
177.2892698482722
 20
105.5516032933291
 30
0.0
 10
177.2892698482722
 20
103.0734515054287
 30
0.0
 10
177.2892698482722
 20
101.8049669171124
 30
0.0
 10
177.2892698482722
 20
99.30209931160397
 30
0.0
 10
177.2892698482722
 20
98.06758489386249
 30
0.0
 10
177.2892698482722
 20
95.68855917747368
 30
0.0
 10
177.2892698482722
 20
94.54373029356445
 30
0.0
 10
177.2892698482722
 20
92.37008317753893
 30
0.0
 10
177.2892698482722
 20
91.34095163456881
 30
0.0
 10
177.2892698482721
 20
90.37292359241918
 30
0.0
  0
SPLINE
  5
113
330
1F
100
AcDbEntity
  8
0
  6
Continuous
 62
     7
370
    15
100
AcDbSpline
210
0.0
220
0.0
230
1.0
 70
    24
 71
     3
 72
    14
 73
    10
 74
     0
 42
0.000000001
 43
0.00000001
 40
0.0
 40
0.0
 40
0.0
 40
0.0
 40
0.25
 40
0.25
 40
0.5
 40
0.5
 40
0.75
 40
0.75
 40
1.0
 40
1.0
 40
1.0
 40
1.0
 10
176.5480888935294
 20
90.37292359241918
 30
0.0
 10
176.646091957982
 20
90.37292359241918
 30
0.0
 10
176.7453400512012
 20
90.37292359241918
 30
0.0
 10
176.9293277837853
 20
90.37292359241918
 30
0.0
 10
177.0137409690229
 20
90.37292359241918
 30
0.0
 10
177.151505408804
 20
90.37292359241918
 30
0.0
 10
177.204640638296
 20
90.37292359241918
 30
0.0
 10
177.2734688518135
 20
90.37292359241918
 30
0.0
 10
177.2892698483654
 20
90.37292359241918
 30
0.0
 10
177.2892698482721
 20
90.37292359241918
 30
0.0
  0
SPLINE
  5
114
330
1F
100
AcDbEntity
  8
0
  6
Continuous
 62
     7
370
    15
100
AcDbSpline
210
0.0
220
0.0
230
1.0
 70
    24
 71
     3
 72
    22
 73
    18
 74
     0
 42
0.000000001
 43
0.00000001
 40
0.0
 40
0.0
 40
0.0
 40
0.0
 40
0.1249999999999999
 40
0.1249999999999999
 40
0.2499999999999999
 40
0.2499999999999999
 40
0.3749999999999998
 40
0.3749999999999998
 40
0.4999999999999998
 40
0.4999999999999998
 40
0.6249999999999998
 40
0.6249999999999998
 40
0.7499999999999998
 40
0.7499999999999998
 40
0.8749999999999999
 40
0.8749999999999999
 40
1.0
 40
1.0
 40
1.0
 40
1.0
 10
177.2892698482722
 20
90.37292359241918
 30
0.0
 10
177.2892698482722
 20
89.40489555027993
 30
0.0
 10
177.2892698482721
 20
88.37576400732152
 30
0.0
 10
177.2892698482721
 20
86.20211689132178
 30
0.0
 10
177.2892698482722
 20
85.05728800742662
 30
0.0
 10
177.2892698482722
 20
82.6782622910671
 30
0.0
 10
177.2892698482722
 20
81.44374787334083
 30
0.0
 10
177.2892698482722
 20
78.94088026786125
 30
0.0
 10
177.2892698482722
 20
77.67239567955865
 30
0.0
 10
177.2892698482722
 20
75.19424389167952
 30
0.0
 10
177.2892698482721
 20
73.98493000082063
 30
0.0
 10
177.2892698482722
 20
71.75277976965887
 30
0.0
 10
177.2892698482722
 20
70.73099819757725
 30
0.0
 10
177.2892698482722
 20
69.01601426130945
 30
0.0
 10
177.2892698482721
 20
68.3243378997894
 30
0.0
 10
177.2892698482721
 20
67.38586621677354
 30
0.0
 10
177.2892698482721
 20
67.14025058097347
 30
0.0
 10
177.2892698482721
 20
67.14025058095271
 30
0.0
  0
LINE
  5
115
330
1F
100
AcDbEntity
  8
0
  6
Continuous
 62
     7
370
    15
100
AcDbLine
 10
69.2892698485
 20
90.3729235924
 30
0.0
 11
69.2892698485
 21
114.5432498434
 31
0.0
  0
LINE
  5
116
330
1F
100
AcDbEntity
  8
0
  6
Continuous
 62
     7
370
    15
100
AcDbLine
 10
69.2892698485
 20
66.2025973414
 30
0.0
 11
69.2892698485
 21
90.3729235924
 31
0.0
  0
LINE
  5
117
330
1F
100
AcDbEntity
  8
0
  6
Continuous
 62
     7
370
    15
100
AcDbLine
 10
69.8904314335
 20
90.3729235924
 30
0.0
 11
69.8904314335
 21
114.2629235924
 31
0.0
  0
LINE
  5
118
330
1F
100
AcDbEntity
  8
0
  6
Continuous
 62
     7
370
    15
100
AcDbLine
 10
69.8904314335
 20
66.4829235924
 30
0.0
 11
69.8904314335
 21
90.3729235924
 31
0.0
  0
SPLINE
  5
119
330
1F
100
AcDbEntity
  8
0
  6
Continuous
 62
     7
370
    15
100
AcDbSpline
210
0.0
220
0.0
230
1.0
 70
    24
 71
     3
 72
    32
 73
    28
 74
     0
 42
0.000000001
 43
0.00000001
 40
0.0
 40
0.0
 40
0.0
 40
0.0
 40
0.0132549674756375
 40
0.0265001389359345
 40
0.0397412557238319
 40
0.0529840644568143
 40
0.0662343095509801
 40
0.0794977257603169
 40
0.1189261006169717
 40
0.158369578722479
 40
0.1971976825027976
 40
0.2360406595889698
 40
0.3119437060507859
 40
0.3856541427510937
 40
0.4567954777233877
 40
0.5250804678220048
 40
0.5903096130247591
 40
0.6523645953954665
 40
0.7111983611114908
 40
0.7652424026549618
 40
0.819300539206668
 40
0.8672531430129459
 40
0.9152199220061489
 40
0.9364240556618814
 40
0.9576064287605587
 40
0.9787905694511191
 40
1.0
 40
1.0
 40
1.0
 40
1.0
 10
131.7892698484977
 20
67.37292359210527
 30
0.0
 10
131.7892698484977
 20
67.37387608878056
 30
0.0
 10
131.7892698484977
 20
67.37578037819341
 30
0.0
 10
131.7892698484977
 20
67.39125317274025
 30
0.0
 10
131.7892698484978
 20
67.41596528878628
 30
0.0
 10
131.7892698484977
 20
67.45081950831467
 30
0.0
 10
131.7892698484978
 20
67.49557724738129
 30
0.0
 10
131.7892698484977
 20
67.58623660073128
 30
0.0
 10
131.7892698484978
 20
67.75838104653442
 30
0.0
 10
131.7892698484977
 20
68.06478529118742
 30
0.0
 10
131.7892698484978
 20
68.45350101097625
 30
0.0
 10
131.7892698484977
 20
69.07080575272117
 30
0.0
 10
131.7892698484977
 20
70.01963701903792
 30
0.0
 10
131.7892698484977
 20
71.40699758695536
 30
0.0
 10
131.7892698484977
 20
72.98688186233412
 30
0.0
 10
131.7892698484977
 20
74.70743998618826
 30
0.0
 10
131.7892698484977
 20
76.51936187914956
 30
0.0
 10
131.7892698484977
 20
78.3781999494595
 30
0.0
 10
131.7892698484977
 20
80.22929477416564
 30
0.0
 10
131.7892698484978
 20
82.07358033666554
 30
0.0
 10
131.7892698484977
 20
83.8555494821115
 30
0.0
 10
131.7892698484977
 20
85.6082045002663
 30
0.0
 10
131.7892698484978
 20
86.99923832370882
 30
0.0
 10
131.7892698484977
 20
88.07976811183144
 30
0.0
 10
131.7892698484977
 20
88.84259485451396
 30
0.0
 10
131.7892698484977
 20
89.60717177814276
 30
0.0
 10
131.7892698484977
 20
90.11757149478346
 30
0.0
 10
131.7892698484977
 20
90.37292359241918
 30
0.0
  0
SPLINE
  5
11A
330
1F
100
AcDbEntity
  8
0
  6
Continuous
 62
     7
370
    15
100
AcDbSpline
210
0.0
220
0.0
230
1.0
 70
    24
 71
     3
 72
    14
 73
    10
 74
     0
 42
0.000000001
 43
0.00000001
 40
0.0
 40
0.0
 40
0.0
 40
0.0
 40
0.25
 40
0.25
 40
0.5
 40
0.5
 40
0.75
 40
0.75
 40
1.0
 40
1.0
 40
1.0
 40
1.0
 10
131.7892698482315
 20
90.37292359241918
 30
0.0
 10
131.7892698483578
 20
90.37292359241918
 30
0.0
 10
131.8000092178445
 20
90.37292359241918
 30
0.0
 10
131.8487421780157
 20
90.37292359241918
 30
0.0
 10
131.8869009213891
 20
90.37292359241918
 30
0.0
 10
131.9845319941919
 20
90.37292359241918
 30
0.0
 10
132.0436740182445
 20
90.37292359241918
 30
0.0
 10
132.1667709684552
 20
90.37292359241918
 30
0.0
 10
132.2303442828731
 20
90.37292359241918
 30
0.0
 10
132.28926984794
 20
90.37292359241918
 30
0.0
  0
SPLINE
  5
11B
330
1F
100
AcDbEntity
  8
0
  6
Continuous
 62
     7
370
    15
100
AcDbSpline
210
0.0
220
0.0
230
1.0
 70
    24
 71
     3
 72
    32
 73
    28
 74
     0
 42
0.000000001
 43
0.00000001
 40
0.0
 40
0.0
 40
0.0
 40
0.0
 40
0.0121210654198146
 40
0.024231745026124
 40
0.0363364198073435
 40
0.0484394772726567
 40
0.0605453066897355
 40
0.0726582943129156
 40
0.0847828186277236
 40
0.1327355044532997
 40
0.1807023649963285
 40
0.2347464994785294
 40
0.2888047285050816
 40
0.3476385946587948
 40
0.4096936829662705
 40
0.4749229395245452
 40
0.5432080461954485
 40
0.6143495026162199
 40
0.6880600651508308
 40
0.7639632411900499
 40
0.802791410991922
 40
0.8416344541239622
 40
0.8810628961212741
 40
0.9205064413946465
 40
0.9470051914041556
 40
0.973487725404119
 40
1.0
 40
1.0
 40
1.0
 40
1.0
 10
131.7892698484977
 20
90.37292359241918
 30
0.0
 10
131.7892698484977
 20
90.51885089994758
 30
0.0
 10
131.7892698484977
 20
90.81058047865247
 30
0.0
 10
131.7892698484977
 20
91.24788234477387
 30
0.0
 10
131.7892698484978
 20
91.68465119876235
 30
0.0
 10
131.7892698484977
 20
92.12088732691714
 30
0.0
 10
131.7892698484977
 20
92.55658889835848
 30
0.0
 10
131.7892698484977
 20
92.99176192389152
 30
0.0
 10
131.7892698484978
 20
93.85424596310797
 30
0.0
 10
131.7892698484977
 20
95.1374860777629
 30
0.0
 10
131.7892698484977
 20
96.88996787293489
 30
0.0
 10
131.7892698484978
 20
98.67210860921242
 30
0.0
 10
131.7892698484977
 20
100.5164030708658
 30
0.0
 10
131.7892698484978
 20
102.3676472913739
 30
0.0
 10
131.7892698484977
 20
104.2264852864426
 30
0.0
 10
131.7892698484978
 20
106.0384072164598
 30
0.0
 10
131.7892698484977
 20
107.7589652684366
 30
0.0
 10
131.7892698484977
 20
109.3388498071457
 30
0.0
 10
131.7892698484977
 20
110.7262093457066
 30
0.0
 10
131.7892698484977
 20
111.6749690510996
 30
0.0
 10
131.7892698484977
 20
112.2922870508606
 30
0.0
 10
131.7892698484977
 20
112.6809879781776
 30
0.0
 10
131.7892698484977
 20
112.9873761023396
 30
0.0
 10
131.7892698484977
 20
113.1844996651724
 30
0.0
 10
131.7892698484977
 20
113.2995009238446
 30
0.0
 10
131.7892698484977
 20
113.3614458266524
 30
0.0
 10
131.7892698484977
 20
113.3690962395733
 30
0.0
 10
131.7892698484977
 20
113.3729235927331
 30
0.0
  0
SPLINE
  5
11C
330
1F
100
AcDbEntity
  8
0
  6
Continuous
 62
     7
370
    15
100
AcDbSpline
210
0.0
220
0.0
230
1.0
 70
    24
 71
     3
 72
    14
 73
    10
 74
     0
 42
0.000000001
 43
0.00000001
 40
0.0
 40
0.0
 40
0.0
 40
0.0
 40
0.2499999999999987
 40
0.2499999999999987
 40
0.4999999999999974
 40
0.4999999999999974
 40
0.7499999999999962
 40
0.7499999999999962
 40
1.0
 40
1.0
 40
1.0
 40
1.0
 10
40.38926984883994
 20
90.37292359241918
 30
0.0
 10
40.38926984873072
 20
90.37292359241918
 30
0.0
 10
40.41372069962393
 20
90.37292359241918
 30
0.0
 10
40.52372579477217
 20
90.37292359241918
 30
0.0
 10
40.60960481100019
 20
90.37292359241918
 30
0.0
 10
40.82993977363479
 20
90.37292359241918
 30
0.0
 10
40.96374617610117
 20
90.37292359241918
 30
0.0
 10
41.24495469721695
 20
90.37292359241918
 30
0.0
 10
41.39156130212469
 20
90.37292359241918
 30
0.0
 10
41.52922651552754
 20
90.37292359241918
 30
0.0
  0
SPLINE
  5
11D
330
1F
100
AcDbEntity
  8
0
  6
Continuous
 62
     7
370
    15
100
AcDbSpline
210
0.0
220
0.0
230
1.0
 70
    24
 71
     3
 72
    22
 73
    18
 74
     0
 42
0.000000001
 43
0.00000001
 40
0.0
 40
0.0
 40
0.0
 40
0.0
 40
0.125
 40
0.125
 40
0.25
 40
0.25
 40
0.3750000000000001
 40
0.3750000000000001
 40
0.5000000000000001
 40
0.5000000000000001
 40
0.6250000000000001
 40
0.6250000000000001
 40
0.7500000000000001
 40
0.7500000000000001
 40
0.8750000000000001
 40
0.8750000000000001
 40
1.0
 40
1.0
 40
1.0
 40
1.0
 10
40.38926984883994
 20
90.37292359241918
 30
0.0
 10
40.38926984883994
 20
91.27213537267798
 30
0.0
 10
40.38926984883994
 20
92.22810685963931
 30
0.0
 10
40.38926984883996
 20
94.2472313144569
 30
0.0
 10
40.38926984883994
 20
95.31067532017403
 30
0.0
 10
40.38926984883994
 20
97.52057819133633
 30
0.0
 10
40.38926984883994
 20
98.6673320651865
 30
0.0
 10
40.38926984883994
 20
100.9922730145228
 30
0.0
 10
40.38926984883994
 20
102.1705821494088
 30
0.0
 10
40.38926984883997
 20
104.4725643068738
 30
0.0
 10
40.38926984883994
 20
105.5959091371411
 30
0.0
 10
40.38926984883996
 20
107.6693777721327
 30
0.0
 10
40.38926984883994
 20
108.6185217911807
 30
0.0
 10
40.38926984883996
 20
110.2115890281986
 30
0.0
 10
40.38926984883994
 20
110.8540947256894
 30
0.0
 10
40.38926984883994
 20
111.7258512823924
 30
0.0
 10
40.38926984883994
 20
111.9540063187269
 30
0.0
 10
40.38926984883994
 20
111.9540063187462
 30
0.0
  0
SPLINE
  5
11E
330
1F
100
AcDbEntity
  8
0
  6
Continuous
 62
     7
370
    15
100
AcDbSpline
210
0.0
220
0.0
230
1.0
 70
    24
 71
     3
 72
    22
 73
    18
 74
     0
 42
0.000000001
 43
0.00000001
 40
0.0
 40
0.0
 40
0.0
 40
0.0
 40
0.125
 40
0.125
 40
0.2500000000000001
 40
0.2500000000000001
 40
0.3750000000000001
 40
0.3750000000000001
 40
0.5000000000000001
 40
0.5000000000000001
 40
0.6250000000000001
 40
0.6250000000000001
 40
0.7500000000000002
 40
0.7500000000000002
 40
0.8750000000000001
 40
0.8750000000000001
 40
1.0
 40
1.0
 40
1.0
 40
1.0
 10
40.38926984883994
 20
68.79184086609212
 30
0.0
 10
40.38926984883994
 20
68.7918408660728
 30
0.0
 10
40.38926984883994
 20
69.01999590237381
 30
0.0
 10
40.38926984883994
 20
69.89175245902462
 30
0.0
 10
40.38926984883994
 20
70.53425815649693
 30
0.0
 10
40.38926984883993
 20
72.12732539349273
 30
0.0
 10
40.38926984883994
 20
73.076469412537
 30
0.0
 10
40.38926984883996
 20
75.14993804753205
 30
0.0
 10
40.38926984883994
 20
76.27328287780644
 30
0.0
 10
40.38926984883994
 20
78.57526503529121
 30
0.0
 10
40.38926984883993
 20
79.75357417018984
 30
0.0
 10
40.38926984883993
 20
82.07851511955296
 30
0.0
 10
40.38926984883994
 20
83.22526899341727
 30
0.0
 10
40.38926984883994
 20
85.43517186460676
 30
0.0
 10
40.38926984883994
 20
86.49861587033696
 30
0.0
 10
40.38926984883994
 20
88.51774032517851
 30
0.0
 10
40.38926984883993
 20
89.47371181215073
 30
0.0
 10
40.38926984883994
 20
90.37292359241918
 30
0.0
  0
LINE
  5
11F
330
1F
100
AcDbEntity
  8
0
  6
Continuous
 62
     8
370
    15
100
AcDbLine
 10
73.2549552735
 20
58.8729235924
 30
0.0
 11
73.2549552735
 21
90.3729235868
 31
0.0
  0
LINE
  5
120
330
1F
100
AcDbEntity
  8
0
  6
Continuous
 62
     8
370
    15
100
AcDbLine
 10
73.2549552735
 20
90.3729235924
 30
0.0
 11
73.2549552735
 21
121.8729235924
 31
0.0
  0
LINE
  5
121
330
1F
100
AcDbEntity
  8
0
  6
Continuous
 62
     8
370
    15
100
AcDbLine
 10
97.3235844235
 20
121.8729235924
 30
0.0
 11
97.3235844235
 21
99.9081540603
 31
0.0
  0
LINE
  5
122
330
1F
100
AcDbEntity
  8
0
  6
Continuous
 62
     8
370
    15
100
AcDbLine
 10
97.3235844235
 20
80.7115708756
 30
0.0
 11
97.3235844235
 21
58.8729235924
 31
0.0
  0
LINE
  5
123
330
1F
100
AcDbEntity
  8
0
  6
Continuous
 62
     8
370
    15
100
AcDbLine
 10
72.9721125613
 20
121.755766296
 30
0.0
 11
72.9721125613
 21
90.3729235924
 31
0.0
  0
LINE
  5
124
330
1F
100
AcDbEntity
  8
0
  6
Continuous
 62
     8
370
    15
100
AcDbLine
 10
72.9721125613
 20
90.3729235924
 30
0.0
 11
72.9721125613
 21
58.9900808888
 31
0.0
  0
LINE
  5
125
330
1F
100
AcDbEntity
  8
0
  6
Continuous
 62
     8
370
    15
100
AcDbLine
 10
72.4064271365
 20
90.3729235798
 30
0.0
 11
72.4064271365
 21
121.1900808804
 31
0.0
  0
LINE
  5
126
330
1F
100
AcDbEntity
  8
0
  6
Continuous
 62
     8
370
    15
100
AcDbLine
 10
72.4064271365
 20
59.5557663044
 30
0.0
 11
72.4064271365
 21
90.3729235798
 31
0.0
  0
LINE
  5
127
330
1F
100
AcDbEntity
  8
0
  6
Continuous
 62
     8
370
    15
100
AcDbLine
 10
97.6064271365
 20
99.81481359
 30
0.0
 11
97.6064271365
 21
121.7557662386
 31
0.0
  0
LINE
  5
128
330
1F
100
AcDbEntity
  8
0
  6
Continuous
 62
     8
370
    15
100
AcDbLine
 10
97.6064271365
 20
58.9900808926
 30
0.0
 11
97.6064271365
 21
80.8544616511
 31
0.0
  0
LINE
  5
129
330
1F
100
AcDbEntity
  8
0
  6
Continuous
 62
     8
370
    15
100
AcDbLine
 10
98.1721125612
 20
121.1900808797
 30
0.0
 11
98.1721125612
 21
99.9557663143
 31
0.0
  0
LINE
  5
12A
330
1F
100
AcDbEntity
  8
0
  6
Continuous
 62
     8
370
    15
100
AcDbLine
 10
98.1721125612
 20
80.7900808796
 30
0.0
 11
98.1721125612
 21
59.5557663052
 31
0.0
  0
LINE
  5
12B
330
1F
100
AcDbEntity
  8
0
  6
Continuous
 62
     8
370
    15
100
AcDbLine
 10
176.5480888935
 20
114.5715224304
 30
0.0
 11
176.5480888935
 21
90.3729235924
 31
0.0
  0
LINE
  5
12C
330
1F
100
AcDbEntity
  8
0
  6
Continuous
 62
     8
370
    15
100
AcDbLine
 10
176.5480888935
 20
90.3729235881
 30
0.0
 11
176.5480888935
 21
66.1743247544
 31
0.0
  0
LINE
  5
12D
330
1F
100
AcDbEntity
  8
0
  6
Continuous
 62
     8
370
    15
100
AcDbLine
 10
102.289269847
 20
90.3729235924
 30
0.0
 11
102.289269847
 21
68.3729235923
 31
0.0
  0
LINE
  5
12E
330
1F
100
AcDbEntity
  8
0
  6
Continuous
 62
     8
370
    15
100
AcDbLine
 10
102.289269847
 20
112.3729235831
 30
0.0
 11
102.289269847
 21
90.3729235924
 31
0.0
  0
LINE
  5
12F
330
1F
100
AcDbEntity
  8
0
  6
Continuous
 62
     8
370
    15
100
AcDbLine
 10
135.7892698485
 20
90.3729235924
 30
0.0
 11
135.7892698485
 21
113.8729235924
 31
0.0
  0
LINE
  5
130
330
1F
100
AcDbEntity
  8
0
  6
Continuous
 62
     8
370
    15
100
AcDbLine
 10
135.7892698485
 20
90.3729235882
 30
0.0
 11
135.7892698485
 21
66.8729236111
 31
0.0
  0
LINE
  5
131
330
1F
100
AcDbEntity
  8
0
  6
Continuous
 62
     8
370
    15
100
AcDbLine
 10
72.2892698485
 20
90.3729235924
 30
0.0
 11
72.1580146471
 21
90.3729235924
 31
0.0
  0
LINE
  5
132
330
1F
100
AcDbEntity
  8
0
  6
Continuous
 62
     8
370
    15
100
AcDbLine
 10
72.1580146471
 20
90.3729235924
 30
0.0
 11
72.1580146471
 21
114.2629235808
 31
0.0
  0
LINE
  5
133
330
1F
100
AcDbEntity
  8
0
  6
Continuous
 62
     8
370
    15
100
AcDbLine
 10
72.1580146471
 20
90.3729235924
 30
0.0
 11
72.1580146471
 21
66.4829235928
 31
0.0
  0
LINE
  5
134
330
1F
100
AcDbEntity
  8
0
  6
Continuous
 62
     8
370
    15
100
AcDbLine
 10
41.5292265155
 20
67.5933439734
 30
0.0
 11
41.5292265155
 21
90.3729235831
 31
0.0
  0
LINE
  5
135
330
1F
100
AcDbEntity
  8
0
  6
Continuous
 62
     8
370
    15
100
AcDbLine
 10
41.5292265155
 20
90.3729235831
 30
0.0
 11
41.5292265155
 21
113.1525032114
 31
0.0
  0
LINE
  5
136
330
1F
100
AcDbEntity
  8
0
  6
Continuous
 62
     8
370
    15
100
AcDbLine
 10
132.2892698479
 20
90.3729235924
 30
0.0
 11
132.2892698479
 21
66.8729235922
 31
0.0
  0
LINE
  5
137
330
1F
100
AcDbEntity
  8
0
  6
Continuous
 62
     8
370
    15
100
AcDbLine
 10
132.2892698479
 20
90.3729235924
 30
0.0
 11
132.2892698479
 21
113.8729235917
 31
0.0
  0
DIMENSION
  5
138
330
1F
100
AcDbEntity
  8
DIM
100
AcDbDimension
  2
_D
 10
183.2831426629
 20
63.3729235924
 30
0.0
 11
183.2831426629
 21
90.3729235924
 31
0.0
 70
   160
  1
%%c<>
 71
     2
 42
-1.0
  3
SLDDIMSTYLE0
100
AcDbAlignedDimension
 13
156.7892698485
 23
117.3729235924
 33
0.0
 14
156.7892698485
 24
63.3729235924
 34
0.0
 50
90.0
100
AcDbRotatedDimension
  0
DIMENSION
  5
144
330
1F
100
AcDbEntity
  8
DIM
100
AcDbDimension
  2
_D_1
 10
72.4064271365
 20
50.0395412083
 30
0.0
 11
124.8478484924
 21
50.0395412083
 31
0.0
 70
   160
  1
<>
 71
     2
 42
-1.0
  3
SLDDIMSTYLE1
100
AcDbAlignedDimension
 13
177.2892698484
 23
90.3729235924
 33
0.0
 14
72.4064271365
 24
90.3729235897
 34
0.0
 50
0.0
100
AcDbRotatedDimension
  0
DIMENSION
  5
14F
330
1F
100
AcDbEntity
  8
DIM
100
AcDbDimension
  2
_D_2
 10
40.3892698484
 20
43.900732739
 30
0.0
 11
108.8392698483
 21
43.9007327386
 31
0.0
 70
   160
  1
<>
 71
     2
 42
-1.0
  3
SLDDIMSTYLE2
100
AcDbAlignedDimension
 13
177.2892698484
 23
90.3729235924
 33
0.0
 14
40.3892698487
 24
90.3729235924
 34
0.0
 50
-0.0000000003
100
AcDbRotatedDimension
  0
DIMENSION
  5
15A
330
1F
100
AcDbEntity
  8
DIM
100
AcDbDimension
  2
_D_3
 10
35.3955863116
 20
58.8729235924
 30
0.0
 11
35.3955863116
 21
90.3729235924
 31
0.0
 70
   160
  1
%%c<>
 71
     2
 42
-1.0
  3
SLDDIMSTYLE0
100
AcDbAlignedDimension
 13
73.2549552735
 23
121.8729235924
 33
0.0
 14
73.2549552735
 24
58.8729235924
 34
0.0
 50
90.0
100
AcDbRotatedDimension
  0
LINE
  5
165
330
1F
100
AcDbEntity
  8
DIM
  6
CENTERX2
370
     0
100
AcDbLine
 10
39.7157192919
 20
90.3729235924
 30
0.0
 11
177.3743850597
 21
90.3729235924
 31
0.0
  0
ENDSEC
  0
SECTION
  2
OBJECTS
  0
DICTIONARY
  5
C
330
0
100
AcDbDictionary
281
     1
  3
ACAD_GROUP
350
D
  3
ACAD_LAYOUT
350
1A
  3
ACAD_MLINESTYLE
350
17
  3
ACAD_PLOTSETTINGS
350
19
  3
ACAD_PLOTSTYLENAME
350
E
  3
ACAD_SCALELIST
350
47
  0
DICTIONARY
  5
D
102
{ACAD_REACTORS
330
C
102
}
330
C
100
AcDbDictionary
281
     1
  0
DICTIONARY
  5
1A
102
{ACAD_REACTORS
330
C
102
}
330
C
100
AcDbDictionary
281
     1
  3
Layout1
350
1E
  3
Layout2
350
26
  3
Model
350
22
  0
DICTIONARY
  5
17
102
{ACAD_REACTORS
330
C
102
}
330
C
100
AcDbDictionary
281
     1
  3
Standard
350
18
  0
DICTIONARY
  5
19
102
{ACAD_REACTORS
330
C
102
}
330
C
100
AcDbDictionary
281
     1
  0
ACDBDICTIONARYWDFLT
  5
E
102
{ACAD_REACTORS
330
C
102
}
330
C
100
AcDbDictionary
281
     1
  3
Normal
350
F
100
AcDbDictionaryWithDefault
340
F
  0
DICTIONARY
  5
47
102
{ACAD_REACTORS
330
C
102
}
330
C
100
AcDbDictionary
281
     1
  3
A0
350
48
  3
A1
350
49
  3
A2
350
4A
  3
A3
350
4B
  3
A4
350
4C
  3
A5
350
4D
  3
A6
350
4E
  3
A7
350
4F
  3
A8
350
50
  3
A9
350
51
  3
B0
350
52
  3
B1
350
53
  3
B2
350
54
  3
B3
350
55
  3
B4
350
56
  3
B5
350
57
  3
B6
350
58
  3
B7
350
59
  3
B8
350
5A
  3
B9
350
5B
  3
C0
350
5C
  3
C1
350
5D
  3
C2
350
5E
  3
C3
350
5F
  3
C4
350
60
  3
C5
350
61
  3
C6
350
62
  3
C7
350
63
  3
C8
350
64
  3
C9
350
65
  3
D0
350
66
  3
D1
350
67
  3
D2
350
68
  0
LAYOUT
  5
1E
102
{ACAD_REACTORS
330
1A
102
}
330
1A
100
AcDbPlotSettings
  1

  2
none_device
  4

  6

 40
0.0
 41
0.0
 42
0.0
 43
0.0
 44
0.0
 45
0.0
 46
0.0
 47
0.0
 48
0.0
 49
0.0
140
0.0
141
0.0
142
1.0
143
1.0
 70
   688
 72
     1
 73
     0
 74
     5
  7

 75
    16
147
1.0
148
0.0
149
0.0
100
AcDbLayout
  1
Layout1
 70
     1
 71
     1
 10
0.0
 20
0.0
 11
420.0
 21
297.0
 12
0.0
 22
0.0
 32
0.0
 14
1.0000000000E+20
 24
1.0000000000E+20
 34
1.0000000000E+20
 15
-1.0000000000E+20
 25
-1.0000000000E+20
 35
-1.0000000000E+20
146
0.0
 13
0.0
 23
0.0
 33
0.0
 16
1.0
 26
0.0
 36
0.0
 17
0.0
 27
1.0
 37
0.0
 76
     0
330
1B
  0
LAYOUT
  5
26
102
{ACAD_REACTORS
330
1A
102
}
330
1A
100
AcDbPlotSettings
  1

  2
none_device
  4

  6

 40
0.0
 41
0.0
 42
0.0
 43
0.0
 44
0.0
 45
0.0
 46
0.0
 47
0.0
 48
0.0
 49
0.0
140
0.0
141
0.0
142
1.0
143
1.0
 70
   688
 72
     1
 73
     0
 74
     5
  7

 75
    16
147
1.0
148
0.0
149
0.0
100
AcDbLayout
  1
Layout2
 70
     1
 71
     2
 10
0.0
 20
0.0
 11
0.0
 21
0.0
 12
0.0
 22
0.0
 32
0.0
 14
0.0
 24
0.0
 34
0.0
 15
0.0
 25
0.0
 35
0.0
146
0.0
 13
0.0
 23
0.0
 33
0.0
 16
1.0
 26
0.0
 36
0.0
 17
0.0
 27
1.0
 37
0.0
 76
     0
330
23
  0
LAYOUT
  5
22
102
{ACAD_REACTORS
330
1A
102
}
330
1A
100
AcDbPlotSettings
  1

  2
none_device
  4
Letter_(8.50_x_11.00_Inches)
  6

 40
6.35
 41
6.35
 42
6.35000508
 43
6.35000508
 44
215.9
 45
279.4
 46
0.0
 47
0.0
 48
0.0
 49
0.0
140
0.0
141
0.0
142
1.0
143
1.0
 70
  1712
 72
     1
 73
     0
 74
     0
  7

 75
     0
147
1.0
148
0.0
149
0.0
100
AcDbLayout
  1
Model
 70
     1
 71
     0
 10
0.0
 20
0.0
 11
247.5
 21
175.0
 12
0.0
 22
0.0
 32
0.0
 14
0.0
 24
0.0
 34
0.0
 15
247.5
 25
175.0
 35
0.0
146
0.0
 13
0.0
 23
0.0
 33
0.0
 16
1.0
 26
0.0
 36
0.0
 17
0.0
 27
1.0
 37
0.0
 76
     0
330
1F
331
29
  0
MLINESTYLE
  5
18
102
{ACAD_REACTORS
330
17
102
}
330
17
100
AcDbMlineStyle
  2
Standard
 70
     0
  3

 62
   256
 51
90.0
 52
90.0
 71
     2
 49
0.5
 62
   256
  6
BYLAYER
 49
-0.5
 62
   256
  6
BYLAYER
  0
ACDBPLACEHOLDER
  5
F
102
{ACAD_REACTORS
330
E
102
}
330
E
  0
SCALE
  5
48
102
{ACAD_REACTORS
330
47
102
}
330
47
100
AcDbScale
 70
     0
300
1:1
140
1.0
141
1.0
290
     1
  0
SCALE
  5
49
102
{ACAD_REACTORS
330
47
102
}
330
47
100
AcDbScale
 70
     0
300
1:2
140
1.0
141
2.0
290
     0
  0
SCALE
  5
4A
102
{ACAD_REACTORS
330
47
102
}
330
47
100
AcDbScale
 70
     0
300
1:4
140
1.0
141
4.0
290
     0
  0
SCALE
  5
4B
102
{ACAD_REACTORS
330
47
102
}
330
47
100
AcDbScale
 70
     0
300
1:5
140
1.0
141
5.0
290
     0
  0
SCALE
  5
4C
102
{ACAD_REACTORS
330
47
102
}
330
47
100
AcDbScale
 70
     0
300
1:8
140
1.0
141
8.0
290
     0
  0
SCALE
  5
4D
102
{ACAD_REACTORS
330
47
102
}
330
47
100
AcDbScale
 70
     0
300
1:10
140
1.0
141
10.0
290
     0
  0
SCALE
  5
4E
102
{ACAD_REACTORS
330
47
102
}
330
47
100
AcDbScale
 70
     0
300
1:16
140
1.0
141
16.0
290
     0
  0
SCALE
  5
4F
102
{ACAD_REACTORS
330
47
102
}
330
47
100
AcDbScale
 70
     0
300
1:20
140
1.0
141
20.0
290
     0
  0
SCALE
  5
50
102
{ACAD_REACTORS
330
47
102
}
330
47
100
AcDbScale
 70
     0
300
1:30
140
1.0
141
30.0
290
     0
  0
SCALE
  5
51
102
{ACAD_REACTORS
330
47
102
}
330
47
100
AcDbScale
 70
     0
300
1:40
140
1.0
141
40.0
290
     0
  0
SCALE
  5
52
102
{ACAD_REACTORS
330
47
102
}
330
47
100
AcDbScale
 70
     0
300
1:50
140
1.0
141
50.0
290
     0
  0
SCALE
  5
53
102
{ACAD_REACTORS
330
47
102
}
330
47
100
AcDbScale
 70
     0
300
1:100
140
1.0
141
100.0
290
     0
  0
SCALE
  5
54
102
{ACAD_REACTORS
330
47
102
}
330
47
100
AcDbScale
 70
     0
300
2:1
140
2.0
141
1.0
290
     0
  0
SCALE
  5
55
102
{ACAD_REACTORS
330
47
102
}
330
47
100
AcDbScale
 70
     0
300
4:1
140
4.0
141
1.0
290
     0
  0
SCALE
  5
56
102
{ACAD_REACTORS
330
47
102
}
330
47
100
AcDbScale
 70
     0
300
8:1
140
8.0
141
1.0
290
     0
  0
SCALE
  5
57
102
{ACAD_REACTORS
330
47
102
}
330
47
100
AcDbScale
 70
     0
300
10:1
140
10.0
141
1.0
290
     0
  0
SCALE
  5
58
102
{ACAD_REACTORS
330
47
102
}
330
47
100
AcDbScale
 70
     0
300
100:1
140
100.0
141
1.0
290
     0
  0
SCALE
  5
59
102
{ACAD_REACTORS
330
47
102
}
330
47
100
AcDbScale
 70
     0
300
1/128" = 1'-0"
140
0.0078125
141
12.0
290
     0
  0
SCALE
  5
5A
102
{ACAD_REACTORS
330
47
102
}
330
47
100
AcDbScale
 70
     0
300
1/64" = 1'-0"
140
0.015625
141
12.0
290
     0
  0
SCALE
  5
5B
102
{ACAD_REACTORS
330
47
102
}
330
47
100
AcDbScale
 70
     0
300
1/32" = 1'-0"
140
0.03125
141
12.0
290
     0
  0
SCALE
  5
5C
102
{ACAD_REACTORS
330
47
102
}
330
47
100
AcDbScale
 70
     0
300
1/16" = 1'-0"
140
0.0625
141
12.0
290
     0
  0
SCALE
  5
5D
102
{ACAD_REACTORS
330
47
102
}
330
47
100
AcDbScale
 70
     0
300
3/32" = 1'-0"
140
0.09375
141
12.0
290
     0
  0
SCALE
  5
5E
102
{ACAD_REACTORS
330
47
102
}
330
47
100
AcDbScale
 70
     0
300
1/8" = 1'-0"
140
0.125
141
12.0
290
     0
  0
SCALE
  5
5F
102
{ACAD_REACTORS
330
47
102
}
330
47
100
AcDbScale
 70
     0
300
3/16" = 1'-0"
140
0.1875
141
12.0
290
     0
  0
SCALE
  5
60
102
{ACAD_REACTORS
330
47
102
}
330
47
100
AcDbScale
 70
     0
300
1/4" = 1'-0"
140
0.25
141
12.0
290
     0
  0
SCALE
  5
61
102
{ACAD_REACTORS
330
47
102
}
330
47
100
AcDbScale
 70
     0
300
3/8" = 1'-0"
140
0.375
141
12.0
290
     0
  0
SCALE
  5
62
102
{ACAD_REACTORS
330
47
102
}
330
47
100
AcDbScale
 70
     0
300
1/2" = 1'-0"
140
0.5
141
12.0
290
     0
  0
SCALE
  5
63
102
{ACAD_REACTORS
330
47
102
}
330
47
100
AcDbScale
 70
     0
300
3/4" = 1'-0"
140
0.75
141
12.0
290
     0
  0
SCALE
  5
64
102
{ACAD_REACTORS
330
47
102
}
330
47
100
AcDbScale
 70
     0
300
1" = 1'-0"
140
1.0
141
12.0
290
     0
  0
SCALE
  5
65
102
{ACAD_REACTORS
330
47
102
}
330
47
100
AcDbScale
 70
     0
300
1-1/2" = 1'-0"
140
1.5
141
12.0
290
     0
  0
SCALE
  5
66
102
{ACAD_REACTORS
330
47
102
}
330
47
100
AcDbScale
 70
     0
300
3" = 1'-0"
140
3.0
141
12.0
290
     0
  0
SCALE
  5
67
102
{ACAD_REACTORS
330
47
102
}
330
47
100
AcDbScale
 70
     0
300
6" = 1'-0"
140
6.0
141
12.0
290
     0
  0
SCALE
  5
68
102
{ACAD_REACTORS
330
47
102
}
330
47
100
AcDbScale
 70
     0
300
1'-0" = 1'-0"
140
12.0
141
12.0
290
     0
  0
ENDSEC
  0
EOF
