  0
SECTION
  2
HEADER
  9
$ACADVER
  1
AC1015
  9
$ACADMAINTVER
 70
     6
  9
$DWGCODEPAGE
  3
ANSI_1252
  9
$INSBASE
 10
0.0
 20
0.0
 30
0.0
  9
$EXTMIN
 10
0.0
 20
0.0
 30
0.0
  9
$EXTMAX
 10
297.0
 20
210.0
 30
0.0
  9
$LIMMIN
 10
0.0
 20
0.0
  9
$LIMMAX
 10
297.0
 20
210.0
  9
$ORTHOMODE
 70
     0
  9
$REGENMODE
 70
     1
  9
$FILLMODE
 70
     1
  9
$QTEXTMODE
 70
     0
  9
$MIRRTEXT
 70
     1
  9
$LTSCALE
 40
1.0
  9
$ATTMODE
 70
     1
  9
$TEXTSIZE
 40
3.8805555556
  9
$TRACEWID
 40
1.0
  9
$TEXTSTYLE
  7
Standard
  9
$CLAYER
  8
0
  9
$CELTYPE
  6
ByLayer
  9
$CECOLOR
 62
   256
  9
$CELTSCALE
 40
1.0
  9
$DISPSILH
 70
     0
  9
$DIMSCALE
 40
1.0
  9
$DIMASZ
 40
3.302
  9
$DIMEXO
 40
1.0
  9
$DIMDLI
 40
3.75
  9
$DIMRND
 40
0.0
  9
$DIMDLE
 40
0.0
  9
$DIMEXE
 40
1.0
  9
$DIMTP
 40
0.0
  9
$DIMTM
 40
0.0
  9
$DIMTXT
 40
3.8805555556
  9
$DIMCEN
 40
2.5
  9
$DIMTSZ
 40
0.0
  9
$DIMTOL
 70
     0
  9
$DIMLIM
 70
     0
  9
$DIMTIH
 70
     1
  9
$DIMTOH
 70
     1
  9
$DIMSE1
 70
     0
  9
$DIMSE2
 70
     0
  9
$DIMTAD
 70
     1
  9
$DIMZIN
 70
     0
  9
$DIMBLK
  1

  9
$DIMASO
 70
     1
  9
$DIMSHO
 70
     1
  9
$DIMPOST
  1

  9
$DIMAPOST
  1

  9
$DIMALT
 70
     0
  9
$DIMALTD
 70
     3
  9
$DIMALTF
 40
0.0393700787
  9
$DIMLFAC
 40
1.0
  9
$DIMTOFL
 70
     1
  9
$DIMTVP
 40
0.0
  9
$DIMTIX
 70
     0
  9
$DIMSOXD
 70
     0
  9
$DIMSAH
 70
     0
  9
$DIMBLK1
  1

  9
$DIMBLK2
  1

  9
$DIMSTYLE
  2
ISO-25
  9
$DIMCLRD
 70
     0
  9
$DIMCLRE
 70
     0
  9
$DIMCLRT
 70
     0
  9
$DIMTFAC
 40
1.0
  9
$DIMGAP
 40
1.524
  9
$DIMJUST
 70
     0
  9
$DIMSD1
 70
     0
  9
$DIMSD2
 70
     0
  9
$DIMTOLJ
 70
     0
  9
$DIMTZIN
 70
     0
  9
$DIMALTZ
 70
     0
  9
$DIMALTTZ
 70
     0
  9
$DIMUPT
 70
     0
  9
$DIMDEC
 70
     2
  9
$DIMTDEC
 70
     2
  9
$DIMALTU
 70
     2
  9
$DIMALTTD
 70
     3
  9
$DIMTXSTY
  7
Standard
  9
$DIMAUNIT
 70
     0
  9
$DIMADEC
 70
     2
  9
$DIMALTRND
 40
0.0
  9
$DIMAZIN
 70
     0
  9
$DIMDSEP
 70
    44
  9
$DIMATFIT
 70
     3
  9
$DIMFRAC
 70
     0
  9
$DIMLDRBLK
  1

  9
$DIMLUNIT
 70
     2
  9
$DIMLWD
 70
    -2
  9
$DIMLWE
 70
    -2
  9
$DIMTMOVE
 70
     0
  9
$LUNITS
 70
     2
  9
$LUPREC
 70
     2
  9
$SKETCHINC
 40
1.0
  9
$FILLETRAD
 40
10.0
  9
$AUNITS
 70
     1
  9
$AUPREC
 70
     2
  9
$MENU
  1
.
  9
$ELEVATION
 40
0.0
  9
$PELEVATION
 40
0.0
  9
$THICKNESS
 40
0.0
  9
$LIMCHECK
 70
     0
  9
$CHAMFERA
 40
0.0
  9
$CHAMFERB
 40
0.0
  9
$CHAMFERC
 40
0.0
  9
$CHAMFERD
 40
0.0
  9
$SKPOLY
 70
     0
  9
$TDCREATE
 40
2458607.48024059
  9
$TDUCREATE
 40
2458607.251073923
  9
$TDUPDATE
 40
2458607.480241632
  9
$TDUUPDATE
 40
2458607.251074965
  9
$TDINDWG
 40
0.0000000116
  9
$TDUSRTIMER
 40
0.0000000116
  9
$USRTIMER
 70
     1
  9
$ANGBASE
 50
0.0
  9
$ANGDIR
 70
     0
  9
$PDMODE
 70
     0
  9
$PDSIZE
 40
-1.0
  9
$PLINEWID
 40
0.0
  9
$SPLFRAME
 70
     0
  9
$SPLINETYPE
 70
     6
  9
$SPLINESEGS
 70
     8
  9
$HANDSEED
  5
17B
  9
$SURFTAB1
 70
     6
  9
$SURFTAB2
 70
     6
  9
$SURFTYPE
 70
     6
  9
$SURFU
 70
     6
  9
$SURFV
 70
     6
  9
$UCSBASE
  2

  9
$UCSNAME
  2

  9
$UCSORG
 10
0.0
 20
0.0
 30
0.0
  9
$UCSXDIR
 10
1.0
 20
0.0
 30
0.0
  9
$UCSYDIR
 10
0.0
 20
1.0
 30
0.0
  9
$UCSORTHOREF
  2

  9
$UCSORTHOVIEW
 70
     0
  9
$UCSORGTOP
 10
0.0
 20
0.0
 30
0.0
  9
$UCSORGBOTTOM
 10
0.0
 20
0.0
 30
0.0
  9
$UCSORGLEFT
 10
0.0
 20
0.0
 30
0.0
  9
$UCSORGRIGHT
 10
0.0
 20
0.0
 30
0.0
  9
$UCSORGFRONT
 10
0.0
 20
0.0
 30
0.0
  9
$UCSORGBACK
 10
0.0
 20
0.0
 30
0.0
  9
$PUCSBASE
  2

  9
$PUCSNAME
  2

  9
$PUCSORG
 10
0.0
 20
0.0
 30
0.0
  9
$PUCSXDIR
 10
1.0
 20
0.0
 30
0.0
  9
$PUCSYDIR
 10
0.0
 20
1.0
 30
0.0
  9
$PUCSORTHOREF
  2

  9
$PUCSORTHOVIEW
 70
     0
  9
$PUCSORGTOP
 10
0.0
 20
0.0
 30
0.0
  9
$PUCSORGBOTTOM
 10
0.0
 20
0.0
 30
0.0
  9
$PUCSORGLEFT
 10
0.0
 20
0.0
 30
0.0
  9
$PUCSORGRIGHT
 10
0.0
 20
0.0
 30
0.0
  9
$PUCSORGFRONT
 10
0.0
 20
0.0
 30
0.0
  9
$PUCSORGBACK
 10
0.0
 20
0.0
 30
0.0
  9
$USERI1
 70
     0
  9
$USERI2
 70
     0
  9
$USERI3
 70
     0
  9
$USERI4
 70
     0
  9
$USERI5
 70
     0
  9
$USERR1
 40
0.0
  9
$USERR2
 40
0.0
  9
$USERR3
 40
0.0
  9
$USERR4
 40
0.0
  9
$USERR5
 40
0.0
  9
$WORLDVIEW
 70
     1
  9
$SHADEDGE
 70
     3
  9
$SHADEDIF
 70
    70
  9
$TILEMODE
 70
     1
  9
$MAXACTVP
 70
    64
  9
$PINSBASE
 10
0.0
 20
0.0
 30
0.0
  9
$PLIMCHECK
 70
     0
  9
$PEXTMIN
 10
1.0000000000E+20
 20
1.0000000000E+20
 30
1.0000000000E+20
  9
$PEXTMAX
 10
-1.0000000000E+20
 20
-1.0000000000E+20
 30
-1.0000000000E+20
  9
$PLIMMIN
 10
0.0
 20
0.0
  9
$PLIMMAX
 10
420.0
 20
297.0
  9
$UNITMODE
 70
     0
  9
$VISRETAIN
 70
     1
  9
$PLINEGEN
 70
     0
  9
$PSLTSCALE
 70
     1
  9
$TREEDEPTH
 70
  3020
  9
$CMLSTYLE
  2
Standard
  9
$CMLJUST
 70
     0
  9
$CMLSCALE
 40
20.0
  9
$PROXYGRAPHICS
 70
     1
  9
$MEASUREMENT
 70
     1
  9
$CELWEIGHT
370
    -1
  9
$ENDCAPS
280
     0
  9
$JOINSTYLE
280
     0
  9
$LWDISPLAY
290
     1
  9
$INSUNITS
 70
     4
  9
$HYPERLINKBASE
  1

  9
$STYLESHEET
  1

  9
$XEDIT
290
     1
  9
$CEPSNTYPE
380
     0
  9
$PSTYLEMODE
290
     1
  9
$FINGERPRINTGUID
  2
{431E7E22-98F6-4AC0-8A85-CC15AB9BFA2F}
  9
$VERSIONGUID
  2
{FAEB1C32-E019-11D5-929B-00C0DF256EC4}
  9
$EXTNAMES
290
     1
  9
$PSVPSCALE
 40
0.0
  9
$OLESTARTUP
290
     0
  0
ENDSEC
  0
SECTION
  2
CLASSES
  0
CLASS
  1
ACDBDICTIONARYWDFLT
  2
AcDbDictionaryWithDefault
  3
ObjectDBX Classes
 90
        0
280
     0
281
     0
  0
CLASS
  1
VISUALSTYLE
  2
AcDbVisualStyle
  3
ObjectDBX Classes
 90
     4095
280
     0
281
     0
  0
CLASS
  1
MATERIAL
  2
AcDbMaterial
  3
ObjectDBX Classes
 90
     1153
280
     0
281
     0
  0
CLASS
  1
SCALE
  2
AcDbScale
  3
ObjectDBX Classes
 90
     1153
280
     0
281
     0
  0
CLASS
  1
SUN
  2
AcDbSun
  3
SCENEOE
 90
     1153
280
     0
281
     0
  0
CLASS
  1
ACDBPLACEHOLDER
  2
AcDbPlaceHolder
  3
ObjectDBX Classes
 90
        0
280
     0
281
     0
  0
CLASS
  1
LAYOUT
  2
AcDbLayout
  3
ObjectDBX Classes
 90
        0
280
     0
281
     0
  0
ENDSEC
  0
SECTION
  2
TABLES
  0
TABLE
  2
VPORT
  5
8
330
0
100
AcDbSymbolTable
 70
     1
  0
VPORT
  5
29
330
8
100
AcDbSymbolTableRecord
100
AcDbViewportTableRecord
  2
*Active
 70
     0
 10
0.0
 20
0.0
 11
1.0
 21
1.0
 12
148.5
 22
105.0
 13
0.0
 23
0.0
 14
10.0
 24
10.0
 15
10.0
 25
10.0
 16
0.0
 26
0.0
 36
1.0
 17
0.0
 27
0.0
 37
0.0
 40
210.0
 41
1.4142857143
 42
50.0
 43
0.0
 44
0.0
 50
0.0
 51
0.0
 71
     0
 72
  2000
 73
     1
 74
     3
 75
     0
 76
     0
 77
     0
 78
     0
281
     0
 65
     1
110
0.0
120
0.0
130
0.0
111
1.0
121
0.0
131
0.0
112
0.0
122
1.0
132
0.0
 79
     0
146
0.0
  0
ENDTAB
  0
TABLE
  2
LTYPE
  5
5
330
0
100
AcDbSymbolTable
 70
     6
  0
LTYPE
  5
14
330
5
100
AcDbSymbolTableRecord
100
AcDbLinetypeTableRecord
  2
ByBlock
 70
     0
  3

 72
    65
 73
     0
 40
0.0
  0
LTYPE
  5
15
330
5
100
AcDbSymbolTableRecord
100
AcDbLinetypeTableRecord
  2
ByLayer
 70
     0
  3

 72
    65
 73
     0
 40
0.0
  0
LTYPE
  5
16
330
5
100
AcDbSymbolTableRecord
100
AcDbLinetypeTableRecord
  2
Continuous
 70
     0
  3
Solid line
 72
    65
 73
     0
 40
0.0
  0
LTYPE
  5
6A
330
5
100
AcDbSymbolTableRecord
100
AcDbLinetypeTableRecord
  2
HIDDEN
 70
     0
  3
Hidden __ __ __ __ __ __ __ __ __ __ __ __ __ __
 72
    65
 73
     2
 40
1.905
 49
1.27
 74
     0
 49
-0.635
 74
     0
  0
LTYPE
  5
6B
330
5
100
AcDbSymbolTableRecord
100
AcDbLinetypeTableRecord
  2
PHANTOM
 70
     0
  3
Phantom ______  __  __  ______  __  __  ______
 72
    65
 73
     6
 40
12.7
 49
6.35
 74
     0
 49
-1.27
 74
     0
 49
1.27
 74
     0
 49
-1.27
 74
     0
 49
1.27
 74
     0
 49
-1.27
 74
     0
  0
LTYPE
  5
6C
330
5
100
AcDbSymbolTableRecord
100
AcDbLinetypeTableRecord
  2
CENTER
 70
     0
  3
Center ____ _ ____ _ ____ _ ____ _ ____ _ ____
 72
    65
 73
     4
 40
10.16
 49
6.35
 74
     0
 49
-1.27
 74
     0
 49
1.27
 74
     0
 49
-1.27
 74
     0
  0
LTYPE
  5
6D
330
5
100
AcDbSymbolTableRecord
100
AcDbLinetypeTableRecord
  2
CENTERX2
 70
     0
  3
Center (2x) ________  __  ________  __  _____
 72
    65
 73
     4
 40
20.32
 49
12.7
 74
     0
 49
-2.54
 74
     0
 49
2.54
 74
     0
 49
-2.54
 74
     0
  0
LTYPE
  5
6E
330
5
100
AcDbSymbolTableRecord
100
AcDbLinetypeTableRecord
  2
DOT2
 70
     0
  3
Dot (.5x) ........................................
 72
    65
 73
     2
 40
0.635
 49
0.0
 74
     0
 49
-0.635
 74
     0
  0
ENDTAB
  0
TABLE
  2
LAYER
  5
2
330
0
100
AcDbSymbolTable
 70
     8
  0
LAYER
  5
10
330
2
100
AcDbSymbolTableRecord
100
AcDbLayerTableRecord
  2
0
 70
     0
 62
     7
  6
Continuous
370
    -3
390
F
  0
LAYER
  5
6F
330
2
100
AcDbSymbolTableRecord
100
AcDbLayerTableRecord
  2
FORMAT
 70
     0
 62
     7
  6
Continuous
370
    -3
390
F
  0
LAYER
  5
70
330
2
100
AcDbSymbolTableRecord
100
AcDbLayerTableRecord
  2
SLD-0
 70
     0
 62
     2
  6
Continuous
370
    -3
390
F
  0
LAYER
  5
71
330
2
100
AcDbSymbolTableRecord
100
AcDbLayerTableRecord
  2
DIM
 70
     0
 62
   179
  6
Continuous
370
    -3
390
F
  0
LAYER
  5
72
330
2
100
AcDbSymbolTableRecord
100
AcDbLayerTableRecord
  2
SLD-DEFPOINTS
 70
     0
 62
   179
  6
Continuous
370
    -3
390
F
  0
LAYER
  5
73
330
2
100
AcDbSymbolTableRecord
100
AcDbLayerTableRecord
  2
HAT
 70
     0
 62
   135
  6
Continuous
370
    -3
390
F
  0
LAYER
  5
74
330
2
100
AcDbSymbolTableRecord
100
AcDbLayerTableRecord
  2
JOB
 70
     0
 62
   201
  6
Continuous
370
    -3
390
F
  0
LAYER
  5
75
330
2
100
AcDbSymbolTableRecord
100
AcDbLayerTableRecord
  2
INSPECTION_REPORT
 70
     0
 62
   255
  6
Continuous
370
    -3
390
F
  0
ENDTAB
  0
TABLE
  2
STYLE
  5
3
330
0
100
AcDbSymbolTable
 70
     4
  0
STYLE
  5
11
330
3
100
AcDbSymbolTableRecord
100
AcDbTextStyleTableRecord
  2
Standard
 70
     0
 40
0.0
 41
1.0
 50
0.0
 71
     0
 42
3.8805555556
  3
txt
  4

  0
STYLE
  5
96
330
3
100
AcDbSymbolTableRecord
100
AcDbTextStyleTableRecord
  2
SLDTEXTSTYLE0
 70
     0
 40
0.0
 41
0.7
 50
0.0
 71
     0
 42
3.8805555556
  3
TXT
  4

  0
STYLE
  5
98
330
3
100
AcDbSymbolTableRecord
100
AcDbTextStyleTableRecord
  2
SLDTEXTSTYLE1
 70
     0
 40
0.0
 41
0.75
 50
0.0
 71
     0
 42
3.8805555556
  3
TXT
  4

  0
STYLE
  5
AB
330
3
100
AcDbSymbolTableRecord
100
AcDbTextStyleTableRecord
  2
SLDTEXTSTYLE2
 70
     0
 40
0.0
 41
0.6875
 50
0.0
 71
     0
 42
3.8805555556
  3
TXT
  4

  0
ENDTAB
  0
TABLE
  2
VIEW
  5
6
330
0
100
AcDbSymbolTable
 70
     0
  0
ENDTAB
  0
TABLE
  2
UCS
  5
7
330
0
100
AcDbSymbolTable
 70
     0
  0
ENDTAB
  0
TABLE
  2
APPID
  5
9
330
0
100
AcDbSymbolTable
 70
     1
  0
APPID
  5
12
330
9
100
AcDbSymbolTableRecord
100
AcDbRegAppTableRecord
  2
ACAD
 70
     0
  0
ENDTAB
  0
TABLE
  2
DIMSTYLE
  5
A
330
0
100
AcDbSymbolTable
 70
     3
100
AcDbDimStyleTable
  0
DIMSTYLE
105
27
330
A
100
AcDbSymbolTableRecord
100
AcDbDimStyleTableRecord
  2
ISO-25
 70
     0
 41
2.5
 42
0.625
 43
3.75
 44
1.25
 73
     0
 74
     0
 77
     1
 78
     8
140
2.5
141
2.5
143
0.0393700787
147
0.625
171
     3
172
     1
178
     0
271
     2
272
     2
274
     3
278
    44
283
     0
284
     8
340
11
  0
DIMSTYLE
105
14F
102
{ACAD_REACTORS
330
14E
330
170
102
}
330
A
100
AcDbSymbolTableRecord
100
AcDbDimStyleTableRecord
  2
SLDDIMSTYLE0
 70
     0
 41
3.302
 44
0.0
 45
0.000000001
 73
     0
 74
     0
 77
     1
 78
    12
 79
     3
140
2.9104166667
147
0.7276041667
173
     1
178
     0
271
     2
272
     2
276
     2
284
    12
340
96
  0
DIMSTYLE
105
15B
102
{ACAD_REACTORS
330
15A
330
166
102
}
330
A
100
AcDbSymbolTableRecord
100
AcDbDimStyleTableRecord
  2
SLDDIMSTYLE1
 70
     0
 41
3.302
 44
0.0
 45
0.000000001
 73
     0
 74
     0
 77
     1
 78
     4
 79
     1
140
2.9104166667
147
0.7276041667
173
     1
178
     0
271
     2
272
     2
276
     2
284
    12
340
96
  0
ENDTAB
  0
TABLE
  2
BLOCK_RECORD
  5
1
330
0
100
AcDbSymbolTable
 70
     6
  0
BLOCK_RECORD
  5
1F
330
1
100
AcDbSymbolTableRecord
100
AcDbBlockTableRecord
  2
*Model_Space
340
22
  0
BLOCK_RECORD
  5
1B
330
1
100
AcDbSymbolTableRecord
100
AcDbBlockTableRecord
  2
*Paper_Space
340
1E
  0
BLOCK_RECORD
  5
23
330
1
100
AcDbSymbolTableRecord
100
AcDbBlockTableRecord
  2
*Paper_Space0
340
26
  0
BLOCK_RECORD
  5
E7
330
1
100
AcDbSymbolTableRecord
100
AcDbBlockTableRecord
  2
SW_CENTERMARKSYMBOL_0
340
0
102
{BLKREFS
331
F2
102
}
  0
BLOCK_RECORD
  5
150
330
1
100
AcDbSymbolTableRecord
100
AcDbBlockTableRecord
  2
_D
340
0
  0
BLOCK_RECORD
  5
15C
330
1
100
AcDbSymbolTableRecord
100
AcDbBlockTableRecord
  2
_D_1
340
0
  0
BLOCK_RECORD
  5
167
330
1
100
AcDbSymbolTableRecord
100
AcDbBlockTableRecord
  2
_D_2
340
0
  0
BLOCK_RECORD
  5
171
330
1
100
AcDbSymbolTableRecord
100
AcDbBlockTableRecord
  2
_D_3
340
0
  0
ENDTAB
  0
ENDSEC
  0
SECTION
  2
BLOCKS
  0
BLOCK
  5
20
330
1F
100
AcDbEntity
  8
0
100
AcDbBlockBegin
  2
*Model_Space
 70
     0
 10
0.0
 20
0.0
 30
0.0
  3
*Model_Space
  1
*Model_Space
  0
ENDBLK
  5
21
330
1F
100
AcDbEntity
  8
0
100
AcDbBlockEnd
  0
BLOCK
  5
1C
330
1B
100
AcDbEntity
 67
     1
  8
0
100
AcDbBlockBegin
  2
*Paper_Space
 70
     0
 10
0.0
 20
0.0
 30
0.0
  3
*Paper_Space
  1
*Paper_Space
  0
ENDBLK
  5
1D
330
1B
100
AcDbEntity
 67
     1
  8
0
100
AcDbBlockEnd
  0
BLOCK
  5
24
330
23
100
AcDbEntity
  8
0
100
AcDbBlockBegin
  2
*Paper_Space0
 70
     0
 10
0.0
 20
0.0
 30
0.0
  3
*Paper_Space0
  1
*Paper_Space0
  0
ENDBLK
  5
25
330
23
100
AcDbEntity
  8
0
100
AcDbBlockEnd
  0
BLOCK
  5
E8
330
E7
100
AcDbEntity
  8
0
100
AcDbBlockBegin
  2
SW_CENTERMARKSYMBOL_0
 70
     0
 10
0.0
 20
0.0
 30
0.0
  3
SW_CENTERMARKSYMBOL_0
  1
SW_CENTERMARKSYMBOL_0
  0
LINE
  5
EA
330
E7
100
AcDbEntity
  8
DIM
 62
     0
100
AcDbLine
 10
0.0
 20
0.0
 30
0.0
 11
0.0
 21
2.5
 31
0.0
  0
LINE
  5
EB
330
E7
100
AcDbEntity
  8
DIM
 62
     0
100
AcDbLine
 10
0.0
 20
0.0
 30
0.0
 11
-2.5
 21
0.0
 31
0.0
  0
LINE
  5
EC
330
E7
100
AcDbEntity
  8
DIM
 62
     0
100
AcDbLine
 10
0.0
 20
0.0
 30
0.0
 11
0.0
 21
-2.5
 31
0.0
  0
LINE
  5
ED
330
E7
100
AcDbEntity
  8
DIM
 62
     0
100
AcDbLine
 10
0.0
 20
0.0
 30
0.0
 11
2.5
 21
0.0
 31
0.0
  0
LINE
  5
EE
330
E7
100
AcDbEntity
  8
DIM
 62
     0
100
AcDbLine
 10
0.0
 20
5.0
 30
0.0
 11
0.0
 21
36.1885535049
 31
0.0
  0
LINE
  5
EF
330
E7
100
AcDbEntity
  8
DIM
 62
     0
100
AcDbLine
 10
-5.0
 20
0.0
 30
0.0
 11
-35.0338115789
 21
0.0
 31
0.0
  0
LINE
  5
F0
330
E7
100
AcDbEntity
  8
DIM
 62
     0
100
AcDbLine
 10
0.0
 20
-5.0
 30
0.0
 11
0.0
 21
-33.845211834
 31
0.0
  0
LINE
  5
F1
330
E7
100
AcDbEntity
  8
DIM
 62
     0
100
AcDbLine
 10
5.0
 20
0.0
 30
0.0
 11
31.4277482801
 21
0.0
 31
0.0
  0
ENDBLK
  5
E9
330
E7
100
AcDbEntity
  8
0
100
AcDbBlockEnd
  0
BLOCK
  5
151
330
150
100
AcDbEntity
  8
0
100
AcDbBlockBegin
  2
_D
 70
     0
 10
0.0
 20
0.0
 30
0.0
  3
_D
  1
_D
  0
SOLID
  5
153
330
150
100
AcDbEntity
  8
DIM
100
AcDbTrace
 10
254.5831497286
 20
128.7307900609
 30
0.0
 11
254.0751497286
 21
125.4287900609
 31
0.0
 12
255.0911497286
 22
125.4287900609
 32
0.0
 13
255.0911497286
 23
125.4287900609
 33
0.0
  0
SOLID
  5
154
330
150
100
AcDbEntity
  8
DIM
100
AcDbTrace
 10
254.5831497286
 20
88.7307900609
 30
0.0
 11
255.0911497286
 21
92.0327900609
 31
0.0
 12
254.0751497286
 22
92.0327900609
 32
0.0
 13
254.0751497286
 23
92.0327900609
 33
0.0
  0
LINE
  5
155
330
150
100
AcDbEntity
  8
DIM
100
AcDbLine
 10
247.2061666979
 20
128.7307900609
 30
0.0
 11
255.5831497286
 21
128.7307900609
 31
0.0
  0
LINE
  5
156
330
150
100
AcDbEntity
  8
DIM
100
AcDbLine
 10
247.2061666979
 20
88.7307900609
 30
0.0
 11
255.5831497286
 21
88.7307900609
 31
0.0
  0
LINE
  5
157
330
150
100
AcDbEntity
  8
DIM
100
AcDbLine
 10
254.5831497286
 20
128.7307900609
 30
0.0
 11
254.5831497286
 21
88.7307900609
 31
0.0
  0
MTEXT
  5
158
330
150
100
AcDbEntity
  8
DIM
100
AcDbMText
 10
250.8314252615
 20
104.513245956
 30
0.0
 40
2.9104166667
 41
0.0
 71
     1
 72
     1
  1
%%c
  7
SLDTEXTSTYLE0
 11
-7.044195017643634E-15
 21
1.0
 31
0.0
 73
     1
 44
1.0
  0
MTEXT
  5
159
330
150
100
AcDbEntity
  8
DIM
100
AcDbMText
 10
250.8314252615
 20
109.0138818556
 30
0.0
 40
2.9104166667
 41
0.0
 71
     1
 72
     1
  1
40
  7
SLDTEXTSTYLE0
 11
-7.044195017643634E-15
 21
1.0
 31
0.0
 73
     1
 44
1.0
  0
ENDBLK
  5
152
330
150
100
AcDbEntity
  8
0
100
AcDbBlockEnd
  0
BLOCK
  5
15D
330
15C
100
AcDbEntity
  8
0
100
AcDbBlockBegin
  2
_D_1
 70
     0
 10
0.0
 20
0.0
 30
0.0
  3
_D_1
  1
_D_1
  0
SOLID
  5
15F
330
15C
100
AcDbEntity
  8
DIM
100
AcDbTrace
 10
101.7160013605
 20
140.4807900609
 30
0.0
 11
101.2080013605
 21
137.1787900609
 31
0.0
 12
102.2240013605
 22
137.1787900609
 32
0.0
 13
102.2240013605
 23
137.1787900609
 33
0.0
  0
SOLID
  5
160
330
15C
100
AcDbEntity
  8
DIM
100
AcDbTrace
 10
101.7160013605
 20
76.9807900609
 30
0.0
 11
102.2240013605
 21
80.2827900609
 31
0.0
 12
101.2080013605
 22
80.2827900609
 32
0.0
 13
101.2080013605
 23
80.2827900609
 33
0.0
  0
LINE
  5
161
330
15C
100
AcDbEntity
  8
DIM
100
AcDbLine
 10
180.4378775267
 20
140.4807900609
 30
0.0
 11
100.7160013605
 21
140.4807900609
 31
0.0
  0
LINE
  5
162
330
15C
100
AcDbEntity
  8
DIM
100
AcDbLine
 10
180.4378775267
 20
76.9807900609
 30
0.0
 11
100.7160013605
 21
76.9807900609
 31
0.0
  0
LINE
  5
163
330
15C
100
AcDbEntity
  8
DIM
100
AcDbLine
 10
101.7160013605
 20
140.4807900609
 30
0.0
 11
101.7160013605
 21
76.9807900609
 31
0.0
  0
MTEXT
  5
164
330
15C
100
AcDbEntity
  8
DIM
100
AcDbMText
 10
97.9642768934
 20
102.0286123687
 30
0.0
 40
2.9104166667
 41
0.0
 71
     1
 72
     1
  1
%%c
  7
SLDTEXTSTYLE0
 11
-7.044195017643634E-15
 21
1.0
 31
0.0
 73
     1
 44
1.0
  0
MTEXT
  5
165
330
15C
100
AcDbEntity
  8
DIM
100
AcDbMText
 10
97.9642768934
 20
106.5292482683
 30
0.0
 40
2.9104166667
 41
0.0
 71
     1
 72
     1
  1
63.50
  7
SLDTEXTSTYLE0
 11
-7.044195017643634E-15
 21
1.0
 31
0.0
 73
     1
 44
1.0
  0
ENDBLK
  5
15E
330
15C
100
AcDbEntity
  8
0
100
AcDbBlockEnd
  0
BLOCK
  5
168
330
167
100
AcDbEntity
  8
0
100
AcDbBlockBegin
  2
_D_2
 70
     0
 10
0.0
 20
0.0
 30
0.0
  3
_D_2
  1
_D_2
  0
SOLID
  5
16A
330
167
100
AcDbEntity
  8
DIM
100
AcDbTrace
 10
108.6721921017
 20
58.2837003178
 30
0.0
 11
111.9741921017
 21
57.7757003178
 31
0.0
 12
111.9741921017
 22
58.7917003178
 32
0.0
 13
111.9741921017
 23
58.7917003178
 33
0.0
  0
SOLID
  5
16B
330
167
100
AcDbEntity
  8
DIM
100
AcDbTrace
 10
247.0721921017
 20
58.2837003178
 30
0.0
 11
243.7701921017
 21
58.7917003178
 31
0.0
 12
243.7701921017
 22
57.7757003178
 32
0.0
 13
243.7701921017
 23
57.7757003178
 33
0.0
  0
LINE
  5
16C
330
167
100
AcDbEntity
  8
DIM
100
AcDbLine
 10
108.6721921017
 20
107.7307900609
 30
0.0
 11
108.6721921017
 21
57.2837003178
 31
0.0
  0
LINE
  5
16D
330
167
100
AcDbEntity
  8
DIM
100
AcDbLine
 10
247.0721921017
 20
89.2307900609
 30
0.0
 11
247.0721921017
 21
57.2837003178
 31
0.0
  0
LINE
  5
16E
330
167
100
AcDbEntity
  8
DIM
100
AcDbLine
 10
108.6721921017
 20
58.2837003178
 30
0.0
 11
247.0721921017
 21
58.2837003178
 31
0.0
  0
MTEXT
  5
16F
330
167
100
AcDbEntity
  8
DIM
100
AcDbMText
 10
172.4367192818
 20
62.0354247849
 30
0.0
 40
2.9104166667
 41
0.0
 71
     1
 72
     1
  1
138.40
  7
SLDTEXTSTYLE0
 73
     1
 44
1.0
  0
ENDBLK
  5
169
330
167
100
AcDbEntity
  8
0
100
AcDbBlockEnd
  0
BLOCK
  5
172
330
171
100
AcDbEntity
  8
0
100
AcDbBlockBegin
  2
_D_3
 70
     0
 10
0.0
 20
0.0
 30
0.0
  3
_D_3
  1
_D_3
  0
SOLID
  5
174
330
171
100
AcDbEntity
  8
DIM
100
AcDbTrace
 10
177.0721921017
 20
66.5424393548
 30
0.0
 11
180.3741921017
 21
66.0344393548
 31
0.0
 12
180.3741921017
 22
67.0504393548
 32
0.0
 13
180.3741921017
 23
67.0504393548
 33
0.0
  0
SOLID
  5
175
330
171
100
AcDbEntity
  8
DIM
100
AcDbTrace
 10
247.0721921017
 20
66.5424393548
 30
0.0
 11
243.7701921017
 21
67.0504393548
 31
0.0
 12
243.7701921017
 22
66.0344393548
 32
0.0
 13
243.7701921017
 23
66.0344393548
 33
0.0
  0
LINE
  5
176
330
171
100
AcDbEntity
  8
DIM
100
AcDbLine
 10
177.0721921017
 20
85.5057900609
 30
0.0
 11
177.0721921017
 21
65.5424393548
 31
0.0
  0
LINE
  5
177
330
171
100
AcDbEntity
  8
DIM
100
AcDbLine
 10
247.0721921017
 20
89.2307900609
 30
0.0
 11
247.0721921017
 21
65.5424393548
 31
0.0
  0
LINE
  5
178
330
171
100
AcDbEntity
  8
DIM
100
AcDbLine
 10
177.0721921017
 20
66.5424393548
 30
0.0
 11
247.0721921017
 21
66.5424393548
 31
0.0
  0
MTEXT
  5
179
330
171
100
AcDbEntity
  8
DIM
100
AcDbMText
 10
210.1049659466
 20
70.2941638219
 30
0.0
 40
2.9104166667
 41
0.0
 71
     1
 72
     1
  1
70
  7
SLDTEXTSTYLE0
 73
     1
 44
1.0
  0
ENDBLK
  5
173
330
171
100
AcDbEntity
  8
0
100
AcDbBlockEnd
  0
ENDSEC
  0
SECTION
  2
ENTITIES
  0
LINE
  5
76
330
1F
100
AcDbEntity
  8
DIM
100
AcDbLine
 10
104.704424689
 20
9.7909914569
 30
0.0
 11
104.704424689
 21
4.7909914569
 31
0.0
  0
LINE
  5
77
330
1F
100
AcDbEntity
  8
DIM
100
AcDbLine
 10
254.4696016953
 20
9.7909914569
 30
0.0
 11
254.4696016953
 21
4.7909914569
 31
0.0
  0
LINE
  5
78
330
1F
100
AcDbEntity
  8
DIM
100
AcDbLine
 10
237.4517099316
 20
9.7909914569
 30
0.0
 11
237.4517099316
 21
4.7909914569
 31
0.0
  0
LINE
  5
79
330
1F
100
AcDbEntity
  8
DIM
100
AcDbLine
 10
278.904424689
 20
4.7909914569
 30
0.0
 11
278.904424689
 21
9.7909914569
 31
0.0
  0
LINE
  5
7A
330
1F
100
AcDbEntity
  8
DIM
100
AcDbLine
 10
112.504424689
 20
9.7909914569
 30
0.0
 11
112.504424689
 21
4.7909914569
 31
0.0
  0
LINE
  5
7B
330
1F
100
AcDbEntity
  8
DIM
100
AcDbLine
 10
131.6953771228
 20
9.7909914569
 30
0.0
 11
131.6953771228
 21
4.7909914569
 31
0.0
  0
LINE
  5
7C
330
1F
100
AcDbEntity
  8
DIM
100
AcDbLine
 10
291.904424689
 20
4.7909914569
 30
0.0
 11
291.904424689
 21
77.0409914569
 31
0.0
  0
LINE
  5
7D
330
1F
100
AcDbEntity
  8
DIM
100
AcDbLine
 10
285.8190046947
 20
60.0409914569
 30
0.0
 11
291.904424689
 21
60.0409914569
 31
0.0
  0
LINE
  5
7E
330
1F
100
AcDbEntity
  8
DIM
100
AcDbLine
 10
149.1033508525
 20
9.0409914569
 30
0.0
 11
149.1033508525
 21
4.7909914569
 31
0.0
  0
LINE
  5
7F
330
1F
100
AcDbEntity
  8
DIM
100
AcDbLine
 10
196.7639491604
 20
9.7909914569
 30
0.0
 11
196.7639491604
 21
4.7909914569
 31
0.0
  0
LINE
  5
80
330
1F
100
AcDbEntity
  8
DIM
100
AcDbLine
 10
149.1033508525
 20
9.7909914569
 30
0.0
 11
149.1033508525
 21
9.0409914569
 31
0.0
  0
LINE
  5
81
330
1F
100
AcDbEntity
  8
DIM
100
AcDbLine
 10
286.904424689
 20
17.5409194569
 30
0.0
 11
291.904424689
 21
17.5409194569
 31
0.0
  0
LINE
  5
82
330
1F
100
AcDbEntity
  8
DIM
100
AcDbLine
 10
286.904424689
 20
199.7909914569
 30
0.0
 11
9.904424689
 21
199.7909914569
 31
0.0
  0
LINE
  5
83
330
1F
100
AcDbEntity
  8
DIM
100
AcDbLine
 10
291.904424689
 20
204.7909914569
 30
0.0
 11
4.904424689
 21
204.7909914569
 31
0.0
  0
LINE
  5
84
330
1F
100
AcDbEntity
  8
DIM
100
AcDbLine
 10
9.904424689
 20
199.7909914569
 30
0.0
 11
9.904424689
 21
9.7909914569
 31
0.0
  0
LINE
  5
85
330
1F
100
AcDbEntity
  8
DIM
100
AcDbLine
 10
4.904424689
 20
204.7909914569
 30
0.0
 11
4.904424689
 21
4.7909914569
 31
0.0
  0
LINE
  5
86
330
1F
100
AcDbEntity
  8
DIM
100
AcDbLine
 10
9.904424689
 20
54.7909914569
 30
0.0
 11
4.904424689
 21
54.7909914569
 31
0.0
  0
LINE
  5
87
330
1F
100
AcDbEntity
  8
DIM
100
AcDbLine
 10
4.904424689
 20
104.7909914569
 30
0.0
 11
9.904424689
 21
104.7909914569
 31
0.0
  0
LINE
  5
88
330
1F
100
AcDbEntity
  8
DIM
100
AcDbLine
 10
4.904424689
 20
4.7909914569
 30
0.0
 11
291.904424689
 21
4.7909914569
 31
0.0
  0
LINE
  5
89
330
1F
100
AcDbEntity
  8
DIM
100
AcDbLine
 10
9.904424689
 20
9.7909914569
 30
0.0
 11
291.904424689
 21
9.7909914569
 31
0.0
  0
LINE
  5
8A
330
1F
100
AcDbEntity
  8
DIM
100
AcDbLine
 10
48.404424689
 20
4.7909914569
 30
0.0
 11
48.404424689
 21
9.7909914569
 31
0.0
  0
LINE
  5
8B
330
1F
100
AcDbEntity
  8
DIM
100
AcDbLine
 10
98.404424689
 20
9.7909914569
 30
0.0
 11
98.404424689
 21
4.7909914569
 31
0.0
  0
LINE
  5
8C
330
1F
100
AcDbEntity
  8
DIM
100
AcDbLine
 10
9.904424689
 20
154.7909914569
 30
0.0
 11
4.904424689
 21
154.7909914569
 31
0.0
  0
LINE
  5
8D
330
1F
100
AcDbEntity
  8
DIM
100
AcDbLine
 10
48.404424689
 20
199.7909914569
 30
0.0
 11
48.404424689
 21
204.7909914569
 31
0.0
  0
LINE
  5
8E
330
1F
100
AcDbEntity
  8
DIM
100
AcDbLine
 10
98.404424689
 20
204.7909914569
 30
0.0
 11
98.404424689
 21
199.7909914569
 31
0.0
  0
LINE
  5
8F
330
1F
100
AcDbEntity
  8
DIM
100
AcDbLine
 10
148.404424689
 20
204.7909914569
 30
0.0
 11
148.404424689
 21
199.7909914569
 31
0.0
  0
LINE
  5
90
330
1F
100
AcDbEntity
  8
DIM
100
AcDbLine
 10
286.904424689
 20
9.7909914569
 30
0.0
 11
286.904424689
 21
199.7909914569
 31
0.0
  0
LINE
  5
91
330
1F
100
AcDbEntity
  8
DIM
100
AcDbLine
 10
291.904424689
 20
77.0409914569
 30
0.0
 11
291.904424689
 21
204.7909914569
 31
0.0
  0
LINE
  5
92
330
1F
100
AcDbEntity
  8
DIM
100
AcDbLine
 10
291.904424689
 20
104.7909914569
 30
0.0
 11
286.904424689
 21
104.7909914569
 31
0.0
  0
LINE
  5
93
330
1F
100
AcDbEntity
  8
DIM
100
AcDbLine
 10
198.404424689
 20
204.7909914569
 30
0.0
 11
198.404424689
 21
199.7909914569
 31
0.0
  0
LINE
  5
94
330
1F
100
AcDbEntity
  8
DIM
100
AcDbLine
 10
248.404424689
 20
199.7909914569
 30
0.0
 11
248.404424689
 21
204.7909914569
 31
0.0
  0
LINE
  5
95
330
1F
100
AcDbEntity
  8
DIM
100
AcDbLine
 10
286.904424689
 20
154.7909914569
 30
0.0
 11
291.904424689
 21
154.7909914569
 31
0.0
  0
MTEXT
  5
97
330
1F
100
AcDbEntity
  8
DIM
100
AcDbMText
 10
15.1750049046
 20
193.3290101352
 30
0.0
 40
4.2333333333
 41
0.0
 71
     1
 72
     1
  1
SK40 MT03 070 6.3G15000 SL
  7
SLDTEXTSTYLE0
 73
     1
 44
1.0
  0
MTEXT
  5
99
330
1F
100
AcDbEntity
  8
DIM
 62
     7
100
AcDbMText
 10
197.7327786466
 20
7.8019515263
 30
0.0
 40
1.4986
 41
0.0
 71
     1
 72
     1
  1
WEIGHT:
  7
SLDTEXTSTYLE1
 73
     1
 44
1.0
  0
MTEXT
  5
9A
330
1F
100
AcDbEntity
  8
DIM
 62
     7
100
AcDbMText
 10
288.5970767548
 20
81.9406135082
 30
0.0
 40
1.8520833333
 41
0.0
 71
     1
 72
     1
  1
C
  7
SLDTEXTSTYLE1
 73
     1
 44
1.0
  0
MTEXT
  5
9B
330
1F
100
AcDbEntity
  8
DIM
 62
     7
100
AcDbMText
 10
283.0435806195
 20
14.8539819836
 30
0.0
 40
2.9104166667
 41
0.0
 71
     1
 72
     1
  1
A4
  7
SLDTEXTSTYLE1
 73
     1
 44
1.0
  0
MTEXT
  5
9C
330
1F
100
AcDbEntity
  8
DIM
 62
     7
100
AcDbMText
 10
272.5710953557
 20
203.4590078604
 30
0.0
 40
1.8520833333
 41
0.0
 71
     1
 72
     1
  1
6
  7
SLDTEXTSTYLE1
 73
     1
 44
1.0
  0
MTEXT
  5
9D
330
1F
100
AcDbEntity
  8
DIM
 62
     7
100
AcDbMText
 10
222.5710953557
 20
203.4590078604
 30
0.0
 40
1.8520833333
 41
0.0
 71
     1
 72
     1
  1
5
  7
SLDTEXTSTYLE1
 73
     1
 44
1.0
  0
MTEXT
  5
9E
330
1F
100
AcDbEntity
  8
DIM
 62
     7
100
AcDbMText
 10
288.5710993557
 20
180.9590078604
 30
0.0
 40
1.8520833333
 41
0.0
 71
     1
 72
     1
  1
A
  7
SLDTEXTSTYLE1
 73
     1
 44
1.0
  0
MTEXT
  5
9F
330
1F
100
AcDbEntity
  8
DIM
 62
     7
100
AcDbMText
 10
288.5710993557
 20
130.9590078604
 30
0.0
 40
1.8520833333
 41
0.0
 71
     1
 72
     1
  1
B
  7
SLDTEXTSTYLE1
 73
     1
 44
1.0
  0
MTEXT
  5
A0
330
1F
100
AcDbEntity
  8
DIM
 62
     7
100
AcDbMText
 10
172.5710953557
 20
203.4590078604
 30
0.0
 40
1.8520833333
 41
0.0
 71
     1
 72
     1
  1
4
  7
SLDTEXTSTYLE1
 73
     1
 44
1.0
  0
MTEXT
  5
A1
330
1F
100
AcDbEntity
  8
DIM
 62
     7
100
AcDbMText
 10
22.9877620223
 20
203.4590078604
 30
0.0
 40
1.8520833333
 41
0.0
 71
     1
 72
     1
  1
1
  7
SLDTEXTSTYLE1
 73
     1
 44
1.0
  0
MTEXT
  5
A2
330
1F
100
AcDbEntity
  8
DIM
 62
     7
100
AcDbMText
 10
72.5710953557
 20
203.4590078604
 30
0.0
 40
1.8520833333
 41
0.0
 71
     1
 72
     1
  1
2
  7
SLDTEXTSTYLE1
 73
     1
 44
1.0
  0
MTEXT
  5
A3
330
1F
100
AcDbEntity
  8
DIM
 62
     7
100
AcDbMText
 10
122.5710953557
 20
203.4590078604
 30
0.0
 40
1.8520833333
 41
0.0
 71
     1
 72
     1
  1
3
  7
SLDTEXTSTYLE1
 73
     1
 44
1.0
  0
MTEXT
  5
A4
330
1F
100
AcDbEntity
  8
DIM
 62
     7
100
AcDbMText
 10
6.5710913557
 20
180.9590078604
 30
0.0
 40
1.8520833333
 41
0.0
 71
     1
 72
     1
  1
A
  7
SLDTEXTSTYLE1
 73
     1
 44
1.0
  0
MTEXT
  5
A5
330
1F
100
AcDbEntity
  8
DIM
 62
     7
100
AcDbMText
 10
72.5710953557
 20
8.4590078604
 30
0.0
 40
1.8520833333
 41
0.0
 71
     1
 72
     1
  1
2
  7
SLDTEXTSTYLE1
 73
     1
 44
1.0
  0
MTEXT
  5
A6
330
1F
100
AcDbEntity
  8
DIM
 62
     7
100
AcDbMText
 10
22.9877620223
 20
8.4590078604
 30
0.0
 40
1.8520833333
 41
0.0
 71
     1
 72
     1
  1
1
  7
SLDTEXTSTYLE1
 73
     1
 44
1.0
  0
MTEXT
  5
A7
330
1F
100
AcDbEntity
  8
DIM
 62
     7
100
AcDbMText
 10
6.5710913557
 20
30.9590078604
 30
0.0
 40
1.8520833333
 41
0.0
 71
     1
 72
     1
  1
D
  7
SLDTEXTSTYLE1
 73
     1
 44
1.0
  0
MTEXT
  5
A8
330
1F
100
AcDbEntity
  8
DIM
 62
     7
100
AcDbMText
 10
6.5710913557
 20
80.9590078604
 30
0.0
 40
1.8520833333
 41
0.0
 71
     1
 72
     1
  1
C
  7
SLDTEXTSTYLE1
 73
     1
 44
1.0
  0
MTEXT
  5
A9
330
1F
100
AcDbEntity
  8
DIM
 62
     7
100
AcDbMText
 10
6.5710913557
 20
130.9590078604
 30
0.0
 40
1.8520833333
 41
0.0
 71
     1
 72
     1
  1
B
  7
SLDTEXTSTYLE1
 73
     1
 44
1.0
  0
MTEXT
  5
AA
330
1F
100
AcDbEntity
  8
DIM
 62
     7
100
AcDbMText
 10
288.5970767548
 20
81.9406135082
 30
0.0
 40
1.8520833333
 41
0.0
 71
     1
 72
     1
  1
C
  7
SLDTEXTSTYLE1
 73
     1
 44
1.0
  0
MTEXT
  5
AC
330
1F
100
AcDbEntity
  8
DIM
 62
     7
100
AcDbMText
 10
256.5253658125
 20
7.6910787314
 30
0.0
 40
1.5
 41
0.0
 71
     1
 72
     1
  1
SHEET 1 OF 1
  7
SLDTEXTSTYLE2
 73
     1
 44
1.0
  0
MTEXT
  5
AD
330
1F
100
AcDbEntity
  8
DIM
 62
     7
100
AcDbMText
 10
150.3717803834
 20
7.8533674836
 30
0.0
 40
1.5
 41
0.0
 71
     1
 72
     1
  1
MATERIAL:
  7
SLDTEXTSTYLE1
 73
     1
 44
1.0
  0
MTEXT
  5
AE
330
1F
100
AcDbEntity
  8
DIM
 62
     7
100
AcDbMText
 10
272.5710953557
 20
203.4590078604
 30
0.0
 40
1.8520833333
 41
0.0
 71
     1
 72
     1
  1
6
  7
SLDTEXTSTYLE1
 73
     1
 44
1.0
  0
MTEXT
  5
AF
330
1F
100
AcDbEntity
  8
DIM
 62
     7
100
AcDbMText
 10
222.5710953557
 20
203.4590078604
 30
0.0
 40
1.8520833333
 41
0.0
 71
     1
 72
     1
  1
5
  7
SLDTEXTSTYLE1
 73
     1
 44
1.0
  0
MTEXT
  5
B0
330
1F
100
AcDbEntity
  8
DIM
 62
     7
100
AcDbMText
 10
288.5710993557
 20
180.9590078604
 30
0.0
 40
1.8520833333
 41
0.0
 71
     1
 72
     1
  1
A
  7
SLDTEXTSTYLE1
 73
     1
 44
1.0
  0
MTEXT
  5
B1
330
1F
100
AcDbEntity
  8
DIM
 62
     7
100
AcDbMText
 10
288.5710993557
 20
130.9590078604
 30
0.0
 40
1.8520833333
 41
0.0
 71
     1
 72
     1
  1
B
  7
SLDTEXTSTYLE1
 73
     1
 44
1.0
  0
MTEXT
  5
B2
330
1F
100
AcDbEntity
  8
DIM
 62
     7
100
AcDbMText
 10
172.5710953557
 20
203.4590078604
 30
0.0
 40
1.8520833333
 41
0.0
 71
     1
 72
     1
  1
4
  7
SLDTEXTSTYLE1
 73
     1
 44
1.0
  0
MTEXT
  5
B3
330
1F
100
AcDbEntity
  8
DIM
 62
     7
100
AcDbMText
 10
22.9877620223
 20
203.4590078604
 30
0.0
 40
1.8520833333
 41
0.0
 71
     1
 72
     1
  1
1
  7
SLDTEXTSTYLE1
 73
     1
 44
1.0
  0
MTEXT
  5
B4
330
1F
100
AcDbEntity
  8
DIM
 62
     7
100
AcDbMText
 10
72.5710953557
 20
203.4590078604
 30
0.0
 40
1.8520833333
 41
0.0
 71
     1
 72
     1
  1
2
  7
SLDTEXTSTYLE1
 73
     1
 44
1.0
  0
MTEXT
  5
B5
330
1F
100
AcDbEntity
  8
DIM
 62
     7
100
AcDbMText
 10
122.5710953557
 20
203.4590078604
 30
0.0
 40
1.8520833333
 41
0.0
 71
     1
 72
     1
  1
3
  7
SLDTEXTSTYLE1
 73
     1
 44
1.0
  0
MTEXT
  5
B6
330
1F
100
AcDbEntity
  8
DIM
 62
     7
100
AcDbMText
 10
6.5710913557
 20
180.9590078604
 30
0.0
 40
1.8520833333
 41
0.0
 71
     1
 72
     1
  1
A
  7
SLDTEXTSTYLE1
 73
     1
 44
1.0
  0
MTEXT
  5
B7
330
1F
100
AcDbEntity
  8
DIM
 62
     7
100
AcDbMText
 10
72.5710953557
 20
8.4590078604
 30
0.0
 40
1.8520833333
 41
0.0
 71
     1
 72
     1
  1
2
  7
SLDTEXTSTYLE1
 73
     1
 44
1.0
  0
MTEXT
  5
B8
330
1F
100
AcDbEntity
  8
DIM
 62
     7
100
AcDbMText
 10
22.9877620223
 20
8.4590078604
 30
0.0
 40
1.8520833333
 41
0.0
 71
     1
 72
     1
  1
1
  7
SLDTEXTSTYLE1
 73
     1
 44
1.0
  0
MTEXT
  5
B9
330
1F
100
AcDbEntity
  8
DIM
 62
     7
100
AcDbMText
 10
6.5710913557
 20
30.9590078604
 30
0.0
 40
1.8520833333
 41
0.0
 71
     1
 72
     1
  1
D
  7
SLDTEXTSTYLE1
 73
     1
 44
1.0
  0
MTEXT
  5
BA
330
1F
100
AcDbEntity
  8
DIM
 62
     7
100
AcDbMText
 10
6.5710913557
 20
80.9590078604
 30
0.0
 40
1.8520833333
 41
0.0
 71
     1
 72
     1
  1
C
  7
SLDTEXTSTYLE1
 73
     1
 44
1.0
  0
MTEXT
  5
BB
330
1F
100
AcDbEntity
  8
DIM
 62
     7
100
AcDbMText
 10
6.5710913557
 20
130.9590078604
 30
0.0
 40
1.8520833333
 41
0.0
 71
     1
 72
     1
  1
B
  7
SLDTEXTSTYLE1
 73
     1
 44
1.0
  0
SPLINE
  5
BC
330
1F
100
AcDbEntity
  8
0
  6
Continuous
 62
     7
370
    15
100
AcDbSpline
210
0.0
220
0.0
230
1.0
 70
     8
 71
     3
 72
    14
 73
    10
 74
     0
 42
0.000000001
 43
0.00000001
 40
0.0
 40
0.0
 40
0.0
 40
0.0
 40
0.25
 40
0.25
 40
0.5
 40
0.5
 40
0.75
 40
0.75
 40
1.0
 40
1.0
 40
1.0
 40
1.0
 10
71.07462869818426
 20
108.7307900608997
 30
0.0
 10
71.07462869818426
 20
105.711342657832
 30
0.0
 10
69.87506351474151
 20
102.815336123014
 30
0.0
 10
65.60492004645101
 20
98.54519265472352
 30
0.0
 10
62.70891351163298
 20
97.34562747128076
 30
0.0
 10
56.67001870549768
 20
97.34562747128076
 30
0.0
 10
53.77401217067963
 20
98.54519265472352
 30
0.0
 10
49.50386870238914
 20
102.815336123014
 30
0.0
 10
48.30430351894639
 20
105.711342657832
 30
0.0
 10
48.30430351894639
 20
108.7307900608997
 30
0.0
  0
SPLINE
  5
BD
330
1F
100
AcDbEntity
  8
0
  6
Continuous
 62
     7
370
    15
100
AcDbSpline
210
0.0
220
0.0
230
1.0
 70
     8
 71
     3
 72
    14
 73
    10
 74
     0
 42
0.000000001
 43
0.00000001
 40
0.0
 40
0.0
 40
0.0
 40
0.0
 40
0.25
 40
0.25
 40
0.5
 40
0.5
 40
0.75
 40
0.75
 40
1.0
 40
1.0
 40
1.0
 40
1.0
 10
48.3043035189464
 20
108.7307900608997
 30
0.0
 10
48.3043035189464
 20
111.7502374639673
 30
0.0
 10
49.50386870238915
 20
114.6462439987854
 30
0.0
 10
53.77401217067963
 20
118.9163874670759
 30
0.0
 10
56.67001870549768
 20
120.1159526505186
 30
0.0
 10
62.70891351163296
 20
120.1159526505186
 30
0.0
 10
65.60492004645101
 20
118.9163874670759
 30
0.0
 10
69.87506351474151
 20
114.6462439987854
 30
0.0
 10
71.07462869818426
 20
111.7502374639674
 30
0.0
 10
71.07462869818426
 20
108.7307900608997
 30
0.0
  0
CIRCLE
  5
BE
330
1F
100
AcDbEntity
  8
0
  6
Continuous
 62
     7
370
    15
100
AcDbCircle
 10
59.6894661086
 20
108.7307900609
 30
0.0
 40
12.37469537611111
  0
CIRCLE
  5
BF
330
1F
100
AcDbEntity
  8
0
  6
Continuous
 62
     7
370
    15
100
AcDbCircle
 10
59.6894661086
 20
108.7307900609
 30
0.0
 40
22.225
  0
SPLINE
  5
C0
330
1F
100
AcDbEntity
  8
0
  6
Continuous
 62
     7
370
    15
100
AcDbSpline
210
0.0
220
0.0
230
1.0
 70
     8
 71
     3
 72
    47
 73
    43
 74
     0
 42
0.000000001
 43
0.00000001
 40
0.0
 40
0.0
 40
0.0
 40
0.0
 40
0.0064865025312349
 40
0.01296380985337
 40
0.0194345944002828
 40
0.0259015366923752
 40
0.0323673220287017
 40
0.0388346371494581
 40
0.0453061668895107
 40
0.0517845908437697
 40
0.0582725800650431
 40
0.0891441960345673
 40
0.1200232680067456
 40
0.1521817332805799
 40
0.1843476847367328
 40
0.2171904233650829
 40
0.2500408074748633
 40
0.2828835463218974
 40
0.3157339306502279
 40
0.3478923965265234
 40
0.380058348585491
 40
0.4109299640647371
 40
0.4418090356811825
 40
0.5000011037081205
 40
0.5581931717350583
 40
0.5890647877041075
 40
0.6199438596767664
 40
0.6521023249505026
 40
0.6842682764067516
 40
0.7171110150349558
 40
0.7499613991448837
 40
0.7828041379918462
 40
0.8156545223202474
 40
0.8478129881964224
 40
0.8799789402555108
 40
0.9108505557348588
 40
0.9417296273512041
 40
0.9533981518059652
 40
0.9650437986324314
 40
0.976682212237819
 40
0.9883290661770261
 40
1.0
 40
1.0
 40
1.0
 40
1.0
 10
37.28946610856532
 20
108.7307900608997
 30
0.0
 10
37.29035313153811
 20
108.8828743882455
 30
0.0
 10
37.2921259200477
 20
109.1868274495284
 30
0.0
 10
37.30649456111298
 20
109.6423093795185
 30
0.0
 10
37.32944017355869
 20
110.0969575151003
 30
0.0
 10
37.36179993434067
 20
110.550771697293
 30
0.0
 10
37.40334973568022
 20
111.0037515076527
 30
0.0
 10
37.45414986526261
 20
111.4558973687591
 30
0.0
 10
37.51418299133706
 20
111.9072066018468
 30
0.0
 10
37.58345791701345
 20
112.3576881235667
 30
0.0
 10
37.76023316359345
 20
113.3702121898626
 30
0.0
 10
38.12738575532257
 20
114.9304040796656
 30
0.0
 10
38.83944607009919
 20
117.0173403149094
 30
0.0
 10
39.76564135205015
 20
119.0524973864946
 30
0.0
 10
40.91709317988826
 20
121.0227123415212
 30
0.0
 10
42.27161692719602
 20
122.8796744908849
 30
0.0
 10
43.82223810043327
 20
124.5977644587868
 30
0.0
 10
45.54044190268448
 20
126.1485253995179
 30
0.0
 10
47.39724275303598
 20
127.5029689866539
 30
0.0
 10
49.36761754948137
 20
128.6545329631091
 30
0.0
 10
51.402528342712
 20
129.5806863725165
 30
0.0
 10
53.48990451647212
 20
130.2928011463884
 30
0.0
 10
56.23087976765073
 20
130.9382976407504
 30
0.0
 10
59.68946599056999
 20
131.2565496585255
 30
0.0
 10
63.147877709229
 20
130.9383131114655
 30
0.0
 10
65.88885833623745
 20
130.2928508238682
 30
0.0
 10
67.97607854115361
 20
129.5808155901221
 30
0.0
 10
70.01115649668486
 20
128.6546133269725
 30
0.0
 10
71.98139303163006
 20
127.5031633784535
 30
0.0
 10
73.8383492939938
 20
126.148639213281
 30
0.0
 10
75.55644080019525
 20
124.5980177930753
 30
0.0
 10
77.10720151649598
 20
122.8798153993873
 30
0.0
 10
78.46164446759428
 20
121.0230091986129
 30
0.0
 10
79.61321115627909
 20
119.0526540009123
 30
0.0
 10
80.53935452012234
 20
117.0176713439238
 30
0.0
 10
81.25150536925814
 20
114.9305530589275
 30
0.0
 10
81.64652007451451
 20
113.2519942781626
 30
0.0
 10
81.85497689311362
 20
111.9984165491759
 30
0.0
 10
81.95989926758578
 20
111.1854506180324
 30
0.0
 10
82.03428902610779
 20
110.3697109617746
 30
0.0
 10
82.08085886882598
 20
109.551177073087
 30
0.0
 10
82.08659505409848
 20
109.0044406001217
 30
0.0
 10
82.08946610856532
 20
108.7307900608997
 30
0.0
  0
SPLINE
  5
C1
330
1F
100
AcDbEntity
  8
0
  6
Continuous
 62
     7
370
    15
100
AcDbSpline
210
0.0
220
0.0
230
1.0
 70
     8
 71
     3
 72
    47
 73
    43
 74
     0
 42
0.000000001
 43
0.00000001
 40
0.0
 40
0.0
 40
0.0
 40
0.0
 40
0.0064865025312349
 40
0.0129638098533701
 40
0.0194345944002828
 40
0.0259015366923753
 40
0.0323673220287017
 40
0.0388346371494582
 40
0.0453061668895108
 40
0.0517845908437698
 40
0.0582725800650432
 40
0.0891441960348679
 40
0.1200232680067487
 40
0.1521817332809523
 40
0.1843476847367337
 40
0.2171904233653377
 40
0.2500408074748655
 40
0.2828835463223714
 40
0.3157339306502313
 40
0.3478923965270652
 40
0.380058348585494
 40
0.4109299640652716
 40
0.441809035681186
 40
0.5000011037081241
 40
0.5581931717350622
 40
0.5890647877047878
 40
0.6199438596767669
 40
0.6521023249508722
 40
0.6842682764067528
 40
0.7171110150351738
 40
0.7499613991448828
 40
0.782804137992136
 40
0.8156545223202497
 40
0.8478129881967124
 40
0.8799789402555104
 40
0.9108505557349901
 40
0.941729627351205
 40
0.9533981518060494
 40
0.9650437986325576
 40
0.9766822122379453
 40
0.9883290661771104
 40
1.0
 40
1.0
 40
1.0
 40
1.0
 10
82.08946610856532
 20
108.7307900608997
 30
0.0
 10
82.08857908559254
 20
108.5787057335539
 30
0.0
 10
82.08680629708297
 20
108.274752672271
 30
0.0
 10
82.07243765601767
 20
107.8192707422809
 30
0.0
 10
82.04949204357197
 20
107.3646226066991
 30
0.0
 10
82.01713228278997
 20
106.9108084245064
 30
0.0
 10
81.97558248145045
 20
106.4578286141466
 30
0.0
 10
81.92478235186803
 20
106.0056827530403
 30
0.0
 10
81.86474922579359
 20
105.5543735199526
 30
0.0
 10
81.79547430011723
 20
105.1038919982327
 30
0.0
 10
81.61869905353583
 20
104.0913679319299
 30
0.0
 10
81.25154646180951
 20
102.531176042126
 30
0.0
 10
80.53948614702541
 20
100.4442398068754
 30
0.0
 10
79.61329086507432
 20
98.40908273529813
 30
0.0
 10
78.46183903723454
 20
96.43886778026592
 30
0.0
 10
77.10731528993183
 20
94.581905630909
 30
0.0
 10
75.5566941166851
 20
92.86381566300092
 30
0.0
 10
73.83849031443842
 20
91.31305472227336
 30
0.0
 10
71.98168946407476
 20
89.95861113513267
 30
0.0
 10
70.0113146676378
 20
88.80704715868478
 30
0.0
 10
67.97640387439536
 20
87.88089374927365
 30
0.0
 10
65.88902770064655
 20
87.16877897540718
 30
0.0
 10
63.14805244946741
 20
86.52328248104794
 30
0.0
 10
59.68946622656085
 20
86.20503046327457
 30
0.0
 10
56.23105450788523
 20
86.52326701033306
 30
0.0
 10
53.49007388087897
 20
87.1687292979398
 30
0.0
 10
51.40285367595401
 20
87.88076453168574
 30
0.0
 10
49.36777572043785
 20
88.80696679483061
 30
0.0
 10
47.3975391854889
 20
89.95841674335313
 30
0.0
 10
45.54058292313437
 20
91.31294090852357
 30
0.0
 10
43.82249141692711
 20
92.8635623287325
 30
0.0
 10
42.27173070062789
 20
94.58176472241543
 30
0.0
 10
40.91728774952888
 20
96.43857092319784
 30
0.0
 10
39.7657210608513
 20
98.4089261208946
 30
0.0
 10
38.83957769700439
 20
100.4439087778846
 30
0.0
 10
38.12742684787062
 20
102.5310270628746
 30
0.0
 10
37.7324121426145
 20
104.2095858436415
 30
0.0
 10
37.52395532401729
 20
105.4631635726285
 30
0.0
 10
37.41903294954503
 20
106.276129503775
 30
0.0
 10
37.34464319102297
 20
107.0918691600327
 30
0.0
 10
37.29807334830472
 20
107.9104030487174
 30
0.0
 10
37.29233716303219
 20
108.4571395216797
 30
0.0
 10
37.28946610856533
 20
108.7307900608997
 30
0.0
  0
ARC
  5
C2
330
1F
100
AcDbEntity
  8
0
  6
Continuous
 62
     7
370
    15
100
AcDbCircle
 10
59.6894661086
 20
108.7307900609
 30
0.0
 40
30.58431457505075
100
AcDbArc
 50
217.220583198
 51
232.779416802
  0
SPLINE
  5
C3
330
1F
100
AcDbEntity
  8
0
  6
Continuous
 62
     7
370
    15
100
AcDbSpline
210
0.0
220
0.0
230
1.0
 70
    24
 71
     3
 72
     8
 73
     4
 74
     0
 42
0.000000001
 43
0.00000001
 40
0.0
 40
0.0
 40
0.0
 40
0.0
 40
1.0
 40
1.0
 40
1.0
 40
1.0
 10
41.18946610856534
 20
84.37611293256023
 30
0.0
 10
41.18946610856534
 20
84.24832227298195
 30
0.0
 10
41.18946610856532
 20
84.12192214572949
 30
0.0
 10
41.18946610856532
 20
84.02185647377719
 30
0.0
  0
ARC
  5
C4
330
1F
100
AcDbEntity
  8
0
  6
Continuous
 62
     7
370
    15
100
AcDbCircle
 10
59.6894661086
 20
108.7307900609
 30
0.0
 40
30.86715728752538
100
AcDbArc
 50
216.8228239927
 51
233.1771760073
  0
SPLINE
  5
C5
330
1F
100
AcDbEntity
  8
0
  6
Continuous
 62
     7
370
    15
100
AcDbSpline
210
0.0
220
0.0
230
1.0
 70
    24
 71
     3
 72
     8
 73
     4
 74
     0
 42
0.000000001
 43
0.00000001
 40
0.0
 40
0.0
 40
0.0
 40
0.0
 40
1.0
 40
1.0
 40
1.0
 40
1.0
 10
34.98053252144282
 20
90.2307900608997
 30
0.0
 10
35.0807014610863
 20
90.2307900608997
 30
0.0
 10
35.20693939709449
 20
90.2307900608997
 30
0.0
 10
35.3347889802258
 20
90.2307900608997
 30
0.0
  0
SPLINE
  5
C6
330
1F
100
AcDbEntity
  8
0
  6
Continuous
 62
     7
370
    15
100
AcDbSpline
210
0.0
220
0.0
230
1.0
 70
     8
 71
     3
 72
    10
 73
     6
 74
     0
 42
0.000000001
 43
0.00000001
 40
0.0
 40
0.0
 40
0.0
 40
0.0
 40
0.5
 40
0.5
 40
1.0
 40
1.0
 40
1.0
 40
1.0
 10
68.43946610856533
 20
79.42485554200638
 30
0.0
 10
68.43946610856533
 20
79.36089640629243
 30
0.0
 10
68.42563174126782
 20
79.29931934285074
 30
0.0
 10
68.38347775459427
 20
79.1886667001329
 30
0.0
 10
68.35498448312109
 20
79.13896779168614
 30
0.0
 10
68.32230882104
 20
79.09541549410024
 30
0.0
  0
ARC
  5
C7
330
1F
100
AcDbEntity
  8
0
  6
Continuous
 62
     7
370
    15
100
AcDbCircle
 10
59.6894661086
 20
108.7307900609
 30
0.0
 40
30.86715728752538
100
AcDbArc
 50
253.7590550452
 51
286.2409449548
  0
SPLINE
  5
C8
330
1F
100
AcDbEntity
  8
0
  6
Continuous
 62
     7
370
    15
100
AcDbSpline
210
0.0
220
0.0
230
1.0
 70
     8
 71
     3
 72
    10
 73
     6
 74
     0
 42
0.000000001
 43
0.00000001
 40
0.0
 40
0.0
 40
0.0
 40
0.0
 40
0.5
 40
0.5
 40
1.0
 40
1.0
 40
1.0
 40
1.0
 10
51.05662339609074
 20
79.09541549410022
 30
0.0
 10
51.02396877116153
 20
79.13893975196969
 30
0.0
 10
50.99598765674739
 20
79.1875018542533
 30
0.0
 10
50.95334145081208
 20
79.29898016187313
 30
0.0
 10
50.93946610856538
 20
79.36095145083902
 30
0.0
 10
50.93946610856538
 20
79.42485554200638
 30
0.0
  0
ARC
  5
C9
330
1F
100
AcDbEntity
  8
0
  6
Continuous
 62
     7
370
    15
100
AcDbCircle
 10
59.6894661086
 20
108.7307900609
 30
0.0
 40
30.58431457505077
100
AcDbArc
 50
253.375724968
 51
286.624275032
  0
SPLINE
  5
CA
330
1F
100
AcDbEntity
  8
0
  6
Continuous
 62
     7
370
    15
100
AcDbSpline
210
0.0
220
0.0
230
1.0
 70
     8
 71
     3
 72
    10
 73
     6
 74
     0
 42
0.000000001
 43
0.00000001
 40
0.0
 40
0.0
 40
0.0
 40
0.0
 40
0.5
 40
0.5
 40
1.0
 40
1.0
 40
1.0
 40
1.0
 10
50.93946610856533
 20
138.036724579793
 30
0.0
 10
50.93946610856533
 20
138.100683715507
 30
0.0
 10
50.95330047586285
 20
138.1622607789487
 30
0.0
 10
50.99545446253641
 20
138.2729134216665
 30
0.0
 10
51.02394773400957
 20
138.3226123301133
 30
0.0
 10
51.05662339609067
 20
138.3661646276992
 30
0.0
  0
ARC
  5
CB
330
1F
100
AcDbEntity
  8
0
  6
Continuous
 62
     7
370
    15
100
AcDbCircle
 10
59.6894661086
 20
108.7307900609
 30
0.0
 40
30.86715728752539
100
AcDbArc
 50
73.7590550452
 51
106.2409449548
  0
SPLINE
  5
CC
330
1F
100
AcDbEntity
  8
0
  6
Continuous
 62
     7
370
    15
100
AcDbSpline
210
0.0
220
0.0
230
1.0
 70
     8
 71
     3
 72
    10
 73
     6
 74
     0
 42
0.000000001
 43
0.00000001
 40
0.0
 40
0.0
 40
0.0
 40
0.0
 40
0.5
 40
0.5
 40
1.0
 40
1.0
 40
1.0
 40
1.0
 10
68.32230882103998
 20
138.3661646276992
 30
0.0
 10
68.35496344596919
 20
138.3226403698297
 30
0.0
 10
68.38294456038335
 20
138.2740782675461
 30
0.0
 10
68.42559076631865
 20
138.1625999599262
 30
0.0
 10
68.43946610856537
 20
138.1006286709604
 30
0.0
 10
68.43946610856537
 20
138.036724579793
 30
0.0
  0
ARC
  5
CD
330
1F
100
AcDbEntity
  8
0
  6
Continuous
 62
     7
370
    15
100
AcDbCircle
 10
59.6894661086
 20
108.7307900609
 30
0.0
 40
30.58431457505077
100
AcDbArc
 50
73.375724968
 51
106.624275032
  0
SPLINE
  5
CE
330
1F
100
AcDbEntity
  8
0
  6
Continuous
 62
     7
370
    15
100
AcDbSpline
210
0.0
220
0.0
230
1.0
 70
     8
 71
     3
 72
    31
 73
    27
 74
     0
 42
0.000000001
 43
0.00000001
 40
0.0
 40
0.0
 40
0.0
 40
0.0
 40
0.0132844560939203
 40
0.0265558208794219
 40
0.0398179176704315
 40
0.0530745777997424
 40
0.0663296373144985
 40
0.0795869336512742
 40
0.0928503023051324
 40
0.1061235735070975
 40
0.1194105689243986
 40
0.1814480130394505
 40
0.2434985490104037
 40
0.307209694423994
 40
0.3709342849308351
 40
0.5000015820302116
 40
0.6290688791295881
 40
0.6927800250021223
 40
0.7565046159609023
 40
0.8185420607584538
 40
0.8805925974112725
 40
0.9044943877008195
 40
0.9283636577015204
 40
0.9522227648280811
 40
0.9760940950502643
 40
1.0
 40
1.0
 40
1.0
 40
1.0
 10
68.43946610856533
 20
79.42485554200638
 30
0.0
 10
68.60534491150352
 20
79.4752659238617
 30
0.0
 10
68.9369390503509
 20
79.57603701012586
 30
0.0
 10
69.43079514692249
 20
79.73779107573704
 30
0.0
 10
69.92167771895691
 20
79.90719134953471
 30
0.0
 10
70.4093580075012
 20
80.08500373128938
 30
0.0
 10
70.89389698927498
 20
80.27102304519101
 30
0.0
 10
71.37527857077285
 20
80.46530452965854
 30
0.0
 10
71.85350544826191
 20
80.66783202620634
 30
0.0
 10
72.32858222704988
 20
80.87861460685103
 30
0.0
 10
73.3773694641379
 20
81.36537030892204
 30
0.0
 10
74.96737539415355
 20
82.19827555697704
 30
0.0
 10
77.04284343469969
 20
83.50629452149582
 30
0.0
 10
79.02491539035495
 20
84.98977147573532
 30
0.0
 10
81.53415187767982
 20
87.21005037038655
 30
0.0
 10
84.32747547488346
 20
90.3743018448057
 30
0.0
 10
86.56021770599958
 20
93.95599306938901
 30
0.0
 10
87.9698409882378
 20
96.99554385127564
 30
0.0
 10
88.82420962678543
 20
99.3190110931498
 30
0.0
 10
89.48385036884115
 20
101.6821262925023
 30
0.0
 10
89.85356389660495
 20
103.5800355136133
 30
0.0
 10
90.05020161434464
 20
104.9998295673449
 30
0.0
 10
90.15023043244109
 20
105.9294245530646
 30
0.0
 10
90.2211548698271
 20
106.8612329310775
 30
0.0
 10
90.26556437850859
 20
107.7952713511214
 30
0.0
 10
90.27104059426448
 20
108.4188000822701
 30
0.0
 10
90.2737806836161
 20
108.7307900608997
 30
0.0
  0
SPLINE
  5
CF
330
1F
100
AcDbEntity
  8
0
  6
Continuous
 62
     7
370
    15
100
AcDbSpline
210
0.0
220
0.0
230
1.0
 70
     8
 71
     3
 72
    22
 73
    18
 74
     0
 42
0.000000001
 43
0.00000001
 40
0.0
 40
0.0
 40
0.0
 40
0.0
 40
0.0500936294931381
 40
0.1001235566397275
 40
0.1501059026435913
 40
0.2000568347777028
 40
0.249992550826868
 40
0.2999292633826495
 40
0.349883184066359
 40
0.3998705077567667
 40
0.449907396899123
 40
0.5000099659711678
 40
0.6001296041410739
 40
0.7000588625714155
 40
0.7999272374095667
 40
0.899864461477476
 40
1.0
 40
1.0
 40
1.0
 40
1.0
 10
41.18946610856533
 20
84.37611293256023
 30
0.0
 10
41.33622402885057
 20
84.26582344342162
 30
0.0
 10
41.62955324241893
 20
84.04538471649629
 30
0.0
 10
42.07673302933657
 20
83.72495950884515
 30
0.0
 10
42.52875052064719
 20
83.41235240206997
 30
0.0
 10
42.98614620299256
 20
83.1082751801667
 30
0.0
 10
43.44877528021861
 20
82.81253750650146
 30
0.0
 10
43.91667628739881
 20
82.52519044713429
 30
0.0
 10
44.38983890689748
 20
82.24622051031241
 30
0.0
 10
44.86826498285401
 20
81.97563112999836
 30
0.0
 10
45.35195652513671
 20
81.71342251589023
 30
0.0
 10
46.00332337085129
 20
81.37527159922206
 30
0.0
 10
46.82816469983679
 20
80.9747900637886
 30
0.0
 10
47.83365006666982
 20
80.53032267196534
 30
0.0
 10
48.85410062783818
 20
80.12336016082203
 30
0.0
 10
49.88848265015076
 20
79.75048851425149
 30
0.0
 10
50.58890686621113
 20
79.53347156932996
 30
0.0
 10
50.93946610856537
 20
79.42485554200637
 30
0.0
  0
SPLINE
  5
D0
330
1F
100
AcDbEntity
  8
0
  6
Continuous
 62
     7
370
    15
100
AcDbSpline
210
0.0
220
0.0
230
1.0
 70
     8
 71
     3
 72
    43
 73
    39
 74
     0
 42
0.000000001
 43
0.00000001
 40
0.0
 40
0.0
 40
0.0
 40
0.0
 40
0.0095109916350556
 40
0.0190046239323367
 40
0.0284840481312349
 40
0.0379524296572472
 40
0.0474129450202918
 40
0.05686877865776
 40
0.0663231197377792
 40
0.0757791589386288
 40
0.0852400852205245
 40
0.0947090826060835
 40
0.1041893269856751
 40
0.1136839829635729
 40
0.1231962007603477
 40
0.1547901118112536
 40
0.1863927084008155
 40
0.2182250895792245
 40
0.2500662218550339
 40
0.3137096340347759
 40
0.3768767128430006
 40
0.4384349553552173
 40
0.5000020600078245
 40
0.5615603039225129
 40
0.6231274099053415
 40
0.6862944887135662
 40
0.749937900893308
 40
0.781770282103026
 40
0.8136114144100782
 40
0.8452053255517815
 40
0.8768079222326431
 40
0.8944566871224379
 40
0.9120548834396801
 40
0.9296228104671083
 40
0.9471808724728584
 40
0.9647495080969011
 40
0.9823491191414349
 40
1.0
 40
1.0
 40
1.0
 40
1.0
 10
50.93946610856533
 20
138.036724579793
 30
0.0
 10
50.76046456073015
 20
137.9822592485095
 30
0.0
 10
50.40278817634817
 20
137.8734279953543
 30
0.0
 10
49.87057441784872
 20
137.6979956879433
 30
0.0
 10
49.34222421789144
 20
137.5138494804244
 30
0.0
 10
48.81800141416285
 20
137.3201062484946
 30
0.0
 10
48.29783569495203
 20
137.1170021747934
 30
0.0
 10
47.78174610359598
 20
136.9044741299726
 30
0.0
 10
47.26972777241889
 20
136.6825391016573
 30
0.0
 10
46.76178222587706
 20
136.4511925808998
 30
0.0
 10
46.25790927843575
 20
136.2104360819165
 30
0.0
 10
45.75810915835432
 20
135.9602685869808
 30
0.0
 10
45.26238210521775
 20
135.7006932598176
 30
0.0
 10
44.77072784841622
 20
135.4316991111953
 30
0.0
 10
43.90625332302651
 20
134.9381492171575
 30
0.0
 10
42.69222376977148
 20
134.179982592742
 30
0.0
 10
41.16924033422762
 20
133.0940277805447
 30
0.0
 10
39.71145178696925
 20
131.9140335857019
 30
0.0
 10
37.86441211146127
 20
130.2205992745543
 30
0.0
 10
35.76173625306266
 20
127.9026149561524
 30
0.0
 10
33.62148517211
 20
124.8666901588197
 30
0.0
 10
31.87872928356636
 20
121.6329543569778
 30
0.0
 10
30.54706338512504
 20
118.243553471111
 30
0.0
 10
29.62254730128791
 20
114.7210698269937
 30
0.0
 10
29.12183952026792
 20
111.0818993714075
 30
0.0
 10
29.05880680697225
 20
107.3677591925345
 30
0.0
 10
29.3889872299734
 20
104.2558152770039
 30
0.0
 10
29.88122488274239
 20
101.7987886130959
 30
0.0
 10
30.36205425632074
 20
99.98614360668493
 30
0.0
 10
30.95109042455939
 20
98.21061144766595
 30
0.0
 10
31.54368175108462
 20
96.73360645000511
 30
0.0
 10
32.09046365225775
 20
95.53737909449654
 30
0.0
 10
32.55418353535499
 20
94.60740320745602
 30
0.0
 10
33.04849540909787
 20
93.69536801382367
 30
0.0
 10
33.57320290872082
 20
92.8011193199281
 30
0.0
 10
34.12898247579868
 20
91.92517904402943
 30
0.0
 10
34.71330673195346
 20
91.0656314264169
 30
0.0
 10
35.12742745920462
 20
90.50934021393513
 30
0.0
 10
35.33478898022584
 20
90.2307900608997
 30
0.0
  0
SPLINE
  5
D1
330
1F
100
AcDbEntity
  8
0
  6
Continuous
 62
     7
370
    15
100
AcDbSpline
210
0.0
220
0.0
230
1.0
 70
     8
 71
     3
 72
    31
 73
    27
 74
     0
 42
0.000000001
 43
0.00000001
 40
0.0
 40
0.0
 40
0.0
 40
0.0
 40
0.0132844560931736
 40
0.0265558208781152
 40
0.0398179176687517
 40
0.0530745777978762
 40
0.0663296373126322
 40
0.0795869336495936
 40
0.0928503023038228
 40
0.1061235735063433
 40
0.1194105689243833
 40
0.1814480130365326
 40
0.2434985490103923
 40
0.3072096944238527
 40
0.3709342849308356
 40
0.5000015820302111
 40
0.6290688791295865
 40
0.6927800250010155
 40
0.7565046159609006
 40
0.8185420607578947
 40
0.8805925974112727
 40
0.9044943877007785
 40
0.9283636577014587
 40
0.9522227648280193
 40
0.976094095050223
 40
1.0
 40
1.0
 40
1.0
 40
1.0
 10
90.2737806836161
 20
108.7307900608997
 30
0.0
 10
90.2729343731993
 20
108.9041574961876
 30
0.0
 10
90.2712425863713
 20
109.2507215199845
 30
0.0
 10
90.25753905187035
 20
109.7702120732981
 30
0.0
 10
90.23565820100298
 20
110.2890409281626
 30
0.0
 10
90.20480070085284
 20
110.807208007025
 30
0.0
 10
90.16518059627415
 20
111.3247130382237
 30
0.0
 10
90.11674035347258
 20
111.8415564043388
 30
0.0
 10
90.05949622691944
 20
112.3577360660857
 30
0.0
 10
89.99344084134742
 20
112.8732590317296
 30
0.0
 10
89.82708293935312
 20
114.0174665437539
 30
0.0
 10
89.48388365834248
 20
115.7793020250837
 30
0.0
 10
88.82431769947773
 20
118.1422353598958
 30
0.0
 10
87.96990754733503
 20
120.4658739727744
 30
0.0
 10
86.56031150976793
 20
123.5054372851985
 30
0.0
 10
84.32747529997398
 20
127.0872785117603
 30
0.0
 10
81.53426854811359
 20
130.2513970209364
 30
0.0
 10
79.02505186212795
 20
132.4716984365703
 30
0.0
 10
77.04313223757842
 20
133.955086584152
 30
0.0
 10
74.96751132920834
 20
135.2632292364642
 30
0.0
 10
73.25470492119734
 20
136.1604704040801
 30
0.0
 10
71.95051314534312
 20
136.7550840255707
 30
0.0
 10
71.08839156476877
 20
137.1168836693398
 30
0.0
 10
70.2158225092293
 20
137.451428692421
 30
0.0
 10
69.33353085254417
 20
137.7612050748729
 30
0.0
 10
68.73763143380363
 20
137.9448404479701
 30
0.0
 10
68.43946610856536
 20
138.036724579793
 30
0.0
  0
ARC
  5
D2
330
1F
100
AcDbEntity
  8
0
  6
Continuous
 62
     7
370
    15
100
AcDbCircle
 10
59.6894661086
 20
108.7307900609
 30
0.0
 40
30.8671572875254
100
AcDbArc
 50
106.2409449548
 51
216.8228239927
  0
ARC
  5
D3
330
1F
100
AcDbEntity
  8
0
  6
Continuous
 62
     7
370
    15
100
AcDbCircle
 10
59.6894661086
 20
108.7307900609
 30
0.0
 40
30.86715728752539
100
AcDbArc
 50
286.2409449548
 51
73.7590550452
  0
ARC
  5
D4
330
1F
100
AcDbEntity
  8
0
  6
Continuous
 62
     7
370
    15
100
AcDbCircle
 10
59.6894661086
 20
108.7307900609
 30
0.0
 40
30.86715728752538
100
AcDbArc
 50
233.1771760073
 51
253.7590550452
  0
ARC
  5
D5
330
1F
100
AcDbEntity
  8
0
  6
Continuous
 62
     7
370
    15
100
AcDbCircle
 10
59.6894661086
 20
108.7307900609
 30
0.0
 40
31.63284271247468
100
AcDbArc
 50
234.208651263
 51
254.4024500298
  0
ARC
  5
D6
330
1F
100
AcDbEntity
  8
0
  6
Continuous
 62
     7
370
    15
100
AcDbCircle
 10
59.6894661086
 20
108.7307900609
 30
0.0
 40
31.63284271247462
100
AcDbArc
 50
215.791348737
 51
234.208651263
  0
ARC
  5
D7
330
1F
100
AcDbEntity
  8
0
  6
Continuous
 62
     7
370
    15
100
AcDbCircle
 10
59.6894661086
 20
108.7307900609
 30
0.0
 40
31.63284271247463
100
AcDbArc
 50
105.733481737
 51
215.791348737
  0
ARC
  5
D8
330
1F
100
AcDbEntity
  8
0
  6
Continuous
 62
     7
370
    15
100
AcDbCircle
 10
59.6894661086
 20
108.7307900609
 30
0.0
 40
31.63284271247461
100
AcDbArc
 50
74.4024500298
 51
105.733481737
  0
ARC
  5
D9
330
1F
100
AcDbEntity
  8
0
  6
Continuous
 62
     7
370
    15
100
AcDbCircle
 10
59.6894661086
 20
108.7307900609
 30
0.0
 40
31.63284271247462
100
AcDbArc
 50
285.733481737
 51
74.4024500298
  0
ARC
  5
DA
330
1F
100
AcDbEntity
  8
0
  6
Continuous
 62
     7
370
    15
100
AcDbCircle
 10
59.6894661086
 20
108.7307900609
 30
0.0
 40
31.63284271247464
100
AcDbArc
 50
254.4024500298
 51
285.733481737
  0
SPLINE
  5
DB
330
1F
100
AcDbEntity
  8
0
  6
Continuous
 62
     7
370
    15
100
AcDbSpline
210
0.0
220
0.0
230
1.0
 70
    24
 71
     3
 72
    10
 73
     6
 74
     0
 42
0.000000001
 43
0.00000001
 40
0.0
 40
0.0
 40
0.0
 40
0.0
 40
0.5
 40
0.5
 40
1.0
 40
1.0
 40
1.0
 40
1.0
 10
51.11181070004697
 20
139.1784593602874
 30
0.0
 10
51.07201661633228
 20
139.2017249920926
 30
0.0
 10
51.03718194841884
 20
139.222091098862
 30
0.0
 10
50.98661481488529
 20
139.2516551998643
 30
0.0
 10
50.9715590712231
 20
139.2604575482514
 30
0.0
 10
50.9715590712231
 20
139.2604575482514
 30
0.0
  0
ARC
  5
DC
330
1F
100
AcDbEntity
  8
0
  6
Continuous
 62
     7
370
    15
100
AcDbCircle
 10
59.6894661086
 20
108.7307900609
 30
0.0
 40
31.75000000000001
100
AcDbArc
 50
74.2833781213
 51
105.9369715324
  0
SPLINE
  5
DD
330
1F
100
AcDbEntity
  8
0
  6
Continuous
 62
     7
370
    15
100
AcDbSpline
210
0.0
220
0.0
230
1.0
 70
    24
 71
     3
 72
     8
 73
     4
 74
     0
 42
0.000000001
 43
0.00000001
 40
0.0
 40
0.0
 40
0.0
 40
0.0
 40
1.0
 40
1.0
 40
1.0
 40
1.0
 10
68.28989714645104
 20
139.2937592550498
 30
0.0
 10
68.28989714645104
 20
139.2937592550498
 30
0.0
 10
68.25266308562645
 20
139.2565251942253
 30
0.0
 10
68.19486166216873
 20
139.1987237707675
 30
0.0
  0
SPLINE
  5
DE
330
1F
100
AcDbEntity
  8
0
  6
Continuous
 62
     7
370
    15
100
AcDbSpline
210
0.0
220
0.0
230
1.0
 70
    24
 71
     3
 72
     8
 73
     4
 74
     0
 42
0.000000001
 43
0.00000001
 40
0.0
 40
0.0
 40
0.0
 40
0.0
 40
1.0
 40
1.0
 40
1.0
 40
1.0
 10
41.18946610856533
 20
83.07174218160061
 30
0.0
 10
41.18946610856533
 20
82.98612860028337
 30
0.0
 10
41.18946610856534
 20
82.92744725420116
 30
0.0
 10
41.18946610856534
 20
82.92744725420117
 30
0.0
  0
ARC
  5
DF
330
1F
100
AcDbEntity
  8
0
  6
Continuous
 62
     7
370
    15
100
AcDbCircle
 10
59.6894661086
 20
108.7307900609
 30
0.0
 40
31.75000000000001
100
AcDbArc
 50
215.6390613326
 51
234.3609386674
  0
SPLINE
  5
E0
330
1F
100
AcDbEntity
  8
0
  6
Continuous
 62
     7
370
    15
100
AcDbSpline
210
0.0
220
0.0
230
1.0
 70
    24
 71
     3
 72
     8
 73
     4
 74
     0
 42
0.000000001
 43
0.00000001
 40
0.0
 40
0.0
 40
0.0
 40
0.0
 40
1.0
 40
1.0
 40
1.0
 40
1.0
 10
33.88612330186681
 20
90.2307900608997
 30
0.0
 10
33.88612330186681
 20
90.2307900608997
 30
0.0
 10
33.94484751041165
 20
90.23079006089971
 30
0.0
 10
34.03041822926631
 20
90.23079006089971
 30
0.0
  0
SPLINE
  5
E1
330
1F
100
AcDbEntity
  8
0
  6
Continuous
 62
     7
370
    15
100
AcDbSpline
210
0.0
220
0.0
230
1.0
 70
    24
 71
     3
 72
    10
 73
     6
 74
     0
 42
0.000000001
 43
0.00000001
 40
0.0
 40
0.0
 40
0.0
 40
0.0
 40
0.5
 40
0.5
 40
1.0
 40
1.0
 40
1.0
 40
1.0
 10
68.26712151708375
 20
78.28312076151204
 30
0.0
 10
68.30691560079845
 20
78.25985512970686
 30
0.0
 10
68.34175026871189
 20
78.23948902293738
 30
0.0
 10
68.39231740224544
 20
78.20992492193508
 30
0.0
 10
68.40737314590763
 20
78.20112257354802
 30
0.0
 10
68.40737314590763
 20
78.20112257354802
 30
0.0
  0
ARC
  5
E2
330
1F
100
AcDbEntity
  8
0
  6
Continuous
 62
     7
370
    15
100
AcDbCircle
 10
59.6894661086
 20
108.7307900609
 30
0.0
 40
31.75
100
AcDbArc
 50
254.2833781213
 51
285.9369715324
  0
SPLINE
  5
E3
330
1F
100
AcDbEntity
  8
0
  6
Continuous
 62
     7
370
    15
100
AcDbSpline
210
0.0
220
0.0
230
1.0
 70
    24
 71
     3
 72
     8
 73
     4
 74
     0
 42
0.000000001
 43
0.00000001
 40
0.0
 40
0.0
 40
0.0
 40
0.0
 40
1.0
 40
1.0
 40
1.0
 40
1.0
 10
51.08903507067971
 20
78.16782086674951
 30
0.0
 10
51.08903507067971
 20
78.16782086674951
 30
0.0
 10
51.12626913150428
 20
78.20505492757408
 30
0.0
 10
51.18407055496199
 20
78.26285635103179
 30
0.0
  0
ARC
  5
E4
330
1F
100
AcDbEntity
  8
0
  6
Continuous
 62
     7
370
    15
100
AcDbCircle
 10
59.6894661086
 20
108.7307900609
 30
0.0
 40
31.75
100
AcDbArc
 50
285.9369715324
 51
74.2833781213
  0
ARC
  5
E5
330
1F
100
AcDbEntity
  8
0
  6
Continuous
 62
     7
370
    15
100
AcDbCircle
 10
59.6894661086
 20
108.7307900609
 30
0.0
 40
31.75000000000001
100
AcDbArc
 50
105.9369715324
 51
215.6390613326
  0
ARC
  5
E6
330
1F
100
AcDbEntity
  8
0
  6
Continuous
 62
     7
370
    15
100
AcDbCircle
 10
59.6894661086
 20
108.7307900609
 30
0.0
 40
31.75000000000001
100
AcDbArc
 50
234.3609386674
 51
254.2833781213
  0
INSERT
  5
F2
330
1F
100
AcDbEntity
  8
DIM
100
AcDbBlockReference
  2
SW_CENTERMARKSYMBOL_0
 10
59.6894661086
 20
108.7307900609
 30
0.0
  0
LINE
  5
F3
330
1F
100
AcDbEntity
  8
0
  6
Continuous
 62
     7
370
    15
100
AcDbLine
 10
191.6940287438
 20
76.9807900609
 30
0.0
 11
195.0065066768
 21
76.9807900609
 31
0.0
  0
LINE
  5
F4
330
1F
100
AcDbEntity
  8
0
  6
Continuous
 62
     7
370
    15
100
AcDbLine
 10
195.0065066768
 20
140.4807900609
 30
0.0
 11
191.6940287438
 21
140.4807900609
 31
0.0
  0
LINE
  5
F5
330
1F
100
AcDbEntity
  8
0
  6
Continuous
 62
     7
370
    15
100
AcDbLine
 10
191.6940287438
 20
140.4807900609
 30
0.0
 11
190.0721921017
 21
137.6716865953
 31
0.0
  0
LINE
  5
F6
330
1F
100
AcDbEntity
  8
0
  6
Continuous
 62
     7
370
    15
100
AcDbLine
 10
190.0721921017
 20
79.7898935265
 30
0.0
 11
191.6940287438
 21
76.9807900609
 31
0.0
  0
LINE
  5
F7
330
1F
100
AcDbEntity
  8
0
  6
Continuous
 62
     7
370
    15
100
AcDbLine
 10
184.6503554597
 20
76.9807900609
 30
0.0
 11
186.2721921017
 21
79.7898935265
 31
0.0
  0
LINE
  5
F8
330
1F
100
AcDbEntity
  8
0
  6
Continuous
 62
     7
370
    15
100
AcDbLine
 10
186.2721921017
 20
137.6716865953
 30
0.0
 11
184.6503554597
 21
140.4807900609
 31
0.0
  0
LINE
  5
F9
330
1F
100
AcDbEntity
  8
0
  6
Continuous
 62
     7
370
    15
100
AcDbLine
 10
181.4378775267
 20
76.9807900609
 30
0.0
 11
184.6503554597
 21
76.9807900609
 31
0.0
  0
LINE
  5
FA
330
1F
100
AcDbEntity
  8
0
  6
Continuous
 62
     7
370
    15
100
AcDbLine
 10
184.6503554597
 20
140.4807900609
 30
0.0
 11
181.4378775267
 21
140.4807900609
 31
0.0
  0
LINE
  5
FB
330
1F
100
AcDbEntity
  8
0
  6
Continuous
 62
     7
370
    15
100
AcDbLine
 10
195.2893493892
 20
77.0979473484
 30
0.0
 11
196.0550348142
 21
77.8636327734
 31
0.0
  0
LINE
  5
FC
330
1F
100
AcDbEntity
  8
0
  6
Continuous
 62
     7
370
    15
100
AcDbLine
 10
196.0550348142
 20
139.5979473484
 30
0.0
 11
195.2893493892
 21
140.3636327734
 31
0.0
  0
LINE
  5
FD
330
1F
100
AcDbEntity
  8
0
  6
Continuous
 62
     7
370
    15
100
AcDbLine
 10
181.1550348142
 20
140.3636327734
 30
0.0
 11
180.3893493892
 21
139.5979473484
 31
0.0
  0
LINE
  5
FE
330
1F
100
AcDbEntity
  8
0
  6
Continuous
 62
     7
370
    15
100
AcDbLine
 10
180.3893493892
 20
77.8636327734
 30
0.0
 11
181.1550348142
 21
77.0979473484
 31
0.0
  0
LINE
  5
FF
330
1F
100
AcDbEntity
  8
0
  6
Continuous
 62
     7
370
    15
100
AcDbLine
 10
186.2721921017
 20
80.7307900609
 30
0.0
 11
190.0721921017
 21
80.7307900609
 31
0.0
  0
LINE
  5
100
330
1F
100
AcDbEntity
  8
0
  6
Continuous
 62
     7
370
    15
100
AcDbLine
 10
190.0721921017
 20
136.7307900609
 30
0.0
 11
186.2721921017
 21
136.7307900609
 31
0.0
  0
ARC
  5
101
330
1F
100
AcDbEntity
  8
0
  6
Continuous
 62
     7
370
    15
100
AcDbCircle
 10
179.8721921017
 20
86.3307900609
 30
0.0
 40
0.4000000000000199
100
AcDbArc
 50
0.0
 51
90.0
  0
ARC
  5
102
330
1F
100
AcDbEntity
  8
0
  6
Continuous
 62
     7
370
    15
100
AcDbCircle
 10
179.8721921017
 20
131.1307900609
 30
0.0
 40
0.4000000000000057
100
AcDbArc
 50
270.0
 51
0.0
  0
LINE
  5
103
330
1F
100
AcDbEntity
  8
0
  6
Continuous
 62
     7
370
    15
100
AcDbLine
 10
177.0721921017
 20
130.9557900609
 30
0.0
 11
109.5278838744
 21
121.105485437
 31
0.0
  0
LINE
  5
104
330
1F
100
AcDbEntity
  8
0
  6
Continuous
 62
     7
370
    15
100
AcDbLine
 10
109.5278838744
 20
96.3560946848
 30
0.0
 11
177.0721921017
 21
86.5057900609
 31
0.0
  0
LINE
  5
105
330
1F
100
AcDbEntity
  8
0
  6
Continuous
 62
     7
370
    15
100
AcDbLine
 10
177.0721921017
 20
86.5057900609
 30
0.0
 11
177.5547061588
 21
86.7307900609
 31
0.0
  0
LINE
  5
106
330
1F
100
AcDbEntity
  8
0
  6
Continuous
 62
     7
370
    15
100
AcDbLine
 10
177.5547061588
 20
130.7307900609
 30
0.0
 11
177.0721921017
 21
130.9557900609
 31
0.0
  0
ARC
  5
107
330
1F
100
AcDbEntity
  8
0
  6
Continuous
 62
     7
370
    15
100
AcDbCircle
 10
198.1721921017
 20
130.7307900609
 30
0.0
 40
2.000000000000028
100
AcDbArc
 50
180.0
 51
270.0
  0
ARC
  5
108
330
1F
100
AcDbEntity
  8
0
  6
Continuous
 62
     7
370
    15
100
AcDbCircle
 10
198.1721921017
 20
86.7307900609
 30
0.0
 40
2.000000000000028
100
AcDbArc
 50
90.0
 51
180.0
  0
LINE
  5
109
330
1F
100
AcDbEntity
  8
0
  6
Continuous
 62
     7
370
    15
100
AcDbLine
 10
177.5547061588
 20
86.7307900609
 30
0.0
 11
179.8721921017
 21
86.7307900609
 31
0.0
  0
LINE
  5
10A
330
1F
100
AcDbEntity
  8
0
  6
Continuous
 62
     7
370
    15
100
AcDbLine
 10
179.8721921017
 20
130.7307900609
 30
0.0
 11
177.5547061588
 21
130.7307900609
 31
0.0
  0
LINE
  5
10B
330
1F
100
AcDbEntity
  8
0
  6
Continuous
 62
     7
370
    15
100
AcDbLine
 10
246.2061666979
 20
88.7307900609
 30
0.0
 11
247.0721921017
 21
90.2307900609
 31
0.0
  0
LINE
  5
10C
330
1F
100
AcDbEntity
  8
0
  6
Continuous
 62
     7
370
    15
100
AcDbLine
 10
247.0721921017
 20
127.2307900609
 30
0.0
 11
246.2061666979
 21
128.7307900609
 31
0.0
  0
LINE
  5
10D
330
1F
100
AcDbEntity
  8
0
  6
Continuous
 62
     7
370
    15
100
AcDbLine
 10
198.1721921017
 20
88.7307900609
 30
0.0
 11
246.2061666979
 21
88.7307900609
 31
0.0
  0
LINE
  5
10E
330
1F
100
AcDbEntity
  8
0
  6
Continuous
 62
     7
370
    15
100
AcDbLine
 10
246.2061666979
 20
128.7307900609
 30
0.0
 11
198.1721921017
 21
128.7307900609
 31
0.0
  0
ARC
  5
10F
330
1F
100
AcDbEntity
  8
0
  6
Continuous
 62
     7
370
    15
100
AcDbCircle
 10
109.6721921017
 20
97.3456274713
 30
0.0
 40
1.0
100
AcDbArc
 50
180.0
 51
261.7027777778
  0
ARC
  5
110
330
1F
100
AcDbEntity
  8
0
  6
Continuous
 62
     7
370
    15
100
AcDbCircle
 10
109.6721921017
 20
120.1159526505
 30
0.0
 40
1.0
100
AcDbArc
 50
98.2972222222
 51
180.0
  0
ARC
  5
111
330
1F
100
AcDbEntity
  8
0
  6
Continuous
 62
     7
370
    15
100
AcDbCircle
 10
180.6721921017
 20
139.315104636
 30
0.0
 40
0.3999999999999791
100
AcDbArc
 50
135.0
 51
180.0
  0
ARC
  5
112
330
1F
100
AcDbEntity
  8
0
  6
Continuous
 62
     7
370
    15
100
AcDbCircle
 10
180.6721921017
 20
78.1464754858
 30
0.0
 40
0.3999999999999891
100
AcDbArc
 50
180.0
 51
225.0
  0
ARC
  5
113
330
1F
100
AcDbEntity
  8
0
  6
Continuous
 62
     7
370
    15
100
AcDbCircle
 10
181.4378775267
 20
77.3807900609
 30
0.0
 40
0.4000000000000093
100
AcDbArc
 50
225.0
 51
270.0
  0
ARC
  5
114
330
1F
100
AcDbEntity
  8
0
  6
Continuous
 62
     7
370
    15
100
AcDbCircle
 10
195.0065066768
 20
77.3807900609
 30
0.0
 40
0.4000000000000057
100
AcDbArc
 50
270.0
 51
315.0
  0
ARC
  5
115
330
1F
100
AcDbEntity
  8
0
  6
Continuous
 62
     7
370
    15
100
AcDbCircle
 10
195.0065066768
 20
140.0807900609
 30
0.0
 40
0.4000000000000057
100
AcDbArc
 50
45.0
 51
90.0
  0
ARC
  5
116
330
1F
100
AcDbEntity
  8
0
  6
Continuous
 62
     7
370
    15
100
AcDbCircle
 10
181.4378775267
 20
140.0807900609
 30
0.0
 40
0.4000000000000193
100
AcDbArc
 50
90.0
 51
135.0
  0
ARC
  5
117
330
1F
100
AcDbEntity
  8
0
  6
Continuous
 62
     7
370
    15
100
AcDbCircle
 10
195.7721921017
 20
78.1464754858
 30
0.0
 40
0.4000000000000193
100
AcDbArc
 50
315.0
 51
0.0
  0
ARC
  5
118
330
1F
100
AcDbEntity
  8
0
  6
Continuous
 62
     7
370
    15
100
AcDbCircle
 10
195.7721921017
 20
139.315104636
 30
0.0
 40
0.4000000000000057
100
AcDbArc
 50
0.0
 51
45.0
  0
SPLINE
  5
119
330
1F
100
AcDbEntity
  8
0
  6
Continuous
 62
     7
370
    15
100
AcDbSpline
210
0.0
220
0.0
230
1.0
 70
     8
 71
     3
 72
     8
 73
     4
 74
     0
 42
0.000000001
 43
0.00000001
 40
0.0
 40
0.0
 40
0.0
 40
0.0
 40
1.0
 40
1.0
 40
1.0
 40
1.0
 10
195.2893493892402
 20
139.1987237707675
 30
0.0
 10
195.2181040897645
 20
139.2565502740432
 30
0.0
 10
195.1151957260473
 20
139.2937592550498
 30
0.0
 10
195.0065066767656
 20
139.2937592550498
 30
0.0
  0
LINE
  5
11A
330
1F
100
AcDbEntity
  8
0
  6
Continuous
 62
     7
370
    15
100
AcDbLine
 10
195.2893493892
 20
139.1987237708
 30
0.0
 11
195.2893493892
 21
78.2831207615
 31
0.0
  0
SPLINE
  5
11B
330
1F
100
AcDbEntity
  8
0
  6
Continuous
 62
     7
370
    15
100
AcDbSpline
210
0.0
220
0.0
230
1.0
 70
     8
 71
     3
 72
    10
 73
     6
 74
     0
 42
0.000000001
 43
0.00000001
 40
0.0
 40
0.0
 40
0.0
 40
0.0
 40
0.5
 40
0.5
 40
1.0
 40
1.0
 40
1.0
 40
1.0
 10
195.0065066767656
 20
78.20112257354802
 30
0.0
 10
195.0635816167257
 20
78.20112257354802
 30
0.0
 10
195.1189736447602
 20
78.20989325109683
 30
0.0
 10
195.2152225492407
 20
78.23940153971155
 30
0.0
 10
195.2561499422075
 20
78.25984474196525
 30
0.0
 10
195.2893493892402
 20
78.28312076151205
 30
0.0
  0
LINE
  5
11C
330
1F
100
AcDbEntity
  8
0
  6
Continuous
 62
     7
370
    15
100
AcDbLine
 10
195.0065066768
 20
78.2011225735
 30
0.0
 11
195.0065066768
 21
139.293759255
 31
0.0
  0
LINE
  5
11D
330
1F
100
AcDbEntity
  8
0
  6
Continuous
 62
     7
370
    15
100
AcDbLine
 10
181.4378775267
 20
78.2011225735
 30
0.0
 11
181.4378775267
 21
139.293759255
 31
0.0
  0
SPLINE
  5
11E
330
1F
100
AcDbEntity
  8
0
  6
Continuous
 62
     7
370
    15
100
AcDbSpline
210
0.0
220
0.0
230
1.0
 70
     8
 71
     3
 72
    10
 73
     6
 74
     0
 42
0.000000001
 43
0.00000001
 40
0.0
 40
0.0
 40
0.0
 40
0.0
 40
0.5
 40
0.5
 40
1.0
 40
1.0
 40
1.0
 40
1.0
 10
181.1550348141894
 20
78.28312076151204
 30
0.0
 10
181.1882194448023
 20
78.25985512970686
 30
0.0
 10
181.2289459932431
 20
78.23948902293738
 30
0.0
 10
181.3252378483344
 20
78.20992492193508
 30
0.0
 10
181.3808039176209
 20
78.20112257354802
 30
0.0
 10
181.4378775266641
 20
78.20112257354802
 30
0.0
  0
LINE
  5
11F
330
1F
100
AcDbEntity
  8
0
  6
Continuous
 62
     7
370
    15
100
AcDbLine
 10
181.1550348142
 20
78.2831207615
 30
0.0
 11
181.1550348142
 21
139.1987237708
 31
0.0
  0
SPLINE
  5
120
330
1F
100
AcDbEntity
  8
0
  6
Continuous
 62
     7
370
    15
100
AcDbSpline
210
0.0
220
0.0
230
1.0
 70
     8
 71
     3
 72
     8
 73
     4
 74
     0
 42
0.000000001
 43
0.00000001
 40
0.0
 40
0.0
 40
0.0
 40
0.0
 40
1.0
 40
1.0
 40
1.0
 40
1.0
 10
181.437877526664
 20
139.2937592550498
 30
0.0
 10
181.3292985344811
 20
139.2937592550498
 30
0.0
 10
181.2262492140077
 20
139.2565251942253
 30
0.0
 10
181.1550348141894
 20
139.1987237707675
 30
0.0
  0
LINE
  5
121
330
1F
100
AcDbEntity
  8
0
  6
Continuous
 62
     7
370
    15
100
AcDbLine
 10
191.6940287438
 20
78.2011225735
 30
0.0
 11
191.6940287438
 21
140.4807900609
 31
0.0
  0
LINE
  5
122
330
1F
100
AcDbEntity
  8
0
  6
Continuous
 62
     7
370
    15
100
AcDbLine
 10
191.6940287438
 20
76.9807900609
 30
0.0
 11
191.6940287438
 21
78.2011225735
 31
0.0
  0
LINE
  5
123
330
1F
100
AcDbEntity
  8
0
  6
Continuous
 62
     7
370
    15
100
AcDbLine
 10
190.0721921017
 20
137.6716865953
 30
0.0
 11
190.0721921017
 21
79.7898935265
 31
0.0
  0
LINE
  5
124
330
1F
100
AcDbEntity
  8
0
  6
Continuous
 62
     7
370
    15
100
AcDbLine
 10
186.2721921017
 20
79.7898935265
 30
0.0
 11
186.2721921017
 21
137.6716865953
 31
0.0
  0
LINE
  5
125
330
1F
100
AcDbEntity
  8
0
  6
Continuous
 62
     7
370
    15
100
AcDbLine
 10
184.6503554597
 20
139.293759255
 30
0.0
 11
184.6503554597
 21
140.4807900609
 31
0.0
  0
LINE
  5
126
330
1F
100
AcDbEntity
  8
0
  6
Continuous
 62
     7
370
    15
100
AcDbLine
 10
184.6503554597
 20
76.9807900609
 30
0.0
 11
184.6503554597
 21
139.293759255
 31
0.0
  0
LINE
  5
127
330
1F
100
AcDbEntity
  8
0
  6
Continuous
 62
     7
370
    15
100
AcDbLine
 10
196.0550348142
 20
138.5297648589
 30
0.0
 11
196.0550348142
 21
78.9318152629
 31
0.0
  0
LINE
  5
128
330
1F
100
AcDbEntity
  8
0
  6
Continuous
 62
     7
370
    15
100
AcDbLine
 10
180.3893493892
 20
79.0954154941
 30
0.0
 11
180.3893493892
 21
138.3661646277
 31
0.0
  0
SPLINE
  5
129
330
1F
100
AcDbEntity
  8
0
  6
Continuous
 62
     7
370
    15
100
AcDbSpline
210
0.0
220
0.0
230
1.0
 70
     8
 71
     3
 72
    10
 73
     6
 74
     0
 42
0.000000001
 43
0.00000001
 40
0.0
 40
0.0
 40
0.0
 40
0.0
 40
0.5
 40
0.5
 40
1.0
 40
1.0
 40
1.0
 40
1.0
 10
180.2721921017148
 20
79.42485554200638
 30
0.0
 10
180.2721921017148
 20
79.36089640629243
 30
0.0
 10
180.2860264690123
 20
79.29931934285074
 30
0.0
 10
180.3281804556859
 20
79.1886667001329
 30
0.0
 10
180.3566737271591
 20
79.13896779168614
 30
0.0
 10
180.3893493892402
 20
79.09541549410024
 30
0.0
  0
SPLINE
  5
12A
330
1F
100
AcDbEntity
  8
0
  6
Continuous
 62
     7
370
    15
100
AcDbSpline
210
0.0
220
0.0
230
1.0
 70
    24
 71
     3
 72
    31
 73
    27
 74
     0
 42
0.000000001
 43
0.00000001
 40
0.0
 40
0.0
 40
0.0
 40
0.0
 40
0.0132844560939203
 40
0.0265558208794219
 40
0.0398179176704315
 40
0.0530745777997424
 40
0.0663296373144985
 40
0.0795869336512742
 40
0.0928503023051324
 40
0.1061235735070975
 40
0.1194105689243986
 40
0.1814480130394505
 40
0.2434985490104037
 40
0.307209694423994
 40
0.3709342849308351
 40
0.5000015820302116
 40
0.6290688791295881
 40
0.6927800250021223
 40
0.7565046159609023
 40
0.8185420607584538
 40
0.8805925974112725
 40
0.9044943877008195
 40
0.9283636577015204
 40
0.9522227648280811
 40
0.9760940950502643
 40
1.0
 40
1.0
 40
1.0
 40
1.0
 10
180.2721921017148
 20
79.42485554200638
 30
0.0
 10
180.2721921017148
 20
79.4752659238617
 30
0.0
 10
180.2721921017148
 20
79.57603701012586
 30
0.0
 10
180.2721921017148
 20
79.73779107573704
 30
0.0
 10
180.2721921017148
 20
79.90719134953471
 30
0.0
 10
180.2721921017148
 20
80.08500373128938
 30
0.0
 10
180.2721921017148
 20
80.27102304519101
 30
0.0
 10
180.2721921017148
 20
80.46530452965854
 30
0.0
 10
180.2721921017148
 20
80.66783202620634
 30
0.0
 10
180.2721921017148
 20
80.87861460685103
 30
0.0
 10
180.2721921017148
 20
81.36537030892204
 30
0.0
 10
180.2721921017148
 20
82.19827555697704
 30
0.0
 10
180.2721921017148
 20
83.50629452149582
 30
0.0
 10
180.2721921017148
 20
84.98977147573532
 30
0.0
 10
180.2721921017148
 20
87.21005037038655
 30
0.0
 10
180.2721921017148
 20
90.3743018448057
 30
0.0
 10
180.2721921017148
 20
93.95599306938901
 30
0.0
 10
180.2721921017148
 20
96.99554385127564
 30
0.0
 10
180.2721921017148
 20
99.3190110931498
 30
0.0
 10
180.2721921017148
 20
101.6821262925023
 30
0.0
 10
180.2721921017148
 20
103.5800355136133
 30
0.0
 10
180.2721921017148
 20
104.9998295673449
 30
0.0
 10
180.2721921017148
 20
105.9294245530646
 30
0.0
 10
180.2721921017148
 20
106.8612329310775
 30
0.0
 10
180.2721921017148
 20
107.7952713511214
 30
0.0
 10
180.2721921017148
 20
108.4188000822701
 30
0.0
 10
180.2721921017148
 20
108.7307900608997
 30
0.0
  0
SPLINE
  5
12B
330
1F
100
AcDbEntity
  8
0
  6
Continuous
 62
     7
370
    15
100
AcDbSpline
210
0.0
220
0.0
230
1.0
 70
    24
 71
     3
 72
    31
 73
    27
 74
     0
 42
0.000000001
 43
0.00000001
 40
0.0
 40
0.0
 40
0.0
 40
0.0
 40
0.0132844560931736
 40
0.0265558208781152
 40
0.0398179176687517
 40
0.0530745777978762
 40
0.0663296373126322
 40
0.0795869336495936
 40
0.0928503023038228
 40
0.1061235735063433
 40
0.1194105689243833
 40
0.1814480130365326
 40
0.2434985490103923
 40
0.3072096944238527
 40
0.3709342849308356
 40
0.5000015820302111
 40
0.6290688791295865
 40
0.6927800250010155
 40
0.7565046159609006
 40
0.8185420607578947
 40
0.8805925974112727
 40
0.9044943877007785
 40
0.9283636577014587
 40
0.9522227648280193
 40
0.976094095050223
 40
1.0
 40
1.0
 40
1.0
 40
1.0
 10
180.2721921017148
 20
108.7307900608997
 30
0.0
 10
180.2721921017148
 20
108.9041574961876
 30
0.0
 10
180.2721921017148
 20
109.2507215199845
 30
0.0
 10
180.2721921017148
 20
109.7702120732981
 30
0.0
 10
180.2721921017148
 20
110.2890409281626
 30
0.0
 10
180.2721921017148
 20
110.807208007025
 30
0.0
 10
180.2721921017148
 20
111.3247130382237
 30
0.0
 10
180.2721921017148
 20
111.8415564043388
 30
0.0
 10
180.2721921017148
 20
112.3577360660857
 30
0.0
 10
180.2721921017148
 20
112.8732590317296
 30
0.0
 10
180.2721921017148
 20
114.0174665437539
 30
0.0
 10
180.2721921017148
 20
115.7793020250837
 30
0.0
 10
180.2721921017148
 20
118.1422353598958
 30
0.0
 10
180.2721921017148
 20
120.4658739727744
 30
0.0
 10
180.2721921017148
 20
123.5054372851985
 30
0.0
 10
180.2721921017148
 20
127.0872785117603
 30
0.0
 10
180.2721921017148
 20
130.2513970209364
 30
0.0
 10
180.2721921017148
 20
132.4716984365703
 30
0.0
 10
180.2721921017148
 20
133.955086584152
 30
0.0
 10
180.2721921017148
 20
135.2632292364642
 30
0.0
 10
180.2721921017148
 20
136.1604704040801
 30
0.0
 10
180.2721921017148
 20
136.7550840255707
 30
0.0
 10
180.2721921017148
 20
137.1168836693398
 30
0.0
 10
180.2721921017148
 20
137.451428692421
 30
0.0
 10
180.2721921017148
 20
137.7612050748729
 30
0.0
 10
180.2721921017148
 20
137.9448404479701
 30
0.0
 10
180.2721921017148
 20
138.036724579793
 30
0.0
  0
SPLINE
  5
12C
330
1F
100
AcDbEntity
  8
0
  6
Continuous
 62
     7
370
    15
100
AcDbSpline
210
0.0
220
0.0
230
1.0
 70
     8
 71
     3
 72
    10
 73
     6
 74
     0
 42
0.000000001
 43
0.00000001
 40
0.0
 40
0.0
 40
0.0
 40
0.0
 40
0.5
 40
0.5
 40
1.0
 40
1.0
 40
1.0
 40
1.0
 10
180.3893493892402
 20
138.3661646276992
 30
0.0
 10
180.356694764311
 20
138.3226403698297
 30
0.0
 10
180.3287136498969
 20
138.2740782675461
 30
0.0
 10
180.2860674439615
 20
138.1625999599262
 30
0.0
 10
180.2721921017148
 20
138.1006286709604
 30
0.0
 10
180.2721921017148
 20
138.036724579793
 30
0.0
  0
SPLINE
  5
12D
330
1F
100
AcDbEntity
  8
0
  6
Continuous
 62
     7
370
    15
100
AcDbSpline
210
0.0
220
0.0
230
1.0
 70
     8
 71
     3
 72
     8
 73
     4
 74
     0
 42
0.000000001
 43
0.00000001
 40
0.0
 40
0.0
 40
0.0
 40
0.0
 40
1.0
 40
1.0
 40
1.0
 40
1.0
 10
196.0550348141894
 20
138.5297648589163
 30
0.0
 10
196.130577596468
 20
138.4515141486709
 30
0.0
 10
196.1721921017148
 20
138.3453949103719
 30
0.0
 10
196.1721921017148
 20
138.2366843538314
 30
0.0
  0
SPLINE
  5
12E
330
1F
100
AcDbEntity
  8
0
  6
Continuous
 62
     7
370
    15
100
AcDbSpline
210
0.0
220
0.0
230
1.0
 70
    24
 71
     3
 72
    31
 73
    27
 74
     0
 42
0.000000001
 43
0.00000001
 40
0.0
 40
0.0
 40
0.0
 40
0.0
 40
0.0132615204097968
 40
0.0265095377996707
 40
0.0397479976735972
 40
0.0529808540845518
 40
0.0662120661091751
 40
0.079445594299962
 40
0.0926853971308347
 40
0.1059354274520315
 40
0.1191996289701444
 40
0.1812172705063804
 40
0.2432482034156669
 40
0.3070054611615154
 40
0.3707758455973491
 40
0.5000016328884954
 40
0.6292274201796418
 40
0.6929846784062125
 40
0.756755063322089
 40
0.8187727037418453
 40
0.8808036357637741
 40
0.9046638208938186
 40
0.92849046716819
 40
0.9523066488125118
 40
0.9761354704521561
 40
1.0
 40
1.0
 40
1.0
 40
1.0
 10
196.1721921017148
 20
138.2366843538314
 30
0.0
 10
196.1721921017148
 20
138.1894417461735
 30
0.0
 10
196.1721921017148
 20
138.0950046337788
 30
0.0
 10
196.1721921017148
 20
137.9423114922706
 30
0.0
 10
196.1721921017148
 20
137.7816459388881
 30
0.0
 10
196.1721921017148
 20
137.6122108933486
 30
0.0
 10
196.1721921017148
 20
137.4342198753735
 30
0.0
 10
196.1721921017148
 20
137.2476154024247
 30
0.0
 10
196.1721921017148
 20
137.0524142796052
 30
0.0
 10
196.1721921017148
 20
136.8486071044333
 30
0.0
 10
196.1721921017148
 20
136.3761171836109
 30
0.0
 10
196.1721921017148
 20
135.5614970661545
 30
0.0
 10
196.1721921017148
 20
134.2696152752418
 30
0.0
 10
196.1721921017148
 20
132.7936470909202
 30
0.0
 10
196.1721921017148
 20
130.5709936400708
 30
0.0
 10
196.1721921017148
 20
127.3826383546113
 30
0.0
 10
196.1721921017148
 20
123.7531363519489
 30
0.0
 10
196.1721921017148
 20
120.6653643213715
 30
0.0
 10
196.1721921017148
 20
118.3032228173492
 30
0.0
 10
196.1721921017148
 20
115.8992740045888
 30
0.0
 10
196.1721921017148
 20
113.9683397777126
 30
0.0
 10
196.1721921017148
 20
112.5240098563233
 30
0.0
 10
196.1721921017148
 20
111.5790123971796
 30
0.0
 10
196.1721921017148
 20
110.6316872598771
 30
0.0
 10
196.1721921017148
 20
109.6820169594352
 30
0.0
 10
196.1721921017148
 20
109.0480239168151
 30
0.0
 10
196.1721921017148
 20
108.7307900608997
 30
0.0
  0
SPLINE
  5
12F
330
1F
100
AcDbEntity
  8
0
  6
Continuous
 62
     7
370
    15
100
AcDbSpline
210
0.0
220
0.0
230
1.0
 70
    24
 71
     3
 72
    31
 73
    27
 74
     0
 42
0.000000001
 43
0.00000001
 40
0.0
 40
0.0
 40
0.0
 40
0.0
 40
0.0132615204102289
 40
0.0265095378004267
 40
0.0397479976745689
 40
0.0529808540856311
 40
0.0662120661102543
 40
0.0794455943009333
 40
0.0926853971315909
 40
0.105935427452466
 40
0.1191996289701507
 40
0.1812172705070559
 40
0.2432482034156618
 40
0.3070054611628419
 40
0.3707758455973574
 40
0.5000016328885014
 40
0.6292274201796462
 40
0.6929846784074412
 40
0.756755063322104
 40
0.8187727037442042
 40
0.8808036357637825
 40
0.9046638208943639
 40
0.9284904671690046
 40
0.9523066488133262
 40
0.976135470452699
 40
1.0
 40
1.0
 40
1.0
 40
1.0
 10
196.1721921017148
 20
108.7307900608997
 30
0.0
 10
196.1721921017148
 20
108.5545081041926
 30
0.0
 10
196.1721921017148
 20
108.202123682927
 30
0.0
 10
196.1721921017148
 20
107.6739205533046
 30
0.0
 10
196.1721921017148
 20
107.1464126649216
 30
0.0
 10
196.1721921017148
 20
106.6196001033321
 30
0.0
 10
196.1721921017148
 20
106.0934831591012
 30
0.0
 10
196.1721921017148
 20
105.5680614339365
 30
0.0
 10
196.1721921017148
 20
105.0433370788027
 30
0.0
 10
196.1721921017148
 20
104.519302720647
 30
0.0
 10
196.1721921017148
 20
103.3551270276891
 30
0.0
 10
196.1721921017148
 20
101.5624620205528
 30
0.0
 10
196.1721921017148
 20
99.1586953476856
 30
0.0
 10
196.1721921017148
 20
96.79637666420221
 30
0.0
 10
196.1721921017148
 20
93.7085918162972
 30
0.0
 10
196.1721921017148
 20
90.0789415391364
 30
0.0
 10
196.1721921017148
 20
86.89071685837888
 30
0.0
 10
196.1721921017148
 20
84.66804045220796
 30
0.0
 10
196.1721921017148
 20
83.19216099965661
 30
0.0
 10
196.1721921017148
 20
81.90016023410269
 30
0.0
 10
196.1721921017148
 20
81.02269867161618
 30
0.0
 10
196.1721921017148
 20
80.4462756961263
 30
0.0
 10
196.1721921017148
 20
80.09778481278339
 30
0.0
 10
196.1721921017148
 20
79.77770807592593
 30
0.0
 10
196.1721921017148
 20
79.48345864971768
 30
0.0
 10
196.1721921017148
 20
79.31112640347672
 30
0.0
 10
196.1721921017148
 20
79.22489576796795
 30
0.0
  0
SPLINE
  5
130
330
1F
100
AcDbEntity
  8
0
  6
Continuous
 62
     7
370
    15
100
AcDbSpline
210
0.0
220
0.0
230
1.0
 70
     8
 71
     3
 72
     8
 73
     4
 74
     0
 42
0.000000001
 43
0.00000001
 40
0.0
 40
0.0
 40
0.0
 40
0.0
 40
1.0
 40
1.0
 40
1.0
 40
1.0
 10
196.0550348141894
 20
78.93181526288305
 30
0.0
 10
196.130577596468
 20
79.01006597312849
 30
0.0
 10
196.1721921017148
 20
79.11618521142753
 30
0.0
 10
196.1721921017148
 20
79.22489576796794
 30
0.0
  0
LINE
  5
131
330
1F
100
AcDbEntity
  8
0
  6
Continuous
 62
     7
370
    15
100
AcDbLine
 10
177.0721921017
 20
86.5057900609
 30
0.0
 11
177.0721921017
 21
130.9557900609
 31
0.0
  0
LINE
  5
132
330
1F
100
AcDbEntity
  8
0
  6
Continuous
 62
     7
370
    15
100
AcDbLine
 10
177.5547061588
 20
108.7307900609
 30
0.0
 11
177.5547061588
 21
130.7307900609
 31
0.0
  0
LINE
  5
133
330
1F
100
AcDbEntity
  8
0
  6
Continuous
 62
     7
370
    15
100
AcDbLine
 10
177.5547061588
 20
86.7307900609
 30
0.0
 11
177.5547061588
 21
108.7307900609
 31
0.0
  0
LINE
  5
134
330
1F
100
AcDbEntity
  8
0
  6
Continuous
 62
     7
370
    15
100
AcDbLine
 10
247.0721921017
 20
108.7307900609
 30
0.0
 11
247.0721921017
 21
127.2307900609
 31
0.0
  0
LINE
  5
135
330
1F
100
AcDbEntity
  8
0
  6
Continuous
 62
     7
370
    15
100
AcDbLine
 10
247.0721921017
 20
90.2307900609
 30
0.0
 11
247.0721921017
 21
108.7307900609
 31
0.0
  0
LINE
  5
136
330
1F
100
AcDbEntity
  8
0
  6
Continuous
 62
     7
370
    15
100
AcDbLine
 10
246.2061666979
 20
108.7307900609
 30
0.0
 11
246.2061666979
 21
128.7307900609
 31
0.0
  0
LINE
  5
137
330
1F
100
AcDbEntity
  8
0
  6
Continuous
 62
     7
370
    15
100
AcDbLine
 10
246.2061666979
 20
88.7307900609
 30
0.0
 11
246.2061666979
 21
108.7307900609
 31
0.0
  0
SPLINE
  5
138
330
1F
100
AcDbEntity
  8
0
  6
Continuous
 62
     7
370
    15
100
AcDbSpline
210
0.0
220
0.0
230
1.0
 70
    24
 71
     3
 72
    10
 73
     6
 74
     0
 42
0.000000001
 43
0.00000001
 40
0.0
 40
0.0
 40
0.0
 40
0.0
 40
0.4999999999999997
 40
0.4999999999999997
 40
0.9999999999999999
 40
0.9999999999999999
 40
0.9999999999999999
 40
0.9999999999999999
 10
108.6721921017148
 20
120.1159526505186
 30
0.0
 10
108.6721921017148
 20
120.1159526505186
 30
0.0
 10
108.6721921017148
 20
118.9163874670758
 30
0.0
 10
108.6721921017148
 20
114.6462439987853
 30
0.0
 10
108.6721921017148
 20
111.7502374639673
 30
0.0
 10
108.6721921017148
 20
108.7307900608997
 30
0.0
  0
SPLINE
  5
139
330
1F
100
AcDbEntity
  8
0
  6
Continuous
 62
     7
370
    15
100
AcDbSpline
210
0.0
220
0.0
230
1.0
 70
    24
 71
     3
 72
    10
 73
     6
 74
     0
 42
0.000000001
 43
0.00000001
 40
0.0
 40
0.0
 40
0.0
 40
0.0
 40
0.4999999999999999
 40
0.4999999999999999
 40
0.9999999999999999
 40
0.9999999999999999
 40
0.9999999999999999
 40
0.9999999999999999
 10
108.6721921017148
 20
108.7307900608997
 30
0.0
 10
108.6721921017148
 20
105.711342657832
 30
0.0
 10
108.6721921017148
 20
102.8153361230139
 30
0.0
 10
108.6721921017148
 20
98.54519265472345
 30
0.0
 10
108.6721921017148
 20
97.34562747128068
 30
0.0
 10
108.6721921017148
 20
97.34562747128076
 30
0.0
  0
LINE
  5
13A
330
1F
100
AcDbEntity
  8
0
  6
Continuous
 62
     7
370
    15
100
AcDbLine
 10
180.2721921017
 20
139.315104636
 30
0.0
 11
180.2721921017
 21
138.0367245798
 31
0.0
  0
LINE
  5
13B
330
1F
100
AcDbEntity
  8
0
  6
Continuous
 62
     7
370
    15
100
AcDbLine
 10
180.2721921017
 20
79.424855542
 30
0.0
 11
180.2721921017
 21
78.1464754858
 31
0.0
  0
LINE
  5
13C
330
1F
100
AcDbEntity
  8
0
  6
Continuous
 62
     7
370
    15
100
AcDbLine
 10
196.1721921017
 20
79.224895768
 30
0.0
 11
196.1721921017
 21
78.1464754858
 31
0.0
  0
LINE
  5
13D
330
1F
100
AcDbEntity
  8
0
  6
Continuous
 62
     7
370
    15
100
AcDbLine
 10
196.1721921017
 20
139.315104636
 30
0.0
 11
196.1721921017
 21
138.2366843538
 31
0.0
  0
LINE
  5
13E
330
1F
100
AcDbEntity
  8
0
  6
Continuous
 62
     8
370
    15
100
AcDbLine
 10
195.0065066768
 20
140.4807900609
 30
0.0
 11
195.0065066768
 21
139.293759255
 31
0.0
  0
LINE
  5
13F
330
1F
100
AcDbEntity
  8
0
  6
Continuous
 62
     8
370
    15
100
AcDbLine
 10
195.0065066768
 20
78.2011225735
 30
0.0
 11
195.0065066768
 21
76.9807900609
 31
0.0
  0
LINE
  5
140
330
1F
100
AcDbEntity
  8
0
  6
Continuous
 62
     8
370
    15
100
AcDbLine
 10
181.4378775267
 20
140.4807900609
 30
0.0
 11
181.4378775267
 21
139.293759255
 31
0.0
  0
LINE
  5
141
330
1F
100
AcDbEntity
  8
0
  6
Continuous
 62
     8
370
    15
100
AcDbLine
 10
181.4378775267
 20
78.2011225735
 30
0.0
 11
181.4378775267
 21
76.9807900609
 31
0.0
  0
LINE
  5
142
330
1F
100
AcDbEntity
  8
0
  6
Continuous
 62
     8
370
    15
100
AcDbLine
 10
196.0550348142
 20
139.5979473484
 30
0.0
 11
196.0550348142
 21
138.5297648589
 31
0.0
  0
LINE
  5
143
330
1F
100
AcDbEntity
  8
0
  6
Continuous
 62
     8
370
    15
100
AcDbLine
 10
196.0550348142
 20
78.9318152629
 30
0.0
 11
196.0550348142
 21
77.8636327734
 31
0.0
  0
LINE
  5
144
330
1F
100
AcDbEntity
  8
0
  6
Continuous
 62
     8
370
    15
100
AcDbLine
 10
195.2893493892
 20
140.3636327734
 30
0.0
 11
195.2893493892
 21
139.1987237708
 31
0.0
  0
LINE
  5
145
330
1F
100
AcDbEntity
  8
0
  6
Continuous
 62
     8
370
    15
100
AcDbLine
 10
195.2893493892
 20
78.2831207615
 30
0.0
 11
195.2893493892
 21
77.0979473484
 31
0.0
  0
LINE
  5
146
330
1F
100
AcDbEntity
  8
0
  6
Continuous
 62
     8
370
    15
100
AcDbLine
 10
180.3893493892
 20
79.0954154941
 30
0.0
 11
180.3893493892
 21
77.8636327734
 31
0.0
  0
LINE
  5
147
330
1F
100
AcDbEntity
  8
0
  6
Continuous
 62
     8
370
    15
100
AcDbLine
 10
180.3893493892
 20
139.5979473484
 30
0.0
 11
180.3893493892
 21
138.3661646277
 31
0.0
  0
LINE
  5
148
330
1F
100
AcDbEntity
  8
0
  6
Continuous
 62
     8
370
    15
100
AcDbLine
 10
181.1550348142
 20
140.3636327734
 30
0.0
 11
181.1550348142
 21
139.1987237708
 31
0.0
  0
LINE
  5
149
330
1F
100
AcDbEntity
  8
0
  6
Continuous
 62
     8
370
    15
100
AcDbLine
 10
181.1550348142
 20
78.2831207615
 30
0.0
 11
181.1550348142
 21
77.0979473484
 31
0.0
  0
LINE
  5
14A
330
1F
100
AcDbEntity
  8
0
  6
Continuous
 62
     8
370
    15
100
AcDbLine
 10
179.8721921017
 20
108.7307900609
 30
0.0
 11
179.8721921017
 21
130.7307900609
 31
0.0
  0
LINE
  5
14B
330
1F
100
AcDbEntity
  8
0
  6
Continuous
 62
     8
370
    15
100
AcDbLine
 10
179.8721921017
 20
86.7307900609
 30
0.0
 11
179.8721921017
 21
108.7307900609
 31
0.0
  0
LINE
  5
14C
330
1F
100
AcDbEntity
  8
0
  6
Continuous
 62
     8
370
    15
100
AcDbLine
 10
109.5278838744
 20
121.105485437
 30
0.0
 11
109.5278838744
 21
96.3560946848
 31
0.0
  0
LINE
  5
14D
330
1F
100
AcDbEntity
  8
0
  6
Continuous
 62
     8
370
    15
100
AcDbLine
 10
198.1721921017
 20
128.7307900609
 30
0.0
 11
198.1721921017
 21
88.7307900609
 31
0.0
  0
DIMENSION
  5
14E
330
1F
100
AcDbEntity
  8
DIM
100
AcDbDimension
  2
_D
 10
254.5831497286
 20
88.7307900609
 30
0.0
 11
254.5831497286
 21
108.7307900609
 31
0.0
 70
   160
  1
%%c<>
 71
     2
 42
-1.0
  3
SLDDIMSTYLE0
100
AcDbAlignedDimension
 13
246.2061666979
 23
128.7307900609
 33
0.0
 14
246.2061666979
 24
88.7307900609
 34
0.0
 50
90.0
100
AcDbRotatedDimension
  0
DIMENSION
  5
15A
330
1F
100
AcDbEntity
  8
DIM
100
AcDbDimension
  2
_D_1
 10
101.7160013605
 20
76.9807900609
 30
0.0
 11
101.7160013605
 21
108.7307900609
 31
0.0
 70
   160
  1
%%c<>
 71
     2
 42
-1.0
  3
SLDDIMSTYLE1
100
AcDbAlignedDimension
 13
181.4378775267
 23
140.4807900609
 33
0.0
 14
181.4378775267
 24
76.9807900609
 34
0.0
 50
90.0
100
AcDbRotatedDimension
  0
DIMENSION
  5
166
330
1F
100
AcDbEntity
  8
DIM
100
AcDbDimension
  2
_D_2
 10
247.0721921017
 20
58.2837003178
 30
0.0
 11
177.8721921017
 21
58.2837003178
 31
0.0
 70
   160
  1
<>
 71
     2
 42
-1.0
  3
SLDDIMSTYLE1
100
AcDbAlignedDimension
 13
108.6721921017
 23
108.7307900609
 33
0.0
 14
247.0721921017
 24
90.2307900609
 34
0.0
 50
0.0
100
AcDbRotatedDimension
  0
DIMENSION
  5
170
330
1F
100
AcDbEntity
  8
DIM
100
AcDbDimension
  2
_D_3
 10
247.0721921017
 20
66.5424393548
 30
0.0
 11
212.0721921017
 21
66.5424393548
 31
0.0
 70
   160
  1
<>
 71
     2
 42
-1.0
  3
SLDDIMSTYLE0
100
AcDbAlignedDimension
 13
177.0721921017
 23
86.5057900609
 33
0.0
 14
247.0721921017
 24
90.2307900609
 34
0.0
100
AcDbRotatedDimension
  0
LINE
  5
17A
330
1F
100
AcDbEntity
  8
DIM
  6
CENTERX2
370
     0
100
AcDbLine
 10
109.233058906
 20
108.7307900609
 30
0.0
 11
246.034036748
 21
108.7307900609
 31
0.0
  0
ENDSEC
  0
SECTION
  2
OBJECTS
  0
DICTIONARY
  5
C
330
0
100
AcDbDictionary
281
     1
  3
ACAD_GROUP
350
D
  3
ACAD_LAYOUT
350
1A
  3
ACAD_MLINESTYLE
350
17
  3
ACAD_PLOTSETTINGS
350
19
  3
ACAD_PLOTSTYLENAME
350
E
  3
ACAD_SCALELIST
350
47
  0
DICTIONARY
  5
D
102
{ACAD_REACTORS
330
C
102
}
330
C
100
AcDbDictionary
281
     1
  0
DICTIONARY
  5
1A
102
{ACAD_REACTORS
330
C
102
}
330
C
100
AcDbDictionary
281
     1
  3
Layout1
350
1E
  3
Layout2
350
26
  3
Model
350
22
  0
DICTIONARY
  5
17
102
{ACAD_REACTORS
330
C
102
}
330
C
100
AcDbDictionary
281
     1
  3
Standard
350
18
  0
DICTIONARY
  5
19
102
{ACAD_REACTORS
330
C
102
}
330
C
100
AcDbDictionary
281
     1
  0
ACDBDICTIONARYWDFLT
  5
E
102
{ACAD_REACTORS
330
C
102
}
330
C
100
AcDbDictionary
281
     1
  3
Normal
350
F
100
AcDbDictionaryWithDefault
340
F
  0
DICTIONARY
  5
47
102
{ACAD_REACTORS
330
C
102
}
330
C
100
AcDbDictionary
281
     1
  3
A0
350
48
  3
A1
350
49
  3
A2
350
4A
  3
A3
350
4B
  3
A4
350
4C
  3
A5
350
4D
  3
A6
350
4E
  3
A7
350
4F
  3
A8
350
50
  3
A9
350
51
  3
B0
350
52
  3
B1
350
53
  3
B2
350
54
  3
B3
350
55
  3
B4
350
56
  3
B5
350
57
  3
B6
350
58
  3
B7
350
59
  3
B8
350
5A
  3
B9
350
5B
  3
C0
350
5C
  3
C1
350
5D
  3
C2
350
5E
  3
C3
350
5F
  3
C4
350
60
  3
C5
350
61
  3
C6
350
62
  3
C7
350
63
  3
C8
350
64
  3
C9
350
65
  3
D0
350
66
  3
D1
350
67
  3
D2
350
68
  0
LAYOUT
  5
1E
102
{ACAD_REACTORS
330
1A
102
}
330
1A
100
AcDbPlotSettings
  1

  2
none_device
  4

  6

 40
0.0
 41
0.0
 42
0.0
 43
0.0
 44
0.0
 45
0.0
 46
0.0
 47
0.0
 48
0.0
 49
0.0
140
0.0
141
0.0
142
1.0
143
1.0
 70
   688
 72
     1
 73
     0
 74
     5
  7

 75
    16
147
1.0
148
0.0
149
0.0
100
AcDbLayout
  1
Layout1
 70
     1
 71
     1
 10
0.0
 20
0.0
 11
420.0
 21
297.0
 12
0.0
 22
0.0
 32
0.0
 14
1.0000000000E+20
 24
1.0000000000E+20
 34
1.0000000000E+20
 15
-1.0000000000E+20
 25
-1.0000000000E+20
 35
-1.0000000000E+20
146
0.0
 13
0.0
 23
0.0
 33
0.0
 16
1.0
 26
0.0
 36
0.0
 17
0.0
 27
1.0
 37
0.0
 76
     0
330
1B
  0
LAYOUT
  5
26
102
{ACAD_REACTORS
330
1A
102
}
330
1A
100
AcDbPlotSettings
  1

  2
none_device
  4

  6

 40
0.0
 41
0.0
 42
0.0
 43
0.0
 44
0.0
 45
0.0
 46
0.0
 47
0.0
 48
0.0
 49
0.0
140
0.0
141
0.0
142
1.0
143
1.0
 70
   688
 72
     1
 73
     0
 74
     5
  7

 75
    16
147
1.0
148
0.0
149
0.0
100
AcDbLayout
  1
Layout2
 70
     1
 71
     2
 10
0.0
 20
0.0
 11
0.0
 21
0.0
 12
0.0
 22
0.0
 32
0.0
 14
0.0
 24
0.0
 34
0.0
 15
0.0
 25
0.0
 35
0.0
146
0.0
 13
0.0
 23
0.0
 33
0.0
 16
1.0
 26
0.0
 36
0.0
 17
0.0
 27
1.0
 37
0.0
 76
     0
330
23
  0
LAYOUT
  5
22
102
{ACAD_REACTORS
330
1A
102
}
330
1A
100
AcDbPlotSettings
  1

  2
none_device
  4
Letter_(8.50_x_11.00_Inches)
  6

 40
6.35
 41
6.35
 42
6.35000508
 43
6.35000508
 44
215.9
 45
279.4
 46
0.0
 47
0.0
 48
0.0
 49
0.0
140
0.0
141
0.0
142
1.0
143
1.0
 70
  1712
 72
     1
 73
     0
 74
     0
  7

 75
     0
147
1.0
148
0.0
149
0.0
100
AcDbLayout
  1
Model
 70
     1
 71
     0
 10
0.0
 20
0.0
 11
297.0
 21
210.0
 12
0.0
 22
0.0
 32
0.0
 14
0.0
 24
0.0
 34
0.0
 15
297.0
 25
210.0
 35
0.0
146
0.0
 13
0.0
 23
0.0
 33
0.0
 16
1.0
 26
0.0
 36
0.0
 17
0.0
 27
1.0
 37
0.0
 76
     0
330
1F
331
29
  0
MLINESTYLE
  5
18
102
{ACAD_REACTORS
330
17
102
}
330
17
100
AcDbMlineStyle
  2
Standard
 70
     0
  3

 62
   256
 51
90.0
 52
90.0
 71
     2
 49
0.5
 62
   256
  6
BYLAYER
 49
-0.5
 62
   256
  6
BYLAYER
  0
ACDBPLACEHOLDER
  5
F
102
{ACAD_REACTORS
330
E
102
}
330
E
  0
SCALE
  5
48
102
{ACAD_REACTORS
330
47
102
}
330
47
100
AcDbScale
 70
     0
300
1:1
140
1.0
141
1.0
290
     1
  0
SCALE
  5
49
102
{ACAD_REACTORS
330
47
102
}
330
47
100
AcDbScale
 70
     0
300
1:2
140
1.0
141
2.0
290
     0
  0
SCALE
  5
4A
102
{ACAD_REACTORS
330
47
102
}
330
47
100
AcDbScale
 70
     0
300
1:4
140
1.0
141
4.0
290
     0
  0
SCALE
  5
4B
102
{ACAD_REACTORS
330
47
102
}
330
47
100
AcDbScale
 70
     0
300
1:5
140
1.0
141
5.0
290
     0
  0
SCALE
  5
4C
102
{ACAD_REACTORS
330
47
102
}
330
47
100
AcDbScale
 70
     0
300
1:8
140
1.0
141
8.0
290
     0
  0
SCALE
  5
4D
102
{ACAD_REACTORS
330
47
102
}
330
47
100
AcDbScale
 70
     0
300
1:10
140
1.0
141
10.0
290
     0
  0
SCALE
  5
4E
102
{ACAD_REACTORS
330
47
102
}
330
47
100
AcDbScale
 70
     0
300
1:16
140
1.0
141
16.0
290
     0
  0
SCALE
  5
4F
102
{ACAD_REACTORS
330
47
102
}
330
47
100
AcDbScale
 70
     0
300
1:20
140
1.0
141
20.0
290
     0
  0
SCALE
  5
50
102
{ACAD_REACTORS
330
47
102
}
330
47
100
AcDbScale
 70
     0
300
1:30
140
1.0
141
30.0
290
     0
  0
SCALE
  5
51
102
{ACAD_REACTORS
330
47
102
}
330
47
100
AcDbScale
 70
     0
300
1:40
140
1.0
141
40.0
290
     0
  0
SCALE
  5
52
102
{ACAD_REACTORS
330
47
102
}
330
47
100
AcDbScale
 70
     0
300
1:50
140
1.0
141
50.0
290
     0
  0
SCALE
  5
53
102
{ACAD_REACTORS
330
47
102
}
330
47
100
AcDbScale
 70
     0
300
1:100
140
1.0
141
100.0
290
     0
  0
SCALE
  5
54
102
{ACAD_REACTORS
330
47
102
}
330
47
100
AcDbScale
 70
     0
300
2:1
140
2.0
141
1.0
290
     0
  0
SCALE
  5
55
102
{ACAD_REACTORS
330
47
102
}
330
47
100
AcDbScale
 70
     0
300
4:1
140
4.0
141
1.0
290
     0
  0
SCALE
  5
56
102
{ACAD_REACTORS
330
47
102
}
330
47
100
AcDbScale
 70
     0
300
8:1
140
8.0
141
1.0
290
     0
  0
SCALE
  5
57
102
{ACAD_REACTORS
330
47
102
}
330
47
100
AcDbScale
 70
     0
300
10:1
140
10.0
141
1.0
290
     0
  0
SCALE
  5
58
102
{ACAD_REACTORS
330
47
102
}
330
47
100
AcDbScale
 70
     0
300
100:1
140
100.0
141
1.0
290
     0
  0
SCALE
  5
59
102
{ACAD_REACTORS
330
47
102
}
330
47
100
AcDbScale
 70
     0
300
1/128" = 1'-0"
140
0.0078125
141
12.0
290
     0
  0
SCALE
  5
5A
102
{ACAD_REACTORS
330
47
102
}
330
47
100
AcDbScale
 70
     0
300
1/64" = 1'-0"
140
0.015625
141
12.0
290
     0
  0
SCALE
  5
5B
102
{ACAD_REACTORS
330
47
102
}
330
47
100
AcDbScale
 70
     0
300
1/32" = 1'-0"
140
0.03125
141
12.0
290
     0
  0
SCALE
  5
5C
102
{ACAD_REACTORS
330
47
102
}
330
47
100
AcDbScale
 70
     0
300
1/16" = 1'-0"
140
0.0625
141
12.0
290
     0
  0
SCALE
  5
5D
102
{ACAD_REACTORS
330
47
102
}
330
47
100
AcDbScale
 70
     0
300
3/32" = 1'-0"
140
0.09375
141
12.0
290
     0
  0
SCALE
  5
5E
102
{ACAD_REACTORS
330
47
102
}
330
47
100
AcDbScale
 70
     0
300
1/8" = 1'-0"
140
0.125
141
12.0
290
     0
  0
SCALE
  5
5F
102
{ACAD_REACTORS
330
47
102
}
330
47
100
AcDbScale
 70
     0
300
3/16" = 1'-0"
140
0.1875
141
12.0
290
     0
  0
SCALE
  5
60
102
{ACAD_REACTORS
330
47
102
}
330
47
100
AcDbScale
 70
     0
300
1/4" = 1'-0"
140
0.25
141
12.0
290
     0
  0
SCALE
  5
61
102
{ACAD_REACTORS
330
47
102
}
330
47
100
AcDbScale
 70
     0
300
3/8" = 1'-0"
140
0.375
141
12.0
290
     0
  0
SCALE
  5
62
102
{ACAD_REACTORS
330
47
102
}
330
47
100
AcDbScale
 70
     0
300
1/2" = 1'-0"
140
0.5
141
12.0
290
     0
  0
SCALE
  5
63
102
{ACAD_REACTORS
330
47
102
}
330
47
100
AcDbScale
 70
     0
300
3/4" = 1'-0"
140
0.75
141
12.0
290
     0
  0
SCALE
  5
64
102
{ACAD_REACTORS
330
47
102
}
330
47
100
AcDbScale
 70
     0
300
1" = 1'-0"
140
1.0
141
12.0
290
     0
  0
SCALE
  5
65
102
{ACAD_REACTORS
330
47
102
}
330
47
100
AcDbScale
 70
     0
300
1-1/2" = 1'-0"
140
1.5
141
12.0
290
     0
  0
SCALE
  5
66
102
{ACAD_REACTORS
330
47
102
}
330
47
100
AcDbScale
 70
     0
300
3" = 1'-0"
140
3.0
141
12.0
290
     0
  0
SCALE
  5
67
102
{ACAD_REACTORS
330
47
102
}
330
47
100
AcDbScale
 70
     0
300
6" = 1'-0"
140
6.0
141
12.0
290
     0
  0
SCALE
  5
68
102
{ACAD_REACTORS
330
47
102
}
330
47
100
AcDbScale
 70
     0
300
1'-0" = 1'-0"
140
12.0
141
12.0
290
     0
  0
ENDSEC
  0
EOF
