  0
SECTION
  2
HEADER
  9
$ACADVER
  1
AC1015
  9
$ACADMAINTVER
 70
     6
  9
$DWGCODEPAGE
  3
ANSI_1252
  9
$INSBASE
 10
0.0
 20
0.0
 30
0.0
  9
$EXTMIN
 10
0.0
 20
0.0
 30
0.0
  9
$EXTMAX
 10
371.25
 20
262.5
 30
0.0
  9
$LIMMIN
 10
0.0
 20
0.0
  9
$LIMMAX
 10
371.25
 20
262.5
  9
$ORTHOMODE
 70
     0
  9
$REGENMODE
 70
     1
  9
$FILLMODE
 70
     1
  9
$QTEXTMODE
 70
     0
  9
$MIRRTEXT
 70
     1
  9
$LTSCALE
 40
1.25
  9
$ATTMODE
 70
     1
  9
$TEXTSIZE
 40
4.8506944444
  9
$TRACEWID
 40
1.0
  9
$TEXTSTYLE
  7
Standard
  9
$CLAYER
  8
0
  9
$CELTYPE
  6
ByLayer
  9
$CECOLOR
 62
   256
  9
$CELTSCALE
 40
1.0
  9
$DISPSILH
 70
     0
  9
$DIMSCALE
 40
1.0
  9
$DIMASZ
 40
4.1275
  9
$DIMEXO
 40
1.25
  9
$DIMDLI
 40
3.75
  9
$DIMRND
 40
0.0
  9
$DIMDLE
 40
0.0
  9
$DIMEXE
 40
1.25
  9
$DIMTP
 40
0.0
  9
$DIMTM
 40
0.0
  9
$DIMTXT
 40
4.8506944444
  9
$DIMCEN
 40
2.5
  9
$DIMTSZ
 40
0.0
  9
$DIMTOL
 70
     0
  9
$DIMLIM
 70
     0
  9
$DIMTIH
 70
     1
  9
$DIMTOH
 70
     1
  9
$DIMSE1
 70
     0
  9
$DIMSE2
 70
     0
  9
$DIMTAD
 70
     1
  9
$DIMZIN
 70
     0
  9
$DIMBLK
  1

  9
$DIMASO
 70
     1
  9
$DIMSHO
 70
     1
  9
$DIMPOST
  1

  9
$DIMAPOST
  1

  9
$DIMALT
 70
     0
  9
$DIMALTD
 70
     3
  9
$DIMALTF
 40
0.0393700787
  9
$DIMLFAC
 40
1.0
  9
$DIMTOFL
 70
     1
  9
$DIMTVP
 40
0.0
  9
$DIMTIX
 70
     0
  9
$DIMSOXD
 70
     0
  9
$DIMSAH
 70
     0
  9
$DIMBLK1
  1

  9
$DIMBLK2
  1

  9
$DIMSTYLE
  2
ISO-25
  9
$DIMCLRD
 70
     0
  9
$DIMCLRE
 70
     0
  9
$DIMCLRT
 70
     0
  9
$DIMTFAC
 40
1.0
  9
$DIMGAP
 40
1.905
  9
$DIMJUST
 70
     0
  9
$DIMSD1
 70
     0
  9
$DIMSD2
 70
     0
  9
$DIMTOLJ
 70
     0
  9
$DIMTZIN
 70
     0
  9
$DIMALTZ
 70
     0
  9
$DIMALTTZ
 70
     0
  9
$DIMUPT
 70
     0
  9
$DIMDEC
 70
     2
  9
$DIMTDEC
 70
     2
  9
$DIMALTU
 70
     2
  9
$DIMALTTD
 70
     3
  9
$DIMTXSTY
  7
Standard
  9
$DIMAUNIT
 70
     0
  9
$DIMADEC
 70
     2
  9
$DIMALTRND
 40
0.0
  9
$DIMAZIN
 70
     0
  9
$DIMDSEP
 70
    44
  9
$DIMATFIT
 70
     3
  9
$DIMFRAC
 70
     0
  9
$DIMLDRBLK
  1

  9
$DIMLUNIT
 70
     2
  9
$DIMLWD
 70
    -2
  9
$DIMLWE
 70
    -2
  9
$DIMTMOVE
 70
     0
  9
$LUNITS
 70
     2
  9
$LUPREC
 70
     2
  9
$SKETCHINC
 40
1.0
  9
$FILLETRAD
 40
10.0
  9
$AUNITS
 70
     1
  9
$AUPREC
 70
     2
  9
$MENU
  1
.
  9
$ELEVATION
 40
0.0
  9
$PELEVATION
 40
0.0
  9
$THICKNESS
 40
0.0
  9
$LIMCHECK
 70
     0
  9
$CHAMFERA
 40
0.0
  9
$CHAMFERB
 40
0.0
  9
$CHAMFERC
 40
0.0
  9
$CHAMFERD
 40
0.0
  9
$SKPOLY
 70
     0
  9
$TDCREATE
 40
2458601.53113522
  9
$TDUCREATE
 40
2458601.301968553
  9
$TDUPDATE
 40
2458601.531136146
  9
$TDUUPDATE
 40
2458601.301969479
  9
$TDINDWG
 40
0.0000000116
  9
$TDUSRTIMER
 40
0.0000000116
  9
$USRTIMER
 70
     1
  9
$ANGBASE
 50
0.0
  9
$ANGDIR
 70
     0
  9
$PDMODE
 70
     0
  9
$PDSIZE
 40
-1.0
  9
$PLINEWID
 40
0.0
  9
$SPLFRAME
 70
     0
  9
$SPLINETYPE
 70
     6
  9
$SPLINESEGS
 70
     8
  9
$HANDSEED
  5
141
  9
$SURFTAB1
 70
     6
  9
$SURFTAB2
 70
     6
  9
$SURFTYPE
 70
     6
  9
$SURFU
 70
     6
  9
$SURFV
 70
     6
  9
$UCSBASE
  2

  9
$UCSNAME
  2

  9
$UCSORG
 10
0.0
 20
0.0
 30
0.0
  9
$UCSXDIR
 10
1.0
 20
0.0
 30
0.0
  9
$UCSYDIR
 10
0.0
 20
1.0
 30
0.0
  9
$UCSORTHOREF
  2

  9
$UCSORTHOVIEW
 70
     0
  9
$UCSORGTOP
 10
0.0
 20
0.0
 30
0.0
  9
$UCSORGBOTTOM
 10
0.0
 20
0.0
 30
0.0
  9
$UCSORGLEFT
 10
0.0
 20
0.0
 30
0.0
  9
$UCSORGRIGHT
 10
0.0
 20
0.0
 30
0.0
  9
$UCSORGFRONT
 10
0.0
 20
0.0
 30
0.0
  9
$UCSORGBACK
 10
0.0
 20
0.0
 30
0.0
  9
$PUCSBASE
  2

  9
$PUCSNAME
  2

  9
$PUCSORG
 10
0.0
 20
0.0
 30
0.0
  9
$PUCSXDIR
 10
1.0
 20
0.0
 30
0.0
  9
$PUCSYDIR
 10
0.0
 20
1.0
 30
0.0
  9
$PUCSORTHOREF
  2

  9
$PUCSORTHOVIEW
 70
     0
  9
$PUCSORGTOP
 10
0.0
 20
0.0
 30
0.0
  9
$PUCSORGBOTTOM
 10
0.0
 20
0.0
 30
0.0
  9
$PUCSORGLEFT
 10
0.0
 20
0.0
 30
0.0
  9
$PUCSORGRIGHT
 10
0.0
 20
0.0
 30
0.0
  9
$PUCSORGFRONT
 10
0.0
 20
0.0
 30
0.0
  9
$PUCSORGBACK
 10
0.0
 20
0.0
 30
0.0
  9
$USERI1
 70
     0
  9
$USERI2
 70
     0
  9
$USERI3
 70
     0
  9
$USERI4
 70
     0
  9
$USERI5
 70
     0
  9
$USERR1
 40
0.0
  9
$USERR2
 40
0.0
  9
$USERR3
 40
0.0
  9
$USERR4
 40
0.0
  9
$USERR5
 40
0.0
  9
$WORLDVIEW
 70
     1
  9
$SHADEDGE
 70
     3
  9
$SHADEDIF
 70
    70
  9
$TILEMODE
 70
     1
  9
$MAXACTVP
 70
    64
  9
$PINSBASE
 10
0.0
 20
0.0
 30
0.0
  9
$PLIMCHECK
 70
     0
  9
$PEXTMIN
 10
1.0000000000E+20
 20
1.0000000000E+20
 30
1.0000000000E+20
  9
$PEXTMAX
 10
-1.0000000000E+20
 20
-1.0000000000E+20
 30
-1.0000000000E+20
  9
$PLIMMIN
 10
0.0
 20
0.0
  9
$PLIMMAX
 10
420.0
 20
297.0
  9
$UNITMODE
 70
     0
  9
$VISRETAIN
 70
     1
  9
$PLINEGEN
 70
     0
  9
$PSLTSCALE
 70
     1
  9
$TREEDEPTH
 70
  3020
  9
$CMLSTYLE
  2
Standard
  9
$CMLJUST
 70
     0
  9
$CMLSCALE
 40
20.0
  9
$PROXYGRAPHICS
 70
     1
  9
$MEASUREMENT
 70
     1
  9
$CELWEIGHT
370
    -1
  9
$ENDCAPS
280
     0
  9
$JOINSTYLE
280
     0
  9
$LWDISPLAY
290
     1
  9
$INSUNITS
 70
     4
  9
$HYPERLINKBASE
  1

  9
$STYLESHEET
  1

  9
$XEDIT
290
     1
  9
$CEPSNTYPE
380
     0
  9
$PSTYLEMODE
290
     1
  9
$FINGERPRINTGUID
  2
{6471A0C4-45F7-4653-AAFE-ED34F276B0B3}
  9
$VERSIONGUID
  2
{FAEB1C32-E019-11D5-929B-00C0DF256EC4}
  9
$EXTNAMES
290
     1
  9
$PSVPSCALE
 40
0.0
  9
$OLESTARTUP
290
     0
  0
ENDSEC
  0
SECTION
  2
CLASSES
  0
CLASS
  1
ACDBDICTIONARYWDFLT
  2
AcDbDictionaryWithDefault
  3
ObjectDBX Classes
 90
        0
280
     0
281
     0
  0
CLASS
  1
VISUALSTYLE
  2
AcDbVisualStyle
  3
ObjectDBX Classes
 90
     4095
280
     0
281
     0
  0
CLASS
  1
MATERIAL
  2
AcDbMaterial
  3
ObjectDBX Classes
 90
     1153
280
     0
281
     0
  0
CLASS
  1
SCALE
  2
AcDbScale
  3
ObjectDBX Classes
 90
     1153
280
     0
281
     0
  0
CLASS
  1
SUN
  2
AcDbSun
  3
SCENEOE
 90
     1153
280
     0
281
     0
  0
CLASS
  1
ACDBPLACEHOLDER
  2
AcDbPlaceHolder
  3
ObjectDBX Classes
 90
        0
280
     0
281
     0
  0
CLASS
  1
LAYOUT
  2
AcDbLayout
  3
ObjectDBX Classes
 90
        0
280
     0
281
     0
  0
ENDSEC
  0
SECTION
  2
TABLES
  0
TABLE
  2
VPORT
  5
8
330
0
100
AcDbSymbolTable
 70
     1
  0
VPORT
  5
29
330
8
100
AcDbSymbolTableRecord
100
AcDbViewportTableRecord
  2
*Active
 70
     0
 10
0.0
 20
0.0
 11
1.0
 21
1.0
 12
185.625
 22
131.25
 13
0.0
 23
0.0
 14
10.0
 24
10.0
 15
10.0
 25
10.0
 16
0.0
 26
0.0
 36
1.0
 17
0.0
 27
0.0
 37
0.0
 40
262.5
 41
1.4142857143
 42
50.0
 43
0.0
 44
0.0
 50
0.0
 51
0.0
 71
     0
 72
  2000
 73
     1
 74
     3
 75
     0
 76
     0
 77
     0
 78
     0
281
     0
 65
     1
110
0.0
120
0.0
130
0.0
111
1.0
121
0.0
131
0.0
112
0.0
122
1.0
132
0.0
 79
     0
146
0.0
  0
ENDTAB
  0
TABLE
  2
LTYPE
  5
5
330
0
100
AcDbSymbolTable
 70
     6
  0
LTYPE
  5
14
330
5
100
AcDbSymbolTableRecord
100
AcDbLinetypeTableRecord
  2
ByBlock
 70
     0
  3

 72
    65
 73
     0
 40
0.0
  0
LTYPE
  5
15
330
5
100
AcDbSymbolTableRecord
100
AcDbLinetypeTableRecord
  2
ByLayer
 70
     0
  3

 72
    65
 73
     0
 40
0.0
  0
LTYPE
  5
16
330
5
100
AcDbSymbolTableRecord
100
AcDbLinetypeTableRecord
  2
Continuous
 70
     0
  3
Solid line
 72
    65
 73
     0
 40
0.0
  0
LTYPE
  5
6A
330
5
100
AcDbSymbolTableRecord
100
AcDbLinetypeTableRecord
  2
HIDDEN
 70
     0
  3
Hidden __ __ __ __ __ __ __ __ __ __ __ __ __ __
 72
    65
 73
     2
 40
1.905
 49
1.27
 74
     0
 49
-0.635
 74
     0
  0
LTYPE
  5
6B
330
5
100
AcDbSymbolTableRecord
100
AcDbLinetypeTableRecord
  2
PHANTOM
 70
     0
  3
Phantom ______  __  __  ______  __  __  ______
 72
    65
 73
     6
 40
12.7
 49
6.35
 74
     0
 49
-1.27
 74
     0
 49
1.27
 74
     0
 49
-1.27
 74
     0
 49
1.27
 74
     0
 49
-1.27
 74
     0
  0
LTYPE
  5
6C
330
5
100
AcDbSymbolTableRecord
100
AcDbLinetypeTableRecord
  2
CENTER
 70
     0
  3
Center ____ _ ____ _ ____ _ ____ _ ____ _ ____
 72
    65
 73
     4
 40
10.16
 49
6.35
 74
     0
 49
-1.27
 74
     0
 49
1.27
 74
     0
 49
-1.27
 74
     0
  0
LTYPE
  5
6D
330
5
100
AcDbSymbolTableRecord
100
AcDbLinetypeTableRecord
  2
CENTERX2
 70
     0
  3
Center (2x) ________  __  ________  __  _____
 72
    65
 73
     4
 40
20.32
 49
12.7
 74
     0
 49
-2.54
 74
     0
 49
2.54
 74
     0
 49
-2.54
 74
     0
  0
LTYPE
  5
6E
330
5
100
AcDbSymbolTableRecord
100
AcDbLinetypeTableRecord
  2
DOT2
 70
     0
  3
Dot (.5x) ........................................
 72
    65
 73
     2
 40
0.635
 49
0.0
 74
     0
 49
-0.635
 74
     0
  0
ENDTAB
  0
TABLE
  2
LAYER
  5
2
330
0
100
AcDbSymbolTable
 70
     8
  0
LAYER
  5
10
330
2
100
AcDbSymbolTableRecord
100
AcDbLayerTableRecord
  2
0
 70
     0
 62
     7
  6
Continuous
370
    -3
390
F
  0
LAYER
  5
6F
330
2
100
AcDbSymbolTableRecord
100
AcDbLayerTableRecord
  2
FORMAT
 70
     0
 62
     7
  6
Continuous
370
    -3
390
F
  0
LAYER
  5
70
330
2
100
AcDbSymbolTableRecord
100
AcDbLayerTableRecord
  2
SLD-0
 70
     0
 62
     2
  6
Continuous
370
    -3
390
F
  0
LAYER
  5
71
330
2
100
AcDbSymbolTableRecord
100
AcDbLayerTableRecord
  2
DIM
 70
     0
 62
   179
  6
Continuous
370
    -3
390
F
  0
LAYER
  5
72
330
2
100
AcDbSymbolTableRecord
100
AcDbLayerTableRecord
  2
SLD-DEFPOINTS
 70
     0
 62
   179
  6
Continuous
370
    -3
390
F
  0
LAYER
  5
73
330
2
100
AcDbSymbolTableRecord
100
AcDbLayerTableRecord
  2
HAT
 70
     0
 62
   135
  6
Continuous
370
    -3
390
F
  0
LAYER
  5
74
330
2
100
AcDbSymbolTableRecord
100
AcDbLayerTableRecord
  2
JOB
 70
     0
 62
   201
  6
Continuous
370
    -3
390
F
  0
LAYER
  5
75
330
2
100
AcDbSymbolTableRecord
100
AcDbLayerTableRecord
  2
INSPECTION_REPORT
 70
     0
 62
   255
  6
Continuous
370
    -3
390
F
  0
ENDTAB
  0
TABLE
  2
STYLE
  5
3
330
0
100
AcDbSymbolTable
 70
     4
  0
STYLE
  5
11
330
3
100
AcDbSymbolTableRecord
100
AcDbTextStyleTableRecord
  2
Standard
 70
     0
 40
0.0
 41
1.0
 50
0.0
 71
     0
 42
4.8506944444
  3
txt
  4

  0
STYLE
  5
96
330
3
100
AcDbSymbolTableRecord
100
AcDbTextStyleTableRecord
  2
SLDTEXTSTYLE0
 70
     0
 40
0.0
 41
0.7
 50
0.0
 71
     0
 42
4.8506944444
  3
TXT
  4

  0
STYLE
  5
98
330
3
100
AcDbSymbolTableRecord
100
AcDbTextStyleTableRecord
  2
SLDTEXTSTYLE1
 70
     0
 40
0.0
 41
0.75
 50
0.0
 71
     0
 42
4.8506944444
  3
TXT
  4

  0
STYLE
  5
AB
330
3
100
AcDbSymbolTableRecord
100
AcDbTextStyleTableRecord
  2
SLDTEXTSTYLE2
 70
     0
 40
0.0
 41
0.6875
 50
0.0
 71
     0
 42
4.8506944444
  3
TXT
  4

  0
ENDTAB
  0
TABLE
  2
VIEW
  5
6
330
0
100
AcDbSymbolTable
 70
     0
  0
ENDTAB
  0
TABLE
  2
UCS
  5
7
330
0
100
AcDbSymbolTable
 70
     0
  0
ENDTAB
  0
TABLE
  2
APPID
  5
9
330
0
100
AcDbSymbolTable
 70
     1
  0
APPID
  5
12
330
9
100
AcDbSymbolTableRecord
100
AcDbRegAppTableRecord
  2
ACAD
 70
     0
  0
ENDTAB
  0
TABLE
  2
DIMSTYLE
  5
A
330
0
100
AcDbSymbolTable
 70
     4
100
AcDbDimStyleTable
  0
DIMSTYLE
105
27
330
A
100
AcDbSymbolTableRecord
100
AcDbDimStyleTableRecord
  2
ISO-25
 70
     0
 41
2.5
 42
0.625
 43
3.75
 44
1.25
 73
     0
 74
     0
 77
     1
 78
     8
140
2.5
141
2.5
143
0.0393700787
147
0.625
171
     3
172
     1
178
     0
271
     2
272
     2
274
     3
278
    44
283
     0
284
     8
340
11
  0
DIMSTYLE
105
114
102
{ACAD_REACTORS
330
113
102
}
330
A
100
AcDbSymbolTableRecord
100
AcDbDimStyleTableRecord
  2
SLDDIMSTYLE0
 70
     0
 41
4.1275
 44
0.0
 45
0.000000001
 73
     0
 74
     0
 77
     1
 78
    12
 79
     3
140
3.6380208333
147
0.9095052083
172
     1
173
     1
178
     0
271
     2
272
     2
276
     2
284
    12
289
     0
340
96
  0
DIMSTYLE
105
120
102
{ACAD_REACTORS
330
11F
330
12B
102
}
330
A
100
AcDbSymbolTableRecord
100
AcDbDimStyleTableRecord
  2
SLDDIMSTYLE1
 70
     0
 41
4.1275
 44
0.0
 45
0.000000001
 73
     0
 74
     0
 77
     1
 78
     4
 79
     1
140
3.6380208333
147
0.9095052083
173
     1
178
     0
271
     2
272
     2
276
     2
284
    12
340
96
  0
DIMSTYLE
105
136
102
{ACAD_REACTORS
330
135
102
}
330
A
100
AcDbSymbolTableRecord
100
AcDbDimStyleTableRecord
  2
SLDDIMSTYLE2
 70
     0
 41
4.1275
 44
0.0
 45
0.000000001
 73
     0
 74
     0
 77
     1
 78
    12
 79
     3
140
3.6380208333
147
0.9095052083
173
     1
178
     0
271
     2
272
     2
276
     2
284
    12
340
96
  0
ENDTAB
  0
TABLE
  2
BLOCK_RECORD
  5
1
330
0
100
AcDbSymbolTable
 70
     6
  0
BLOCK_RECORD
  5
1F
330
1
100
AcDbSymbolTableRecord
100
AcDbBlockTableRecord
  2
*Model_Space
340
22
  0
BLOCK_RECORD
  5
1B
330
1
100
AcDbSymbolTableRecord
100
AcDbBlockTableRecord
  2
*Paper_Space
340
1E
  0
BLOCK_RECORD
  5
23
330
1
100
AcDbSymbolTableRecord
100
AcDbBlockTableRecord
  2
*Paper_Space0
340
26
  0
BLOCK_RECORD
  5
C9
330
1
100
AcDbSymbolTableRecord
100
AcDbBlockTableRecord
  2
SW_CENTERMARKSYMBOL_0
340
0
102
{BLKREFS
331
D4
102
}
  0
BLOCK_RECORD
  5
115
330
1
100
AcDbSymbolTableRecord
100
AcDbBlockTableRecord
  2
_D
340
0
  0
BLOCK_RECORD
  5
121
330
1
100
AcDbSymbolTableRecord
100
AcDbBlockTableRecord
  2
_D_1
340
0
  0
BLOCK_RECORD
  5
12C
330
1
100
AcDbSymbolTableRecord
100
AcDbBlockTableRecord
  2
_D_2
340
0
  0
BLOCK_RECORD
  5
137
330
1
100
AcDbSymbolTableRecord
100
AcDbBlockTableRecord
  2
_D_3
340
0
  0
ENDTAB
  0
ENDSEC
  0
SECTION
  2
BLOCKS
  0
BLOCK
  5
20
330
1F
100
AcDbEntity
  8
0
100
AcDbBlockBegin
  2
*Model_Space
 70
     0
 10
0.0
 20
0.0
 30
0.0
  3
*Model_Space
  1
*Model_Space
  0
ENDBLK
  5
21
330
1F
100
AcDbEntity
  8
0
100
AcDbBlockEnd
  0
BLOCK
  5
1C
330
1B
100
AcDbEntity
 67
     1
  8
0
100
AcDbBlockBegin
  2
*Paper_Space
 70
     0
 10
0.0
 20
0.0
 30
0.0
  3
*Paper_Space
  1
*Paper_Space
  0
ENDBLK
  5
1D
330
1B
100
AcDbEntity
 67
     1
  8
0
100
AcDbBlockEnd
  0
BLOCK
  5
24
330
23
100
AcDbEntity
  8
0
100
AcDbBlockBegin
  2
*Paper_Space0
 70
     0
 10
0.0
 20
0.0
 30
0.0
  3
*Paper_Space0
  1
*Paper_Space0
  0
ENDBLK
  5
25
330
23
100
AcDbEntity
  8
0
100
AcDbBlockEnd
  0
BLOCK
  5
CA
330
C9
100
AcDbEntity
  8
0
100
AcDbBlockBegin
  2
SW_CENTERMARKSYMBOL_0
 70
     0
 10
0.0
 20
0.0
 30
0.0
  3
SW_CENTERMARKSYMBOL_0
  1
SW_CENTERMARKSYMBOL_0
  0
LINE
  5
CC
330
C9
100
AcDbEntity
  8
DIM
 62
     0
100
AcDbLine
 10
0.0
 20
0.0
 30
0.0
 11
0.0
 21
2.5
 31
0.0
  0
LINE
  5
CD
330
C9
100
AcDbEntity
  8
DIM
 62
     0
100
AcDbLine
 10
0.0
 20
0.0
 30
0.0
 11
-2.5
 21
0.0
 31
0.0
  0
LINE
  5
CE
330
C9
100
AcDbEntity
  8
DIM
 62
     0
100
AcDbLine
 10
0.0
 20
0.0
 30
0.0
 11
0.0
 21
-2.5
 31
0.0
  0
LINE
  5
CF
330
C9
100
AcDbEntity
  8
DIM
 62
     0
100
AcDbLine
 10
0.0
 20
0.0
 30
0.0
 11
2.5
 21
0.0
 31
0.0
  0
LINE
  5
D0
330
C9
100
AcDbEntity
  8
DIM
 62
     0
100
AcDbLine
 10
0.0
 20
5.0
 30
0.0
 11
0.0
 21
33.25
 31
0.0
  0
LINE
  5
D1
330
C9
100
AcDbEntity
  8
DIM
 62
     0
100
AcDbLine
 10
-5.0
 20
0.0
 30
0.0
 11
-33.25
 21
0.0
 31
0.0
  0
LINE
  5
D2
330
C9
100
AcDbEntity
  8
DIM
 62
     0
100
AcDbLine
 10
0.0
 20
-5.0
 30
0.0
 11
0.0
 21
-33.25
 31
0.0
  0
LINE
  5
D3
330
C9
100
AcDbEntity
  8
DIM
 62
     0
100
AcDbLine
 10
5.0
 20
0.0
 30
0.0
 11
33.25
 21
0.0
 31
0.0
  0
ENDBLK
  5
CB
330
C9
100
AcDbEntity
  8
0
100
AcDbBlockEnd
  0
BLOCK
  5
116
330
115
100
AcDbEntity
  8
0
100
AcDbBlockBegin
  2
_D
 70
     0
 10
0.0
 20
0.0
 30
0.0
  3
_D
  1
_D
  0
SOLID
  5
118
330
115
100
AcDbEntity
  8
DIM
100
AcDbTrace
 10
299.0740231069
 20
156.6982696898
 30
0.0
 11
298.4390231069
 21
152.5707696898
 31
0.0
 12
299.7090231069
 22
152.5707696898
 32
0.0
 13
299.7090231069
 23
152.5707696898
 33
0.0
  0
SOLID
  5
119
330
115
100
AcDbEntity
  8
DIM
100
AcDbTrace
 10
299.0740231069
 20
128.6982696898
 30
0.0
 11
299.7090231069
 21
132.8257696898
 31
0.0
 12
298.4390231069
 22
132.8257696898
 32
0.0
 13
298.4390231069
 23
132.8257696898
 33
0.0
  0
LINE
  5
11A
330
115
100
AcDbEntity
  8
DIM
100
AcDbLine
 10
282.6851017353
 20
156.6982696898
 30
0.0
 11
300.3240231069
 21
156.6982696898
 31
0.0
  0
LINE
  5
11B
330
115
100
AcDbEntity
  8
DIM
100
AcDbLine
 10
282.6851017353
 20
128.6982696898
 30
0.0
 11
300.3240231069
 21
128.6982696898
 31
0.0
  0
LINE
  5
11C
330
115
100
AcDbEntity
  8
DIM
100
AcDbLine
 10
299.0740231069
 20
156.6982696898
 30
0.0
 11
299.0740231069
 21
128.6982696898
 31
0.0
  0
MTEXT
  5
11D
330
115
100
AcDbEntity
  8
DIM
100
AcDbMText
 10
294.384367523
 20
137.4263395587
 30
0.0
 40
3.6380208333
 41
0.0
 71
     1
 72
     1
  1
%%c
  7
SLDTEXTSTYLE0
 11
-7.044195017643634E-15
 21
1.0
 31
0.0
 73
     1
 44
1.0
  0
MTEXT
  5
11E
330
115
100
AcDbEntity
  8
DIM
100
AcDbMText
 10
294.384367523
 20
143.0521344332
 30
0.0
 40
3.6380208333
 41
0.0
 71
     1
 72
     1
  1
28
  7
SLDTEXTSTYLE0
 11
-7.044195017643634E-15
 21
1.0
 31
0.0
 73
     1
 44
1.0
  0
ENDBLK
  5
117
330
115
100
AcDbEntity
  8
0
100
AcDbBlockEnd
  0
BLOCK
  5
122
330
121
100
AcDbEntity
  8
0
100
AcDbBlockBegin
  2
_D_1
 70
     0
 10
0.0
 20
0.0
 30
0.0
  3
_D_1
  1
_D_1
  0
SOLID
  5
124
330
121
100
AcDbEntity
  8
DIM
100
AcDbTrace
 10
165.2900650183
 20
174.4482696898
 30
0.0
 11
164.6550650183
 21
170.3207696898
 31
0.0
 12
165.9250650183
 22
170.3207696898
 32
0.0
 13
165.9250650183
 23
170.3207696898
 33
0.0
  0
SOLID
  5
125
330
121
100
AcDbEntity
  8
DIM
100
AcDbTrace
 10
165.2900650183
 20
110.9482696898
 30
0.0
 11
165.9250650183
 21
115.0757696898
 31
0.0
 12
164.6550650183
 22
115.0757696898
 32
0.0
 13
164.6550650183
 23
115.0757696898
 33
0.0
  0
LINE
  5
126
330
121
100
AcDbEntity
  8
DIM
100
AcDbLine
 10
242.9631294173
 20
174.4482696898
 30
0.0
 11
164.0400650183
 21
174.4482696898
 31
0.0
  0
LINE
  5
127
330
121
100
AcDbEntity
  8
DIM
100
AcDbLine
 10
242.9631294173
 20
110.9482696898
 30
0.0
 11
164.0400650183
 21
110.9482696898
 31
0.0
  0
LINE
  5
128
330
121
100
AcDbEntity
  8
DIM
100
AcDbLine
 10
165.2900650183
 20
174.4482696898
 30
0.0
 11
165.2900650183
 21
110.9482696898
 31
0.0
  0
MTEXT
  5
129
330
121
100
AcDbEntity
  8
DIM
100
AcDbMText
 10
160.6004094344
 20
134.3205475746
 30
0.0
 40
3.6380208333
 41
0.0
 71
     1
 72
     1
  1
%%c
  7
SLDTEXTSTYLE0
 11
-7.044195017643634E-15
 21
1.0
 31
0.0
 73
     1
 44
1.0
  0
MTEXT
  5
12A
330
121
100
AcDbEntity
  8
DIM
100
AcDbMText
 10
160.6004094344
 20
139.9463424491
 30
0.0
 40
3.6380208333
 41
0.0
 71
     1
 72
     1
  1
63.50
  7
SLDTEXTSTYLE0
 11
-7.044195017643634E-15
 21
1.0
 31
0.0
 73
     1
 44
1.0
  0
ENDBLK
  5
123
330
121
100
AcDbEntity
  8
0
100
AcDbBlockEnd
  0
BLOCK
  5
12D
330
12C
100
AcDbEntity
  8
0
100
AcDbBlockBegin
  2
_D_2
 70
     0
 10
0.0
 20
0.0
 30
0.0
  3
_D_2
  1
_D_2
  0
SOLID
  5
12F
330
12C
100
AcDbEntity
  8
DIM
100
AcDbTrace
 10
171.6131294175
 20
94.2797148122
 30
0.0
 11
175.7406294175
 21
93.6447148122
 31
0.0
 12
175.7406294175
 22
94.9147148122
 32
0.0
 13
175.7406294175
 23
94.9147148122
 33
0.0
  0
SOLID
  5
130
330
12C
100
AcDbEntity
  8
DIM
100
AcDbTrace
 10
290.0131294173
 20
94.2797148122
 30
0.0
 11
285.8856294173
 21
94.9147148122
 31
0.0
 12
285.8856294173
 22
93.6447148122
 32
0.0
 13
285.8856294173
 23
93.6447148122
 33
0.0
  0
LINE
  5
131
330
12C
100
AcDbEntity
  8
DIM
100
AcDbLine
 10
171.6131294175
 20
141.4482696898
 30
0.0
 11
171.6131294175
 21
93.0297148122
 31
0.0
  0
LINE
  5
132
330
12C
100
AcDbEntity
  8
DIM
100
AcDbLine
 10
290.0131294173
 20
131.4482696898
 30
0.0
 11
290.0131294173
 21
93.0297148122
 31
0.0
  0
LINE
  5
133
330
12C
100
AcDbEntity
  8
DIM
100
AcDbLine
 10
171.6131294175
 20
94.2797148122
 30
0.0
 11
290.0131294173
 21
94.2797148122
 31
0.0
  0
MTEXT
  5
134
330
12C
100
AcDbEntity
  8
DIM
100
AcDbMText
 10
224.0187883925
 20
98.9693703961
 30
0.0
 40
3.6380208333
 41
0.0
 71
     1
 72
     1
  1
118.40
  7
SLDTEXTSTYLE0
 73
     1
 44
1.0
  0
ENDBLK
  5
12E
330
12C
100
AcDbEntity
  8
0
100
AcDbBlockEnd
  0
BLOCK
  5
138
330
137
100
AcDbEntity
  8
0
100
AcDbBlockBegin
  2
_D_3
 70
     0
 10
0.0
 20
0.0
 30
0.0
  3
_D_3
  1
_D_3
  0
SOLID
  5
13A
330
137
100
AcDbEntity
  8
DIM
100
AcDbTrace
 10
240.0131294173
 20
101.7011742652
 30
0.0
 11
244.1406294173
 21
101.0661742652
 31
0.0
 12
244.1406294173
 22
102.3361742652
 32
0.0
 13
244.1406294173
 23
102.3361742652
 33
0.0
  0
SOLID
  5
13B
330
137
100
AcDbEntity
  8
DIM
100
AcDbTrace
 10
290.0131294173
 20
101.7011742652
 30
0.0
 11
285.8856294173
 21
102.3361742652
 31
0.0
 12
285.8856294173
 22
101.0661742652
 32
0.0
 13
285.8856294173
 23
101.0661742652
 33
0.0
  0
LINE
  5
13C
330
137
100
AcDbEntity
  8
DIM
100
AcDbLine
 10
240.0131294173
 20
119.2232696898
 30
0.0
 11
240.0131294173
 21
100.4511742652
 31
0.0
  0
LINE
  5
13D
330
137
100
AcDbEntity
  8
DIM
100
AcDbLine
 10
290.0131294173
 20
131.4482696898
 30
0.0
 11
290.0131294173
 21
100.4511742652
 31
0.0
  0
LINE
  5
13E
330
137
100
AcDbEntity
  8
DIM
100
AcDbLine
 10
240.0131294173
 20
101.7011742652
 30
0.0
 11
290.0131294173
 21
101.7011742652
 31
0.0
  0
MTEXT
  5
13F
330
137
100
AcDbEntity
  8
DIM
100
AcDbMText
 10
262.5540967234
 20
106.3908298491
 30
0.0
 40
3.6380208333
 41
0.0
 71
     1
 72
     1
  1
50
  7
SLDTEXTSTYLE0
 73
     1
 44
1.0
  0
ENDBLK
  5
139
330
137
100
AcDbEntity
  8
0
100
AcDbBlockEnd
  0
ENDSEC
  0
SECTION
  2
ENTITIES
  0
LINE
  5
76
330
1F
100
AcDbEntity
  8
DIM
100
AcDbLine
 10
130.8805308612
 20
12.2387393211
 30
0.0
 11
130.8805308612
 21
5.9887393211
 31
0.0
  0
LINE
  5
77
330
1F
100
AcDbEntity
  8
DIM
100
AcDbLine
 10
318.0870021191
 20
12.2387393211
 30
0.0
 11
318.0870021191
 21
5.9887393211
 31
0.0
  0
LINE
  5
78
330
1F
100
AcDbEntity
  8
DIM
100
AcDbLine
 10
296.8146374145
 20
12.2387393211
 30
0.0
 11
296.8146374145
 21
5.9887393211
 31
0.0
  0
LINE
  5
79
330
1F
100
AcDbEntity
  8
DIM
100
AcDbLine
 10
348.6305308612
 20
5.9887393211
 30
0.0
 11
348.6305308612
 21
12.2387393211
 31
0.0
  0
LINE
  5
7A
330
1F
100
AcDbEntity
  8
DIM
100
AcDbLine
 10
140.6305308612
 20
12.2387393211
 30
0.0
 11
140.6305308612
 21
5.9887393211
 31
0.0
  0
LINE
  5
7B
330
1F
100
AcDbEntity
  8
DIM
100
AcDbLine
 10
164.6192214035
 20
12.2387393211
 30
0.0
 11
164.6192214035
 21
5.9887393211
 31
0.0
  0
LINE
  5
7C
330
1F
100
AcDbEntity
  8
DIM
100
AcDbLine
 10
364.8805308612
 20
5.9887393211
 30
0.0
 11
364.8805308612
 21
96.3012393211
 31
0.0
  0
LINE
  5
7D
330
1F
100
AcDbEntity
  8
DIM
100
AcDbLine
 10
357.2737558684
 20
75.0512393211
 30
0.0
 11
364.8805308612
 21
75.0512393211
 31
0.0
  0
LINE
  5
7E
330
1F
100
AcDbEntity
  8
DIM
100
AcDbLine
 10
186.3791885657
 20
11.3012393211
 30
0.0
 11
186.3791885657
 21
5.9887393211
 31
0.0
  0
LINE
  5
7F
330
1F
100
AcDbEntity
  8
DIM
100
AcDbLine
 10
245.9549364505
 20
12.2387393211
 30
0.0
 11
245.9549364505
 21
5.9887393211
 31
0.0
  0
LINE
  5
80
330
1F
100
AcDbEntity
  8
DIM
100
AcDbLine
 10
186.3791885657
 20
12.2387393211
 30
0.0
 11
186.3791885657
 21
11.3012393211
 31
0.0
  0
LINE
  5
81
330
1F
100
AcDbEntity
  8
DIM
100
AcDbLine
 10
358.6305308612
 20
21.9261493211
 30
0.0
 11
364.8805308612
 21
21.9261493211
 31
0.0
  0
LINE
  5
82
330
1F
100
AcDbEntity
  8
DIM
100
AcDbLine
 10
358.6305308612
 20
249.7387393211
 30
0.0
 11
12.3805308612
 21
249.7387393211
 31
0.0
  0
LINE
  5
83
330
1F
100
AcDbEntity
  8
DIM
100
AcDbLine
 10
364.8805308612
 20
255.9887393211
 30
0.0
 11
6.1305308612
 21
255.9887393211
 31
0.0
  0
LINE
  5
84
330
1F
100
AcDbEntity
  8
DIM
100
AcDbLine
 10
12.3805308612
 20
249.7387393211
 30
0.0
 11
12.3805308612
 21
12.2387393211
 31
0.0
  0
LINE
  5
85
330
1F
100
AcDbEntity
  8
DIM
100
AcDbLine
 10
6.1305308612
 20
255.9887393211
 30
0.0
 11
6.1305308612
 21
5.9887393211
 31
0.0
  0
LINE
  5
86
330
1F
100
AcDbEntity
  8
DIM
100
AcDbLine
 10
12.3805308612
 20
68.4887393211
 30
0.0
 11
6.1305308612
 21
68.4887393211
 31
0.0
  0
LINE
  5
87
330
1F
100
AcDbEntity
  8
DIM
100
AcDbLine
 10
6.1305308612
 20
130.9887393211
 30
0.0
 11
12.3805308612
 21
130.9887393211
 31
0.0
  0
LINE
  5
88
330
1F
100
AcDbEntity
  8
DIM
100
AcDbLine
 10
6.1305308612
 20
5.9887393211
 30
0.0
 11
364.8805308612
 21
5.9887393211
 31
0.0
  0
LINE
  5
89
330
1F
100
AcDbEntity
  8
DIM
100
AcDbLine
 10
12.3805308612
 20
12.2387393211
 30
0.0
 11
364.8805308612
 21
12.2387393211
 31
0.0
  0
LINE
  5
8A
330
1F
100
AcDbEntity
  8
DIM
100
AcDbLine
 10
60.5055308612
 20
5.9887393211
 30
0.0
 11
60.5055308612
 21
12.2387393211
 31
0.0
  0
LINE
  5
8B
330
1F
100
AcDbEntity
  8
DIM
100
AcDbLine
 10
123.0055308612
 20
12.2387393211
 30
0.0
 11
123.0055308612
 21
5.9887393211
 31
0.0
  0
LINE
  5
8C
330
1F
100
AcDbEntity
  8
DIM
100
AcDbLine
 10
12.3805308612
 20
193.4887393211
 30
0.0
 11
6.1305308612
 21
193.4887393211
 31
0.0
  0
LINE
  5
8D
330
1F
100
AcDbEntity
  8
DIM
100
AcDbLine
 10
60.5055308612
 20
249.7387393211
 30
0.0
 11
60.5055308612
 21
255.9887393211
 31
0.0
  0
LINE
  5
8E
330
1F
100
AcDbEntity
  8
DIM
100
AcDbLine
 10
123.0055308612
 20
255.9887393211
 30
0.0
 11
123.0055308612
 21
249.7387393211
 31
0.0
  0
LINE
  5
8F
330
1F
100
AcDbEntity
  8
DIM
100
AcDbLine
 10
185.5055308612
 20
255.9887393211
 30
0.0
 11
185.5055308612
 21
249.7387393211
 31
0.0
  0
LINE
  5
90
330
1F
100
AcDbEntity
  8
DIM
100
AcDbLine
 10
358.6305308612
 20
12.2387393211
 30
0.0
 11
358.6305308612
 21
249.7387393211
 31
0.0
  0
LINE
  5
91
330
1F
100
AcDbEntity
  8
DIM
100
AcDbLine
 10
364.8805308612
 20
96.3012393211
 30
0.0
 11
364.8805308612
 21
255.9887393211
 31
0.0
  0
LINE
  5
92
330
1F
100
AcDbEntity
  8
DIM
100
AcDbLine
 10
364.8805308612
 20
130.9887393211
 30
0.0
 11
358.6305308612
 21
130.9887393211
 31
0.0
  0
LINE
  5
93
330
1F
100
AcDbEntity
  8
DIM
100
AcDbLine
 10
248.0055308612
 20
255.9887393211
 30
0.0
 11
248.0055308612
 21
249.7387393211
 31
0.0
  0
LINE
  5
94
330
1F
100
AcDbEntity
  8
DIM
100
AcDbLine
 10
310.5055308612
 20
249.7387393211
 30
0.0
 11
310.5055308612
 21
255.9887393211
 31
0.0
  0
LINE
  5
95
330
1F
100
AcDbEntity
  8
DIM
100
AcDbLine
 10
358.6305308612
 20
193.4887393211
 30
0.0
 11
364.8805308612
 21
193.4887393211
 31
0.0
  0
MTEXT
  5
97
330
1F
100
AcDbEntity
  8
DIM
100
AcDbMText
 10
16.5759429274
 20
236.8706738435
 30
0.0
 40
5.2916666667
 41
0.0
 71
     1
 72
     1
  1
SK 40 WE08 050 AD/6.3G15000 SL
  7
SLDTEXTSTYLE0
 73
     1
 44
1.0
  0
MTEXT
  5
99
330
1F
100
AcDbEntity
  8
DIM
 62
     7
100
AcDbMText
 10
247.1659733083
 20
9.7524394079
 30
0.0
 40
1.87325
 41
0.0
 71
     1
 72
     1
  1
WEIGHT:
  7
SLDTEXTSTYLE1
 73
     1
 44
1.0
  0
MTEXT
  5
9A
330
1F
100
AcDbEntity
  8
DIM
 62
     7
100
AcDbMText
 10
360.7463459435
 20
102.4257668853
 30
0.0
 40
2.3151041667
 41
0.0
 71
     1
 72
     1
  1
C
  7
SLDTEXTSTYLE1
 73
     1
 44
1.0
  0
MTEXT
  5
9B
330
1F
100
AcDbEntity
  8
DIM
 62
     7
100
AcDbMText
 10
353.8044757743
 20
18.5674774795
 30
0.0
 40
3.6380208333
 41
0.0
 71
     1
 72
     1
  1
A4
  7
SLDTEXTSTYLE1
 73
     1
 44
1.0
  0
MTEXT
  5
9C
330
1F
100
AcDbEntity
  8
DIM
 62
     7
100
AcDbMText
 10
340.7138691946
 20
254.3237598255
 30
0.0
 40
2.3151041667
 41
0.0
 71
     1
 72
     1
  1
6
  7
SLDTEXTSTYLE1
 73
     1
 44
1.0
  0
MTEXT
  5
9D
330
1F
100
AcDbEntity
  8
DIM
 62
     7
100
AcDbMText
 10
278.2138691946
 20
254.3237598255
 30
0.0
 40
2.3151041667
 41
0.0
 71
     1
 72
     1
  1
5
  7
SLDTEXTSTYLE1
 73
     1
 44
1.0
  0
MTEXT
  5
9E
330
1F
100
AcDbEntity
  8
DIM
 62
     7
100
AcDbMText
 10
360.7138741946
 20
226.1987598255
 30
0.0
 40
2.3151041667
 41
0.0
 71
     1
 72
     1
  1
A
  7
SLDTEXTSTYLE1
 73
     1
 44
1.0
  0
MTEXT
  5
9F
330
1F
100
AcDbEntity
  8
DIM
 62
     7
100
AcDbMText
 10
360.7138741946
 20
163.6987598255
 30
0.0
 40
2.3151041667
 41
0.0
 71
     1
 72
     1
  1
B
  7
SLDTEXTSTYLE1
 73
     1
 44
1.0
  0
MTEXT
  5
A0
330
1F
100
AcDbEntity
  8
DIM
 62
     7
100
AcDbMText
 10
215.7138691946
 20
254.3237598255
 30
0.0
 40
2.3151041667
 41
0.0
 71
     1
 72
     1
  1
4
  7
SLDTEXTSTYLE1
 73
     1
 44
1.0
  0
MTEXT
  5
A1
330
1F
100
AcDbEntity
  8
DIM
 62
     7
100
AcDbMText
 10
28.7347025279
 20
254.3237598255
 30
0.0
 40
2.3151041667
 41
0.0
 71
     1
 72
     1
  1
1
  7
SLDTEXTSTYLE1
 73
     1
 44
1.0
  0
MTEXT
  5
A2
330
1F
100
AcDbEntity
  8
DIM
 62
     7
100
AcDbMText
 10
90.7138691946
 20
254.3237598255
 30
0.0
 40
2.3151041667
 41
0.0
 71
     1
 72
     1
  1
2
  7
SLDTEXTSTYLE1
 73
     1
 44
1.0
  0
MTEXT
  5
A3
330
1F
100
AcDbEntity
  8
DIM
 62
     7
100
AcDbMText
 10
153.2138691946
 20
254.3237598255
 30
0.0
 40
2.3151041667
 41
0.0
 71
     1
 72
     1
  1
3
  7
SLDTEXTSTYLE1
 73
     1
 44
1.0
  0
MTEXT
  5
A4
330
1F
100
AcDbEntity
  8
DIM
 62
     7
100
AcDbMText
 10
8.2138641946
 20
226.1987598255
 30
0.0
 40
2.3151041667
 41
0.0
 71
     1
 72
     1
  1
A
  7
SLDTEXTSTYLE1
 73
     1
 44
1.0
  0
MTEXT
  5
A5
330
1F
100
AcDbEntity
  8
DIM
 62
     7
100
AcDbMText
 10
90.7138691946
 20
10.5737598255
 30
0.0
 40
2.3151041667
 41
0.0
 71
     1
 72
     1
  1
2
  7
SLDTEXTSTYLE1
 73
     1
 44
1.0
  0
MTEXT
  5
A6
330
1F
100
AcDbEntity
  8
DIM
 62
     7
100
AcDbMText
 10
28.7347025279
 20
10.5737598255
 30
0.0
 40
2.3151041667
 41
0.0
 71
     1
 72
     1
  1
1
  7
SLDTEXTSTYLE1
 73
     1
 44
1.0
  0
MTEXT
  5
A7
330
1F
100
AcDbEntity
  8
DIM
 62
     7
100
AcDbMText
 10
8.2138641946
 20
38.6987598255
 30
0.0
 40
2.3151041667
 41
0.0
 71
     1
 72
     1
  1
D
  7
SLDTEXTSTYLE1
 73
     1
 44
1.0
  0
MTEXT
  5
A8
330
1F
100
AcDbEntity
  8
DIM
 62
     7
100
AcDbMText
 10
8.2138641946
 20
101.1987598255
 30
0.0
 40
2.3151041667
 41
0.0
 71
     1
 72
     1
  1
C
  7
SLDTEXTSTYLE1
 73
     1
 44
1.0
  0
MTEXT
  5
A9
330
1F
100
AcDbEntity
  8
DIM
 62
     7
100
AcDbMText
 10
8.2138641946
 20
163.6987598255
 30
0.0
 40
2.3151041667
 41
0.0
 71
     1
 72
     1
  1
B
  7
SLDTEXTSTYLE1
 73
     1
 44
1.0
  0
MTEXT
  5
AA
330
1F
100
AcDbEntity
  8
DIM
 62
     7
100
AcDbMText
 10
360.7463459435
 20
102.4257668853
 30
0.0
 40
2.3151041667
 41
0.0
 71
     1
 72
     1
  1
C
  7
SLDTEXTSTYLE1
 73
     1
 44
1.0
  0
MTEXT
  5
AC
330
1F
100
AcDbEntity
  8
DIM
 62
     7
100
AcDbMText
 10
320.6567072656
 20
9.6138484142
 30
0.0
 40
1.875
 41
0.0
 71
     1
 72
     1
  1
SHEET 1 OF 1
  7
SLDTEXTSTYLE2
 73
     1
 44
1.0
  0
MTEXT
  5
AD
330
1F
100
AcDbEntity
  8
DIM
 62
     7
100
AcDbMText
 10
187.9647254793
 20
9.8167093546
 30
0.0
 40
1.875
 41
0.0
 71
     1
 72
     1
  1
MATERIAL:
  7
SLDTEXTSTYLE1
 73
     1
 44
1.0
  0
MTEXT
  5
AE
330
1F
100
AcDbEntity
  8
DIM
 62
     7
100
AcDbMText
 10
340.7138691946
 20
254.3237598255
 30
0.0
 40
2.3151041667
 41
0.0
 71
     1
 72
     1
  1
6
  7
SLDTEXTSTYLE1
 73
     1
 44
1.0
  0
MTEXT
  5
AF
330
1F
100
AcDbEntity
  8
DIM
 62
     7
100
AcDbMText
 10
278.2138691946
 20
254.3237598255
 30
0.0
 40
2.3151041667
 41
0.0
 71
     1
 72
     1
  1
5
  7
SLDTEXTSTYLE1
 73
     1
 44
1.0
  0
MTEXT
  5
B0
330
1F
100
AcDbEntity
  8
DIM
 62
     7
100
AcDbMText
 10
360.7138741946
 20
226.1987598255
 30
0.0
 40
2.3151041667
 41
0.0
 71
     1
 72
     1
  1
A
  7
SLDTEXTSTYLE1
 73
     1
 44
1.0
  0
MTEXT
  5
B1
330
1F
100
AcDbEntity
  8
DIM
 62
     7
100
AcDbMText
 10
360.7138741946
 20
163.6987598255
 30
0.0
 40
2.3151041667
 41
0.0
 71
     1
 72
     1
  1
B
  7
SLDTEXTSTYLE1
 73
     1
 44
1.0
  0
MTEXT
  5
B2
330
1F
100
AcDbEntity
  8
DIM
 62
     7
100
AcDbMText
 10
215.7138691946
 20
254.3237598255
 30
0.0
 40
2.3151041667
 41
0.0
 71
     1
 72
     1
  1
4
  7
SLDTEXTSTYLE1
 73
     1
 44
1.0
  0
MTEXT
  5
B3
330
1F
100
AcDbEntity
  8
DIM
 62
     7
100
AcDbMText
 10
28.7347025279
 20
254.3237598255
 30
0.0
 40
2.3151041667
 41
0.0
 71
     1
 72
     1
  1
1
  7
SLDTEXTSTYLE1
 73
     1
 44
1.0
  0
MTEXT
  5
B4
330
1F
100
AcDbEntity
  8
DIM
 62
     7
100
AcDbMText
 10
90.7138691946
 20
254.3237598255
 30
0.0
 40
2.3151041667
 41
0.0
 71
     1
 72
     1
  1
2
  7
SLDTEXTSTYLE1
 73
     1
 44
1.0
  0
MTEXT
  5
B5
330
1F
100
AcDbEntity
  8
DIM
 62
     7
100
AcDbMText
 10
153.2138691946
 20
254.3237598255
 30
0.0
 40
2.3151041667
 41
0.0
 71
     1
 72
     1
  1
3
  7
SLDTEXTSTYLE1
 73
     1
 44
1.0
  0
MTEXT
  5
B6
330
1F
100
AcDbEntity
  8
DIM
 62
     7
100
AcDbMText
 10
8.2138641946
 20
226.1987598255
 30
0.0
 40
2.3151041667
 41
0.0
 71
     1
 72
     1
  1
A
  7
SLDTEXTSTYLE1
 73
     1
 44
1.0
  0
MTEXT
  5
B7
330
1F
100
AcDbEntity
  8
DIM
 62
     7
100
AcDbMText
 10
90.7138691946
 20
10.5737598255
 30
0.0
 40
2.3151041667
 41
0.0
 71
     1
 72
     1
  1
2
  7
SLDTEXTSTYLE1
 73
     1
 44
1.0
  0
MTEXT
  5
B8
330
1F
100
AcDbEntity
  8
DIM
 62
     7
100
AcDbMText
 10
28.7347025279
 20
10.5737598255
 30
0.0
 40
2.3151041667
 41
0.0
 71
     1
 72
     1
  1
1
  7
SLDTEXTSTYLE1
 73
     1
 44
1.0
  0
MTEXT
  5
B9
330
1F
100
AcDbEntity
  8
DIM
 62
     7
100
AcDbMText
 10
8.2138641946
 20
38.6987598255
 30
0.0
 40
2.3151041667
 41
0.0
 71
     1
 72
     1
  1
D
  7
SLDTEXTSTYLE1
 73
     1
 44
1.0
  0
MTEXT
  5
BA
330
1F
100
AcDbEntity
  8
DIM
 62
     7
100
AcDbMText
 10
8.2138641946
 20
101.1987598255
 30
0.0
 40
2.3151041667
 41
0.0
 71
     1
 72
     1
  1
C
  7
SLDTEXTSTYLE1
 73
     1
 44
1.0
  0
MTEXT
  5
BB
330
1F
100
AcDbEntity
  8
DIM
 62
     7
100
AcDbMText
 10
8.2138641946
 20
163.6987598255
 30
0.0
 40
2.3151041667
 41
0.0
 71
     1
 72
     1
  1
B
  7
SLDTEXTSTYLE1
 73
     1
 44
1.0
  0
SPLINE
  5
BC
330
1F
100
AcDbEntity
  8
0
  6
Continuous
 62
     7
370
    15
100
AcDbSpline
210
0.0
220
0.0
230
1.0
 70
     8
 71
     3
 72
    38
 73
    34
 74
     0
 42
0.000000001
 43
0.00000001
 40
0.0
 40
0.0
 40
0.0
 40
0.0
 40
0.0625
 40
0.0625
 40
0.125
 40
0.125
 40
0.1875
 40
0.1875
 40
0.25
 40
0.25
 40
0.3125
 40
0.3125
 40
0.375
 40
0.375
 40
0.4375
 40
0.4375
 40
0.5
 40
0.5
 40
0.5625
 40
0.5625
 40
0.625
 40
0.625
 40
0.6875
 40
0.6875
 40
0.75
 40
0.75
 40
0.8125
 40
0.8125
 40
0.875
 40
0.875
 40
0.9375
 40
0.9375
 40
1.0
 40
1.0
 40
1.0
 40
1.0
 10
108.4898826708492
 20
142.6982696898067
 30
0.0
 10
108.4898826708492
 20
142.22388791533
 30
0.0
 10
108.4604590381933
 20
141.7195623934784
 30
0.0
 10
108.3177990010738
 20
140.6543674496459
 30
0.0
 10
108.2044945953259
 20
140.0933444898
 30
0.0
 10
107.8644577393833
 20
138.9275038408459
 30
0.0
 10
107.6375406162718
 20
138.3225305192008
 30
0.0
 10
107.0396075729258
 20
137.0960011995083
 30
0.0
 10
106.6682566568709
 20
136.4743808086716
 30
0.0
 10
105.7574436498817
 20
135.2599634660112
 30
0.0
 10
105.2175475179787
 20
134.6673396529902
 30
0.0
 10
103.9641612570316
 20
133.5734752797925
 30
0.0
 10
103.2503441790863
 20
133.0727516083821
 30
0.0
 10
101.674543128932
 20
132.2323243816274
 30
0.0
 10
100.8126452243636
 20
131.8933686433103
 30
0.0
 10
99.00179806253904
 20
131.4334709514152
 30
0.0
 10
98.05348363243175
 20
131.3131071023645
 30
0.0
 10
96.15595653453767
 20
131.3131071023645
 30
0.0
 10
95.20764210443038
 20
131.4334709514152
 30
0.0
 10
93.39679494260577
 20
131.8933686433103
 30
0.0
 10
92.53489703803737
 20
132.2323243816274
 30
0.0
 10
90.95909598788313
 20
133.0727516083821
 30
0.0
 10
90.2452789099378
 20
133.5734752797925
 30
0.0
 10
88.99189264899069
 20
134.6673396529902
 30
0.0
 10
88.45199651708772
 20
135.2599634660112
 30
0.0
 10
87.54118351009855
 20
136.4743808086717
 30
0.0
 10
87.16983259404357
 20
137.0960011995083
 30
0.0
 10
86.57189955069758
 20
138.3225305192008
 30
0.0
 10
86.34498242758613
 20
138.9275038408459
 30
0.0
 10
86.00494557164349
 20
140.0933444898
 30
0.0
 10
85.89164116589558
 20
140.6543674496459
 30
0.0
 10
85.74898112877612
 20
141.7195623934784
 30
0.0
 10
85.71955749612023
 20
142.22388791533
 30
0.0
 10
85.71955749612025
 20
142.6982696898067
 30
0.0
  0
SPLINE
  5
BD
330
1F
100
AcDbEntity
  8
0
  6
Continuous
 62
     7
370
    15
100
AcDbSpline
210
0.0
220
0.0
230
1.0
 70
     8
 71
     3
 72
    38
 73
    34
 74
     0
 42
0.000000001
 43
0.00000001
 40
0.0
 40
0.0
 40
0.0
 40
0.0
 40
0.0624999999999999
 40
0.0624999999999999
 40
0.1249999999999999
 40
0.1249999999999999
 40
0.1874999999999999
 40
0.1874999999999999
 40
0.2499999999999999
 40
0.2499999999999999
 40
0.3124999999999999
 40
0.3124999999999999
 40
0.3749999999999999
 40
0.3749999999999999
 40
0.4374999999999999
 40
0.4374999999999999
 40
0.4999999999999999
 40
0.4999999999999999
 40
0.5624999999999999
 40
0.5624999999999999
 40
0.625
 40
0.625
 40
0.6875
 40
0.6875
 40
0.75
 40
0.75
 40
0.8125
 40
0.8125
 40
0.875
 40
0.875
 40
0.9375
 40
0.9375
 40
1.0
 40
1.0
 40
1.0
 40
1.0
 10
85.71955749612025
 20
142.6982696898067
 30
0.0
 10
85.71955749612025
 20
143.1726514642835
 30
0.0
 10
85.74898112877612
 20
143.676976986135
 30
0.0
 10
85.89164116589558
 20
144.7421719299675
 30
0.0
 10
86.00494557164352
 20
145.3031948898135
 30
0.0
 10
86.34498242758613
 20
146.4690355387676
 30
0.0
 10
86.57189955069758
 20
147.0740088604127
 30
0.0
 10
87.16983259404357
 20
148.3005381801051
 30
0.0
 10
87.54118351009855
 20
148.9221585709418
 30
0.0
 10
88.45199651708772
 20
150.1365759136023
 30
0.0
 10
88.99189264899069
 20
150.7291997266232
 30
0.0
 10
90.2452789099378
 20
151.8230640998209
 30
0.0
 10
90.95909598788313
 20
152.3237877712313
 30
0.0
 10
92.53489703803737
 20
153.164214997986
 30
0.0
 10
93.39679494260577
 20
153.5031707363032
 30
0.0
 10
95.20764210443038
 20
153.9630684281983
 30
0.0
 10
96.15595653453767
 20
154.0834322772489
 30
0.0
 10
98.05348363243175
 20
154.0834322772489
 30
0.0
 10
99.00179806253904
 20
153.9630684281983
 30
0.0
 10
100.8126452243636
 20
153.5031707363032
 30
0.0
 10
101.674543128932
 20
153.164214997986
 30
0.0
 10
103.2503441790863
 20
152.3237877712313
 30
0.0
 10
103.9641612570316
 20
151.8230640998209
 30
0.0
 10
105.2175475179787
 20
150.7291997266232
 30
0.0
 10
105.7574436498817
 20
150.1365759136023
 30
0.0
 10
106.6682566568709
 20
148.9221585709418
 30
0.0
 10
107.0396075729258
 20
148.3005381801051
 30
0.0
 10
107.6375406162718
 20
147.0740088604127
 30
0.0
 10
107.8644577393833
 20
146.4690355387676
 30
0.0
 10
108.2044945953259
 20
145.3031948898135
 30
0.0
 10
108.3177990010738
 20
144.7421719299675
 30
0.0
 10
108.4604590381933
 20
143.676976986135
 30
0.0
 10
108.4898826708492
 20
143.1726514642835
 30
0.0
 10
108.4898826708492
 20
142.6982696898067
 30
0.0
  0
SPLINE
  5
BE
330
1F
100
AcDbEntity
  8
0
  6
Continuous
 62
     7
370
    15
100
AcDbSpline
210
0.0
220
0.0
230
1.0
 70
    24
 71
     3
 72
    14
 73
    10
 74
     0
 42
0.000000001
 43
0.00000001
 40
0.0
 40
0.0
 40
0.0
 40
0.0
 40
0.25
 40
0.25
 40
0.5
 40
0.5
 40
0.75
 40
0.75
 40
1.0
 40
1.0
 40
1.0
 40
1.0
 10
108.4898826708882
 20
142.6982696898067
 30
0.0
 10
108.5988992199183
 20
142.6982696898067
 30
0.0
 10
108.7149772115025
 20
142.6982696898067
 30
0.0
 10
108.9408062508006
 20
142.6982696898067
 30
0.0
 10
109.0500846104511
 20
142.6982696898067
 30
0.0
 10
109.2378793213257
 20
142.6982696898067
 30
0.0
 10
109.3159739172311
 20
142.6982696898067
 30
0.0
 10
109.4288198770166
 20
142.6982696898067
 30
0.0
 10
109.4636834743966
 20
142.6982696898067
 30
0.0
 10
109.4794154593581
 20
142.6982696898067
 30
0.0
  0
ARC
  5
BF
330
1F
100
AcDbEntity
  8
0
  6
Continuous
 62
     7
370
    15
100
AcDbCircle
 10
97.1047200835
 20
142.6982696898
 30
0.0
 40
12.37469537590594
100
AcDbArc
 50
180.0000000026
 51
359.9999999868
  0
SPLINE
  5
C0
330
1F
100
AcDbEntity
  8
0
  6
Continuous
 62
     7
370
    15
100
AcDbSpline
210
0.0
220
0.0
230
1.0
 70
    24
 71
     3
 72
    14
 73
    10
 74
     0
 42
0.000000001
 43
0.00000001
 40
0.0
 40
0.0
 40
0.0
 40
0.0
 40
0.25
 40
0.25
 40
0.5
 40
0.5
 40
0.75
 40
0.75
 40
1.0
 40
1.0
 40
1.0
 40
1.0
 10
85.71955749608114
 20
142.6982696898067
 30
0.0
 10
85.61054094705027
 20
142.6982696898067
 30
0.0
 10
85.4944629554651
 20
142.6982696898067
 30
0.0
 10
85.26863391616544
 20
142.6982696898067
 30
0.0
 10
85.15935555651433
 20
142.6982696898067
 30
0.0
 10
84.97156084563919
 20
142.6982696898067
 30
0.0
 10
84.89346624973396
 20
142.6982696898067
 30
0.0
 10
84.78062028994944
 20
142.6982696898067
 30
0.0
 10
84.74575669257031
 20
142.6982696898067
 30
0.0
 10
84.73002470760993
 20
142.6982696898067
 30
0.0
  0
ARC
  5
C1
330
1F
100
AcDbEntity
  8
0
  6
Continuous
 62
     7
370
    15
100
AcDbCircle
 10
97.1047200835
 20
142.6982696898
 30
0.0
 40
12.37469537590594
100
AcDbArc
 50
359.9999999868
 51
180.0000000026
  0
CIRCLE
  5
C2
330
1F
100
AcDbEntity
  8
0
  6
Continuous
 62
     7
370
    15
100
AcDbCircle
 10
97.1047200835
 20
142.6982696898
 30
0.0
 40
22.22499999999999
  0
SPLINE
  5
C3
330
1F
100
AcDbEntity
  8
0
  6
Continuous
 62
     7
370
    15
100
AcDbSpline
210
0.0
220
0.0
230
1.0
 70
     8
 71
     3
 72
    46
 73
    42
 74
     0
 42
0.000000001
 43
0.00000001
 40
0.0
 40
0.0
 40
0.0
 40
0.0
 40
0.0060605096059856
 40
0.012116062780731
 40
0.0181688501809596
 40
0.0242210654666906
 40
0.0302749029198752
 40
0.0363325550596565
 40
0.0423962102671932
 40
0.0663723762644347
 40
0.0903614245161322
 40
0.1173835313868685
 40
0.1444187375096037
 40
0.1746377134537195
 40
0.2048704270446567
 40
0.2382459271690202
 40
0.2716357371802286
 40
0.3078460574024585
 40
0.3440707643419493
 40
0.3824528172784671
 40
0.4208496145206945
 40
0.4604174444179889
 40
0.5000006351345287
 40
0.5395683786429317
 40
0.5791516575942532
 40
0.6175334667203426
 40
0.6559305126792304
 40
0.6921404472131442
 40
0.72836553821874
 40
0.7617405441729123
 40
0.7951308492378333
 40
0.825348982095816
 40
0.8555825399657241
 40
0.8826032238245884
 40
0.9096398523510109
 40
0.9336143211403861
 40
0.9576050666839362
 40
0.9682066398998608
 40
0.9787984726933857
 40
0.9893923375025573
 40
1.0
 40
1.0
 40
1.0
 40
1.0
 10
119.6047200899944
 20
142.6982696898067
 30
0.0
 10
119.6039388358593
 20
142.5555314529935
 30
0.0
 10
119.6023769665174
 20
142.2701717141471
 30
0.0
 10
119.5897273581247
 20
141.8424098956129
 30
0.0
 10
119.569529940681
 20
141.4151527736096
 30
0.0
 10
119.5410463400896
 20
140.9884000760278
 30
0.0
 10
119.5044750961271
 20
140.5621535656181
 30
0.0
 10
119.4597601258014
 20
140.1364074663328
 30
0.0
 10
119.3549333983715
 20
139.2927113708462
 30
0.0
 10
119.138613111823
 20
138.037351150451
 30
0.0
 10
118.7076534267822
 20
136.323037900665
 30
0.0
 10
118.1182269277983
 20
134.579552002325
 30
0.0
 10
117.323622287018
 20
132.7581677125618
 30
0.0
 10
116.3328895475979
 20
130.9478762805097
 30
0.0
 10
115.0900075312358
 20
129.1168245778279
 30
0.0
 10
113.6234164707196
 20
127.3596630509795
 30
0.0
 10
111.8784146747606
 20
125.6691095163007
 30
0.0
 10
109.906955741447
 20
124.1352664475531
 30
0.0
 10
107.672156054446
 20
122.7764289757936
 30
0.0
 10
105.247374831905
 20
121.6634898231691
 30
0.0
 10
102.6301792881467
 20
120.8298128129004
 30
0.0
 10
99.90304196956451
 20
120.3130916911946
 30
0.0
 10
97.10508351735656
 20
120.1408707153846
 30
0.0
 10
94.30676471269928
 20
120.3130438509908
 30
0.0
 10
91.5799553443833
 20
120.8296382441372
 30
0.0
 10
88.96239787108598
 20
121.6633558073097
 30
0.0
 10
86.5379026367325
 20
122.7761009775005
 30
0.0
 10
84.3027755051028
 20
124.1350673228412
 30
0.0
 10
82.33155083440086
 20
125.6686530967667
 30
0.0
 10
80.5862628733895
 20
127.3594039201705
 30
0.0
 10
79.11984929947744
 20
129.1162725730734
 30
0.0
 10
77.87672986461787
 20
130.9475797546162
 30
0.0
 10
76.88612046841331
 20
132.7575525126385
 30
0.0
 10
76.09133531279035
 20
134.5792317137846
 30
0.0
 10
75.50199018010831
 20
136.3223775477491
 30
0.0
 10
75.07086527768766
 20
138.0370235214463
 30
0.0
 10
74.83647289485423
 20
139.3977794861177
 30
0.0
 10
74.71252648609473
 20
140.4548697598821
 30
0.0
 10
74.65063923673567
 20
141.2010733487298
 30
0.0
 10
74.6118892711376
 20
141.9490697872184
 30
0.0
 10
74.60711084494248
 20
142.4484280635745
 30
0.0
 10
74.604720076975
 20
142.6982696898067
 30
0.0
  0
SPLINE
  5
C4
330
1F
100
AcDbEntity
  8
0
  6
Continuous
 62
     7
370
    15
100
AcDbSpline
210
0.0
220
0.0
230
1.0
 70
     8
 71
     3
 72
    46
 73
    42
 74
     0
 42
0.000000001
 43
0.00000001
 40
0.0
 40
0.0
 40
0.0
 40
0.0
 40
0.0060605096052363
 40
0.0121160627794822
 40
0.0181688501794615
 40
0.024221065465193
 40
0.0302749029186268
 40
0.0363325550589054
 40
0.0423962102671863
 40
0.0663723762632336
 40
0.0903614245161389
 40
0.117383531387204
 40
0.1444187375096105
 40
0.1746377134538832
 40
0.2048704270446635
 40
0.2382459271693794
 40
0.2716357371802406
 40
0.3078460574011299
 40
0.3440707643419448
 40
0.3824528172773539
 40
0.4208496145207212
 40
0.4604174444186661
 40
0.5000006351345542
 40
0.5395683786428678
 40
0.5791516575942705
 40
0.6175334667195513
 40
0.6559305126792472
 40
0.6921404472125949
 40
0.7283655382187632
 40
0.761740544172946
 40
0.7951308492378586
 40
0.8253489820944796
 40
0.8555825399657285
 40
0.8826032238231494
 40
0.9096398523510193
 40
0.933614321140139
 40
0.9576050666839391
 40
0.9682066398996676
 40
0.9787984726931264
 40
0.9893923375023622
 40
1.0
 40
1.0
 40
1.0
 40
1.0
 10
74.604720076975
 20
142.6982696898067
 30
0.0
 10
74.60550133111022
 20
142.8410079266023
 30
0.0
 10
74.60706320045215
 20
143.1263676654193
 30
0.0
 10
74.61971280884514
 20
143.5541294839182
 30
0.0
 10
74.6399102262889
 20
143.9813866059038
 30
0.0
 10
74.66839382688057
 20
144.4081393034856
 30
0.0
 10
74.70496507084304
 20
144.8343858139129
 30
0.0
 10
74.74968004116931
 20
145.2601319132335
 30
0.0
 10
74.85450676858402
 20
146.1038280087231
 30
0.0
 10
75.07082705512661
 20
147.359188229138
 30
0.0
 10
75.50178674018369
 20
149.0735014789285
 30
0.0
 10
76.09121323917594
 20
150.8169873772953
 30
0.0
 10
76.88581787995663
 20
152.6383716670624
 30
0.0
 10
77.87655061937238
 20
154.4486630991081
 30
0.0
 10
79.11943263574119
 20
156.2797148017955
 30
0.0
 10
80.58602369625626
 20
158.0368763286397
 30
0.0
 10
82.33102549218995
 20
159.7274298633004
 30
0.0
 10
84.30248442550987
 20
161.2612729320248
 30
0.0
 10
86.53728411247279
 20
162.6201104037931
 30
0.0
 10
88.9620653350312
 20
163.7330495564601
 30
0.0
 10
91.57926087881442
 20
164.5667265667068
 30
0.0
 10
94.30639819742126
 20
165.0834476884199
 30
0.0
 10
97.10435664962779
 20
165.2556686642303
 30
0.0
 10
99.9026754542683
 20
165.0834955286137
 30
0.0
 10
102.6294848225675
 20
164.5669011354828
 30
0.0
 10
105.2470422958662
 20
163.733183572308
 30
0.0
 10
107.6715375302093
 20
162.620438402127
 30
0.0
 10
109.9066646618597
 20
161.2614720567834
 30
0.0
 10
111.8778893325593
 20
159.7278862828536
 30
0.0
 10
113.623177293582
 20
158.0371354594428
 30
0.0
 10
115.0895908674762
 20
156.2802668065656
 30
0.0
 10
116.3327103023213
 20
154.4489596250146
 30
0.0
 10
117.3233196985271
 20
152.6389868670331
 30
0.0
 10
118.1181048541801
 20
150.8173076658649
 30
0.0
 10
118.7074499868485
 20
149.0741618319017
 30
0.0
 10
119.1385748892794
 20
147.3595158581723
 30
0.0
 10
119.3729672721127
 20
145.9987598935057
 30
0.0
 10
119.4969136808753
 20
144.941669619742
 30
0.0
 10
119.558800930234
 20
144.1954660308989
 30
0.0
 10
119.597550895832
 20
143.4474695924058
 30
0.0
 10
119.602329322027
 20
142.9481113160435
 30
0.0
 10
119.6047200899944
 20
142.6982696898067
 30
0.0
  0
CIRCLE
  5
C5
330
1F
100
AcDbEntity
  8
0
  6
Continuous
 62
     7
370
    15
100
AcDbCircle
 10
97.1047200835
 20
142.6982696898
 30
0.0
 40
30.74999999999994
  0
CIRCLE
  5
C6
330
1F
100
AcDbEntity
  8
0
  6
Continuous
 62
     7
370
    15
100
AcDbCircle
 10
97.1047200835
 20
142.6982696898
 30
0.0
 40
31.74999999999996
  0
SPLINE
  5
C7
330
1F
100
AcDbEntity
  8
0
  6
Continuous
 62
     8
370
    15
100
AcDbSpline
210
0.0
220
0.0
230
1.0
 70
    24
 71
     3
 72
     9
 73
     5
 74
     0
 42
0.000000001
 43
0.00000001
 40
0.0
 40
0.0
 40
0.0
 40
0.0
 40
0.4412680435181025
 40
0.9999999999999999
 40
0.9999999999999999
 40
0.9999999999999999
 40
0.9999999999999999
 10
74.8797200834847
 20
142.6982696898067
 30
0.0
 10
74.84306131671495
 20
142.6982696898067
 30
0.0
 10
74.75998535572423
 20
142.6982696898067
 30
0.0
 10
74.66037536306096
 20
142.6982696898067
 30
0.0
 10
74.60472007697508
 20
142.6982696898067
 30
0.0
  0
SPLINE
  5
C8
330
1F
100
AcDbEntity
  8
0
  6
Continuous
 62
     8
370
    15
100
AcDbSpline
210
0.0
220
0.0
230
1.0
 70
    24
 71
     3
 72
     9
 73
     5
 74
     0
 42
0.000000001
 43
0.00000001
 40
0.0
 40
0.0
 40
0.0
 40
0.0
 40
0.6102923146872682
 40
1.0
 40
1.0
 40
1.0
 40
1.0
 10
119.6047200899943
 20
142.6982696898067
 30
0.0
 10
119.5320698864631
 20
142.6982696898067
 30
0.0
 10
119.4130282374322
 20
142.6982696898067
 30
0.0
 10
119.325828317264
 20
142.6982696898067
 30
0.0
 10
119.2918458382157
 20
142.6982696898067
 30
0.0
  0
INSERT
  5
D4
330
1F
100
AcDbEntity
  8
DIM
100
AcDbBlockReference
  2
SW_CENTERMARKSYMBOL_0
 10
97.1047200835
 20
142.6982696898
 30
0.0
  0
LINE
  5
D5
330
1F
100
AcDbEntity
  8
0
  6
Continuous
 62
     7
370
    15
100
AcDbLine
 10
258.1131294173
 20
110.9482696898
 30
0.0
 11
259.1131294173
 21
111.9482696898
 31
0.0
  0
LINE
  5
D6
330
1F
100
AcDbEntity
  8
0
  6
Continuous
 62
     7
370
    15
100
AcDbLine
 10
259.1131294173
 20
173.4482696898
 30
0.0
 11
258.1131294173
 21
174.4482696898
 31
0.0
  0
LINE
  5
D7
330
1F
100
AcDbEntity
  8
0
  6
Continuous
 62
     7
370
    15
100
AcDbLine
 10
254.6349660593
 20
110.9482696898
 30
0.0
 11
258.1131294173
 21
110.9482696898
 31
0.0
  0
LINE
  5
D8
330
1F
100
AcDbEntity
  8
0
  6
Continuous
 62
     7
370
    15
100
AcDbLine
 10
258.1131294173
 20
174.4482696898
 30
0.0
 11
254.6349660593
 21
174.4482696898
 31
0.0
  0
LINE
  5
D9
330
1F
100
AcDbEntity
  8
0
  6
Continuous
 62
     7
370
    15
100
AcDbLine
 10
254.6349660593
 20
174.4482696897
 30
0.0
 11
253.0131294173
 21
171.6391662238
 31
0.0
  0
LINE
  5
DA
330
1F
100
AcDbEntity
  8
0
  6
Continuous
 62
     7
370
    15
100
AcDbLine
 10
253.0131294173
 20
113.7573731558
 30
0.0
 11
254.6349660593
 21
110.9482696899
 31
0.0
  0
LINE
  5
DB
330
1F
100
AcDbEntity
  8
0
  6
Continuous
 62
     7
370
    15
100
AcDbLine
 10
244.2131294173
 20
110.9482696898
 30
0.0
 11
247.5912927755
 21
110.9482696898
 31
0.0
  0
LINE
  5
DC
330
1F
100
AcDbEntity
  8
0
  6
Continuous
 62
     7
370
    15
100
AcDbLine
 10
247.5912927755
 20
174.4482696898
 30
0.0
 11
244.2131294173
 21
174.4482696898
 31
0.0
  0
LINE
  5
DD
330
1F
100
AcDbEntity
  8
0
  6
Continuous
 62
     7
370
    15
100
AcDbLine
 10
244.2131294173
 20
174.4482696898
 30
0.0
 11
243.2131294173
 21
173.4482696898
 31
0.0
  0
LINE
  5
DE
330
1F
100
AcDbEntity
  8
0
  6
Continuous
 62
     7
370
    15
100
AcDbLine
 10
243.2131294173
 20
111.9482696898
 30
0.0
 11
244.2131294173
 21
110.9482696898
 31
0.0
  0
LINE
  5
DF
330
1F
100
AcDbEntity
  8
0
  6
Continuous
 62
     7
370
    15
100
AcDbLine
 10
247.5912927755
 20
110.9482696902
 30
0.0
 11
249.2131294173
 21
113.7573731558
 31
0.0
  0
LINE
  5
E0
330
1F
100
AcDbEntity
  8
0
  6
Continuous
 62
     7
370
    15
100
AcDbLine
 10
249.2131294173
 20
171.6391662238
 30
0.0
 11
247.5912927755
 21
174.4482696895
 31
0.0
  0
LINE
  5
E1
330
1F
100
AcDbEntity
  8
0
  6
Continuous
 62
     7
370
    15
100
AcDbLine
 10
249.213129419
 20
114.6982696898
 30
0.0
 11
253.0131294191
 21
114.6982696898
 31
0.0
  0
LINE
  5
E2
330
1F
100
AcDbEntity
  8
0
  6
Continuous
 62
     7
370
    15
100
AcDbLine
 10
253.0131294191
 20
170.6982696898
 30
0.0
 11
249.213129419
 21
170.6982696898
 31
0.0
  0
SPLINE
  5
E3
330
1F
100
AcDbEntity
  8
0
  6
Continuous
 62
     7
370
    15
100
AcDbSpline
210
0.0
220
0.0
230
1.0
 70
     8
 71
     3
 72
    13
 73
     9
 74
     0
 42
0.000000001
 43
0.00000001
 40
0.0
 40
0.0
 40
0.0
 40
0.0
 40
0.2394568446493024
 40
0.3683606606410503
 40
0.5000000005299661
 40
0.6316393403604627
 40
0.7605431561667914
 40
1.0
 40
1.0
 40
1.0
 40
1.0
 10
242.7131294178777
 20
120.6982696897042
 30
0.0
 10
242.7760275788225
 20
120.6915906945585
 30
0.0
 10
242.8727849221035
 20
120.6813162792754
 30
0.0
 10
242.9891929642401
 20
120.618967479244
 30
0.0
 10
243.0692963274122
 20
120.5544365940737
 30
0.0
 10
243.1338272111954
 20
120.4743332298443
 30
0.0
 10
243.1961760092011
 20
120.3579251869715
 30
0.0
 10
243.2064504232483
 20
120.2611678438506
 30
0.0
 10
243.213129417586
 20
120.1982696830533
 30
0.0
  0
SPLINE
  5
E4
330
1F
100
AcDbEntity
  8
0
  6
Continuous
 62
     7
370
    15
100
AcDbSpline
210
0.0
220
0.0
230
1.0
 70
     8
 71
     3
 72
    13
 73
     9
 74
     0
 42
0.000000001
 43
0.00000001
 40
0.0
 40
0.0
 40
0.0
 40
0.0
 40
0.2394568438332045
 40
0.3683606596395453
 40
0.4999999994700367
 40
0.6316393393589524
 40
0.7605431553507017
 40
1.0
 40
1.0
 40
1.0
 40
1.0
 10
243.213129417586
 20
165.1982696965601
 30
0.0
 10
243.2064504232483
 20
165.1353715357629
 30
0.0
 10
243.1961760092011
 20
165.038614192642
 30
0.0
 10
243.1338272111954
 20
164.9222061497692
 30
0.0
 10
243.0692963274122
 20
164.8421027855398
 30
0.0
 10
242.9891929642401
 20
164.7775719003694
 30
0.0
 10
242.8727849221035
 20
164.7152231003381
 30
0.0
 10
242.7760275788225
 20
164.704948685055
 30
0.0
 10
242.7131294178777
 20
164.6982696899093
 30
0.0
  0
LINE
  5
E5
330
1F
100
AcDbEntity
  8
0
  6
Continuous
 62
     7
370
    15
100
AcDbLine
 10
240.0131294173
 20
120.4732696898
 30
0.0
 11
240.4956434743
 21
120.6982696898
 31
0.0
  0
LINE
  5
E6
330
1F
100
AcDbEntity
  8
0
  6
Continuous
 62
     7
370
    15
100
AcDbLine
 10
240.4956434743
 20
164.6982696898
 30
0.0
 11
240.0131294173
 21
164.9232696898
 31
0.0
  0
LINE
  5
E7
330
1F
100
AcDbEntity
  8
0
  6
Continuous
 62
     7
370
    15
100
AcDbLine
 10
240.0131294173
 20
164.9232696898
 30
0.0
 11
172.4688211903
 21
155.0729650658
 31
0.0
  0
LINE
  5
E8
330
1F
100
AcDbEntity
  8
0
  6
Continuous
 62
     7
370
    15
100
AcDbLine
 10
172.4688211903
 20
130.3235743138
 30
0.0
 11
240.0131294173
 21
120.4732696898
 31
0.0
  0
LINE
  5
E9
330
1F
100
AcDbEntity
  8
0
  6
Continuous
 62
     7
370
    15
100
AcDbLine
 10
240.4956434743
 20
120.6982696898
 30
0.0
 11
242.7131294179
 21
120.6982696898
 31
0.0
  0
LINE
  5
EA
330
1F
100
AcDbEntity
  8
0
  6
Continuous
 62
     7
370
    15
100
AcDbLine
 10
242.7131294179
 20
164.6982696898
 30
0.0
 11
240.4956434743
 21
164.6982696898
 31
0.0
  0
SPLINE
  5
EB
330
1F
100
AcDbEntity
  8
0
  6
Continuous
 62
     7
370
    15
100
AcDbSpline
210
0.0
220
0.0
230
1.0
 70
     8
 71
     3
 72
    11
 73
     7
 74
     0
 42
0.000000001
 43
0.00000001
 40
0.0
 40
0.0
 40
0.0
 40
0.0
 40
0.2440273285992192
 40
0.4999999999519169
 40
0.7559726713331582
 40
1.0
 40
1.0
 40
1.0
 40
1.0
 10
259.1131294173133
 20
127.3727348993959
 30
0.0
 10
259.1968144370458
 20
127.5548737256791
 30
0.0
 10
259.3682809285344
 20
127.9280672268151
 30
0.0
 10
259.8277338456087
 20
128.357682145467
 30
0.0
 10
260.3871250092487
 20
128.6453407754886
 30
0.0
 10
260.7962814329279
 20
128.6809099758879
 30
0.0
 10
260.9959721310632
 20
128.6982696897987
 30
0.0
  0
SPLINE
  5
EC
330
1F
100
AcDbEntity
  8
0
  6
Continuous
 62
     7
370
    15
100
AcDbSpline
210
0.0
220
0.0
230
1.0
 70
     8
 71
     3
 72
    11
 73
     7
 74
     0
 42
0.000000001
 43
0.00000001
 40
0.0
 40
0.0
 40
0.0
 40
0.0
 40
0.2440273286712538
 40
0.5000000000524056
 40
0.7559726714026969
 40
1.0
 40
1.0
 40
1.0
 40
1.0
 10
260.9959721308308
 20
156.6982696898148
 30
0.0
 10
260.7962814327143
 20
156.7156294037458
 30
0.0
 10
260.3871250090777
 20
156.7511986041861
 30
0.0
 10
259.8277338455168
 20
157.0388572342192
 30
0.0
 10
259.3682809285123
 20
157.4684721528422
 30
0.0
 10
259.196814437043
 20
157.8416656539364
 30
0.0
 10
259.1131294173198
 20
158.0238044801992
 30
0.0
  0
LINE
  5
ED
330
1F
100
AcDbEntity
  8
0
  6
Continuous
 62
     7
370
    15
100
AcDbLine
 10
260.9959721312
 20
128.6982696898
 30
0.0
 11
281.4351017353
 21
128.6982696898
 31
0.0
  0
LINE
  5
EE
330
1F
100
AcDbEntity
  8
0
  6
Continuous
 62
     7
370
    15
100
AcDbLine
 10
281.4351017353
 20
156.6982696898
 30
0.0
 11
260.9959721307
 21
156.6982696898
 31
0.0
  0
LINE
  5
EF
330
1F
100
AcDbEntity
  8
0
  6
Continuous
 62
     7
370
    15
100
AcDbLine
 10
281.4351017353
 20
128.6982696898
 30
0.0
 11
290.0131294173
 21
132.6982696898
 31
0.0
  0
LINE
  5
F0
330
1F
100
AcDbEntity
  8
0
  6
Continuous
 62
     7
370
    15
100
AcDbLine
 10
290.0131294173
 20
152.6982696898
 30
0.0
 11
281.4351017353
 21
156.6982696898
 31
0.0
  0
SPLINE
  5
F1
330
1F
100
AcDbEntity
  8
0
  6
Continuous
 62
     7
370
    15
100
AcDbSpline
210
0.0
220
0.0
230
1.0
 70
     8
 71
     3
 72
    11
 73
     7
 74
     0
 42
0.000000001
 43
0.00000001
 40
0.0
 40
0.0
 40
0.0
 40
0.0
 40
0.2418856032532126
 40
0.5000000001157457
 40
0.7581143969353249
 40
1.0
 40
1.0
 40
1.0
 40
1.0
 10
172.468821190348
 20
155.0729650657612
 30
0.0
 10
172.3566690088293
 20
155.0449097700661
 30
0.0
 10
172.1248400367113
 20
154.9869168690333
 30
0.0
 10
171.8412245112924
 20
154.750931815567
 30
0.0
 10
171.64863761838
 20
154.4362303692773
 30
0.0
 10
171.6247065698291
 20
154.1984591478488
 30
0.0
 10
171.613129417605
 20
154.0834322772489
 30
0.0
  0
SPLINE
  5
F2
330
1F
100
AcDbEntity
  8
0
  6
Continuous
 62
     7
370
    15
100
AcDbSpline
210
0.0
220
0.0
230
1.0
 70
     8
 71
     3
 72
    11
 73
     7
 74
     0
 42
0.000000001
 43
0.00000001
 40
0.0
 40
0.0
 40
0.0
 40
0.0
 40
0.2418856030641144
 40
0.4999999998830896
 40
0.7581143967456611
 40
1.0
 40
1.0
 40
1.0
 40
1.0
 10
171.613129417605
 20
131.3131071023645
 30
0.0
 10
171.6247065698286
 20
131.1980802317668
 30
0.0
 10
171.6486376183786
 20
130.9603090103429
 30
0.0
 10
171.841224511284
 20
130.6456075640573
 30
0.0
 10
172.1248400366942
 20
130.4096225105903
 30
0.0
 10
172.3566690088075
 20
130.351629609553
 30
0.0
 10
172.4688211903242
 20
130.3235743138558
 30
0.0
  0
LINE
  5
F3
330
1F
100
AcDbEntity
  8
0
  6
Continuous
 62
     7
370
    15
100
AcDbLine
 10
258.1131294173
 20
142.6982696898
 30
0.0
 11
258.1131294173
 21
174.4482696898
 31
0.0
  0
LINE
  5
F4
330
1F
100
AcDbEntity
  8
0
  6
Continuous
 62
     7
370
    15
100
AcDbLine
 10
258.1131294173
 20
110.9482696898
 30
0.0
 11
258.1131294173
 21
142.6982696898
 31
0.0
  0
LINE
  5
F5
330
1F
100
AcDbEntity
  8
0
  6
Continuous
 62
     7
370
    15
100
AcDbLine
 10
259.1131294173
 20
142.6982696898
 30
0.0
 11
259.1131294173
 21
173.4482696898
 31
0.0
  0
LINE
  5
F6
330
1F
100
AcDbEntity
  8
0
  6
Continuous
 62
     7
370
    15
100
AcDbLine
 10
259.1131294173
 20
111.9482696898
 30
0.0
 11
259.1131294173
 21
142.6982696898
 31
0.0
  0
LINE
  5
F7
330
1F
100
AcDbEntity
  8
0
  6
Continuous
 62
     7
370
    15
100
AcDbLine
 10
254.6349660593
 20
174.4482696898
 30
0.0
 11
254.6349660593
 21
110.9482696898
 31
0.0
  0
LINE
  5
F8
330
1F
100
AcDbEntity
  8
0
  6
Continuous
 62
     7
370
    15
100
AcDbLine
 10
253.0131294173
 20
171.6391662238
 30
0.0
 11
253.0131294173
 21
113.7573731558
 31
0.0
  0
LINE
  5
F9
330
1F
100
AcDbEntity
  8
0
  6
Continuous
 62
     7
370
    15
100
AcDbLine
 10
244.2131294173
 20
142.6982696898
 30
0.0
 11
244.2131294173
 21
174.4482696898
 31
0.0
  0
LINE
  5
FA
330
1F
100
AcDbEntity
  8
0
  6
Continuous
 62
     7
370
    15
100
AcDbLine
 10
244.2131294173
 20
110.9482696898
 30
0.0
 11
244.2131294173
 21
142.6982696898
 31
0.0
  0
LINE
  5
FB
330
1F
100
AcDbEntity
  8
0
  6
Continuous
 62
     7
370
    15
100
AcDbLine
 10
247.5912927755
 20
142.6982696898
 30
0.0
 11
247.5912927755
 21
110.9482696898
 31
0.0
  0
LINE
  5
FC
330
1F
100
AcDbEntity
  8
0
  6
Continuous
 62
     7
370
    15
100
AcDbLine
 10
247.5912927755
 20
174.4482696898
 30
0.0
 11
247.5912927755
 21
142.6982696898
 31
0.0
  0
LINE
  5
FD
330
1F
100
AcDbEntity
  8
0
  6
Continuous
 62
     7
370
    15
100
AcDbLine
 10
243.2131294173
 20
142.6982696898
 30
0.0
 11
243.2131294173
 21
173.4482696898
 31
0.0
  0
LINE
  5
FE
330
1F
100
AcDbEntity
  8
0
  6
Continuous
 62
     7
370
    15
100
AcDbLine
 10
243.2131294173
 20
111.9482696898
 30
0.0
 11
243.2131294173
 21
142.6982696898
 31
0.0
  0
LINE
  5
FF
330
1F
100
AcDbEntity
  8
0
  6
Continuous
 62
     7
370
    15
100
AcDbLine
 10
249.2131294173
 20
142.6982696898
 30
0.0
 11
249.2131294173
 21
171.6391662238
 31
0.0
  0
LINE
  5
100
330
1F
100
AcDbEntity
  8
0
  6
Continuous
 62
     7
370
    15
100
AcDbLine
 10
249.2131294173
 20
113.7573731558
 30
0.0
 11
249.2131294173
 21
142.6982696898
 31
0.0
  0
SPLINE
  5
101
330
1F
100
AcDbEntity
  8
0
  6
Continuous
 62
     7
370
    15
100
AcDbSpline
210
0.0
220
0.0
230
1.0
 70
    24
 71
     3
 72
    14
 73
    10
 74
     0
 42
0.000000001
 43
0.00000001
 40
0.0
 40
0.0
 40
0.0
 40
0.0
 40
0.25
 40
0.25
 40
0.5
 40
0.5
 40
0.75
 40
0.75
 40
1.0
 40
1.0
 40
1.0
 40
1.0
 10
243.213129417586
 20
142.6982696898067
 30
0.0
 10
243.2131294182927
 20
142.6982696898067
 30
0.0
 10
243.2023900496154
 20
142.6982696898067
 30
0.0
 10
243.1536570905433
 20
142.6982696898067
 30
0.0
 10
243.1154983474396
 20
142.6982696898067
 30
0.0
 10
243.0178672744694
 20
142.6982696898067
 30
0.0
 10
242.9587252499876
 20
142.6982696898067
 30
0.0
 10
242.8356282986388
 20
142.6982696898067
 30
0.0
 10
242.7720549835334
 20
142.6982696898067
 30
0.0
 10
242.7131294178776
 20
142.6982696898067
 30
0.0
  0
LINE
  5
102
330
1F
100
AcDbEntity
  8
0
  6
Continuous
 62
     7
370
    15
100
AcDbLine
 10
240.4956434743
 20
142.6982696898
 30
0.0
 11
240.4956434743
 21
164.6982696898
 31
0.0
  0
LINE
  5
103
330
1F
100
AcDbEntity
  8
0
  6
Continuous
 62
     7
370
    15
100
AcDbLine
 10
240.4956434743
 20
120.6982696898
 30
0.0
 11
240.4956434743
 21
142.6982696898
 31
0.0
  0
LINE
  5
104
330
1F
100
AcDbEntity
  8
0
  6
Continuous
 62
     7
370
    15
100
AcDbLine
 10
240.0131294173
 20
120.4732696898
 30
0.0
 11
240.0131294173
 21
164.9232696898
 31
0.0
  0
SPLINE
  5
105
330
1F
100
AcDbEntity
  8
0
  6
Continuous
 62
     7
370
    15
100
AcDbSpline
210
0.0
220
0.0
230
1.0
 70
    24
 71
     3
 72
    14
 73
    10
 74
     0
 42
0.000000001
 43
0.00000001
 40
0.0
 40
0.0
 40
0.0
 40
0.0
 40
0.25
 40
0.25
 40
0.5
 40
0.5
 40
0.75
 40
0.75
 40
1.0
 40
1.0
 40
1.0
 40
1.0
 10
260.9959721309471
 20
142.6982696898067
 30
0.0
 10
260.8040856778075
 20
142.6982696898067
 30
0.0
 10
260.603041339845
 20
142.6982696898067
 30
0.0
 10
260.209421661531
 20
142.6982696898067
 30
0.0
 10
260.0172940636752
 20
142.6982696898067
 30
0.0
 10
259.6720127606321
 20
142.6982696898067
 30
0.0
 10
259.5192722509816
 20
142.6982696898067
 30
0.0
 10
259.2721787299201
 20
142.6982696898067
 30
0.0
 10
259.1778397856122
 20
142.6982696898067
 30
0.0
 10
259.1131294173198
 20
142.6982696898067
 30
0.0
  0
LINE
  5
106
330
1F
100
AcDbEntity
  8
0
  6
Continuous
 62
     7
370
    15
100
AcDbLine
 10
281.4351017353
 20
142.6982696898
 30
0.0
 11
281.4351017353
 21
156.6982696898
 31
0.0
  0
LINE
  5
107
330
1F
100
AcDbEntity
  8
0
  6
Continuous
 62
     7
370
    15
100
AcDbLine
 10
281.4351017353
 20
128.6982696898
 30
0.0
 11
281.4351017353
 21
142.6982696898
 31
0.0
  0
LINE
  5
108
330
1F
100
AcDbEntity
  8
0
  6
Continuous
 62
     7
370
    15
100
AcDbLine
 10
290.0131294173
 20
142.6982696898
 30
0.0
 11
290.0131294173
 21
152.6982696898
 31
0.0
  0
LINE
  5
109
330
1F
100
AcDbEntity
  8
0
  6
Continuous
 62
     7
370
    15
100
AcDbLine
 10
290.0131294173
 20
132.6982696898
 30
0.0
 11
290.0131294173
 21
142.6982696898
 31
0.0
  0
SPLINE
  5
10A
330
1F
100
AcDbEntity
  8
0
  6
Continuous
 62
     7
370
    15
100
AcDbSpline
210
0.0
220
0.0
230
1.0
 70
    24
 71
     3
 72
    14
 73
    10
 74
     0
 42
0.000000001
 43
0.00000001
 40
0.0
 40
0.0
 40
0.0
 40
0.0
 40
0.25
 40
0.25
 40
0.5
 40
0.5
 40
0.75
 40
0.75
 40
1.0
 40
1.0
 40
1.0
 40
1.0
 10
171.6131294176051
 20
142.6982696898067
 30
0.0
 10
171.6131294173667
 20
142.6982696898067
 30
0.0
 10
171.6314335990085
 20
142.6982696898067
 30
0.0
 10
171.7125395228492
 20
142.6982696898067
 30
0.0
 10
171.7755236200775
 20
142.6982696898067
 30
0.0
 10
171.9379178235003
 20
142.6982696898067
 30
0.0
 10
172.0369632196442
 20
142.6982696898067
 30
0.0
 10
172.2487242060065
 20
142.6982696898067
 30
0.0
 10
172.3609457405564
 20
142.6982696898067
 30
0.0
 10
172.4688211903249
 20
142.6982696898067
 30
0.0
  0
SPLINE
  5
10B
330
1F
100
AcDbEntity
  8
0
  6
Continuous
 62
     7
370
    15
100
AcDbSpline
210
0.0
220
0.0
230
1.0
 70
    24
 71
     3
 72
    22
 73
    18
 74
     0
 42
0.000000001
 43
0.00000001
 40
0.0
 40
0.0
 40
0.0
 40
0.0
 40
0.1249999999999999
 40
0.1249999999999999
 40
0.2499999999999998
 40
0.2499999999999998
 40
0.3749999999999998
 40
0.3749999999999998
 40
0.4999999999999997
 40
0.4999999999999997
 40
0.6249999999999998
 40
0.6249999999999998
 40
0.7499999999999999
 40
0.7499999999999999
 40
0.875
 40
0.875
 40
1.0
 40
1.0
 40
1.0
 40
1.0
 10
171.613129417605
 20
154.0834322772489
 30
0.0
 10
171.613129417605
 20
154.0834322772387
 30
0.0
 10
171.613129417605
 20
153.9630684281792
 30
0.0
 10
171.613129417605
 20
153.5031707362704
 30
0.0
 10
171.613129417605
 20
153.1642149979483
 30
0.0
 10
171.613129417605
 20
152.3237877711878
 30
0.0
 10
171.613129417605
 20
151.8230640997764
 30
0.0
 10
171.613129417605
 20
150.7291997265797
 30
0.0
 10
171.6131294176051
 20
150.1365759135606
 30
0.0
 10
171.613129417605
 20
148.9221585709053
 30
0.0
 10
171.613129417605
 20
148.300538180072
 30
0.0
 10
171.613129417605
 20
147.0740088603866
 30
0.0
 10
171.613129417605
 20
146.4690355387452
 30
0.0
 10
171.6131294176051
 20
145.3031948897983
 30
0.0
 10
171.613129417605
 20
144.7421719299558
 30
0.0
 10
171.613129417605
 20
143.6769769861296
 30
0.0
 10
171.613129417605
 20
143.1726514642809
 30
0.0
 10
171.613129417605
 20
142.6982696898067
 30
0.0
  0
SPLINE
  5
10C
330
1F
100
AcDbEntity
  8
0
  6
Continuous
 62
     7
370
    15
100
AcDbSpline
210
0.0
220
0.0
230
1.0
 70
    24
 71
     3
 72
    22
 73
    18
 74
     0
 42
0.000000001
 43
0.00000001
 40
0.0
 40
0.0
 40
0.0
 40
0.0
 40
0.125
 40
0.125
 40
0.25
 40
0.25
 40
0.375
 40
0.375
 40
0.5
 40
0.5
 40
0.625
 40
0.625
 40
0.75
 40
0.75
 40
0.875
 40
0.875
 40
1.0
 40
1.0
 40
1.0
 40
1.0
 10
171.613129417605
 20
142.6982696898067
 30
0.0
 10
171.613129417605
 20
142.2238879153274
 30
0.0
 10
171.613129417605
 20
141.719562393473
 30
0.0
 10
171.613129417605
 20
140.6543674496342
 30
0.0
 10
171.613129417605
 20
140.0933444897848
 30
0.0
 10
171.613129417605
 20
138.9275038408235
 30
0.0
 10
171.613129417605
 20
138.3225305191747
 30
0.0
 10
171.613129417605
 20
137.0960011994752
 30
0.0
 10
171.613129417605
 20
136.4743808086352
 30
0.0
 10
171.613129417605
 20
135.2599634659694
 30
0.0
 10
171.613129417605
 20
134.6673396529466
 30
0.0
 10
171.613129417605
 20
133.573475279748
 30
0.0
 10
171.613129417605
 20
133.0727516083386
 30
0.0
 10
171.613129417605
 20
132.2323243815898
 30
0.0
 10
171.6131294176051
 20
131.8933686432775
 30
0.0
 10
171.613129417605
 20
131.4334709513962
 30
0.0
 10
171.6131294176051
 20
131.3131071023543
 30
0.0
 10
171.6131294176051
 20
131.3131071023645
 30
0.0
  0
LINE
  5
10D
330
1F
100
AcDbEntity
  8
0
  6
Continuous
 62
     8
370
    15
100
AcDbLine
 10
242.7131294179
 20
120.6982696905
 30
0.0
 11
242.7131294179
 21
142.6982696898
 31
0.0
  0
LINE
  5
10E
330
1F
100
AcDbEntity
  8
0
  6
Continuous
 62
     8
370
    15
100
AcDbLine
 10
242.7131294179
 20
142.6982696898
 30
0.0
 11
242.7131294179
 21
164.6982696897
 31
0.0
  0
LINE
  5
10F
330
1F
100
AcDbEntity
  8
0
  6
Continuous
 62
     8
370
    15
100
AcDbLine
 10
172.4688211903
 20
142.698269687
 30
0.0
 11
172.4688211903
 21
130.3235743139
 31
0.0
  0
LINE
  5
110
330
1F
100
AcDbEntity
  8
0
  6
Continuous
 62
     8
370
    15
100
AcDbLine
 10
172.4688211903
 20
155.0729650657
 30
0.0
 11
172.4688211903
 21
142.698269687
 31
0.0
  0
LINE
  5
111
330
1F
100
AcDbEntity
  8
0
  6
Continuous
 62
     8
370
    15
100
AcDbLine
 10
260.9959721309
 20
142.6982696898
 30
0.0
 11
260.9959721312
 21
128.6982697171
 31
0.0
  0
LINE
  5
112
330
1F
100
AcDbEntity
  8
0
  6
Continuous
 62
     8
370
    15
100
AcDbLine
 10
260.9959721309
 20
142.6982696898
 30
0.0
 11
260.9959721307
 21
156.6982696894
 31
0.0
  0
DIMENSION
  5
113
330
1F
100
AcDbEntity
  8
DIM
100
AcDbDimension
  2
_D
 10
299.0740231069
 20
128.6982696898
 30
0.0
 11
299.0740231069
 21
142.6982696898
 31
0.0
 70
   160
  1
%%c<>
 71
     2
 42
-1.0
  3
SLDDIMSTYLE0
100
AcDbAlignedDimension
 13
281.4351017353
 23
156.6982696898
 33
0.0
 14
281.4351017353
 24
128.6982696898
 34
0.0
 50
90.0
100
AcDbRotatedDimension
  0
DIMENSION
  5
11F
330
1F
100
AcDbEntity
  8
DIM
100
AcDbDimension
  2
_D_1
 10
165.2900650183
 20
110.9482696898
 30
0.0
 11
165.2900650183
 21
142.6982696898
 31
0.0
 70
   160
  1
%%c<>
 71
     2
 42
-1.0
  3
SLDDIMSTYLE1
100
AcDbAlignedDimension
 13
244.2131294173
 23
174.4482696898
 33
0.0
 14
244.2131294173
 24
110.9482696898
 34
0.0
 50
90.0
100
AcDbRotatedDimension
  0
DIMENSION
  5
12B
330
1F
100
AcDbEntity
  8
DIM
100
AcDbDimension
  2
_D_2
 10
290.0131294173
 20
94.2797148122
 30
0.0
 11
230.8131294174
 21
94.2797148122
 31
0.0
 70
   160
  1
<>
 71
     2
 42
-1.0
  3
SLDDIMSTYLE1
100
AcDbAlignedDimension
 13
171.6131294175
 23
142.6982696898
 33
0.0
 14
290.0131294173
 24
132.6982696898
 34
0.0
100
AcDbRotatedDimension
  0
DIMENSION
  5
135
330
1F
100
AcDbEntity
  8
DIM
100
AcDbDimension
  2
_D_3
 10
290.0131294173
 20
101.7011742652
 30
0.0
 11
265.0131294173
 21
101.7011742652
 31
0.0
 70
   160
  1
<>
 71
     2
 42
-1.0
  3
SLDDIMSTYLE2
100
AcDbAlignedDimension
 13
240.0131294173
 23
120.4732696898
 33
0.0
 14
290.0131294173
 24
132.6982696898
 34
0.0
100
AcDbRotatedDimension
  0
LINE
  5
140
330
1F
100
AcDbEntity
  8
DIM
  6
CENTERX2
 48
1.6
370
     0
100
AcDbLine
 10
169.4057263469
 20
142.6982696898
 30
0.0
 11
288.7747749706
 21
142.6982696898
 31
0.0
  0
ENDSEC
  0
SECTION
  2
OBJECTS
  0
DICTIONARY
  5
C
330
0
100
AcDbDictionary
281
     1
  3
ACAD_GROUP
350
D
  3
ACAD_LAYOUT
350
1A
  3
ACAD_MLINESTYLE
350
17
  3
ACAD_PLOTSETTINGS
350
19
  3
ACAD_PLOTSTYLENAME
350
E
  3
ACAD_SCALELIST
350
47
  0
DICTIONARY
  5
D
102
{ACAD_REACTORS
330
C
102
}
330
C
100
AcDbDictionary
281
     1
  0
DICTIONARY
  5
1A
102
{ACAD_REACTORS
330
C
102
}
330
C
100
AcDbDictionary
281
     1
  3
Layout1
350
1E
  3
Layout2
350
26
  3
Model
350
22
  0
DICTIONARY
  5
17
102
{ACAD_REACTORS
330
C
102
}
330
C
100
AcDbDictionary
281
     1
  3
Standard
350
18
  0
DICTIONARY
  5
19
102
{ACAD_REACTORS
330
C
102
}
330
C
100
AcDbDictionary
281
     1
  0
ACDBDICTIONARYWDFLT
  5
E
102
{ACAD_REACTORS
330
C
102
}
330
C
100
AcDbDictionary
281
     1
  3
Normal
350
F
100
AcDbDictionaryWithDefault
340
F
  0
DICTIONARY
  5
47
102
{ACAD_REACTORS
330
C
102
}
330
C
100
AcDbDictionary
281
     1
  3
A0
350
48
  3
A1
350
49
  3
A2
350
4A
  3
A3
350
4B
  3
A4
350
4C
  3
A5
350
4D
  3
A6
350
4E
  3
A7
350
4F
  3
A8
350
50
  3
A9
350
51
  3
B0
350
52
  3
B1
350
53
  3
B2
350
54
  3
B3
350
55
  3
B4
350
56
  3
B5
350
57
  3
B6
350
58
  3
B7
350
59
  3
B8
350
5A
  3
B9
350
5B
  3
C0
350
5C
  3
C1
350
5D
  3
C2
350
5E
  3
C3
350
5F
  3
C4
350
60
  3
C5
350
61
  3
C6
350
62
  3
C7
350
63
  3
C8
350
64
  3
C9
350
65
  3
D0
350
66
  3
D1
350
67
  3
D2
350
68
  0
LAYOUT
  5
1E
102
{ACAD_REACTORS
330
1A
102
}
330
1A
100
AcDbPlotSettings
  1

  2
none_device
  4

  6

 40
0.0
 41
0.0
 42
0.0
 43
0.0
 44
0.0
 45
0.0
 46
0.0
 47
0.0
 48
0.0
 49
0.0
140
0.0
141
0.0
142
1.0
143
1.0
 70
   688
 72
     1
 73
     0
 74
     5
  7

 75
    16
147
1.0
148
0.0
149
0.0
100
AcDbLayout
  1
Layout1
 70
     1
 71
     1
 10
0.0
 20
0.0
 11
420.0
 21
297.0
 12
0.0
 22
0.0
 32
0.0
 14
1.0000000000E+20
 24
1.0000000000E+20
 34
1.0000000000E+20
 15
-1.0000000000E+20
 25
-1.0000000000E+20
 35
-1.0000000000E+20
146
0.0
 13
0.0
 23
0.0
 33
0.0
 16
1.0
 26
0.0
 36
0.0
 17
0.0
 27
1.0
 37
0.0
 76
     0
330
1B
  0
LAYOUT
  5
26
102
{ACAD_REACTORS
330
1A
102
}
330
1A
100
AcDbPlotSettings
  1

  2
none_device
  4

  6

 40
0.0
 41
0.0
 42
0.0
 43
0.0
 44
0.0
 45
0.0
 46
0.0
 47
0.0
 48
0.0
 49
0.0
140
0.0
141
0.0
142
1.0
143
1.0
 70
   688
 72
     1
 73
     0
 74
     5
  7

 75
    16
147
1.0
148
0.0
149
0.0
100
AcDbLayout
  1
Layout2
 70
     1
 71
     2
 10
0.0
 20
0.0
 11
0.0
 21
0.0
 12
0.0
 22
0.0
 32
0.0
 14
0.0
 24
0.0
 34
0.0
 15
0.0
 25
0.0
 35
0.0
146
0.0
 13
0.0
 23
0.0
 33
0.0
 16
1.0
 26
0.0
 36
0.0
 17
0.0
 27
1.0
 37
0.0
 76
     0
330
23
  0
LAYOUT
  5
22
102
{ACAD_REACTORS
330
1A
102
}
330
1A
100
AcDbPlotSettings
  1

  2
none_device
  4
Letter_(8.50_x_11.00_Inches)
  6

 40
6.35
 41
6.35
 42
6.35000508
 43
6.35000508
 44
215.9
 45
279.4
 46
0.0
 47
0.0
 48
0.0
 49
0.0
140
0.0
141
0.0
142
1.0
143
1.0
 70
  1712
 72
     1
 73
     0
 74
     0
  7

 75
     0
147
1.0
148
0.0
149
0.0
100
AcDbLayout
  1
Model
 70
     1
 71
     0
 10
0.0
 20
0.0
 11
371.25
 21
262.5
 12
0.0
 22
0.0
 32
0.0
 14
0.0
 24
0.0
 34
0.0
 15
371.25
 25
262.5
 35
0.0
146
0.0
 13
0.0
 23
0.0
 33
0.0
 16
1.0
 26
0.0
 36
0.0
 17
0.0
 27
1.0
 37
0.0
 76
     0
330
1F
331
29
  0
MLINESTYLE
  5
18
102
{ACAD_REACTORS
330
17
102
}
330
17
100
AcDbMlineStyle
  2
Standard
 70
     0
  3

 62
   256
 51
90.0
 52
90.0
 71
     2
 49
0.5
 62
   256
  6
BYLAYER
 49
-0.5
 62
   256
  6
BYLAYER
  0
ACDBPLACEHOLDER
  5
F
102
{ACAD_REACTORS
330
E
102
}
330
E
  0
SCALE
  5
48
102
{ACAD_REACTORS
330
47
102
}
330
47
100
AcDbScale
 70
     0
300
1:1
140
1.0
141
1.0
290
     1
  0
SCALE
  5
49
102
{ACAD_REACTORS
330
47
102
}
330
47
100
AcDbScale
 70
     0
300
1:2
140
1.0
141
2.0
290
     0
  0
SCALE
  5
4A
102
{ACAD_REACTORS
330
47
102
}
330
47
100
AcDbScale
 70
     0
300
1:4
140
1.0
141
4.0
290
     0
  0
SCALE
  5
4B
102
{ACAD_REACTORS
330
47
102
}
330
47
100
AcDbScale
 70
     0
300
1:5
140
1.0
141
5.0
290
     0
  0
SCALE
  5
4C
102
{ACAD_REACTORS
330
47
102
}
330
47
100
AcDbScale
 70
     0
300
1:8
140
1.0
141
8.0
290
     0
  0
SCALE
  5
4D
102
{ACAD_REACTORS
330
47
102
}
330
47
100
AcDbScale
 70
     0
300
1:10
140
1.0
141
10.0
290
     0
  0
SCALE
  5
4E
102
{ACAD_REACTORS
330
47
102
}
330
47
100
AcDbScale
 70
     0
300
1:16
140
1.0
141
16.0
290
     0
  0
SCALE
  5
4F
102
{ACAD_REACTORS
330
47
102
}
330
47
100
AcDbScale
 70
     0
300
1:20
140
1.0
141
20.0
290
     0
  0
SCALE
  5
50
102
{ACAD_REACTORS
330
47
102
}
330
47
100
AcDbScale
 70
     0
300
1:30
140
1.0
141
30.0
290
     0
  0
SCALE
  5
51
102
{ACAD_REACTORS
330
47
102
}
330
47
100
AcDbScale
 70
     0
300
1:40
140
1.0
141
40.0
290
     0
  0
SCALE
  5
52
102
{ACAD_REACTORS
330
47
102
}
330
47
100
AcDbScale
 70
     0
300
1:50
140
1.0
141
50.0
290
     0
  0
SCALE
  5
53
102
{ACAD_REACTORS
330
47
102
}
330
47
100
AcDbScale
 70
     0
300
1:100
140
1.0
141
100.0
290
     0
  0
SCALE
  5
54
102
{ACAD_REACTORS
330
47
102
}
330
47
100
AcDbScale
 70
     0
300
2:1
140
2.0
141
1.0
290
     0
  0
SCALE
  5
55
102
{ACAD_REACTORS
330
47
102
}
330
47
100
AcDbScale
 70
     0
300
4:1
140
4.0
141
1.0
290
     0
  0
SCALE
  5
56
102
{ACAD_REACTORS
330
47
102
}
330
47
100
AcDbScale
 70
     0
300
8:1
140
8.0
141
1.0
290
     0
  0
SCALE
  5
57
102
{ACAD_REACTORS
330
47
102
}
330
47
100
AcDbScale
 70
     0
300
10:1
140
10.0
141
1.0
290
     0
  0
SCALE
  5
58
102
{ACAD_REACTORS
330
47
102
}
330
47
100
AcDbScale
 70
     0
300
100:1
140
100.0
141
1.0
290
     0
  0
SCALE
  5
59
102
{ACAD_REACTORS
330
47
102
}
330
47
100
AcDbScale
 70
     0
300
1/128" = 1'-0"
140
0.0078125
141
12.0
290
     0
  0
SCALE
  5
5A
102
{ACAD_REACTORS
330
47
102
}
330
47
100
AcDbScale
 70
     0
300
1/64" = 1'-0"
140
0.015625
141
12.0
290
     0
  0
SCALE
  5
5B
102
{ACAD_REACTORS
330
47
102
}
330
47
100
AcDbScale
 70
     0
300
1/32" = 1'-0"
140
0.03125
141
12.0
290
     0
  0
SCALE
  5
5C
102
{ACAD_REACTORS
330
47
102
}
330
47
100
AcDbScale
 70
     0
300
1/16" = 1'-0"
140
0.0625
141
12.0
290
     0
  0
SCALE
  5
5D
102
{ACAD_REACTORS
330
47
102
}
330
47
100
AcDbScale
 70
     0
300
3/32" = 1'-0"
140
0.09375
141
12.0
290
     0
  0
SCALE
  5
5E
102
{ACAD_REACTORS
330
47
102
}
330
47
100
AcDbScale
 70
     0
300
1/8" = 1'-0"
140
0.125
141
12.0
290
     0
  0
SCALE
  5
5F
102
{ACAD_REACTORS
330
47
102
}
330
47
100
AcDbScale
 70
     0
300
3/16" = 1'-0"
140
0.1875
141
12.0
290
     0
  0
SCALE
  5
60
102
{ACAD_REACTORS
330
47
102
}
330
47
100
AcDbScale
 70
     0
300
1/4" = 1'-0"
140
0.25
141
12.0
290
     0
  0
SCALE
  5
61
102
{ACAD_REACTORS
330
47
102
}
330
47
100
AcDbScale
 70
     0
300
3/8" = 1'-0"
140
0.375
141
12.0
290
     0
  0
SCALE
  5
62
102
{ACAD_REACTORS
330
47
102
}
330
47
100
AcDbScale
 70
     0
300
1/2" = 1'-0"
140
0.5
141
12.0
290
     0
  0
SCALE
  5
63
102
{ACAD_REACTORS
330
47
102
}
330
47
100
AcDbScale
 70
     0
300
3/4" = 1'-0"
140
0.75
141
12.0
290
     0
  0
SCALE
  5
64
102
{ACAD_REACTORS
330
47
102
}
330
47
100
AcDbScale
 70
     0
300
1" = 1'-0"
140
1.0
141
12.0
290
     0
  0
SCALE
  5
65
102
{ACAD_REACTORS
330
47
102
}
330
47
100
AcDbScale
 70
     0
300
1-1/2" = 1'-0"
140
1.5
141
12.0
290
     0
  0
SCALE
  5
66
102
{ACAD_REACTORS
330
47
102
}
330
47
100
AcDbScale
 70
     0
300
3" = 1'-0"
140
3.0
141
12.0
290
     0
  0
SCALE
  5
67
102
{ACAD_REACTORS
330
47
102
}
330
47
100
AcDbScale
 70
     0
300
6" = 1'-0"
140
6.0
141
12.0
290
     0
  0
SCALE
  5
68
102
{ACAD_REACTORS
330
47
102
}
330
47
100
AcDbScale
 70
     0
300
1'-0" = 1'-0"
140
12.0
141
12.0
290
     0
  0
ENDSEC
  0
EOF
