  0
SECTION
  2
HEADER
  9
$ACADVER
  1
AC1015
  9
$ACADMAINTVER
 70
     6
  9
$DWGCODEPAGE
  3
ANSI_1252
  9
$INSBASE
 10
0.0
 20
0.0
 30
0.0
  9
$EXTMIN
 10
0.0
 20
0.0
 30
0.0
  9
$EXTMAX
 10
326.7
 20
231.0
 30
0.0
  9
$LIMMIN
 10
0.0
 20
0.0
  9
$LIMMAX
 10
326.7
 20
231.0
  9
$ORTHOMODE
 70
     0
  9
$REGENMODE
 70
     1
  9
$FILLMODE
 70
     1
  9
$QTEXTMODE
 70
     0
  9
$MIRRTEXT
 70
     1
  9
$LTSCALE
 40
1.1
  9
$ATTMODE
 70
     1
  9
$TEXTSIZE
 40
3.8805555556
  9
$TRACEWID
 40
1.0
  9
$TEXTSTYLE
  7
Standard
  9
$CLAYER
  8
0
  9
$CELTYPE
  6
ByLayer
  9
$CECOLOR
 62
   256
  9
$CELTSCALE
 40
1.0
  9
$DISPSILH
 70
     0
  9
$DIMSCALE
 40
1.0
  9
$DIMASZ
 40
3.6322
  9
$DIMEXO
 40
1.1
  9
$DIMDLI
 40
3.75
  9
$DIMRND
 40
0.0
  9
$DIMDLE
 40
0.0
  9
$DIMEXE
 40
1.1
  9
$DIMTP
 40
0.0
  9
$DIMTM
 40
0.0
  9
$DIMTXT
 40
3.8805555556
  9
$DIMCEN
 40
2.5
  9
$DIMTSZ
 40
0.0
  9
$DIMTOL
 70
     0
  9
$DIMLIM
 70
     0
  9
$DIMTIH
 70
     1
  9
$DIMTOH
 70
     1
  9
$DIMSE1
 70
     0
  9
$DIMSE2
 70
     0
  9
$DIMTAD
 70
     1
  9
$DIMZIN
 70
     0
  9
$DIMBLK
  1

  9
$DIMASO
 70
     1
  9
$DIMSHO
 70
     1
  9
$DIMPOST
  1

  9
$DIMAPOST
  1

  9
$DIMALT
 70
     0
  9
$DIMALTD
 70
     3
  9
$DIMALTF
 40
0.0393700787
  9
$DIMLFAC
 40
1.0
  9
$DIMTOFL
 70
     1
  9
$DIMTVP
 40
0.0
  9
$DIMTIX
 70
     0
  9
$DIMSOXD
 70
     0
  9
$DIMSAH
 70
     0
  9
$DIMBLK1
  1

  9
$DIMBLK2
  1

  9
$DIMSTYLE
  2
ISO-25
  9
$DIMCLRD
 70
     0
  9
$DIMCLRE
 70
     0
  9
$DIMCLRT
 70
     0
  9
$DIMTFAC
 40
1.0
  9
$DIMGAP
 40
1.6764
  9
$DIMJUST
 70
     0
  9
$DIMSD1
 70
     0
  9
$DIMSD2
 70
     0
  9
$DIMTOLJ
 70
     0
  9
$DIMTZIN
 70
     0
  9
$DIMALTZ
 70
     0
  9
$DIMALTTZ
 70
     0
  9
$DIMUPT
 70
     0
  9
$DIMDEC
 70
     2
  9
$DIMTDEC
 70
     2
  9
$DIMALTU
 70
     2
  9
$DIMALTTD
 70
     3
  9
$DIMTXSTY
  7
Standard
  9
$DIMAUNIT
 70
     0
  9
$DIMADEC
 70
     2
  9
$DIMALTRND
 40
0.0
  9
$DIMAZIN
 70
     0
  9
$DIMDSEP
 70
    44
  9
$DIMATFIT
 70
     3
  9
$DIMFRAC
 70
     0
  9
$DIMLDRBLK
  1

  9
$DIMLUNIT
 70
     2
  9
$DIMLWD
 70
    -2
  9
$DIMLWE
 70
    -2
  9
$DIMTMOVE
 70
     0
  9
$LUNITS
 70
     2
  9
$LUPREC
 70
     2
  9
$SKETCHINC
 40
1.0
  9
$FILLETRAD
 40
10.0
  9
$AUNITS
 70
     1
  9
$AUPREC
 70
     2
  9
$MENU
  1
.
  9
$ELEVATION
 40
0.0
  9
$PELEVATION
 40
0.0
  9
$THICKNESS
 40
0.0
  9
$LIMCHECK
 70
     0
  9
$CHAMFERA
 40
0.0
  9
$CHAMFERB
 40
0.0
  9
$CHAMFERC
 40
0.0
  9
$CHAMFERD
 40
0.0
  9
$SKPOLY
 70
     0
  9
$TDCREATE
 40
2458629.489905567
  9
$TDUCREATE
 40
2458629.2607389
  9
$TDUPDATE
 40
2458629.489906262
  9
$TDUUPDATE
 40
2458629.260739595
  9
$TDINDWG
 40
0.0000000116
  9
$TDUSRTIMER
 40
0.0000000116
  9
$USRTIMER
 70
     1
  9
$ANGBASE
 50
0.0
  9
$ANGDIR
 70
     0
  9
$PDMODE
 70
     0
  9
$PDSIZE
 40
-1.0
  9
$PLINEWID
 40
0.0
  9
$SPLFRAME
 70
     0
  9
$SPLINETYPE
 70
     6
  9
$SPLINESEGS
 70
     8
  9
$HANDSEED
  5
163
  9
$SURFTAB1
 70
     6
  9
$SURFTAB2
 70
     6
  9
$SURFTYPE
 70
     6
  9
$SURFU
 70
     6
  9
$SURFV
 70
     6
  9
$UCSBASE
  2

  9
$UCSNAME
  2

  9
$UCSORG
 10
0.0
 20
0.0
 30
0.0
  9
$UCSXDIR
 10
1.0
 20
0.0
 30
0.0
  9
$UCSYDIR
 10
0.0
 20
1.0
 30
0.0
  9
$UCSORTHOREF
  2

  9
$UCSORTHOVIEW
 70
     0
  9
$UCSORGTOP
 10
0.0
 20
0.0
 30
0.0
  9
$UCSORGBOTTOM
 10
0.0
 20
0.0
 30
0.0
  9
$UCSORGLEFT
 10
0.0
 20
0.0
 30
0.0
  9
$UCSORGRIGHT
 10
0.0
 20
0.0
 30
0.0
  9
$UCSORGFRONT
 10
0.0
 20
0.0
 30
0.0
  9
$UCSORGBACK
 10
0.0
 20
0.0
 30
0.0
  9
$PUCSBASE
  2

  9
$PUCSNAME
  2

  9
$PUCSORG
 10
0.0
 20
0.0
 30
0.0
  9
$PUCSXDIR
 10
1.0
 20
0.0
 30
0.0
  9
$PUCSYDIR
 10
0.0
 20
1.0
 30
0.0
  9
$PUCSORTHOREF
  2

  9
$PUCSORTHOVIEW
 70
     0
  9
$PUCSORGTOP
 10
0.0
 20
0.0
 30
0.0
  9
$PUCSORGBOTTOM
 10
0.0
 20
0.0
 30
0.0
  9
$PUCSORGLEFT
 10
0.0
 20
0.0
 30
0.0
  9
$PUCSORGRIGHT
 10
0.0
 20
0.0
 30
0.0
  9
$PUCSORGFRONT
 10
0.0
 20
0.0
 30
0.0
  9
$PUCSORGBACK
 10
0.0
 20
0.0
 30
0.0
  9
$USERI1
 70
     0
  9
$USERI2
 70
     0
  9
$USERI3
 70
     0
  9
$USERI4
 70
     0
  9
$USERI5
 70
     0
  9
$USERR1
 40
0.0
  9
$USERR2
 40
0.0
  9
$USERR3
 40
0.0
  9
$USERR4
 40
0.0
  9
$USERR5
 40
0.0
  9
$WORLDVIEW
 70
     1
  9
$SHADEDGE
 70
     3
  9
$SHADEDIF
 70
    70
  9
$TILEMODE
 70
     1
  9
$MAXACTVP
 70
    64
  9
$PINSBASE
 10
0.0
 20
0.0
 30
0.0
  9
$PLIMCHECK
 70
     0
  9
$PEXTMIN
 10
1.0000000000E+20
 20
1.0000000000E+20
 30
1.0000000000E+20
  9
$PEXTMAX
 10
-1.0000000000E+20
 20
-1.0000000000E+20
 30
-1.0000000000E+20
  9
$PLIMMIN
 10
0.0
 20
0.0
  9
$PLIMMAX
 10
420.0
 20
297.0
  9
$UNITMODE
 70
     0
  9
$VISRETAIN
 70
     1
  9
$PLINEGEN
 70
     0
  9
$PSLTSCALE
 70
     1
  9
$TREEDEPTH
 70
  3020
  9
$CMLSTYLE
  2
Standard
  9
$CMLJUST
 70
     0
  9
$CMLSCALE
 40
20.0
  9
$PROXYGRAPHICS
 70
     1
  9
$MEASUREMENT
 70
     1
  9
$CELWEIGHT
370
    -1
  9
$ENDCAPS
280
     0
  9
$JOINSTYLE
280
     0
  9
$LWDISPLAY
290
     1
  9
$INSUNITS
 70
     4
  9
$HYPERLINKBASE
  1

  9
$STYLESHEET
  1

  9
$XEDIT
290
     1
  9
$CEPSNTYPE
380
     0
  9
$PSTYLEMODE
290
     1
  9
$FINGERPRINTGUID
  2
{6C3854F9-D068-444C-9F2C-0F105C9ED0D0}
  9
$VERSIONGUID
  2
{FAEB1C32-E019-11D5-929B-00C0DF256EC4}
  9
$EXTNAMES
290
     1
  9
$PSVPSCALE
 40
0.0
  9
$OLESTARTUP
290
     0
  0
ENDSEC
  0
SECTION
  2
CLASSES
  0
CLASS
  1
ACDBDICTIONARYWDFLT
  2
AcDbDictionaryWithDefault
  3
ObjectDBX Classes
 90
        0
280
     0
281
     0
  0
CLASS
  1
VISUALSTYLE
  2
AcDbVisualStyle
  3
ObjectDBX Classes
 90
     4095
280
     0
281
     0
  0
CLASS
  1
MATERIAL
  2
AcDbMaterial
  3
ObjectDBX Classes
 90
     1153
280
     0
281
     0
  0
CLASS
  1
SCALE
  2
AcDbScale
  3
ObjectDBX Classes
 90
     1153
280
     0
281
     0
  0
CLASS
  1
SUN
  2
AcDbSun
  3
SCENEOE
 90
     1153
280
     0
281
     0
  0
CLASS
  1
ACDBPLACEHOLDER
  2
AcDbPlaceHolder
  3
ObjectDBX Classes
 90
        0
280
     0
281
     0
  0
CLASS
  1
LAYOUT
  2
AcDbLayout
  3
ObjectDBX Classes
 90
        0
280
     0
281
     0
  0
ENDSEC
  0
SECTION
  2
TABLES
  0
TABLE
  2
VPORT
  5
8
330
0
100
AcDbSymbolTable
 70
     1
  0
VPORT
  5
29
330
8
100
AcDbSymbolTableRecord
100
AcDbViewportTableRecord
  2
*Active
 70
     0
 10
0.0
 20
0.0
 11
1.0
 21
1.0
 12
163.35
 22
115.5
 13
0.0
 23
0.0
 14
10.0
 24
10.0
 15
10.0
 25
10.0
 16
0.0
 26
0.0
 36
1.0
 17
0.0
 27
0.0
 37
0.0
 40
231.0
 41
1.4142857143
 42
50.0
 43
0.0
 44
0.0
 50
0.0
 51
0.0
 71
     0
 72
  2000
 73
     1
 74
     3
 75
     0
 76
     0
 77
     0
 78
     0
281
     0
 65
     1
110
0.0
120
0.0
130
0.0
111
1.0
121
0.0
131
0.0
112
0.0
122
1.0
132
0.0
 79
     0
146
0.0
  0
ENDTAB
  0
TABLE
  2
LTYPE
  5
5
330
0
100
AcDbSymbolTable
 70
     6
  0
LTYPE
  5
14
330
5
100
AcDbSymbolTableRecord
100
AcDbLinetypeTableRecord
  2
ByBlock
 70
     0
  3

 72
    65
 73
     0
 40
0.0
  0
LTYPE
  5
15
330
5
100
AcDbSymbolTableRecord
100
AcDbLinetypeTableRecord
  2
ByLayer
 70
     0
  3

 72
    65
 73
     0
 40
0.0
  0
LTYPE
  5
16
330
5
100
AcDbSymbolTableRecord
100
AcDbLinetypeTableRecord
  2
Continuous
 70
     0
  3
Solid line
 72
    65
 73
     0
 40
0.0
  0
LTYPE
  5
6A
330
5
100
AcDbSymbolTableRecord
100
AcDbLinetypeTableRecord
  2
HIDDEN
 70
     0
  3
Hidden __ __ __ __ __ __ __ __ __ __ __ __ __ __
 72
    65
 73
     2
 40
1.905
 49
1.27
 74
     0
 49
-0.635
 74
     0
  0
LTYPE
  5
6B
330
5
100
AcDbSymbolTableRecord
100
AcDbLinetypeTableRecord
  2
PHANTOM
 70
     0
  3
Phantom ______  __  __  ______  __  __  ______
 72
    65
 73
     6
 40
12.7
 49
6.35
 74
     0
 49
-1.27
 74
     0
 49
1.27
 74
     0
 49
-1.27
 74
     0
 49
1.27
 74
     0
 49
-1.27
 74
     0
  0
LTYPE
  5
6C
330
5
100
AcDbSymbolTableRecord
100
AcDbLinetypeTableRecord
  2
CENTER
 70
     0
  3
Center ____ _ ____ _ ____ _ ____ _ ____ _ ____
 72
    65
 73
     4
 40
10.16
 49
6.35
 74
     0
 49
-1.27
 74
     0
 49
1.27
 74
     0
 49
-1.27
 74
     0
  0
LTYPE
  5
6D
330
5
100
AcDbSymbolTableRecord
100
AcDbLinetypeTableRecord
  2
CENTERX2
 70
     0
  3
Center (2x) ________  __  ________  __  _____
 72
    65
 73
     4
 40
20.32
 49
12.7
 74
     0
 49
-2.54
 74
     0
 49
2.54
 74
     0
 49
-2.54
 74
     0
  0
LTYPE
  5
6E
330
5
100
AcDbSymbolTableRecord
100
AcDbLinetypeTableRecord
  2
DOT2
 70
     0
  3
Dot (.5x) ........................................
 72
    65
 73
     2
 40
0.635
 49
0.0
 74
     0
 49
-0.635
 74
     0
  0
ENDTAB
  0
TABLE
  2
LAYER
  5
2
330
0
100
AcDbSymbolTable
 70
     8
  0
LAYER
  5
10
330
2
100
AcDbSymbolTableRecord
100
AcDbLayerTableRecord
  2
0
 70
     0
 62
     7
  6
Continuous
370
    -3
390
F
  0
LAYER
  5
6F
330
2
100
AcDbSymbolTableRecord
100
AcDbLayerTableRecord
  2
FORMAT
 70
     0
 62
     7
  6
Continuous
370
    -3
390
F
  0
LAYER
  5
70
330
2
100
AcDbSymbolTableRecord
100
AcDbLayerTableRecord
  2
SLD-0
 70
     0
 62
     2
  6
Continuous
370
    -3
390
F
  0
LAYER
  5
71
330
2
100
AcDbSymbolTableRecord
100
AcDbLayerTableRecord
  2
DIM
 70
     0
 62
   179
  6
Continuous
370
    -3
390
F
  0
LAYER
  5
72
330
2
100
AcDbSymbolTableRecord
100
AcDbLayerTableRecord
  2
SLD-DEFPOINTS
 70
     0
 62
   179
  6
Continuous
370
    -3
390
F
  0
LAYER
  5
73
330
2
100
AcDbSymbolTableRecord
100
AcDbLayerTableRecord
  2
HAT
 70
     0
 62
   135
  6
Continuous
370
    -3
390
F
  0
LAYER
  5
74
330
2
100
AcDbSymbolTableRecord
100
AcDbLayerTableRecord
  2
JOB
 70
     0
 62
   201
  6
Continuous
370
    -3
390
F
  0
LAYER
  5
75
330
2
100
AcDbSymbolTableRecord
100
AcDbLayerTableRecord
  2
INSPECTION_REPORT
 70
     0
 62
   255
  6
Continuous
370
    -3
390
F
  0
ENDTAB
  0
TABLE
  2
STYLE
  5
3
330
0
100
AcDbSymbolTable
 70
     4
  0
STYLE
  5
11
330
3
100
AcDbSymbolTableRecord
100
AcDbTextStyleTableRecord
  2
Standard
 70
     0
 40
0.0
 41
1.0
 50
0.0
 71
     0
 42
3.8805555556
  3
txt
  4

  0
STYLE
  5
96
330
3
100
AcDbSymbolTableRecord
100
AcDbTextStyleTableRecord
  2
SLDTEXTSTYLE0
 70
     0
 40
0.0
 41
0.7
 50
0.0
 71
     0
 42
3.8805555556
  3
TXT
  4

  0
STYLE
  5
98
330
3
100
AcDbSymbolTableRecord
100
AcDbTextStyleTableRecord
  2
SLDTEXTSTYLE1
 70
     0
 40
0.0
 41
0.75
 50
0.0
 71
     0
 42
3.8805555556
  3
TXT
  4

  0
STYLE
  5
AB
330
3
100
AcDbSymbolTableRecord
100
AcDbTextStyleTableRecord
  2
SLDTEXTSTYLE2
 70
     0
 40
0.0
 41
0.6875
 50
0.0
 71
     0
 42
3.8805555556
  3
TXT
  4

  0
ENDTAB
  0
TABLE
  2
VIEW
  5
6
330
0
100
AcDbSymbolTable
 70
     0
  0
ENDTAB
  0
TABLE
  2
UCS
  5
7
330
0
100
AcDbSymbolTable
 70
     0
  0
ENDTAB
  0
TABLE
  2
APPID
  5
9
330
0
100
AcDbSymbolTable
 70
     1
  0
APPID
  5
12
330
9
100
AcDbSymbolTableRecord
100
AcDbRegAppTableRecord
  2
ACAD
 70
     0
  0
ENDTAB
  0
TABLE
  2
DIMSTYLE
  5
A
330
0
100
AcDbSymbolTable
 70
     3
100
AcDbDimStyleTable
  0
DIMSTYLE
105
27
330
A
100
AcDbSymbolTableRecord
100
AcDbDimStyleTableRecord
  2
ISO-25
 70
     0
 41
2.5
 42
0.625
 43
3.75
 44
1.25
 73
     0
 74
     0
 77
     1
 78
     8
140
2.5
141
2.5
143
0.0393700787
147
0.625
171
     3
172
     1
178
     0
271
     2
272
     2
274
     3
278
    44
283
     0
284
     8
340
11
  0
DIMSTYLE
105
137
102
{ACAD_REACTORS
330
136
330
14D
102
}
330
A
100
AcDbSymbolTableRecord
100
AcDbDimStyleTableRecord
  2
SLDDIMSTYLE0
 70
     0
 41
3.6322
 44
0.0
 45
0.000000001
 73
     0
 74
     0
 77
     1
 78
    12
 79
     3
140
3.2014583333
147
0.8003645833
173
     1
178
     0
271
     2
272
     2
276
     2
284
    12
340
96
  0
DIMSTYLE
105
143
102
{ACAD_REACTORS
330
142
330
158
102
}
330
A
100
AcDbSymbolTableRecord
100
AcDbDimStyleTableRecord
  2
SLDDIMSTYLE1
 70
     0
 41
3.6322
 44
0.0
 45
0.000000001
 73
     0
 74
     0
 77
     1
 78
     4
 79
     1
140
3.2014583333
147
0.8003645833
173
     1
178
     0
271
     2
272
     2
276
     2
284
    12
340
96
  0
ENDTAB
  0
TABLE
  2
BLOCK_RECORD
  5
1
330
0
100
AcDbSymbolTable
 70
     5
  0
BLOCK_RECORD
  5
1F
330
1
100
AcDbSymbolTableRecord
100
AcDbBlockTableRecord
  2
*Model_Space
340
22
  0
BLOCK_RECORD
  5
1B
330
1
100
AcDbSymbolTableRecord
100
AcDbBlockTableRecord
  2
*Paper_Space
340
1E
  0
BLOCK_RECORD
  5
23
330
1
100
AcDbSymbolTableRecord
100
AcDbBlockTableRecord
  2
*Paper_Space0
340
26
  0
BLOCK_RECORD
  5
138
330
1
100
AcDbSymbolTableRecord
100
AcDbBlockTableRecord
  2
_D
340
0
  0
BLOCK_RECORD
  5
144
330
1
100
AcDbSymbolTableRecord
100
AcDbBlockTableRecord
  2
_D_1
340
0
  0
BLOCK_RECORD
  5
14E
330
1
100
AcDbSymbolTableRecord
100
AcDbBlockTableRecord
  2
_D_2
340
0
  0
BLOCK_RECORD
  5
159
330
1
100
AcDbSymbolTableRecord
100
AcDbBlockTableRecord
  2
_D_3
340
0
  0
ENDTAB
  0
ENDSEC
  0
SECTION
  2
BLOCKS
  0
BLOCK
  5
20
330
1F
100
AcDbEntity
  8
0
100
AcDbBlockBegin
  2
*Model_Space
 70
     0
 10
0.0
 20
0.0
 30
0.0
  3
*Model_Space
  1
*Model_Space
  0
ENDBLK
  5
21
330
1F
100
AcDbEntity
  8
0
100
AcDbBlockEnd
  0
BLOCK
  5
1C
330
1B
100
AcDbEntity
 67
     1
  8
0
100
AcDbBlockBegin
  2
*Paper_Space
 70
     0
 10
0.0
 20
0.0
 30
0.0
  3
*Paper_Space
  1
*Paper_Space
  0
ENDBLK
  5
1D
330
1B
100
AcDbEntity
 67
     1
  8
0
100
AcDbBlockEnd
  0
BLOCK
  5
24
330
23
100
AcDbEntity
  8
0
100
AcDbBlockBegin
  2
*Paper_Space0
 70
     0
 10
0.0
 20
0.0
 30
0.0
  3
*Paper_Space0
  1
*Paper_Space0
  0
ENDBLK
  5
25
330
23
100
AcDbEntity
  8
0
100
AcDbBlockEnd
  0
BLOCK
  5
139
330
138
100
AcDbEntity
  8
0
100
AcDbBlockBegin
  2
_D
 70
     0
 10
0.0
 20
0.0
 30
0.0
  3
_D
  1
_D
  0
SOLID
  5
13B
330
138
100
AcDbEntity
  8
DIM
100
AcDbTrace
 10
275.3463930341
 20
164.2416307529
 30
0.0
 11
274.7875930341
 21
160.6094307529
 31
0.0
 12
275.9051930341
 22
160.6094307529
 32
0.0
 13
275.9051930341
 23
160.6094307529
 33
0.0
  0
SOLID
  5
13C
330
138
100
AcDbEntity
  8
DIM
100
AcDbTrace
 10
275.3463930341
 20
86.2416307529
 30
0.0
 11
275.9051930341
 21
89.8738307529
 31
0.0
 12
274.7875930341
 22
89.8738307529
 32
0.0
 13
274.7875930341
 23
89.8738307529
 33
0.0
  0
LINE
  5
13D
330
138
100
AcDbEntity
  8
DIM
100
AcDbLine
 10
267.3407397784
 20
164.2416307529
 30
0.0
 11
276.4463930341
 21
164.2416307529
 31
0.0
  0
LINE
  5
13E
330
138
100
AcDbEntity
  8
DIM
100
AcDbLine
 10
267.3407397784
 20
86.2416307529
 30
0.0
 11
276.4463930341
 21
86.2416307529
 31
0.0
  0
LINE
  5
13F
330
138
100
AcDbEntity
  8
DIM
100
AcDbLine
 10
275.3463930341
 20
164.2416307529
 30
0.0
 11
275.3463930341
 21
86.2416307529
 31
0.0
  0
MTEXT
  5
140
330
138
100
AcDbEntity
  8
DIM
100
AcDbMText
 10
271.2194961203
 20
120.6023322375
 30
0.0
 40
3.2014583333
 41
0.0
 71
     1
 72
     1
  1
%%c
  7
SLDTEXTSTYLE0
 11
-7.044195017643634E-15
 21
1.0
 31
0.0
 73
     1
 44
1.0
  0
MTEXT
  5
141
330
138
100
AcDbEntity
  8
DIM
100
AcDbMText
 10
271.2194961203
 20
125.5530317271
 30
0.0
 40
3.2014583333
 41
0.0
 71
     1
 72
     1
  1
78
  7
SLDTEXTSTYLE0
 11
-7.044195017643634E-15
 21
1.0
 31
0.0
 73
     1
 44
1.0
  0
ENDBLK
  5
13A
330
138
100
AcDbEntity
  8
0
100
AcDbBlockEnd
  0
BLOCK
  5
145
330
144
100
AcDbEntity
  8
0
100
AcDbBlockBegin
  2
_D_1
 70
     0
 10
0.0
 20
0.0
 30
0.0
  3
_D_1
  1
_D_1
  0
SOLID
  5
147
330
144
100
AcDbEntity
  8
DIM
100
AcDbTrace
 10
267.7407397784
 20
73.0385300423
 30
0.0
 11
264.1085397784
 21
73.5973300423
 31
0.0
 12
264.1085397784
 22
72.4797300423
 32
0.0
 13
264.1085397784
 23
72.4797300423
 33
0.0
  0
SOLID
  5
148
330
144
100
AcDbEntity
  8
DIM
100
AcDbTrace
 10
103.2407397784
 20
73.0385300423
 30
0.0
 11
106.8729397784
 21
72.4797300423
 31
0.0
 12
106.8729397784
 22
73.5973300423
 32
0.0
 13
106.8729397784
 23
73.5973300423
 33
0.0
  0
LINE
  5
149
330
144
100
AcDbEntity
  8
DIM
100
AcDbLine
 10
267.7407397784
 20
86.6416307529
 30
0.0
 11
267.7407397784
 21
71.9385300423
 31
0.0
  0
LINE
  5
14A
330
144
100
AcDbEntity
  8
DIM
100
AcDbLine
 10
103.2407397784
 20
101.9166307529
 30
0.0
 11
103.2407397784
 21
71.9385300423
 31
0.0
  0
LINE
  5
14B
330
144
100
AcDbEntity
  8
DIM
100
AcDbLine
 10
267.7407397784
 20
73.0385300423
 30
0.0
 11
103.2407397784
 21
73.0385300423
 31
0.0
  0
MTEXT
  5
14C
330
144
100
AcDbEntity
  8
DIM
100
AcDbMText
 10
179.5117196765
 20
77.1654269561
 30
0.0
 40
3.2014583333
 41
0.0
 71
     1
 72
     1
  1
164.50
  7
SLDTEXTSTYLE0
 73
     1
 44
1.0
  0
ENDBLK
  5
146
330
144
100
AcDbEntity
  8
0
100
AcDbBlockEnd
  0
BLOCK
  5
14F
330
14E
100
AcDbEntity
  8
0
100
AcDbBlockBegin
  2
_D_2
 70
     0
 10
0.0
 20
0.0
 30
0.0
  3
_D_2
  1
_D_2
  0
SOLID
  5
151
330
14E
100
AcDbEntity
  8
DIM
100
AcDbTrace
 10
26.8392765084
 20
93.7416307529
 30
0.0
 11
27.3980765084
 21
97.3738307529
 31
0.0
 12
26.2804765084
 22
97.3738307529
 32
0.0
 13
26.2804765084
 23
97.3738307529
 33
0.0
  0
SOLID
  5
152
330
14E
100
AcDbEntity
  8
DIM
100
AcDbTrace
 10
26.8392765084
 20
156.7416307529
 30
0.0
 11
26.2804765084
 21
153.1094307529
 31
0.0
 12
27.3980765084
 22
153.1094307529
 32
0.0
 13
27.3980765084
 23
153.1094307529
 33
0.0
  0
LINE
  5
153
330
14E
100
AcDbEntity
  8
DIM
100
AcDbLine
 10
105.3064252043
 20
93.7416307529
 30
0.0
 11
25.7392765084
 21
93.7416307529
 31
0.0
  0
LINE
  5
154
330
14E
100
AcDbEntity
  8
DIM
100
AcDbLine
 10
105.3064252035
 20
156.7416307529
 30
0.0
 11
25.7392765084
 21
156.7416307529
 31
0.0
  0
LINE
  5
155
330
14E
100
AcDbEntity
  8
DIM
100
AcDbLine
 10
26.8392765084
 20
93.7416307529
 30
0.0
 11
26.8392765084
 21
156.7416307529
 31
0.0
  0
MTEXT
  5
156
330
14E
100
AcDbEntity
  8
DIM
100
AcDbMText
 10
22.7123795946
 20
120.6023322375
 30
0.0
 40
3.2014583333
 41
0.0
 71
     1
 72
     1
  1
%%c
  7
SLDTEXTSTYLE0
 11
6.123233995736766E-17
 21
1.0
 31
0.0
 73
     1
 44
1.0
  0
MTEXT
  5
157
330
14E
100
AcDbEntity
  8
DIM
100
AcDbMText
 10
22.7123795946
 20
125.5530317271
 30
0.0
 40
3.2014583333
 41
0.0
 71
     1
 72
     1
  1
63
  7
SLDTEXTSTYLE0
 11
6.123233995736766E-17
 21
1.0
 31
0.0
 73
     1
 44
1.0
  0
ENDBLK
  5
150
330
14E
100
AcDbEntity
  8
0
100
AcDbBlockEnd
  0
BLOCK
  5
15A
330
159
100
AcDbEntity
  8
0
100
AcDbBlockBegin
  2
_D_3
 70
     0
 10
0.0
 20
0.0
 30
0.0
  3
_D_3
  1
_D_3
  0
SOLID
  5
15C
330
159
100
AcDbEntity
  8
DIM
100
AcDbTrace
 10
37.8407397786
 20
67.496979155
 30
0.0
 11
41.4729397786
 21
66.938179155
 31
0.0
 12
41.4729397786
 22
68.055779155
 32
0.0
 13
41.4729397786
 23
68.055779155
 33
0.0
  0
SOLID
  5
15D
330
159
100
AcDbEntity
  8
DIM
100
AcDbTrace
 10
267.7407397784
 20
67.496979155
 30
0.0
 11
264.1085397784
 21
68.055779155
 31
0.0
 12
264.1085397784
 22
66.938179155
 32
0.0
 13
264.1085397784
 23
66.938179155
 33
0.0
  0
LINE
  5
15E
330
159
100
AcDbEntity
  8
DIM
100
AcDbLine
 10
37.8407397786
 20
112.3189640348
 30
0.0
 11
37.8407397786
 21
66.396979155
 31
0.0
  0
LINE
  5
15F
330
159
100
AcDbEntity
  8
DIM
100
AcDbLine
 10
267.7407397784
 20
86.6416307529
 30
0.0
 11
267.7407397784
 21
66.396979155
 31
0.0
  0
LINE
  5
160
330
159
100
AcDbEntity
  8
DIM
100
AcDbLine
 10
37.8407397786
 20
67.496979155
 30
0.0
 11
267.7407397784
 21
67.496979155
 31
0.0
  0
MTEXT
  5
161
330
159
100
AcDbEntity
  8
DIM
100
AcDbMText
 10
146.8117196766
 20
71.6238760689
 30
0.0
 40
3.2014583333
 41
0.0
 71
     1
 72
     1
  1
229.90
  7
SLDTEXTSTYLE0
 73
     1
 44
1.0
  0
ENDBLK
  5
15B
330
159
100
AcDbEntity
  8
0
100
AcDbBlockEnd
  0
ENDSEC
  0
SECTION
  2
ENTITIES
  0
LINE
  5
76
330
1F
100
AcDbEntity
  8
DIM
100
AcDbLine
 10
115.1748671579
 20
10.7700906025
 30
0.0
 11
115.1748671579
 21
5.2700906025
 31
0.0
  0
LINE
  5
77
330
1F
100
AcDbEntity
  8
DIM
100
AcDbLine
 10
279.9165618648
 20
10.7700906025
 30
0.0
 11
279.9165618648
 21
5.2700906025
 31
0.0
  0
LINE
  5
78
330
1F
100
AcDbEntity
  8
DIM
100
AcDbLine
 10
261.1968809247
 20
10.7700906025
 30
0.0
 11
261.1968809247
 21
5.2700906025
 31
0.0
  0
LINE
  5
79
330
1F
100
AcDbEntity
  8
DIM
100
AcDbLine
 10
306.7948671579
 20
5.2700906025
 30
0.0
 11
306.7948671579
 21
10.7700906025
 31
0.0
  0
LINE
  5
7A
330
1F
100
AcDbEntity
  8
DIM
100
AcDbLine
 10
123.7548671579
 20
10.7700906025
 30
0.0
 11
123.7548671579
 21
5.2700906025
 31
0.0
  0
LINE
  5
7B
330
1F
100
AcDbEntity
  8
DIM
100
AcDbLine
 10
144.8649148351
 20
10.7700906025
 30
0.0
 11
144.8649148351
 21
5.2700906025
 31
0.0
  0
LINE
  5
7C
330
1F
100
AcDbEntity
  8
DIM
100
AcDbLine
 10
321.0948671579
 20
5.2700906025
 30
0.0
 11
321.0948671579
 21
84.7450906025
 31
0.0
  0
LINE
  5
7D
330
1F
100
AcDbEntity
  8
DIM
100
AcDbLine
 10
314.4009051641
 20
66.0450906025
 30
0.0
 11
321.0948671579
 21
66.0450906025
 31
0.0
  0
LINE
  5
7E
330
1F
100
AcDbEntity
  8
DIM
100
AcDbLine
 10
164.0136859378
 20
9.9450906025
 30
0.0
 11
164.0136859378
 21
5.2700906025
 31
0.0
  0
LINE
  5
7F
330
1F
100
AcDbEntity
  8
DIM
100
AcDbLine
 10
216.4403440765
 20
10.7700906025
 30
0.0
 11
216.4403440765
 21
5.2700906025
 31
0.0
  0
LINE
  5
80
330
1F
100
AcDbEntity
  8
DIM
100
AcDbLine
 10
164.0136859378
 20
10.7700906025
 30
0.0
 11
164.0136859378
 21
9.9450906025
 31
0.0
  0
LINE
  5
81
330
1F
100
AcDbEntity
  8
DIM
100
AcDbLine
 10
315.5948671579
 20
19.2950114025
 30
0.0
 11
321.0948671579
 21
19.2950114025
 31
0.0
  0
LINE
  5
82
330
1F
100
AcDbEntity
  8
DIM
100
AcDbLine
 10
315.5948671579
 20
219.7700906025
 30
0.0
 11
10.8948671579
 21
219.7700906025
 31
0.0
  0
LINE
  5
83
330
1F
100
AcDbEntity
  8
DIM
100
AcDbLine
 10
321.0948671579
 20
225.2700906025
 30
0.0
 11
5.3948671579
 21
225.2700906025
 31
0.0
  0
LINE
  5
84
330
1F
100
AcDbEntity
  8
DIM
100
AcDbLine
 10
10.8948671579
 20
219.7700906025
 30
0.0
 11
10.8948671579
 21
10.7700906025
 31
0.0
  0
LINE
  5
85
330
1F
100
AcDbEntity
  8
DIM
100
AcDbLine
 10
5.3948671579
 20
225.2700906025
 30
0.0
 11
5.3948671579
 21
5.2700906025
 31
0.0
  0
LINE
  5
86
330
1F
100
AcDbEntity
  8
DIM
100
AcDbLine
 10
10.8948671579
 20
60.2700906025
 30
0.0
 11
5.3948671579
 21
60.2700906025
 31
0.0
  0
LINE
  5
87
330
1F
100
AcDbEntity
  8
DIM
100
AcDbLine
 10
5.3948671579
 20
115.2700906025
 30
0.0
 11
10.8948671579
 21
115.2700906025
 31
0.0
  0
LINE
  5
88
330
1F
100
AcDbEntity
  8
DIM
100
AcDbLine
 10
5.3948671579
 20
5.2700906025
 30
0.0
 11
321.0948671579
 21
5.2700906025
 31
0.0
  0
LINE
  5
89
330
1F
100
AcDbEntity
  8
DIM
100
AcDbLine
 10
10.8948671579
 20
10.7700906025
 30
0.0
 11
321.0948671579
 21
10.7700906025
 31
0.0
  0
LINE
  5
8A
330
1F
100
AcDbEntity
  8
DIM
100
AcDbLine
 10
53.2448671579
 20
5.2700906025
 30
0.0
 11
53.2448671579
 21
10.7700906025
 31
0.0
  0
LINE
  5
8B
330
1F
100
AcDbEntity
  8
DIM
100
AcDbLine
 10
108.2448671579
 20
10.7700906025
 30
0.0
 11
108.2448671579
 21
5.2700906025
 31
0.0
  0
LINE
  5
8C
330
1F
100
AcDbEntity
  8
DIM
100
AcDbLine
 10
10.8948671579
 20
170.2700906025
 30
0.0
 11
5.3948671579
 21
170.2700906025
 31
0.0
  0
LINE
  5
8D
330
1F
100
AcDbEntity
  8
DIM
100
AcDbLine
 10
53.2448671579
 20
219.7700906025
 30
0.0
 11
53.2448671579
 21
225.2700906025
 31
0.0
  0
LINE
  5
8E
330
1F
100
AcDbEntity
  8
DIM
100
AcDbLine
 10
108.2448671579
 20
225.2700906025
 30
0.0
 11
108.2448671579
 21
219.7700906025
 31
0.0
  0
LINE
  5
8F
330
1F
100
AcDbEntity
  8
DIM
100
AcDbLine
 10
163.2448671579
 20
225.2700906025
 30
0.0
 11
163.2448671579
 21
219.7700906025
 31
0.0
  0
LINE
  5
90
330
1F
100
AcDbEntity
  8
DIM
100
AcDbLine
 10
315.5948671579
 20
10.7700906025
 30
0.0
 11
315.5948671579
 21
219.7700906025
 31
0.0
  0
LINE
  5
91
330
1F
100
AcDbEntity
  8
DIM
100
AcDbLine
 10
321.0948671579
 20
84.7450906025
 30
0.0
 11
321.0948671579
 21
225.2700906025
 31
0.0
  0
LINE
  5
92
330
1F
100
AcDbEntity
  8
DIM
100
AcDbLine
 10
321.0948671579
 20
115.2700906025
 30
0.0
 11
315.5948671579
 21
115.2700906025
 31
0.0
  0
LINE
  5
93
330
1F
100
AcDbEntity
  8
DIM
100
AcDbLine
 10
218.2448671579
 20
225.2700906025
 30
0.0
 11
218.2448671579
 21
219.7700906025
 31
0.0
  0
LINE
  5
94
330
1F
100
AcDbEntity
  8
DIM
100
AcDbLine
 10
273.2448671579
 20
219.7700906025
 30
0.0
 11
273.2448671579
 21
225.2700906025
 31
0.0
  0
LINE
  5
95
330
1F
100
AcDbEntity
  8
DIM
100
AcDbLine
 10
315.5948671579
 20
170.2700906025
 30
0.0
 11
321.0948671579
 21
170.2700906025
 31
0.0
  0
MTEXT
  5
97
330
1F
100
AcDbEntity
  8
DIM
100
AcDbMText
 10
16.1610704104
 20
213.097609972
 30
0.0
 40
4.6566666667
 41
0.0
 71
     1
 72
     1
  1
BT40 KWFLK3 164.5
  7
SLDTEXTSTYLE0
 73
     1
 44
1.0
  0
MTEXT
  5
99
330
1F
100
AcDbEntity
  8
DIM
 62
     7
100
AcDbMText
 10
217.5060565113
 20
8.5821466789
 30
0.0
 40
1.64846
 41
0.0
 71
     1
 72
     1
  1
WEIGHT:
  7
SLDTEXTSTYLE1
 73
     1
 44
1.0
  0
MTEXT
  5
9A
330
1F
100
AcDbEntity
  8
DIM
 62
     7
100
AcDbMText
 10
317.4567844303
 20
90.1346748591
 30
0.0
 40
2.0372916667
 41
0.0
 71
     1
 72
     1
  1
C
  7
SLDTEXTSTYLE1
 73
     1
 44
1.0
  0
MTEXT
  5
9B
330
1F
100
AcDbEntity
  8
DIM
 62
     7
100
AcDbMText
 10
311.3479386814
 20
16.339380182
 30
0.0
 40
3.2014583333
 41
0.0
 71
     1
 72
     1
  1
A4
  7
SLDTEXTSTYLE1
 73
     1
 44
1.0
  0
MTEXT
  5
9C
330
1F
100
AcDbEntity
  8
DIM
 62
     7
100
AcDbMText
 10
299.8282048912
 20
223.8049086465
 30
0.0
 40
2.0372916667
 41
0.0
 71
     1
 72
     1
  1
6
  7
SLDTEXTSTYLE1
 73
     1
 44
1.0
  0
MTEXT
  5
9D
330
1F
100
AcDbEntity
  8
DIM
 62
     7
100
AcDbMText
 10
244.8282048912
 20
223.8049086465
 30
0.0
 40
2.0372916667
 41
0.0
 71
     1
 72
     1
  1
5
  7
SLDTEXTSTYLE1
 73
     1
 44
1.0
  0
MTEXT
  5
9E
330
1F
100
AcDbEntity
  8
DIM
 62
     7
100
AcDbMText
 10
317.4282092912
 20
199.0549086465
 30
0.0
 40
2.0372916667
 41
0.0
 71
     1
 72
     1
  1
A
  7
SLDTEXTSTYLE1
 73
     1
 44
1.0
  0
MTEXT
  5
9F
330
1F
100
AcDbEntity
  8
DIM
 62
     7
100
AcDbMText
 10
317.4282092912
 20
144.0549086465
 30
0.0
 40
2.0372916667
 41
0.0
 71
     1
 72
     1
  1
B
  7
SLDTEXTSTYLE1
 73
     1
 44
1.0
  0
MTEXT
  5
A0
330
1F
100
AcDbEntity
  8
DIM
 62
     7
100
AcDbMText
 10
189.8282048912
 20
223.8049086465
 30
0.0
 40
2.0372916667
 41
0.0
 71
     1
 72
     1
  1
4
  7
SLDTEXTSTYLE1
 73
     1
 44
1.0
  0
MTEXT
  5
A1
330
1F
100
AcDbEntity
  8
DIM
 62
     7
100
AcDbMText
 10
25.2865382246
 20
223.8049086465
 30
0.0
 40
2.0372916667
 41
0.0
 71
     1
 72
     1
  1
1
  7
SLDTEXTSTYLE1
 73
     1
 44
1.0
  0
MTEXT
  5
A2
330
1F
100
AcDbEntity
  8
DIM
 62
     7
100
AcDbMText
 10
79.8282048912
 20
223.8049086465
 30
0.0
 40
2.0372916667
 41
0.0
 71
     1
 72
     1
  1
2
  7
SLDTEXTSTYLE1
 73
     1
 44
1.0
  0
MTEXT
  5
A3
330
1F
100
AcDbEntity
  8
DIM
 62
     7
100
AcDbMText
 10
134.8282048912
 20
223.8049086465
 30
0.0
 40
2.0372916667
 41
0.0
 71
     1
 72
     1
  1
3
  7
SLDTEXTSTYLE1
 73
     1
 44
1.0
  0
MTEXT
  5
A4
330
1F
100
AcDbEntity
  8
DIM
 62
     7
100
AcDbMText
 10
7.2282004912
 20
199.0549086465
 30
0.0
 40
2.0372916667
 41
0.0
 71
     1
 72
     1
  1
A
  7
SLDTEXTSTYLE1
 73
     1
 44
1.0
  0
MTEXT
  5
A5
330
1F
100
AcDbEntity
  8
DIM
 62
     7
100
AcDbMText
 10
79.8282048912
 20
9.3049086465
 30
0.0
 40
2.0372916667
 41
0.0
 71
     1
 72
     1
  1
2
  7
SLDTEXTSTYLE1
 73
     1
 44
1.0
  0
MTEXT
  5
A6
330
1F
100
AcDbEntity
  8
DIM
 62
     7
100
AcDbMText
 10
25.2865382246
 20
9.3049086465
 30
0.0
 40
2.0372916667
 41
0.0
 71
     1
 72
     1
  1
1
  7
SLDTEXTSTYLE1
 73
     1
 44
1.0
  0
MTEXT
  5
A7
330
1F
100
AcDbEntity
  8
DIM
 62
     7
100
AcDbMText
 10
7.2282004912
 20
34.0549086465
 30
0.0
 40
2.0372916667
 41
0.0
 71
     1
 72
     1
  1
D
  7
SLDTEXTSTYLE1
 73
     1
 44
1.0
  0
MTEXT
  5
A8
330
1F
100
AcDbEntity
  8
DIM
 62
     7
100
AcDbMText
 10
7.2282004912
 20
89.0549086465
 30
0.0
 40
2.0372916667
 41
0.0
 71
     1
 72
     1
  1
C
  7
SLDTEXTSTYLE1
 73
     1
 44
1.0
  0
MTEXT
  5
A9
330
1F
100
AcDbEntity
  8
DIM
 62
     7
100
AcDbMText
 10
7.2282004912
 20
144.0549086465
 30
0.0
 40
2.0372916667
 41
0.0
 71
     1
 72
     1
  1
B
  7
SLDTEXTSTYLE1
 73
     1
 44
1.0
  0
MTEXT
  5
AA
330
1F
100
AcDbEntity
  8
DIM
 62
     7
100
AcDbMText
 10
317.4567844303
 20
90.1346748591
 30
0.0
 40
2.0372916667
 41
0.0
 71
     1
 72
     1
  1
C
  7
SLDTEXTSTYLE1
 73
     1
 44
1.0
  0
MTEXT
  5
AC
330
1F
100
AcDbEntity
  8
DIM
 62
     7
100
AcDbMText
 10
282.1779023938
 20
8.4601866045
 30
0.0
 40
1.65
 41
0.0
 71
     1
 72
     1
  1
SHEET 1 OF 1
  7
SLDTEXTSTYLE2
 73
     1
 44
1.0
  0
MTEXT
  5
AD
330
1F
100
AcDbEntity
  8
DIM
 62
     7
100
AcDbMText
 10
165.4089584218
 20
8.638704232
 30
0.0
 40
1.65
 41
0.0
 71
     1
 72
     1
  1
MATERIAL:
  7
SLDTEXTSTYLE1
 73
     1
 44
1.0
  0
MTEXT
  5
AE
330
1F
100
AcDbEntity
  8
DIM
 62
     7
100
AcDbMText
 10
299.8282048912
 20
223.8049086465
 30
0.0
 40
2.0372916667
 41
0.0
 71
     1
 72
     1
  1
6
  7
SLDTEXTSTYLE1
 73
     1
 44
1.0
  0
MTEXT
  5
AF
330
1F
100
AcDbEntity
  8
DIM
 62
     7
100
AcDbMText
 10
244.8282048912
 20
223.8049086465
 30
0.0
 40
2.0372916667
 41
0.0
 71
     1
 72
     1
  1
5
  7
SLDTEXTSTYLE1
 73
     1
 44
1.0
  0
MTEXT
  5
B0
330
1F
100
AcDbEntity
  8
DIM
 62
     7
100
AcDbMText
 10
317.4282092912
 20
199.0549086465
 30
0.0
 40
2.0372916667
 41
0.0
 71
     1
 72
     1
  1
A
  7
SLDTEXTSTYLE1
 73
     1
 44
1.0
  0
MTEXT
  5
B1
330
1F
100
AcDbEntity
  8
DIM
 62
     7
100
AcDbMText
 10
317.4282092912
 20
144.0549086465
 30
0.0
 40
2.0372916667
 41
0.0
 71
     1
 72
     1
  1
B
  7
SLDTEXTSTYLE1
 73
     1
 44
1.0
  0
MTEXT
  5
B2
330
1F
100
AcDbEntity
  8
DIM
 62
     7
100
AcDbMText
 10
189.8282048912
 20
223.8049086465
 30
0.0
 40
2.0372916667
 41
0.0
 71
     1
 72
     1
  1
4
  7
SLDTEXTSTYLE1
 73
     1
 44
1.0
  0
MTEXT
  5
B3
330
1F
100
AcDbEntity
  8
DIM
 62
     7
100
AcDbMText
 10
25.2865382246
 20
223.8049086465
 30
0.0
 40
2.0372916667
 41
0.0
 71
     1
 72
     1
  1
1
  7
SLDTEXTSTYLE1
 73
     1
 44
1.0
  0
MTEXT
  5
B4
330
1F
100
AcDbEntity
  8
DIM
 62
     7
100
AcDbMText
 10
79.8282048912
 20
223.8049086465
 30
0.0
 40
2.0372916667
 41
0.0
 71
     1
 72
     1
  1
2
  7
SLDTEXTSTYLE1
 73
     1
 44
1.0
  0
MTEXT
  5
B5
330
1F
100
AcDbEntity
  8
DIM
 62
     7
100
AcDbMText
 10
134.8282048912
 20
223.8049086465
 30
0.0
 40
2.0372916667
 41
0.0
 71
     1
 72
     1
  1
3
  7
SLDTEXTSTYLE1
 73
     1
 44
1.0
  0
MTEXT
  5
B6
330
1F
100
AcDbEntity
  8
DIM
 62
     7
100
AcDbMText
 10
7.2282004912
 20
199.0549086465
 30
0.0
 40
2.0372916667
 41
0.0
 71
     1
 72
     1
  1
A
  7
SLDTEXTSTYLE1
 73
     1
 44
1.0
  0
MTEXT
  5
B7
330
1F
100
AcDbEntity
  8
DIM
 62
     7
100
AcDbMText
 10
79.8282048912
 20
9.3049086465
 30
0.0
 40
2.0372916667
 41
0.0
 71
     1
 72
     1
  1
2
  7
SLDTEXTSTYLE1
 73
     1
 44
1.0
  0
MTEXT
  5
B8
330
1F
100
AcDbEntity
  8
DIM
 62
     7
100
AcDbMText
 10
25.2865382246
 20
9.3049086465
 30
0.0
 40
2.0372916667
 41
0.0
 71
     1
 72
     1
  1
1
  7
SLDTEXTSTYLE1
 73
     1
 44
1.0
  0
MTEXT
  5
B9
330
1F
100
AcDbEntity
  8
DIM
 62
     7
100
AcDbMText
 10
7.2282004912
 20
34.0549086465
 30
0.0
 40
2.0372916667
 41
0.0
 71
     1
 72
     1
  1
D
  7
SLDTEXTSTYLE1
 73
     1
 44
1.0
  0
MTEXT
  5
BA
330
1F
100
AcDbEntity
  8
DIM
 62
     7
100
AcDbMText
 10
7.2282004912
 20
89.0549086465
 30
0.0
 40
2.0372916667
 41
0.0
 71
     1
 72
     1
  1
C
  7
SLDTEXTSTYLE1
 73
     1
 44
1.0
  0
MTEXT
  5
BB
330
1F
100
AcDbEntity
  8
DIM
 62
     7
100
AcDbMText
 10
7.2282004912
 20
144.0549086465
 30
0.0
 40
2.0372916667
 41
0.0
 71
     1
 72
     1
  1
B
  7
SLDTEXTSTYLE1
 73
     1
 44
1.0
  0
LINE
  5
BC
330
1F
100
AcDbEntity
  8
0
  6
Continuous
 62
     7
370
    15
100
AcDbLine
 10
252.7407397784
 20
86.2416307529
 30
0.0
 11
266.2407397784
 21
86.2416307529
 31
0.0
  0
LINE
  5
BD
330
1F
100
AcDbEntity
  8
0
  6
Continuous
 62
     7
370
    15
100
AcDbLine
 10
266.2407397784
 20
164.2416307529
 30
0.0
 11
252.7407397784
 21
164.2416307529
 31
0.0
  0
LINE
  5
BE
330
1F
100
AcDbEntity
  8
0
  6
Continuous
 62
     7
370
    15
100
AcDbLine
 10
252.7407397784
 20
164.2416307529
 30
0.0
 11
252.4907397784
 21
163.9916307529
 31
0.0
  0
LINE
  5
BF
330
1F
100
AcDbEntity
  8
0
  6
Continuous
 62
     7
370
    15
100
AcDbLine
 10
252.4907397784
 20
86.4916307529
 30
0.0
 11
252.7407397784
 21
86.2416307529
 31
0.0
  0
LINE
  5
C0
330
1F
100
AcDbEntity
  8
0
  6
Continuous
 62
     7
370
    15
100
AcDbLine
 10
266.2407397784
 20
86.2416307529
 30
0.0
 11
267.7407397784
 21
87.7416307529
 31
0.0
  0
LINE
  5
C1
330
1F
100
AcDbEntity
  8
0
  6
Continuous
 62
     7
370
    15
100
AcDbLine
 10
267.7407397784
 20
162.7416307529
 30
0.0
 11
266.2407397784
 21
164.2416307529
 31
0.0
  0
LINE
  5
C2
330
1F
100
AcDbEntity
  8
0
  6
Continuous
 62
     7
370
    15
100
AcDbLine
 10
226.7407397784
 20
164.2416307529
 30
0.0
 11
226.4907397784
 21
163.9916307529
 31
0.0
  0
LINE
  5
C3
330
1F
100
AcDbEntity
  8
0
  6
Continuous
 62
     7
370
    15
100
AcDbLine
 10
226.4907397784
 20
86.4916307529
 30
0.0
 11
226.7407397784
 21
86.2416307529
 31
0.0
  0
LINE
  5
C4
330
1F
100
AcDbEntity
  8
0
  6
Continuous
 62
     7
370
    15
100
AcDbLine
 10
197.2407397784
 20
164.2416307529
 30
0.0
 11
196.7407397784
 21
163.7416307529
 31
0.0
  0
LINE
  5
C5
330
1F
100
AcDbEntity
  8
0
  6
Continuous
 62
     7
370
    15
100
AcDbLine
 10
196.7407397784
 20
86.7416307529
 30
0.0
 11
197.2407397784
 21
86.2416307529
 31
0.0
  0
LINE
  5
C6
330
1F
100
AcDbEntity
  8
0
  6
Continuous
 62
     7
370
    15
100
AcDbLine
 10
197.2407397784
 20
86.2416307529
 30
0.0
 11
211.7407397784
 21
86.2416307529
 31
0.0
  0
LINE
  5
C7
330
1F
100
AcDbEntity
  8
0
  6
Continuous
 62
     7
370
    15
100
AcDbLine
 10
211.7407397784
 20
164.2416307529
 30
0.0
 11
197.2407397784
 21
164.2416307529
 31
0.0
  0
LINE
  5
C8
330
1F
100
AcDbEntity
  8
0
  6
Continuous
 62
     7
370
    15
100
AcDbLine
 10
226.7407397784
 20
86.2416307529
 30
0.0
 11
237.7407397784
 21
86.2416307529
 31
0.0
  0
LINE
  5
C9
330
1F
100
AcDbEntity
  8
0
  6
Continuous
 62
     7
370
    15
100
AcDbLine
 10
237.7407397784
 20
164.2416307529
 30
0.0
 11
226.7407397784
 21
164.2416307529
 31
0.0
  0
LINE
  5
CA
330
1F
100
AcDbEntity
  8
0
  6
Continuous
 62
     7
370
    15
100
AcDbLine
 10
211.7407397784
 20
86.2416307529
 30
0.0
 11
211.9907397784
 21
86.4916307529
 31
0.0
  0
LINE
  5
CB
330
1F
100
AcDbEntity
  8
0
  6
Continuous
 62
     7
370
    15
100
AcDbLine
 10
211.9907397784
 20
163.9916307529
 30
0.0
 11
211.7407397784
 21
164.2416307529
 31
0.0
  0
LINE
  5
CC
330
1F
100
AcDbEntity
  8
0
  6
Continuous
 62
     7
370
    15
100
AcDbLine
 10
237.7407397784
 20
86.2416307529
 30
0.0
 11
237.9907397784
 21
86.4916307529
 31
0.0
  0
LINE
  5
CD
330
1F
100
AcDbEntity
  8
0
  6
Continuous
 62
     7
370
    15
100
AcDbLine
 10
237.9907397784
 20
163.9916307529
 30
0.0
 11
237.7407397784
 21
164.2416307529
 31
0.0
  0
LINE
  5
CE
330
1F
100
AcDbEntity
  8
0
  6
Continuous
 62
     7
370
    15
100
AcDbLine
 10
237.9907397784
 20
86.4916307529
 30
0.0
 11
252.4907397784
 21
86.4916307529
 31
0.0
  0
LINE
  5
CF
330
1F
100
AcDbEntity
  8
0
  6
Continuous
 62
     7
370
    15
100
AcDbLine
 10
252.4907397784
 20
163.9916307529
 30
0.0
 11
237.9907397784
 21
163.9916307529
 31
0.0
  0
LINE
  5
D0
330
1F
100
AcDbEntity
  8
0
  6
Continuous
 62
     7
370
    15
100
AcDbLine
 10
211.9907397784
 20
86.4916307529
 30
0.0
 11
226.4907397784
 21
86.4916307529
 31
0.0
  0
LINE
  5
D1
330
1F
100
AcDbEntity
  8
0
  6
Continuous
 62
     7
370
    15
100
AcDbLine
 10
226.4907397784
 20
163.9916307529
 30
0.0
 11
211.9907397784
 21
163.9916307529
 31
0.0
  0
LINE
  5
D2
330
1F
100
AcDbEntity
  8
0
  6
Continuous
 62
     7
370
    15
100
AcDbLine
 10
162.9407397784
 20
89.2416307529
 30
0.0
 11
196.7407397784
 21
89.2416307529
 31
0.0
  0
LINE
  5
D3
330
1F
100
AcDbEntity
  8
0
  6
Continuous
 62
     7
370
    15
100
AcDbLine
 10
196.7407397784
 20
161.2416307529
 30
0.0
 11
162.9407397784
 21
161.2416307529
 31
0.0
  0
LINE
  5
D4
330
1F
100
AcDbEntity
  8
0
  6
Continuous
 62
     7
370
    15
100
AcDbLine
 10
162.9407397784
 20
161.2416307529
 30
0.0
 11
157.8194194344
 21
156.1203104089
 31
0.0
  0
LINE
  5
D5
330
1F
100
AcDbEntity
  8
0
  6
Continuous
 62
     7
370
    15
100
AcDbLine
 10
157.8194194344
 20
94.3629510969
 30
0.0
 11
162.9407397784
 21
89.2416307529
 31
0.0
  0
LINE
  5
D6
330
1F
100
AcDbEntity
  8
0
  6
Continuous
 62
     7
370
    15
100
AcDbLine
 10
124.8269587365
 20
93.7416307529
 30
0.0
 11
129.0750543534
 21
93.7416307529
 31
0.0
  0
LINE
  5
D7
330
1F
100
AcDbEntity
  8
0
  6
Continuous
 62
     7
370
    15
100
AcDbLine
 10
129.0750543534
 20
156.7416307529
 30
0.0
 11
124.8269587365
 21
156.7416307529
 31
0.0
  0
LINE
  5
D8
330
1F
100
AcDbEntity
  8
0
  6
Continuous
 62
     7
370
    15
100
AcDbLine
 10
114.8568527003
 20
93.7416307529
 30
0.0
 11
117.3407397793
 21
98.0438493741
 31
0.0
  0
LINE
  5
D9
330
1F
100
AcDbEntity
  8
0
  6
Continuous
 62
     7
370
    15
100
AcDbLine
 10
117.3407397793
 20
152.4394121317
 30
0.0
 11
114.8568527003
 21
156.7416307529
 31
0.0
  0
LINE
  5
DA
330
1F
100
AcDbEntity
  8
0
  6
Continuous
 62
     7
370
    15
100
AcDbLine
 10
124.8269587365
 20
156.7416307529
 30
0.0
 11
122.3407397781
 21
152.4353731982
 31
0.0
  0
LINE
  5
DB
330
1F
100
AcDbEntity
  8
0
  6
Continuous
 62
     7
370
    15
100
AcDbLine
 10
122.3407397781
 20
98.0478883076
 30
0.0
 11
124.8269587365
 21
93.7416307529
 31
0.0
  0
LINE
  5
DC
330
1F
100
AcDbEntity
  8
0
  6
Continuous
 62
     7
370
    15
100
AcDbLine
 10
106.4064252043
 20
93.7416307529
 30
0.0
 11
114.8568527003
 21
93.7416307529
 31
0.0
  0
LINE
  5
DD
330
1F
100
AcDbEntity
  8
0
  6
Continuous
 62
     7
370
    15
100
AcDbLine
 10
114.8568527003
 20
156.7416307529
 30
0.0
 11
106.4064252035
 21
156.7416307529
 31
0.0
  0
LINE
  5
DE
330
1F
100
AcDbEntity
  8
0
  6
Continuous
 62
     7
370
    15
100
AcDbLine
 10
106.123582491
 20
156.6244734655
 30
0.0
 11
105.3578970654
 21
155.8587880399
 31
0.0
  0
LINE
  5
DF
330
1F
100
AcDbEntity
  8
0
  6
Continuous
 62
     7
370
    15
100
AcDbLine
 10
105.3578970655
 20
94.6244734658
 30
0.0
 11
106.1235824914
 21
93.85878804
 31
0.0
  0
LINE
  5
E0
330
1F
100
AcDbEntity
  8
0
  6
Continuous
 62
     7
370
    15
100
AcDbLine
 10
129.3578970664
 20
93.8587880409
 30
0.0
 11
130.1235824911
 21
94.6244734656
 31
0.0
  0
LINE
  5
E1
330
1F
100
AcDbEntity
  8
0
  6
Continuous
 62
     7
370
    15
100
AcDbLine
 10
130.1235824909
 20
155.8587880404
 30
0.0
 11
129.3578970663
 21
156.6244734651
 31
0.0
  0
SPLINE
  5
E2
330
1F
100
AcDbEntity
  8
0
  6
Continuous
 62
     7
370
    15
100
AcDbSpline
210
0.0
220
0.0
230
1.0
 70
     8
 71
     3
 72
    11
 73
     7
 74
     0
 42
0.000000001
 43
0.00000001
 40
0.0
 40
0.0
 40
0.0
 40
0.0
 40
0.2475748604191974
 40
0.499999999237459
 40
0.7524251384407404
 40
1.0
 40
1.0
 40
1.0
 40
1.0
 10
106.1235824917117
 20
93.85878803985146
 30
0.0
 10
106.1429475146305
 20
93.84147510989823
 30
0.0
 10
106.1820569437069
 20
93.8065100696322
 30
0.0
 10
106.2524772545481
 20
93.76996752499534
 30
0.0
 10
106.3281114151924
 20
93.74601232702938
 30
0.0
 10
106.3804899749457
 20
93.74308180175488
 30
0.0
 10
106.4064252042654
 20
93.74163075297882
 30
0.0
  0
ARC
  5
E3
330
1F
100
AcDbEntity
  8
0
  6
Continuous
 62
     7
370
    15
100
AcDbCircle
 10
133.2367003709
 20
94.7416307537
 30
0.0
 40
2.999999999938634
100
AcDbArc
 50
90.0000000089
 51
177.2068126934
  0
ARC
  5
E4
330
1F
100
AcDbEntity
  8
0
  6
Continuous
 62
     7
370
    15
100
AcDbCircle
 10
133.2367003709
 20
155.7416307521
 30
0.0
 40
2.999999999938615
100
AcDbArc
 50
182.7931873004
 51
269.9999999911
  0
LINE
  5
E5
330
1F
100
AcDbEntity
  8
0
  6
Continuous
 62
     7
370
    15
100
AcDbLine
 10
149.4407397784
 20
95.2416307529
 30
0.0
 11
155.6980990922
 21
95.2416307529
 31
0.0
  0
LINE
  5
E6
330
1F
100
AcDbEntity
  8
0
  6
Continuous
 62
     7
370
    15
100
AcDbLine
 10
155.6980990922
 20
155.2416307529
 30
0.0
 11
149.4407397784
 21
155.2416307529
 31
0.0
  0
LINE
  5
E7
330
1F
100
AcDbEntity
  8
0
  6
Continuous
 62
     7
370
    15
100
AcDbLine
 10
149.4407397784
 20
155.2416307529
 30
0.0
 11
147.8194194344
 21
153.6203104089
 31
0.0
  0
LINE
  5
E8
330
1F
100
AcDbEntity
  8
0
  6
Continuous
 62
     7
370
    15
100
AcDbLine
 10
147.8194194344
 20
96.8629510969
 30
0.0
 11
149.4407397784
 21
95.2416307529
 31
0.0
  0
LINE
  5
E9
330
1F
100
AcDbEntity
  8
0
  6
Continuous
 62
     7
370
    15
100
AcDbLine
 10
133.2367003704
 20
97.7416307529
 30
0.0
 11
145.6980990922
 21
97.7416307529
 31
0.0
  0
LINE
  5
EA
330
1F
100
AcDbEntity
  8
0
  6
Continuous
 62
     7
370
    15
100
AcDbLine
 10
145.698099092
 20
152.7416307529
 30
0.0
 11
133.2367003704
 21
152.7416307529
 31
0.0
  0
LINE
  5
EB
330
1F
100
AcDbEntity
  8
0
  6
Continuous
 62
     7
370
    15
100
AcDbLine
 10
117.3407397784
 20
98.7416307529
 30
0.0
 11
122.3407397794
 21
98.7416307529
 31
0.0
  0
LINE
  5
EC
330
1F
100
AcDbEntity
  8
0
  6
Continuous
 62
     7
370
    15
100
AcDbLine
 10
122.3407397794
 20
151.7416307529
 30
0.0
 11
117.3407397784
 21
151.7416307529
 31
0.0
  0
ARC
  5
ED
330
1F
100
AcDbEntity
  8
0
  6
Continuous
 62
     7
370
    15
100
AcDbCircle
 10
104.8407397781
 20
102.8416307526
 30
0.0
 40
0.4000000002154849
100
AcDbArc
 50
0.0
 51
89.9999999705
  0
ARC
  5
EE
330
1F
100
AcDbEntity
  8
0
  6
Continuous
 62
     7
370
    15
100
AcDbCircle
 10
104.8407397781
 20
147.6416307532
 30
0.0
 40
0.4000000002154849
100
AcDbArc
 50
270.0000000295
 51
0.0
  0
LINE
  5
EF
330
1F
100
AcDbEntity
  8
0
  6
Continuous
 62
     7
370
    15
100
AcDbLine
 10
103.2407397784
 20
103.0166307529
 30
0.0
 11
103.7232538354
 21
103.2416307529
 31
0.0
  0
LINE
  5
F0
330
1F
100
AcDbEntity
  8
0
  6
Continuous
 62
     7
370
    15
100
AcDbLine
 10
103.7232538354
 20
147.2416307529
 30
0.0
 11
103.2407397784
 21
147.4666307529
 31
0.0
  0
LINE
  5
F1
330
1F
100
AcDbEntity
  8
0
  6
Continuous
 62
     7
370
    15
100
AcDbLine
 10
103.2407397784
 20
147.4666307529
 30
0.0
 11
38.6964315514
 21
138.0538302599
 31
0.0
  0
LINE
  5
F2
330
1F
100
AcDbEntity
  8
0
  6
Continuous
 62
     7
370
    15
100
AcDbLine
 10
38.6964315514
 20
112.4294312459
 30
0.0
 11
103.2407397784
 21
103.0166307529
 31
0.0
  0
LINE
  5
F3
330
1F
100
AcDbEntity
  8
0
  6
Continuous
 62
     7
370
    15
100
AcDbLine
 10
103.7232538354
 20
103.2416307529
 30
0.0
 11
104.8407397783
 21
103.2416307529
 31
0.0
  0
LINE
  5
F4
330
1F
100
AcDbEntity
  8
0
  6
Continuous
 62
     7
370
    15
100
AcDbLine
 10
104.8407397783
 20
147.2416307529
 30
0.0
 11
103.7232538354
 21
147.2416307529
 31
0.0
  0
LINE
  5
F5
330
1F
100
AcDbEntity
  8
0
  6
Continuous
 62
     7
370
    15
100
AcDbLine
 10
252.7407397784
 20
125.2416307529
 30
0.0
 11
252.7407397784
 21
86.2416307529
 31
0.0
  0
LINE
  5
F6
330
1F
100
AcDbEntity
  8
0
  6
Continuous
 62
     7
370
    15
100
AcDbLine
 10
252.7407397784
 20
164.2416307529
 30
0.0
 11
252.7407397784
 21
125.2416307529
 31
0.0
  0
LINE
  5
F7
330
1F
100
AcDbEntity
  8
0
  6
Continuous
 62
     7
370
    15
100
AcDbLine
 10
266.2407397784
 20
125.2416307529
 30
0.0
 11
266.2407397784
 21
86.2416307529
 31
0.0
  0
LINE
  5
F8
330
1F
100
AcDbEntity
  8
0
  6
Continuous
 62
     7
370
    15
100
AcDbLine
 10
266.2407397784
 20
164.2416307529
 30
0.0
 11
266.2407397784
 21
125.2416307529
 31
0.0
  0
LINE
  5
F9
330
1F
100
AcDbEntity
  8
0
  6
Continuous
 62
     7
370
    15
100
AcDbLine
 10
252.4907397784
 20
163.9916307529
 30
0.0
 11
252.4907397784
 21
86.4916307529
 31
0.0
  0
LINE
  5
FA
330
1F
100
AcDbEntity
  8
0
  6
Continuous
 62
     7
370
    15
100
AcDbLine
 10
267.7407397784
 20
125.2416307529
 30
0.0
 11
267.7407397784
 21
162.7416307529
 31
0.0
  0
LINE
  5
FB
330
1F
100
AcDbEntity
  8
0
  6
Continuous
 62
     7
370
    15
100
AcDbLine
 10
267.7407397784
 20
87.7416307529
 30
0.0
 11
267.7407397784
 21
125.2416307529
 31
0.0
  0
LINE
  5
FC
330
1F
100
AcDbEntity
  8
0
  6
Continuous
 62
     7
370
    15
100
AcDbLine
 10
226.4907397784
 20
163.9916307529
 30
0.0
 11
226.4907397784
 21
86.4916307529
 31
0.0
  0
LINE
  5
FD
330
1F
100
AcDbEntity
  8
0
  6
Continuous
 62
     7
370
    15
100
AcDbLine
 10
226.7407397784
 20
164.2416307529
 30
0.0
 11
226.7407397784
 21
86.2416307529
 31
0.0
  0
LINE
  5
FE
330
1F
100
AcDbEntity
  8
0
  6
Continuous
 62
     7
370
    15
100
AcDbLine
 10
197.2407397784
 20
164.2416307529
 30
0.0
 11
197.2407397784
 21
86.2416307529
 31
0.0
  0
LINE
  5
FF
330
1F
100
AcDbEntity
  8
0
  6
Continuous
 62
     7
370
    15
100
AcDbLine
 10
196.7407397784
 20
163.7416307529
 30
0.0
 11
196.7407397784
 21
86.7416307529
 31
0.0
  0
LINE
  5
100
330
1F
100
AcDbEntity
  8
0
  6
Continuous
 62
     7
370
    15
100
AcDbLine
 10
211.7407397784
 20
125.2416307529
 30
0.0
 11
211.7407397784
 21
86.2416307529
 31
0.0
  0
LINE
  5
101
330
1F
100
AcDbEntity
  8
0
  6
Continuous
 62
     7
370
    15
100
AcDbLine
 10
211.7407397784
 20
164.2416307529
 30
0.0
 11
211.7407397784
 21
125.2416307529
 31
0.0
  0
LINE
  5
102
330
1F
100
AcDbEntity
  8
0
  6
Continuous
 62
     7
370
    15
100
AcDbLine
 10
237.7407397784
 20
164.2416307529
 30
0.0
 11
237.7407397784
 21
86.2416307529
 31
0.0
  0
LINE
  5
103
330
1F
100
AcDbEntity
  8
0
  6
Continuous
 62
     7
370
    15
100
AcDbLine
 10
211.9907397784
 20
163.9916307529
 30
0.0
 11
211.9907397784
 21
86.4916307529
 31
0.0
  0
LINE
  5
104
330
1F
100
AcDbEntity
  8
0
  6
Continuous
 62
     7
370
    15
100
AcDbLine
 10
237.9907397784
 20
163.9916307529
 30
0.0
 11
237.9907397784
 21
86.4916307529
 31
0.0
  0
LINE
  5
105
330
1F
100
AcDbEntity
  8
0
  6
Continuous
 62
     7
370
    15
100
AcDbLine
 10
162.9407397784
 20
161.2416307529
 30
0.0
 11
162.9407397784
 21
89.2416307529
 31
0.0
  0
LINE
  5
106
330
1F
100
AcDbEntity
  8
0
  6
Continuous
 62
     7
370
    15
100
AcDbLine
 10
157.8194194344
 20
156.1203104089
 30
0.0
 11
157.8194194344
 21
94.3629510969
 31
0.0
  0
LINE
  5
107
330
1F
100
AcDbEntity
  8
0
  6
Continuous
 62
     7
370
    15
100
AcDbLine
 10
124.8269587365
 20
156.7416307529
 30
0.0
 11
124.8269587365
 21
93.7416307529
 31
0.0
  0
LINE
  5
108
330
1F
100
AcDbEntity
  8
0
  6
Continuous
 62
     7
370
    15
100
AcDbLine
 10
129.0750543534
 20
156.7416307529
 30
0.0
 11
129.0750543534
 21
93.7416307529
 31
0.0
  0
SPLINE
  5
109
330
1F
100
AcDbEntity
  8
0
  6
Continuous
 62
     7
370
    15
100
AcDbSpline
210
0.0
220
0.0
230
1.0
 70
     8
 71
     3
 72
    10
 73
     6
 74
     0
 42
0.000000001
 43
0.00000001
 40
0.0
 40
0.0
 40
0.0
 40
0.0
 40
0.5
 40
0.5
 40
1.0
 40
1.0
 40
1.0
 40
1.0
 10
129.0750543534313
 20
156.74163075293
 30
0.0
 10
129.1260788114607
 20
156.7416307530401
 30
0.0
 10
129.1791221096605
 20
156.7314813572773
 30
0.0
 10
129.2771333444619
 20
156.6908837743099
 30
0.0
 10
129.3218173265621
 20
156.6605532049216
 30
0.0
 10
129.3578970663935
 20
156.6244734648619
 30
0.0
  0
LINE
  5
10A
330
1F
100
AcDbEntity
  8
0
  6
Continuous
 62
     7
370
    15
100
AcDbLine
 10
129.3578970664
 20
156.6244734649
 30
0.0
 11
129.3578970664
 21
93.8587880409
 31
0.0
  0
SPLINE
  5
10B
330
1F
100
AcDbEntity
  8
0
  6
Continuous
 62
     7
370
    15
100
AcDbSpline
210
0.0
220
0.0
230
1.0
 70
     8
 71
     3
 72
    10
 73
     6
 74
     0
 42
0.000000001
 43
0.00000001
 40
0.0
 40
0.0
 40
0.0
 40
0.0
 40
0.5
 40
0.5
 40
1.0
 40
1.0
 40
1.0
 40
1.0
 10
129.0750543534232
 20
93.74163075289376
 30
0.0
 10
129.1260788114226
 20
93.74163075278258
 30
0.0
 10
129.1791221095903
 20
93.75178014853186
 30
0.0
 10
129.2771333443448
 20
93.79237773145071
 30
0.0
 10
129.3218173264307
 20
93.82270830080452
 30
0.0
 10
129.3578970662612
 20
93.85878804082961
 30
0.0
  0
LINE
  5
10C
330
1F
100
AcDbEntity
  8
0
  6
Continuous
 62
     7
370
    15
100
AcDbLine
 10
114.8568527003
 20
156.7416307529
 30
0.0
 11
114.8568527003
 21
93.7416307529
 31
0.0
  0
LINE
  5
10D
330
1F
100
AcDbEntity
  8
0
  6
Continuous
 62
     7
370
    15
100
AcDbLine
 10
117.3407397793
 20
152.4394121317
 30
0.0
 11
117.3407397793
 21
98.0438493741
 31
0.0
  0
LINE
  5
10E
330
1F
100
AcDbEntity
  8
0
  6
Continuous
 62
     7
370
    15
100
AcDbLine
 10
122.3407397781
 20
152.4353731982
 30
0.0
 11
122.3407397781
 21
98.0478883076
 31
0.0
  0
LINE
  5
10F
330
1F
100
AcDbEntity
  8
0
  6
Continuous
 62
     7
370
    15
100
AcDbLine
 10
106.4064252035
 20
156.7416307529
 30
0.0
 11
106.4064252036
 21
133.8410679093
 31
0.0
  0
LINE
  5
110
330
1F
100
AcDbEntity
  8
0
  6
Continuous
 62
     7
370
    15
100
AcDbLine
 10
106.4064252038
 20
133.8410679092
 30
0.0
 11
106.4064252038
 21
116.52417738
 31
0.0
  0
SPLINE
  5
111
330
1F
100
AcDbEntity
  8
0
  6
Continuous
 62
     7
370
    15
100
AcDbSpline
210
0.0
220
0.0
230
1.0
 70
     8
 71
     3
 72
    10
 73
     6
 74
     0
 42
0.000000001
 43
0.00000001
 40
0.0
 40
0.0
 40
0.0
 40
0.0
 40
0.5
 40
0.5
 40
1.0
 40
1.0
 40
1.0
 40
1.0
 10
106.4064252042654
 20
116.5241773796093
 30
0.0
 10
106.3493605219037
 20
116.5241773798079
 30
0.0
 10
106.2939164480943
 20
116.539191726424
 30
0.0
 10
106.1974864225892
 20
116.5898616721982
 30
0.0
 10
106.156773673303
 20
116.6247333143038
 30
0.0
 10
106.1235824920141
 20
116.6645780498259
 30
0.0
  0
LINE
  5
112
330
1F
100
AcDbEntity
  8
0
  6
Continuous
 62
     7
370
    15
100
AcDbLine
 10
106.123582491
 20
133.7461494987
 30
0.0
 11
106.123582491
 21
116.6645780511
 31
0.0
  0
SPLINE
  5
113
330
1F
100
AcDbEntity
  8
0
  6
Continuous
 62
     7
370
    15
100
AcDbSpline
210
0.0
220
0.0
230
1.0
 70
     8
 71
     3
 72
     8
 73
     4
 74
     0
 42
0.000000001
 43
0.00000001
 40
0.0
 40
0.0
 40
0.0
 40
0.0
 40
1.0
 40
1.0
 40
1.0
 40
1.0
 10
106.1235824907906
 20
133.746149498639
 30
0.0
 10
106.1947767193929
 20
133.8038632851399
 30
0.0
 10
106.2979476786066
 20
133.841067909441
 30
0.0
 10
106.4064252037092
 20
133.8410679094707
 30
0.0
  0
LINE
  5
114
330
1F
100
AcDbEntity
  8
0
  6
Continuous
 62
     7
370
    15
100
AcDbLine
 10
105.3578970653
 20
133.8744734661
 30
0.0
 11
105.3578970654
 21
155.8587880402
 31
0.0
  0
LINE
  5
115
330
1F
100
AcDbEntity
  8
0
  6
Continuous
 62
     7
370
    15
100
AcDbLine
 10
105.3578970657
 20
133.8744734657
 30
0.0
 11
105.3578970657
 21
116.6087880401
 31
0.0
  0
LINE
  5
116
330
1F
100
AcDbEntity
  8
0
  6
Continuous
 62
     7
370
    15
100
AcDbLine
 10
106.1235824913
 20
156.6244734653
 30
0.0
 11
106.1235824911
 21
133.746149499
 31
0.0
  0
LINE
  5
117
330
1F
100
AcDbEntity
  8
0
  6
Continuous
 62
     7
370
    15
100
AcDbLine
 10
130.1235824909
 20
155.8587880403
 30
0.0
 11
130.1235824909
 21
94.6244734655
 31
0.0
  0
LINE
  5
118
330
1F
100
AcDbEntity
  8
0
  6
Continuous
 62
     7
370
    15
100
AcDbLine
 10
155.698099092
 20
95.241630753
 30
0.0
 11
155.6980990922
 21
155.2416307528
 31
0.0
  0
SPLINE
  5
119
330
1F
100
AcDbEntity
  8
0
  6
Continuous
 62
     7
370
    15
100
AcDbSpline
210
0.0
220
0.0
230
1.0
 70
     8
 71
     3
 72
    10
 73
     6
 74
     0
 42
0.000000001
 43
0.00000001
 40
0.0
 40
0.0
 40
0.0
 40
0.0
 40
0.5
 40
0.5
 40
1.0
 40
1.0
 40
1.0
 40
1.0
 10
157.8194194343861
 20
156.120310408975
 30
0.0
 10
157.5488213846168
 20
155.8497123590621
 30
0.0
 10
157.2136915184975
 20
155.6222330903118
 30
0.0
 10
156.4786072590563
 20
155.3177512205058
 30
0.0
 10
156.0807825244916
 20
155.2416307529875
 30
0.0
 10
155.6980990922279
 20
155.2416307528176
 30
0.0
  0
SPLINE
  5
11A
330
1F
100
AcDbEntity
  8
0
  6
Continuous
 62
     7
370
    15
100
AcDbSpline
210
0.0
220
0.0
230
1.0
 70
     8
 71
     3
 72
    10
 73
     6
 74
     0
 42
0.000000001
 43
0.00000001
 40
0.0
 40
0.0
 40
0.0
 40
0.0
 40
0.5
 40
0.5
 40
1.0
 40
1.0
 40
1.0
 40
1.0
 10
157.819419434386
 20
94.36295109684872
 30
0.0
 10
157.5488213846168
 20
94.63354914676162
 30
0.0
 10
157.2136915184975
 20
94.86102841551195
 30
0.0
 10
156.4786072590563
 20
95.16551028531798
 30
0.0
 10
156.0807825244916
 20
95.24163075283623
 30
0.0
 10
155.6980990922279
 20
95.24163075300615
 30
0.0
  0
SPLINE
  5
11B
330
1F
100
AcDbEntity
  8
0
  6
Continuous
 62
     7
370
    15
100
AcDbSpline
210
0.0
220
0.0
230
1.0
 70
    24
 71
     3
 72
    10
 73
     6
 74
     0
 42
0.000000001
 43
0.00000001
 40
0.0
 40
0.0
 40
0.0
 40
0.0
 40
0.5
 40
0.5
 40
1.0
 40
1.0
 40
1.0
 40
1.0
 10
105.3578970633811
 20
116.6087880378438
 30
0.0
 10
105.3252430852963
 20
116.576134059759
 30
0.0
 10
105.2972629045404
 20
116.5481538790032
 30
0.0
 10
105.2546176022554
 20
116.5055085767181
 30
0.0
 10
105.2407397783173
 20
116.4916307527733
 30
0.0
 10
105.2407397784327
 20
116.4916307528887
 30
0.0
  0
LINE
  5
11C
330
1F
100
AcDbEntity
  8
0
  6
Continuous
 62
     7
370
    15
100
AcDbLine
 10
105.2407397784
 20
133.9916307529
 30
0.0
 11
105.2407397784
 21
116.4916307529
 31
0.0
  0
SPLINE
  5
11D
330
1F
100
AcDbEntity
  8
0
  6
Continuous
 62
     7
370
    15
100
AcDbSpline
210
0.0
220
0.0
230
1.0
 70
    24
 71
     3
 72
    10
 73
     6
 74
     0
 42
0.000000001
 43
0.00000001
 40
0.0
 40
0.0
 40
0.0
 40
0.0
 40
0.5
 40
0.5
 40
1.0
 40
1.0
 40
1.0
 40
1.0
 10
105.240739778431
 20
133.99163075293
 30
0.0
 10
105.2407397779241
 20
133.9916307534369
 30
0.0
 10
105.254580428703
 20
133.977790102658
 30
0.0
 10
105.2967340618336
 20
133.9356364695274
 30
0.0
 10
105.3252214533418
 20
133.9071490780192
 30
0.0
 10
105.3578970653273
 20
133.8744734660337
 30
0.0
  0
SPLINE
  5
11E
330
1F
100
AcDbEntity
  8
0
  6
Continuous
 62
     7
370
    15
100
AcDbSpline
210
0.0
220
0.0
230
1.0
 70
     8
 71
     3
 72
     8
 73
     4
 74
     0
 42
0.000000001
 43
0.00000001
 40
0.0
 40
0.0
 40
0.0
 40
0.0
 40
1.0
 40
1.0
 40
1.0
 40
1.0
 10
130.123582490925
 20
155.8587880403013
 30
0.0
 10
130.1914745987085
 20
155.7908959325201
 30
0.0
 10
130.2355856980696
 20
155.6913375991118
 30
0.0
 10
130.2402645539882
 20
155.5954377298728
 30
0.0
  0
LINE
  5
11F
330
1F
100
AcDbEntity
  8
0
  6
Continuous
 62
     7
370
    15
100
AcDbLine
 10
130.2402645548
 20
94.8878237758
 30
0.0
 11
130.2402645548
 21
155.59543773
 31
0.0
  0
SPLINE
  5
120
330
1F
100
AcDbEntity
  8
0
  6
Continuous
 62
     7
370
    15
100
AcDbSpline
210
0.0
220
0.0
230
1.0
 70
     8
 71
     3
 72
     8
 73
     4
 74
     0
 42
0.000000001
 43
0.00000001
 40
0.0
 40
0.0
 40
0.0
 40
0.0
 40
1.0
 40
1.0
 40
1.0
 40
1.0
 10
130.123582490925
 20
94.62447346552243
 30
0.0
 10
130.1914745986828
 20
94.69236557327797
 30
0.0
 10
130.2355856980397
 20
94.79192390663593
 30
0.0
 10
130.2402645539829
 20
94.88782377584224
 30
0.0
  0
SPLINE
  5
121
330
1F
100
AcDbEntity
  8
0
  6
Continuous
 62
     7
370
    15
100
AcDbSpline
210
0.0
220
0.0
230
1.0
 70
     8
 71
     3
 72
    10
 73
     6
 74
     0
 42
0.000000001
 43
0.00000001
 40
0.0
 40
0.0
 40
0.0
 40
0.0
 40
0.5
 40
0.5
 40
1.0
 40
1.0
 40
1.0
 40
1.0
 10
106.1235824911408
 20
156.6244734654979
 30
0.0
 10
106.1596622309817
 20
156.6605532054048
 30
0.0
 10
106.2043462130339
 20
156.6908837746361
 30
0.0
 10
106.3023574476525
 20
156.7314813573705
 30
0.0
 10
106.3554007457202
 20
156.7416307530598
 30
0.0
 10
106.4064252036215
 20
156.74163075293
 30
0.0
  0
LINE
  5
122
330
1F
100
AcDbEntity
  8
0
  6
Continuous
 62
     7
370
    15
100
AcDbLine
 10
149.4407397784
 20
125.2416307529
 30
0.0
 11
149.4407397784
 21
95.2416307529
 31
0.0
  0
LINE
  5
123
330
1F
100
AcDbEntity
  8
0
  6
Continuous
 62
     7
370
    15
100
AcDbLine
 10
149.4407397784
 20
155.2416307529
 30
0.0
 11
149.4407397784
 21
125.2416307529
 31
0.0
  0
LINE
  5
124
330
1F
100
AcDbEntity
  8
0
  6
Continuous
 62
     7
370
    15
100
AcDbLine
 10
147.8194194344
 20
153.6203104089
 30
0.0
 11
147.8194194344
 21
96.8629510969
 31
0.0
  0
SPLINE
  5
125
330
1F
100
AcDbEntity
  8
0
  6
Continuous
 62
     7
370
    15
100
AcDbSpline
210
0.0
220
0.0
230
1.0
 70
    24
 71
     3
 72
    24
 73
    20
 74
     0
 42
0.000000001
 43
0.00000001
 40
0.0
 40
0.0
 40
0.0
 40
0.0
 40
0.0168068370481473
 40
0.0893108862246665
 40
0.1625142125333696
 40
0.2362791697479652
 40
0.3100249349908428
 40
0.3832285838748113
 40
0.4557515042055428
 40
0.5258923845391212
 40
0.5944645597556708
 40
0.6613544815936299
 40
0.7085881867776886
 40
0.7558438078118292
 40
0.7998525908183567
 40
0.8438835895816119
 40
0.8981046855560029
 40
0.9501651058159987
 40
1.0
 40
1.0
 40
1.0
 40
1.0
 10
105.2407397784491
 20
97.28393523425261
 30
0.0
 10
105.2407397784491
 20
97.16384788526365
 30
0.0
 10
105.2407397784491
 20
96.52570832742471
 30
0.0
 10
105.2407397784491
 20
95.7650023369998
 30
0.0
 10
105.2407397784491
 20
95.05521012101535
 30
0.0
 10
105.2407397784491
 20
94.83179718478887
 30
0.0
 10
105.2407397784491
 20
95.06036672202521
 30
0.0
 10
105.2407397784491
 20
95.7444027326377
 30
0.0
 10
105.2407397784491
 20
96.84975938622611
 30
0.0
 10
105.2407397784491
 20
98.3296738321937
 30
0.0
 10
105.2407397784491
 20
100.1280959475951
 30
0.0
 10
105.2407397784491
 20
102.0163915944215
 30
0.0
 10
105.2407397784491
 20
103.8806923321777
 30
0.0
 10
105.2407397784491
 20
105.6117086266534
 30
0.0
 10
105.2407397784491
 20
107.4149994120783
 30
0.0
 10
105.2407397784491
 20
109.415304039032
 30
0.0
 10
105.2407397784491
 20
111.6402628110612
 30
0.0
 10
105.2407397784491
 20
114.0513374202833
 30
0.0
 10
105.2407397784491
 20
115.6901307702237
 30
0.0
 10
105.2407397784491
 20
116.4916307570421
 30
0.0
  0
SPLINE
  5
126
330
1F
100
AcDbEntity
  8
0
  6
Continuous
 62
     7
370
    15
100
AcDbSpline
210
0.0
220
0.0
230
1.0
 70
     8
 71
     3
 72
    10
 73
     6
 74
     0
 42
0.000000001
 43
0.00000001
 40
0.0
 40
0.0
 40
0.0
 40
0.0
 40
0.5
 40
0.5
 40
1.0
 40
1.0
 40
1.0
 40
1.0
 10
105.240739778431
 20
155.5759453258016
 30
0.0
 10
105.240739778054
 20
155.626969783956
 30
0.0
 10
105.2508891735914
 20
155.6800130823734
 30
0.0
 10
105.2914867563035
 20
155.7780243176811
 30
0.0
 10
105.3218173256633
 20
155.8227083000639
 30
0.0
 10
105.3578970657748
 20
155.8587880401319
 30
0.0
  0
SPLINE
  5
127
330
1F
100
AcDbEntity
  8
0
  6
Continuous
 62
     7
370
    15
100
AcDbSpline
210
0.0
220
0.0
230
1.0
 70
    24
 71
     3
 72
    19
 73
    15
 74
     0
 42
0.000000001
 43
0.00000001
 40
0.0
 40
0.0
 40
0.0
 40
0.0
 40
0.0845679382079767
 40
0.1708286063574599
 40
0.2586837937183287
 40
0.3488168141272632
 40
0.4396146279565697
 40
0.5309405769172767
 40
0.6221803471471801
 40
0.7128594399905582
 40
0.802842511808911
 40
0.8903938546848413
 40
0.9763471974519053
 40
1.0
 40
1.0
 40
1.0
 40
1.0
 10
105.2407397784491
 20
133.9916307543914
 30
0.0
 10
105.2407397784491
 20
134.9695877448489
 30
0.0
 10
105.2407397784491
 20
136.9450767220843
 30
0.0
 10
105.2407397784491
 20
139.786963515933
 30
0.0
 10
105.2407397784491
 20
142.5349972335669
 30
0.0
 10
105.2407397784491
 20
145.1288677811256
 30
0.0
 10
105.2407397784491
 20
147.5198583378846
 30
0.0
 10
105.2407397784491
 20
149.6518125962064
 30
0.0
 10
105.2407397784491
 20
151.4893191659256
 30
0.0
 10
105.2407397784491
 20
153.0016752209321
 30
0.0
 10
105.2407397784491
 20
154.174782117421
 30
0.0
 10
105.2407397784491
 20
154.9751091218622
 30
0.0
 10
105.2407397784491
 20
155.3972336562163
 30
0.0
 10
105.2407397784491
 20
155.4519580179172
 30
0.0
 10
105.2407397784491
 20
155.4637674335131
 30
0.0
  0
SPLINE
  5
128
330
1F
100
AcDbEntity
  8
0
  6
Continuous
 62
     7
370
    15
100
AcDbSpline
210
0.0
220
0.0
230
1.0
 70
     8
 71
     3
 72
    10
 73
     6
 74
     0
 42
0.000000001
 43
0.00000001
 40
0.0
 40
0.0
 40
0.0
 40
0.0
 40
0.5
 40
0.5
 40
1.0
 40
1.0
 40
1.0
 40
1.0
 10
147.819419434386
 20
96.86295109684873
 30
0.0
 10
147.5488213845939
 20
97.13354914678459
 30
0.0
 10
147.2136915184403
 20
97.36102841555018
 30
0.0
 10
146.4786072589265
 20
97.66551028535721
 30
0.0
 10
146.0807825243244
 20
97.74163075286107
 30
0.0
 10
145.6980990920332
 20
97.74163075300613
 30
0.0
  0
LINE
  5
129
330
1F
100
AcDbEntity
  8
0
  6
Continuous
 62
     7
370
    15
100
AcDbLine
 10
145.698099092
 20
97.741630753
 30
0.0
 11
145.698099092
 21
152.7416307528
 31
0.0
  0
SPLINE
  5
12A
330
1F
100
AcDbEntity
  8
0
  6
Continuous
 62
     7
370
    15
100
AcDbSpline
210
0.0
220
0.0
230
1.0
 70
     8
 71
     3
 72
    10
 73
     6
 74
     0
 42
0.000000001
 43
0.00000001
 40
0.0
 40
0.0
 40
0.0
 40
0.0
 40
0.5
 40
0.5
 40
1.0
 40
1.0
 40
1.0
 40
1.0
 10
147.8194194343861
 20
153.620310408975
 30
0.0
 10
147.5488213845939
 20
153.3497123590392
 30
0.0
 10
147.2136915184403
 20
153.1222330902735
 30
0.0
 10
146.4786072589265
 20
152.8177512204665
 30
0.0
 10
146.0807825243245
 20
152.7416307529627
 30
0.0
 10
145.6980990920332
 20
152.7416307528176
 30
0.0
  0
LINE
  5
12B
330
1F
100
AcDbEntity
  8
0
  6
Continuous
 62
     7
370
    15
100
AcDbLine
 10
103.7232538354
 20
147.2416307529
 30
0.0
 11
103.7232538354
 21
103.2416307529
 31
0.0
  0
LINE
  5
12C
330
1F
100
AcDbEntity
  8
0
  6
Continuous
 62
     7
370
    15
100
AcDbLine
 10
103.2407397784
 20
147.4666307529
 30
0.0
 11
103.2407397784
 21
103.0166307529
 31
0.0
  0
LINE
  5
12D
330
1F
100
AcDbEntity
  8
0
  6
Continuous
 62
     7
370
    15
100
AcDbLine
 10
38.6964315514
 20
138.0538302599
 30
0.0
 11
38.6964315514
 21
112.4294312459
 31
0.0
  0
SPLINE
  5
12E
330
1F
100
AcDbEntity
  8
0
  6
Continuous
 62
     7
370
    15
100
AcDbSpline
210
0.0
220
0.0
230
1.0
 70
    24
 71
     3
 72
    38
 73
    34
 74
     0
 42
0.000000001
 43
0.00000001
 40
0.0
 40
0.0
 40
0.0
 40
0.0
 40
0.0625
 40
0.0625
 40
0.1249999999999999
 40
0.1249999999999999
 40
0.1875
 40
0.1875
 40
0.25
 40
0.25
 40
0.3125
 40
0.3125
 40
0.3750000000000001
 40
0.3750000000000001
 40
0.4375000000000001
 40
0.4375000000000001
 40
0.5000000000000001
 40
0.5000000000000001
 40
0.5625000000000001
 40
0.5625000000000001
 40
0.625
 40
0.625
 40
0.6875
 40
0.6875
 40
0.75
 40
0.75
 40
0.8125
 40
0.8125
 40
0.8749999999999999
 40
0.8749999999999999
 40
0.9374999999999999
 40
0.9374999999999999
 40
1.0
 40
1.0
 40
1.0
 40
1.0
 10
37.84073977873432
 20
113.4189640348603
 30
0.0
 10
37.84073977873432
 20
113.4189640348603
 30
0.0
 10
37.84073977873432
 20
113.4495183462156
 30
0.0
 10
37.84073977873434
 20
113.5976604618776
 30
0.0
 10
37.84073977873434
 20
113.7153188805928
 30
0.0
 10
37.84073977873434
 20
114.0684225265719
 30
0.0
 10
37.84073977873432
 20
114.3040595232841
 30
0.0
 10
37.84073977873432
 20
114.9249696804245
 30
0.0
 10
37.84073977873434
 20
115.3105907097485
 30
0.0
 10
37.84073977873435
 20
116.2564040471927
 30
0.0
 10
37.84073977873435
 20
116.8170470754212
 30
0.0
 10
37.84073977873434
 20
118.1185979244717
 30
0.0
 10
37.84073977873434
 20
118.8598452580466
 30
0.0
 10
37.84073977873434
 20
120.4962005131403
 30
0.0
 10
37.84073977873434
 20
121.3912190596482
 30
0.0
 10
37.84073977873434
 20
123.2716526772886
 30
0.0
 10
37.84073977873432
 20
124.2564085264076
 30
0.0
 10
37.84073977873431
 20
126.2268529794162
 30
0.0
 10
37.84073977873432
 20
127.2116088285351
 30
0.0
 10
37.84073977873434
 20
129.0920424461755
 30
0.0
 10
37.84073977873434
 20
129.9870609926834
 30
0.0
 10
37.84073977873434
 20
131.6234162477771
 30
0.0
 10
37.84073977873434
 20
132.364663581352
 30
0.0
 10
37.84073977873437
 20
133.6662144304025
 30
0.0
 10
37.84073977873434
 20
134.2268574586311
 30
0.0
 10
37.84073977873435
 20
135.1726707960752
 30
0.0
 10
37.84073977873434
 20
135.5582918253992
 30
0.0
 10
37.84073977873434
 20
136.1792019825397
 30
0.0
 10
37.84073977873434
 20
136.4148389792518
 30
0.0
 10
37.84073977873435
 20
136.7679426252309
 30
0.0
 10
37.84073977873434
 20
136.8856010439461
 30
0.0
 10
37.84073977873434
 20
137.0337431596082
 30
0.0
 10
37.84073977873429
 20
137.0642974709634
 30
0.0
 10
37.84073977873432
 20
137.0642974709634
 30
0.0
  0
SPLINE
  5
12F
330
1F
100
AcDbEntity
  8
0
  6
Continuous
 62
     7
370
    15
100
AcDbSpline
210
0.0
220
0.0
230
1.0
 70
     8
 71
     3
 72
    14
 73
    10
 74
     0
 42
0.000000001
 43
0.00000001
 40
0.0
 40
0.0
 40
0.0
 40
0.0
 40
0.25
 40
0.25
 40
0.5
 40
0.5
 40
0.75
 40
0.75
 40
1.0
 40
1.0
 40
1.0
 40
1.0
 10
37.84073977873432
 20
137.0642974710025
 30
0.0
 10
37.84073977846185
 20
137.173314020046
 30
0.0
 10
37.85904396007194
 20
137.2893920116546
 30
0.0
 10
37.94014988386975
 20
137.5152210510167
 30
0.0
 10
38.00313398108756
 20
137.6244994107065
 30
0.0
 10
38.16552818451579
 20
137.812294121655
 30
0.0
 10
38.26457358067535
 20
137.8903887175942
 30
0.0
 10
38.47633456708203
 20
138.0032346774268
 30
0.0
 10
38.58855610165985
 20
138.03809827482
 30
0.0
 10
38.69643155145418
 20
138.0538302597852
 30
0.0
  0
SPLINE
  5
130
330
1F
100
AcDbEntity
  8
0
  6
Continuous
 62
     7
370
    15
100
AcDbSpline
210
0.0
220
0.0
230
1.0
 70
     8
 71
     3
 72
    14
 73
    10
 74
     0
 42
0.000000001
 43
0.00000001
 40
0.0
 40
0.0
 40
0.0
 40
0.0
 40
0.25
 40
0.25
 40
0.5
 40
0.5
 40
0.75
 40
0.75
 40
1.0
 40
1.0
 40
1.0
 40
1.0
 10
37.84073977873432
 20
113.4189640348212
 30
0.0
 10
37.84073977846185
 20
113.3099474857778
 30
0.0
 10
37.85904396007194
 20
113.1938694941691
 30
0.0
 10
37.94014988386975
 20
112.968040454807
 30
0.0
 10
38.00313398108756
 20
112.8587620951172
 30
0.0
 10
38.16552818451579
 20
112.6709673841687
 30
0.0
 10
38.26457358067535
 20
112.5928727882295
 30
0.0
 10
38.47633456708203
 20
112.4800268283969
 30
0.0
 10
38.58855610165985
 20
112.4451632310037
 30
0.0
 10
38.69643155145418
 20
112.4294312460385
 30
0.0
  0
LINE
  5
131
330
1F
100
AcDbEntity
  8
0
  6
Continuous
 62
     8
370
    15
100
AcDbLine
 10
106.4064252043
 20
116.5241773798
 30
0.0
 11
106.4064252043
 21
93.7416307527
 31
0.0
  0
LINE
  5
132
330
1F
100
AcDbEntity
  8
0
  6
Continuous
 62
     8
370
    15
100
AcDbLine
 10
105.3578970655
 20
94.6244734658
 30
0.0
 11
105.3578970646
 21
116.6087880387
 31
0.0
  0
LINE
  5
133
330
1F
100
AcDbEntity
  8
0
  6
Continuous
 62
     8
370
    15
100
AcDbLine
 10
106.123582492
 20
116.6645780498
 30
0.0
 11
106.1235824916
 21
93.8587880392
 31
0.0
  0
LINE
  5
134
330
1F
100
AcDbEntity
  8
0
  6
Continuous
 62
     8
370
    15
100
AcDbLine
 10
133.2367003704
 20
152.7416307529
 30
0.0
 11
133.2367003704
 21
97.7416307529
 31
0.0
  0
LINE
  5
135
330
1F
100
AcDbEntity
  8
0
  6
Continuous
 62
     8
370
    15
100
AcDbLine
 10
104.8407397783
 20
103.2416307528
 30
0.0
 11
104.8407397783
 21
147.241630753
 31
0.0
  0
DIMENSION
  5
136
330
1F
100
AcDbEntity
  8
DIM
100
AcDbDimension
  2
_D
 10
275.3463930341
 20
86.2416307529
 30
0.0
 11
275.3463930341
 21
125.2416307529
 31
0.0
 70
   160
  1
%%c<>
 71
     2
 42
-1.0
  3
SLDDIMSTYLE0
100
AcDbAlignedDimension
 13
266.2407397784
 23
164.2416307529
 33
0.0
 14
266.2407397784
 24
86.2416307529
 34
0.0
 50
90.0
100
AcDbRotatedDimension
  0
DIMENSION
  5
142
330
1F
100
AcDbEntity
  8
DIM
100
AcDbDimension
  2
_D_1
 10
103.2407397784
 20
73.0385300423
 30
0.0
 11
185.4907397784
 21
73.0385300423
 31
0.0
 70
   160
  1
<>
 71
     2
 42
-1.0
  3
SLDDIMSTYLE1
100
AcDbAlignedDimension
 13
267.7407397784
 23
87.7416307529
 33
0.0
 14
103.2407397784
 24
103.0166307529
 34
0.0
100
AcDbRotatedDimension
  0
DIMENSION
  5
14D
330
1F
100
AcDbEntity
  8
DIM
100
AcDbDimension
  2
_D_2
 10
26.8392765084
 20
156.7416307529
 30
0.0
 11
26.8392765084
 21
125.2416307529
 31
0.0
 70
   160
  1
%%c<>
 71
     2
 42
-1.0
  3
SLDDIMSTYLE0
100
AcDbAlignedDimension
 13
106.4064252043
 23
93.7416307529
 33
0.0
 14
106.4064252035
 24
156.7416307529
 34
0.0
 50
90.0
100
AcDbRotatedDimension
  0
DIMENSION
  5
158
330
1F
100
AcDbEntity
  8
DIM
100
AcDbDimension
  2
_D_3
 10
267.7407397784
 20
67.496979155
 30
0.0
 11
152.7907397785
 21
67.496979155
 31
0.0
 70
   160
  1
<>
 71
     2
 42
-1.0
  3
SLDDIMSTYLE1
100
AcDbAlignedDimension
 13
37.8407397786
 23
113.4189640348
 33
0.0
 14
267.7407397784
 24
87.7416307529
 34
0.0
 50
0.0
100
AcDbRotatedDimension
  0
LINE
  5
162
330
1F
100
AcDbEntity
  8
DIM
  6
CENTERX2
 48
1.8181818182
370
     0
100
AcDbLine
 10
37.4526621016
 20
125.2416307529
 30
0.0
 11
268.9834897491
 21
125.2416307529
 31
0.0
  0
ENDSEC
  0
SECTION
  2
OBJECTS
  0
DICTIONARY
  5
C
330
0
100
AcDbDictionary
281
     1
  3
ACAD_GROUP
350
D
  3
ACAD_LAYOUT
350
1A
  3
ACAD_MLINESTYLE
350
17
  3
ACAD_PLOTSETTINGS
350
19
  3
ACAD_PLOTSTYLENAME
350
E
  3
ACAD_SCALELIST
350
47
  0
DICTIONARY
  5
D
102
{ACAD_REACTORS
330
C
102
}
330
C
100
AcDbDictionary
281
     1
  0
DICTIONARY
  5
1A
102
{ACAD_REACTORS
330
C
102
}
330
C
100
AcDbDictionary
281
     1
  3
Layout1
350
1E
  3
Layout2
350
26
  3
Model
350
22
  0
DICTIONARY
  5
17
102
{ACAD_REACTORS
330
C
102
}
330
C
100
AcDbDictionary
281
     1
  3
Standard
350
18
  0
DICTIONARY
  5
19
102
{ACAD_REACTORS
330
C
102
}
330
C
100
AcDbDictionary
281
     1
  0
ACDBDICTIONARYWDFLT
  5
E
102
{ACAD_REACTORS
330
C
102
}
330
C
100
AcDbDictionary
281
     1
  3
Normal
350
F
100
AcDbDictionaryWithDefault
340
F
  0
DICTIONARY
  5
47
102
{ACAD_REACTORS
330
C
102
}
330
C
100
AcDbDictionary
281
     1
  3
A0
350
48
  3
A1
350
49
  3
A2
350
4A
  3
A3
350
4B
  3
A4
350
4C
  3
A5
350
4D
  3
A6
350
4E
  3
A7
350
4F
  3
A8
350
50
  3
A9
350
51
  3
B0
350
52
  3
B1
350
53
  3
B2
350
54
  3
B3
350
55
  3
B4
350
56
  3
B5
350
57
  3
B6
350
58
  3
B7
350
59
  3
B8
350
5A
  3
B9
350
5B
  3
C0
350
5C
  3
C1
350
5D
  3
C2
350
5E
  3
C3
350
5F
  3
C4
350
60
  3
C5
350
61
  3
C6
350
62
  3
C7
350
63
  3
C8
350
64
  3
C9
350
65
  3
D0
350
66
  3
D1
350
67
  3
D2
350
68
  0
LAYOUT
  5
1E
102
{ACAD_REACTORS
330
1A
102
}
330
1A
100
AcDbPlotSettings
  1

  2
none_device
  4

  6

 40
0.0
 41
0.0
 42
0.0
 43
0.0
 44
0.0
 45
0.0
 46
0.0
 47
0.0
 48
0.0
 49
0.0
140
0.0
141
0.0
142
1.0
143
1.0
 70
   688
 72
     1
 73
     0
 74
     5
  7

 75
    16
147
1.0
148
0.0
149
0.0
100
AcDbLayout
  1
Layout1
 70
     1
 71
     1
 10
0.0
 20
0.0
 11
420.0
 21
297.0
 12
0.0
 22
0.0
 32
0.0
 14
1.0000000000E+20
 24
1.0000000000E+20
 34
1.0000000000E+20
 15
-1.0000000000E+20
 25
-1.0000000000E+20
 35
-1.0000000000E+20
146
0.0
 13
0.0
 23
0.0
 33
0.0
 16
1.0
 26
0.0
 36
0.0
 17
0.0
 27
1.0
 37
0.0
 76
     0
330
1B
  0
LAYOUT
  5
26
102
{ACAD_REACTORS
330
1A
102
}
330
1A
100
AcDbPlotSettings
  1

  2
none_device
  4

  6

 40
0.0
 41
0.0
 42
0.0
 43
0.0
 44
0.0
 45
0.0
 46
0.0
 47
0.0
 48
0.0
 49
0.0
140
0.0
141
0.0
142
1.0
143
1.0
 70
   688
 72
     1
 73
     0
 74
     5
  7

 75
    16
147
1.0
148
0.0
149
0.0
100
AcDbLayout
  1
Layout2
 70
     1
 71
     2
 10
0.0
 20
0.0
 11
0.0
 21
0.0
 12
0.0
 22
0.0
 32
0.0
 14
0.0
 24
0.0
 34
0.0
 15
0.0
 25
0.0
 35
0.0
146
0.0
 13
0.0
 23
0.0
 33
0.0
 16
1.0
 26
0.0
 36
0.0
 17
0.0
 27
1.0
 37
0.0
 76
     0
330
23
  0
LAYOUT
  5
22
102
{ACAD_REACTORS
330
1A
102
}
330
1A
100
AcDbPlotSettings
  1

  2
none_device
  4
Letter_(8.50_x_11.00_Inches)
  6

 40
6.35
 41
6.35
 42
6.35000508
 43
6.35000508
 44
215.9
 45
279.4
 46
0.0
 47
0.0
 48
0.0
 49
0.0
140
0.0
141
0.0
142
1.0
143
1.0
 70
  1712
 72
     1
 73
     0
 74
     0
  7

 75
     0
147
1.0
148
0.0
149
0.0
100
AcDbLayout
  1
Model
 70
     1
 71
     0
 10
0.0
 20
0.0
 11
326.7
 21
231.0
 12
0.0
 22
0.0
 32
0.0
 14
0.0
 24
0.0
 34
0.0
 15
326.7
 25
231.0
 35
0.0
146
0.0
 13
0.0
 23
0.0
 33
0.0
 16
1.0
 26
0.0
 36
0.0
 17
0.0
 27
1.0
 37
0.0
 76
     0
330
1F
331
29
  0
MLINESTYLE
  5
18
102
{ACAD_REACTORS
330
17
102
}
330
17
100
AcDbMlineStyle
  2
Standard
 70
     0
  3

 62
   256
 51
90.0
 52
90.0
 71
     2
 49
0.5
 62
   256
  6
BYLAYER
 49
-0.5
 62
   256
  6
BYLAYER
  0
ACDBPLACEHOLDER
  5
F
102
{ACAD_REACTORS
330
E
102
}
330
E
  0
SCALE
  5
48
102
{ACAD_REACTORS
330
47
102
}
330
47
100
AcDbScale
 70
     0
300
1:1
140
1.0
141
1.0
290
     1
  0
SCALE
  5
49
102
{ACAD_REACTORS
330
47
102
}
330
47
100
AcDbScale
 70
     0
300
1:2
140
1.0
141
2.0
290
     0
  0
SCALE
  5
4A
102
{ACAD_REACTORS
330
47
102
}
330
47
100
AcDbScale
 70
     0
300
1:4
140
1.0
141
4.0
290
     0
  0
SCALE
  5
4B
102
{ACAD_REACTORS
330
47
102
}
330
47
100
AcDbScale
 70
     0
300
1:5
140
1.0
141
5.0
290
     0
  0
SCALE
  5
4C
102
{ACAD_REACTORS
330
47
102
}
330
47
100
AcDbScale
 70
     0
300
1:8
140
1.0
141
8.0
290
     0
  0
SCALE
  5
4D
102
{ACAD_REACTORS
330
47
102
}
330
47
100
AcDbScale
 70
     0
300
1:10
140
1.0
141
10.0
290
     0
  0
SCALE
  5
4E
102
{ACAD_REACTORS
330
47
102
}
330
47
100
AcDbScale
 70
     0
300
1:16
140
1.0
141
16.0
290
     0
  0
SCALE
  5
4F
102
{ACAD_REACTORS
330
47
102
}
330
47
100
AcDbScale
 70
     0
300
1:20
140
1.0
141
20.0
290
     0
  0
SCALE
  5
50
102
{ACAD_REACTORS
330
47
102
}
330
47
100
AcDbScale
 70
     0
300
1:30
140
1.0
141
30.0
290
     0
  0
SCALE
  5
51
102
{ACAD_REACTORS
330
47
102
}
330
47
100
AcDbScale
 70
     0
300
1:40
140
1.0
141
40.0
290
     0
  0
SCALE
  5
52
102
{ACAD_REACTORS
330
47
102
}
330
47
100
AcDbScale
 70
     0
300
1:50
140
1.0
141
50.0
290
     0
  0
SCALE
  5
53
102
{ACAD_REACTORS
330
47
102
}
330
47
100
AcDbScale
 70
     0
300
1:100
140
1.0
141
100.0
290
     0
  0
SCALE
  5
54
102
{ACAD_REACTORS
330
47
102
}
330
47
100
AcDbScale
 70
     0
300
2:1
140
2.0
141
1.0
290
     0
  0
SCALE
  5
55
102
{ACAD_REACTORS
330
47
102
}
330
47
100
AcDbScale
 70
     0
300
4:1
140
4.0
141
1.0
290
     0
  0
SCALE
  5
56
102
{ACAD_REACTORS
330
47
102
}
330
47
100
AcDbScale
 70
     0
300
8:1
140
8.0
141
1.0
290
     0
  0
SCALE
  5
57
102
{ACAD_REACTORS
330
47
102
}
330
47
100
AcDbScale
 70
     0
300
10:1
140
10.0
141
1.0
290
     0
  0
SCALE
  5
58
102
{ACAD_REACTORS
330
47
102
}
330
47
100
AcDbScale
 70
     0
300
100:1
140
100.0
141
1.0
290
     0
  0
SCALE
  5
59
102
{ACAD_REACTORS
330
47
102
}
330
47
100
AcDbScale
 70
     0
300
1/128" = 1'-0"
140
0.0078125
141
12.0
290
     0
  0
SCALE
  5
5A
102
{ACAD_REACTORS
330
47
102
}
330
47
100
AcDbScale
 70
     0
300
1/64" = 1'-0"
140
0.015625
141
12.0
290
     0
  0
SCALE
  5
5B
102
{ACAD_REACTORS
330
47
102
}
330
47
100
AcDbScale
 70
     0
300
1/32" = 1'-0"
140
0.03125
141
12.0
290
     0
  0
SCALE
  5
5C
102
{ACAD_REACTORS
330
47
102
}
330
47
100
AcDbScale
 70
     0
300
1/16" = 1'-0"
140
0.0625
141
12.0
290
     0
  0
SCALE
  5
5D
102
{ACAD_REACTORS
330
47
102
}
330
47
100
AcDbScale
 70
     0
300
3/32" = 1'-0"
140
0.09375
141
12.0
290
     0
  0
SCALE
  5
5E
102
{ACAD_REACTORS
330
47
102
}
330
47
100
AcDbScale
 70
     0
300
1/8" = 1'-0"
140
0.125
141
12.0
290
     0
  0
SCALE
  5
5F
102
{ACAD_REACTORS
330
47
102
}
330
47
100
AcDbScale
 70
     0
300
3/16" = 1'-0"
140
0.1875
141
12.0
290
     0
  0
SCALE
  5
60
102
{ACAD_REACTORS
330
47
102
}
330
47
100
AcDbScale
 70
     0
300
1/4" = 1'-0"
140
0.25
141
12.0
290
     0
  0
SCALE
  5
61
102
{ACAD_REACTORS
330
47
102
}
330
47
100
AcDbScale
 70
     0
300
3/8" = 1'-0"
140
0.375
141
12.0
290
     0
  0
SCALE
  5
62
102
{ACAD_REACTORS
330
47
102
}
330
47
100
AcDbScale
 70
     0
300
1/2" = 1'-0"
140
0.5
141
12.0
290
     0
  0
SCALE
  5
63
102
{ACAD_REACTORS
330
47
102
}
330
47
100
AcDbScale
 70
     0
300
3/4" = 1'-0"
140
0.75
141
12.0
290
     0
  0
SCALE
  5
64
102
{ACAD_REACTORS
330
47
102
}
330
47
100
AcDbScale
 70
     0
300
1" = 1'-0"
140
1.0
141
12.0
290
     0
  0
SCALE
  5
65
102
{ACAD_REACTORS
330
47
102
}
330
47
100
AcDbScale
 70
     0
300
1-1/2" = 1'-0"
140
1.5
141
12.0
290
     0
  0
SCALE
  5
66
102
{ACAD_REACTORS
330
47
102
}
330
47
100
AcDbScale
 70
     0
300
3" = 1'-0"
140
3.0
141
12.0
290
     0
  0
SCALE
  5
67
102
{ACAD_REACTORS
330
47
102
}
330
47
100
AcDbScale
 70
     0
300
6" = 1'-0"
140
6.0
141
12.0
290
     0
  0
SCALE
  5
68
102
{ACAD_REACTORS
330
47
102
}
330
47
100
AcDbScale
 70
     0
300
1'-0" = 1'-0"
140
12.0
141
12.0
290
     0
  0
ENDSEC
  0
EOF
