  0
SECTION
  2
HEADER
  9
$ACADVER
  1
AC1015
  9
$ACADMAINTVER
 70
     6
  9
$DWGCODEPAGE
  3
ANSI_1252
  9
$INSBASE
 10
0.0
 20
0.0
 30
0.0
  9
$EXTMIN
 10
0.0
 20
0.0
 30
0.0
  9
$EXTMAX
 10
356.4
 20
252.0
 30
0.0
  9
$LIMMIN
 10
0.0
 20
0.0
  9
$LIMMAX
 10
356.4
 20
252.0
  9
$ORTHOMODE
 70
     0
  9
$REGENMODE
 70
     1
  9
$FILLMODE
 70
     1
  9
$QTEXTMODE
 70
     0
  9
$MIRRTEXT
 70
     1
  9
$LTSCALE
 40
1.2
  9
$ATTMODE
 70
     1
  9
$TEXTSIZE
 40
4.6566666667
  9
$TRACEWID
 40
1.0
  9
$TEXTSTYLE
  7
Standard
  9
$CLAYER
  8
0
  9
$CELTYPE
  6
ByLayer
  9
$CECOLOR
 62
   256
  9
$CELTSCALE
 40
1.0
  9
$DISPSILH
 70
     0
  9
$DIMSCALE
 40
1.0
  9
$DIMASZ
 40
3.9624
  9
$DIMEXO
 40
1.2
  9
$DIMDLI
 40
3.75
  9
$DIMRND
 40
0.0
  9
$DIMDLE
 40
0.0
  9
$DIMEXE
 40
1.2
  9
$DIMTP
 40
0.0
  9
$DIMTM
 40
0.0
  9
$DIMTXT
 40
4.6566666667
  9
$DIMCEN
 40
2.5
  9
$DIMTSZ
 40
0.0
  9
$DIMTOL
 70
     0
  9
$DIMLIM
 70
     0
  9
$DIMTIH
 70
     1
  9
$DIMTOH
 70
     1
  9
$DIMSE1
 70
     0
  9
$DIMSE2
 70
     0
  9
$DIMTAD
 70
     1
  9
$DIMZIN
 70
     0
  9
$DIMBLK
  1

  9
$DIMASO
 70
     1
  9
$DIMSHO
 70
     1
  9
$DIMPOST
  1

  9
$DIMAPOST
  1

  9
$DIMALT
 70
     0
  9
$DIMALTD
 70
     3
  9
$DIMALTF
 40
0.0393700787
  9
$DIMLFAC
 40
1.0
  9
$DIMTOFL
 70
     1
  9
$DIMTVP
 40
0.0
  9
$DIMTIX
 70
     0
  9
$DIMSOXD
 70
     0
  9
$DIMSAH
 70
     0
  9
$DIMBLK1
  1

  9
$DIMBLK2
  1

  9
$DIMSTYLE
  2
ISO-25
  9
$DIMCLRD
 70
     0
  9
$DIMCLRE
 70
     0
  9
$DIMCLRT
 70
     0
  9
$DIMTFAC
 40
1.0
  9
$DIMGAP
 40
1.8288
  9
$DIMJUST
 70
     0
  9
$DIMSD1
 70
     0
  9
$DIMSD2
 70
     0
  9
$DIMTOLJ
 70
     0
  9
$DIMTZIN
 70
     0
  9
$DIMALTZ
 70
     0
  9
$DIMALTTZ
 70
     0
  9
$DIMUPT
 70
     0
  9
$DIMDEC
 70
     2
  9
$DIMTDEC
 70
     2
  9
$DIMALTU
 70
     2
  9
$DIMALTTD
 70
     3
  9
$DIMTXSTY
  7
Standard
  9
$DIMAUNIT
 70
     0
  9
$DIMADEC
 70
     2
  9
$DIMALTRND
 40
0.0
  9
$DIMAZIN
 70
     0
  9
$DIMDSEP
 70
    44
  9
$DIMATFIT
 70
     3
  9
$DIMFRAC
 70
     0
  9
$DIMLDRBLK
  1

  9
$DIMLUNIT
 70
     2
  9
$DIMLWD
 70
    -2
  9
$DIMLWE
 70
    -2
  9
$DIMTMOVE
 70
     0
  9
$LUNITS
 70
     2
  9
$LUPREC
 70
     2
  9
$SKETCHINC
 40
1.0
  9
$FILLETRAD
 40
10.0
  9
$AUNITS
 70
     1
  9
$AUPREC
 70
     2
  9
$MENU
  1
.
  9
$ELEVATION
 40
0.0
  9
$PELEVATION
 40
0.0
  9
$THICKNESS
 40
0.0
  9
$LIMCHECK
 70
     0
  9
$CHAMFERA
 40
0.0
  9
$CHAMFERB
 40
0.0
  9
$CHAMFERC
 40
0.0
  9
$CHAMFERD
 40
0.0
  9
$SKPOLY
 70
     0
  9
$TDCREATE
 40
2458606.482371493
  9
$TDUCREATE
 40
2458606.253204826
  9
$TDUPDATE
 40
2458606.482372535
  9
$TDUUPDATE
 40
2458606.253205868
  9
$TDINDWG
 40
0.0000000116
  9
$TDUSRTIMER
 40
0.0000000116
  9
$USRTIMER
 70
     1
  9
$ANGBASE
 50
0.0
  9
$ANGDIR
 70
     0
  9
$PDMODE
 70
     0
  9
$PDSIZE
 40
-1.0
  9
$PLINEWID
 40
0.0
  9
$SPLFRAME
 70
     0
  9
$SPLINETYPE
 70
     6
  9
$SPLINESEGS
 70
     8
  9
$HANDSEED
  5
1C0
  9
$SURFTAB1
 70
     6
  9
$SURFTAB2
 70
     6
  9
$SURFTYPE
 70
     6
  9
$SURFU
 70
     6
  9
$SURFV
 70
     6
  9
$UCSBASE
  2

  9
$UCSNAME
  2

  9
$UCSORG
 10
0.0
 20
0.0
 30
0.0
  9
$UCSXDIR
 10
1.0
 20
0.0
 30
0.0
  9
$UCSYDIR
 10
0.0
 20
1.0
 30
0.0
  9
$UCSORTHOREF
  2

  9
$UCSORTHOVIEW
 70
     0
  9
$UCSORGTOP
 10
0.0
 20
0.0
 30
0.0
  9
$UCSORGBOTTOM
 10
0.0
 20
0.0
 30
0.0
  9
$UCSORGLEFT
 10
0.0
 20
0.0
 30
0.0
  9
$UCSORGRIGHT
 10
0.0
 20
0.0
 30
0.0
  9
$UCSORGFRONT
 10
0.0
 20
0.0
 30
0.0
  9
$UCSORGBACK
 10
0.0
 20
0.0
 30
0.0
  9
$PUCSBASE
  2

  9
$PUCSNAME
  2

  9
$PUCSORG
 10
0.0
 20
0.0
 30
0.0
  9
$PUCSXDIR
 10
1.0
 20
0.0
 30
0.0
  9
$PUCSYDIR
 10
0.0
 20
1.0
 30
0.0
  9
$PUCSORTHOREF
  2

  9
$PUCSORTHOVIEW
 70
     0
  9
$PUCSORGTOP
 10
0.0
 20
0.0
 30
0.0
  9
$PUCSORGBOTTOM
 10
0.0
 20
0.0
 30
0.0
  9
$PUCSORGLEFT
 10
0.0
 20
0.0
 30
0.0
  9
$PUCSORGRIGHT
 10
0.0
 20
0.0
 30
0.0
  9
$PUCSORGFRONT
 10
0.0
 20
0.0
 30
0.0
  9
$PUCSORGBACK
 10
0.0
 20
0.0
 30
0.0
  9
$USERI1
 70
     0
  9
$USERI2
 70
     0
  9
$USERI3
 70
     0
  9
$USERI4
 70
     0
  9
$USERI5
 70
     0
  9
$USERR1
 40
0.0
  9
$USERR2
 40
0.0
  9
$USERR3
 40
0.0
  9
$USERR4
 40
0.0
  9
$USERR5
 40
0.0
  9
$WORLDVIEW
 70
     1
  9
$SHADEDGE
 70
     3
  9
$SHADEDIF
 70
    70
  9
$TILEMODE
 70
     1
  9
$MAXACTVP
 70
    64
  9
$PINSBASE
 10
0.0
 20
0.0
 30
0.0
  9
$PLIMCHECK
 70
     0
  9
$PEXTMIN
 10
1.0000000000E+20
 20
1.0000000000E+20
 30
1.0000000000E+20
  9
$PEXTMAX
 10
-1.0000000000E+20
 20
-1.0000000000E+20
 30
-1.0000000000E+20
  9
$PLIMMIN
 10
0.0
 20
0.0
  9
$PLIMMAX
 10
420.0
 20
297.0
  9
$UNITMODE
 70
     0
  9
$VISRETAIN
 70
     1
  9
$PLINEGEN
 70
     0
  9
$PSLTSCALE
 70
     1
  9
$TREEDEPTH
 70
  3020
  9
$CMLSTYLE
  2
Standard
  9
$CMLJUST
 70
     0
  9
$CMLSCALE
 40
20.0
  9
$PROXYGRAPHICS
 70
     1
  9
$MEASUREMENT
 70
     1
  9
$CELWEIGHT
370
    -1
  9
$ENDCAPS
280
     0
  9
$JOINSTYLE
280
     0
  9
$LWDISPLAY
290
     1
  9
$INSUNITS
 70
     4
  9
$HYPERLINKBASE
  1

  9
$STYLESHEET
  1

  9
$XEDIT
290
     1
  9
$CEPSNTYPE
380
     0
  9
$PSTYLEMODE
290
     1
  9
$FINGERPRINTGUID
  2
{AFA5A48B-1964-4E56-BF83-24B25916C0CB}
  9
$VERSIONGUID
  2
{FAEB1C32-E019-11D5-929B-00C0DF256EC4}
  9
$EXTNAMES
290
     1
  9
$PSVPSCALE
 40
0.0
  9
$OLESTARTUP
290
     0
  0
ENDSEC
  0
SECTION
  2
CLASSES
  0
CLASS
  1
ACDBDICTIONARYWDFLT
  2
AcDbDictionaryWithDefault
  3
ObjectDBX Classes
 90
        0
280
     0
281
     0
  0
CLASS
  1
VISUALSTYLE
  2
AcDbVisualStyle
  3
ObjectDBX Classes
 90
     4095
280
     0
281
     0
  0
CLASS
  1
MATERIAL
  2
AcDbMaterial
  3
ObjectDBX Classes
 90
     1153
280
     0
281
     0
  0
CLASS
  1
SCALE
  2
AcDbScale
  3
ObjectDBX Classes
 90
     1153
280
     0
281
     0
  0
CLASS
  1
SUN
  2
AcDbSun
  3
SCENEOE
 90
     1153
280
     0
281
     0
  0
CLASS
  1
ACDBPLACEHOLDER
  2
AcDbPlaceHolder
  3
ObjectDBX Classes
 90
        0
280
     0
281
     0
  0
CLASS
  1
LAYOUT
  2
AcDbLayout
  3
ObjectDBX Classes
 90
        0
280
     0
281
     0
  0
ENDSEC
  0
SECTION
  2
TABLES
  0
TABLE
  2
VPORT
  5
8
330
0
100
AcDbSymbolTable
 70
     1
  0
VPORT
  5
29
330
8
100
AcDbSymbolTableRecord
100
AcDbViewportTableRecord
  2
*Active
 70
     0
 10
0.0
 20
0.0
 11
1.0
 21
1.0
 12
178.2
 22
126.0
 13
0.0
 23
0.0
 14
10.0
 24
10.0
 15
10.0
 25
10.0
 16
0.0
 26
0.0
 36
1.0
 17
0.0
 27
0.0
 37
0.0
 40
252.0
 41
1.4142857143
 42
50.0
 43
0.0
 44
0.0
 50
0.0
 51
0.0
 71
     0
 72
  2000
 73
     1
 74
     3
 75
     0
 76
     0
 77
     0
 78
     0
281
     0
 65
     1
110
0.0
120
0.0
130
0.0
111
1.0
121
0.0
131
0.0
112
0.0
122
1.0
132
0.0
 79
     0
146
0.0
  0
ENDTAB
  0
TABLE
  2
LTYPE
  5
5
330
0
100
AcDbSymbolTable
 70
     6
  0
LTYPE
  5
14
330
5
100
AcDbSymbolTableRecord
100
AcDbLinetypeTableRecord
  2
ByBlock
 70
     0
  3

 72
    65
 73
     0
 40
0.0
  0
LTYPE
  5
15
330
5
100
AcDbSymbolTableRecord
100
AcDbLinetypeTableRecord
  2
ByLayer
 70
     0
  3

 72
    65
 73
     0
 40
0.0
  0
LTYPE
  5
16
330
5
100
AcDbSymbolTableRecord
100
AcDbLinetypeTableRecord
  2
Continuous
 70
     0
  3
Solid line
 72
    65
 73
     0
 40
0.0
  0
LTYPE
  5
6A
330
5
100
AcDbSymbolTableRecord
100
AcDbLinetypeTableRecord
  2
HIDDEN
 70
     0
  3
Hidden __ __ __ __ __ __ __ __ __ __ __ __ __ __
 72
    65
 73
     2
 40
1.905
 49
1.27
 74
     0
 49
-0.635
 74
     0
  0
LTYPE
  5
6B
330
5
100
AcDbSymbolTableRecord
100
AcDbLinetypeTableRecord
  2
PHANTOM
 70
     0
  3
Phantom ______  __  __  ______  __  __  ______
 72
    65
 73
     6
 40
12.7
 49
6.35
 74
     0
 49
-1.27
 74
     0
 49
1.27
 74
     0
 49
-1.27
 74
     0
 49
1.27
 74
     0
 49
-1.27
 74
     0
  0
LTYPE
  5
6C
330
5
100
AcDbSymbolTableRecord
100
AcDbLinetypeTableRecord
  2
CENTER
 70
     0
  3
Center ____ _ ____ _ ____ _ ____ _ ____ _ ____
 72
    65
 73
     4
 40
10.16
 49
6.35
 74
     0
 49
-1.27
 74
     0
 49
1.27
 74
     0
 49
-1.27
 74
     0
  0
LTYPE
  5
6D
330
5
100
AcDbSymbolTableRecord
100
AcDbLinetypeTableRecord
  2
CENTERX2
 70
     0
  3
Center (2x) ________  __  ________  __  _____
 72
    65
 73
     4
 40
20.32
 49
12.7
 74
     0
 49
-2.54
 74
     0
 49
2.54
 74
     0
 49
-2.54
 74
     0
  0
LTYPE
  5
6E
330
5
100
AcDbSymbolTableRecord
100
AcDbLinetypeTableRecord
  2
DOT2
 70
     0
  3
Dot (.5x) ........................................
 72
    65
 73
     2
 40
0.635
 49
0.0
 74
     0
 49
-0.635
 74
     0
  0
ENDTAB
  0
TABLE
  2
LAYER
  5
2
330
0
100
AcDbSymbolTable
 70
     8
  0
LAYER
  5
10
330
2
100
AcDbSymbolTableRecord
100
AcDbLayerTableRecord
  2
0
 70
     0
 62
     7
  6
Continuous
370
    -3
390
F
  0
LAYER
  5
6F
330
2
100
AcDbSymbolTableRecord
100
AcDbLayerTableRecord
  2
FORMAT
 70
     0
 62
     7
  6
Continuous
370
    -3
390
F
  0
LAYER
  5
70
330
2
100
AcDbSymbolTableRecord
100
AcDbLayerTableRecord
  2
SLD-0
 70
     0
 62
     2
  6
Continuous
370
    -3
390
F
  0
LAYER
  5
71
330
2
100
AcDbSymbolTableRecord
100
AcDbLayerTableRecord
  2
DIM
 70
     0
 62
   179
  6
Continuous
370
    -3
390
F
  0
LAYER
  5
72
330
2
100
AcDbSymbolTableRecord
100
AcDbLayerTableRecord
  2
SLD-DEFPOINTS
 70
     0
 62
   179
  6
Continuous
370
    -3
390
F
  0
LAYER
  5
73
330
2
100
AcDbSymbolTableRecord
100
AcDbLayerTableRecord
  2
HAT
 70
     0
 62
   135
  6
Continuous
370
    -3
390
F
  0
LAYER
  5
74
330
2
100
AcDbSymbolTableRecord
100
AcDbLayerTableRecord
  2
JOB
 70
     0
 62
   201
  6
Continuous
370
    -3
390
F
  0
LAYER
  5
75
330
2
100
AcDbSymbolTableRecord
100
AcDbLayerTableRecord
  2
INSPECTION_REPORT
 70
     0
 62
   255
  6
Continuous
370
    -3
390
F
  0
ENDTAB
  0
TABLE
  2
STYLE
  5
3
330
0
100
AcDbSymbolTable
 70
     4
  0
STYLE
  5
11
330
3
100
AcDbSymbolTableRecord
100
AcDbTextStyleTableRecord
  2
Standard
 70
     0
 40
0.0
 41
1.0
 50
0.0
 71
     0
 42
4.6566666667
  3
txt
  4

  0
STYLE
  5
96
330
3
100
AcDbSymbolTableRecord
100
AcDbTextStyleTableRecord
  2
SLDTEXTSTYLE0
 70
     0
 40
0.0
 41
0.7
 50
0.0
 71
     0
 42
4.6566666667
  3
TXT
  4

  0
STYLE
  5
98
330
3
100
AcDbSymbolTableRecord
100
AcDbTextStyleTableRecord
  2
SLDTEXTSTYLE1
 70
     0
 40
0.0
 41
0.75
 50
0.0
 71
     0
 42
4.6566666667
  3
TXT
  4

  0
STYLE
  5
AB
330
3
100
AcDbSymbolTableRecord
100
AcDbTextStyleTableRecord
  2
SLDTEXTSTYLE2
 70
     0
 40
0.0
 41
0.6875
 50
0.0
 71
     0
 42
4.6566666667
  3
TXT
  4

  0
ENDTAB
  0
TABLE
  2
VIEW
  5
6
330
0
100
AcDbSymbolTable
 70
     0
  0
ENDTAB
  0
TABLE
  2
UCS
  5
7
330
0
100
AcDbSymbolTable
 70
     0
  0
ENDTAB
  0
TABLE
  2
APPID
  5
9
330
0
100
AcDbSymbolTable
 70
     1
  0
APPID
  5
12
330
9
100
AcDbSymbolTableRecord
100
AcDbRegAppTableRecord
  2
ACAD
 70
     0
  0
ENDTAB
  0
TABLE
  2
DIMSTYLE
  5
A
330
0
100
AcDbSymbolTable
 70
     4
100
AcDbDimStyleTable
  0
DIMSTYLE
105
27
330
A
100
AcDbSymbolTableRecord
100
AcDbDimStyleTableRecord
  2
ISO-25
 70
     0
 41
2.5
 42
0.625
 43
3.75
 44
1.25
 73
     0
 74
     0
 77
     1
 78
     8
140
2.5
141
2.5
143
0.0393700787
147
0.625
171
     3
172
     1
178
     0
271
     2
272
     2
274
     3
278
    44
283
     0
284
     8
340
11
  0
DIMSTYLE
105
17A
102
{ACAD_REACTORS
330
179
330
19F
330
1A9
102
}
330
A
100
AcDbSymbolTableRecord
100
AcDbDimStyleTableRecord
  2
SLDDIMSTYLE0
 70
     0
 41
3.9624
 44
0.0
 45
0.000000001
 73
     0
 74
     0
 77
     1
 78
    12
 79
     3
140
3.4925
147
0.873125
173
     1
178
     0
271
     2
272
     2
276
     2
284
    12
340
96
  0
DIMSTYLE
105
186
102
{ACAD_REACTORS
330
185
330
193
102
}
330
A
100
AcDbSymbolTableRecord
100
AcDbDimStyleTableRecord
  2
SLDDIMSTYLE1
 70
     0
 41
3.9624
 44
0.0
 45
0.000000001
 73
     0
 74
     0
 77
     1
 78
    12
 79
     3
140
3.4925
147
0.873125
172
     1
173
     1
178
     0
271
     2
272
     2
276
     2
284
    12
289
     0
340
96
  0
DIMSTYLE
105
1B4
102
{ACAD_REACTORS
330
1B3
102
}
330
A
100
AcDbSymbolTableRecord
100
AcDbDimStyleTableRecord
  2
SLDDIMSTYLE2
 70
     0
 41
3.9624
 44
0.0
 45
0.000000001
 73
     0
 74
     0
 77
     1
 78
     4
 79
     1
140
3.4925
147
0.873125
173
     1
178
     0
271
     2
272
     2
276
     2
284
    12
340
96
  0
ENDTAB
  0
TABLE
  2
BLOCK_RECORD
  5
1
330
0
100
AcDbSymbolTable
 70
     8
  0
BLOCK_RECORD
  5
1F
330
1
100
AcDbSymbolTableRecord
100
AcDbBlockTableRecord
  2
*Model_Space
340
22
  0
BLOCK_RECORD
  5
1B
330
1
100
AcDbSymbolTableRecord
100
AcDbBlockTableRecord
  2
*Paper_Space
340
1E
  0
BLOCK_RECORD
  5
23
330
1
100
AcDbSymbolTableRecord
100
AcDbBlockTableRecord
  2
*Paper_Space0
340
26
  0
BLOCK_RECORD
  5
E8
330
1
100
AcDbSymbolTableRecord
100
AcDbBlockTableRecord
  2
SW_CENTERMARKSYMBOL_0
340
0
102
{BLKREFS
331
F3
102
}
  0
BLOCK_RECORD
  5
17B
330
1
100
AcDbSymbolTableRecord
100
AcDbBlockTableRecord
  2
_D
340
0
  0
BLOCK_RECORD
  5
187
330
1
100
AcDbSymbolTableRecord
100
AcDbBlockTableRecord
  2
_D_1
340
0
  0
BLOCK_RECORD
  5
194
330
1
100
AcDbSymbolTableRecord
100
AcDbBlockTableRecord
  2
_D_2
340
0
  0
BLOCK_RECORD
  5
1A0
330
1
100
AcDbSymbolTableRecord
100
AcDbBlockTableRecord
  2
_D_3
340
0
  0
BLOCK_RECORD
  5
1AA
330
1
100
AcDbSymbolTableRecord
100
AcDbBlockTableRecord
  2
_D_4
340
0
  0
BLOCK_RECORD
  5
1B5
330
1
100
AcDbSymbolTableRecord
100
AcDbBlockTableRecord
  2
_D_5
340
0
  0
ENDTAB
  0
ENDSEC
  0
SECTION
  2
BLOCKS
  0
BLOCK
  5
20
330
1F
100
AcDbEntity
  8
0
100
AcDbBlockBegin
  2
*Model_Space
 70
     0
 10
0.0
 20
0.0
 30
0.0
  3
*Model_Space
  1
*Model_Space
  0
ENDBLK
  5
21
330
1F
100
AcDbEntity
  8
0
100
AcDbBlockEnd
  0
BLOCK
  5
1C
330
1B
100
AcDbEntity
 67
     1
  8
0
100
AcDbBlockBegin
  2
*Paper_Space
 70
     0
 10
0.0
 20
0.0
 30
0.0
  3
*Paper_Space
  1
*Paper_Space
  0
ENDBLK
  5
1D
330
1B
100
AcDbEntity
 67
     1
  8
0
100
AcDbBlockEnd
  0
BLOCK
  5
24
330
23
100
AcDbEntity
  8
0
100
AcDbBlockBegin
  2
*Paper_Space0
 70
     0
 10
0.0
 20
0.0
 30
0.0
  3
*Paper_Space0
  1
*Paper_Space0
  0
ENDBLK
  5
25
330
23
100
AcDbEntity
  8
0
100
AcDbBlockEnd
  0
BLOCK
  5
E9
330
E8
100
AcDbEntity
  8
0
100
AcDbBlockBegin
  2
SW_CENTERMARKSYMBOL_0
 70
     0
 10
0.0
 20
0.0
 30
0.0
  3
SW_CENTERMARKSYMBOL_0
  1
SW_CENTERMARKSYMBOL_0
  0
LINE
  5
EB
330
E8
100
AcDbEntity
  8
DIM
 62
     0
100
AcDbLine
 10
0.0
 20
0.0
 30
0.0
 11
0.0
 21
2.5
 31
0.0
  0
LINE
  5
EC
330
E8
100
AcDbEntity
  8
DIM
 62
     0
100
AcDbLine
 10
0.0
 20
0.0
 30
0.0
 11
-2.5
 21
0.0
 31
0.0
  0
LINE
  5
ED
330
E8
100
AcDbEntity
  8
DIM
 62
     0
100
AcDbLine
 10
0.0
 20
0.0
 30
0.0
 11
0.0
 21
-2.5
 31
0.0
  0
LINE
  5
EE
330
E8
100
AcDbEntity
  8
DIM
 62
     0
100
AcDbLine
 10
0.0
 20
0.0
 30
0.0
 11
2.5
 21
0.0
 31
0.0
  0
LINE
  5
EF
330
E8
100
AcDbEntity
  8
DIM
 62
     0
100
AcDbLine
 10
0.0
 20
5.0
 30
0.0
 11
0.0
 21
50.3671572875
 31
0.0
  0
LINE
  5
F0
330
E8
100
AcDbEntity
  8
DIM
 62
     0
100
AcDbLine
 10
-5.0
 20
0.0
 30
0.0
 11
-50.3671572875
 21
0.0
 31
0.0
  0
LINE
  5
F1
330
E8
100
AcDbEntity
  8
DIM
 62
     0
100
AcDbLine
 10
0.0
 20
-5.0
 30
0.0
 11
0.0
 21
-50.3671572875
 31
0.0
  0
LINE
  5
F2
330
E8
100
AcDbEntity
  8
DIM
 62
     0
100
AcDbLine
 10
5.0
 20
0.0
 30
0.0
 11
50.3671572875
 21
0.0
 31
0.0
  0
ENDBLK
  5
EA
330
E8
100
AcDbEntity
  8
0
100
AcDbBlockEnd
  0
BLOCK
  5
17C
330
17B
100
AcDbEntity
  8
0
100
AcDbBlockBegin
  2
_D
 70
     0
 10
0.0
 20
0.0
 30
0.0
  3
_D
  1
_D
  0
SOLID
  5
17E
330
17B
100
AcDbEntity
  8
DIM
100
AcDbTrace
 10
332.8541282553
 20
98.4308564342
 30
0.0
 11
333.4637282553
 21
102.3932564342
 31
0.0
 12
332.2445282553
 22
102.3932564342
 32
0.0
 13
332.2445282553
 23
102.3932564342
 33
0.0
  0
SOLID
  5
17F
330
17B
100
AcDbEntity
  8
DIM
100
AcDbTrace
 10
332.8541282553
 20
146.4308564342
 30
0.0
 11
332.2445282553
 21
142.4684564342
 31
0.0
 12
333.4637282553
 22
142.4684564342
 32
0.0
 13
333.4637282553
 23
142.4684564342
 33
0.0
  0
LINE
  5
180
330
17B
100
AcDbEntity
  8
DIM
100
AcDbLine
 10
288.3168243588
 20
98.4308564342
 30
0.0
 11
334.0541282553
 21
98.4308564342
 31
0.0
  0
LINE
  5
181
330
17B
100
AcDbEntity
  8
DIM
100
AcDbLine
 10
288.3168243588
 20
146.4308564342
 30
0.0
 11
334.0541282553
 21
146.4308564342
 31
0.0
  0
LINE
  5
182
330
17B
100
AcDbEntity
  8
DIM
100
AcDbLine
 10
332.8541282553
 20
98.4308564342
 30
0.0
 11
332.8541282553
 21
146.4308564342
 31
0.0
  0
MTEXT
  5
183
330
17B
100
AcDbEntity
  8
DIM
100
AcDbMText
 10
328.3520588947
 20
117.3698035083
 30
0.0
 40
3.4925
 41
0.0
 71
     1
 72
     1
  1
%%c
  7
SLDTEXTSTYLE0
 11
6.123233995736766E-17
 21
1.0
 31
0.0
 73
     1
 44
1.0
  0
MTEXT
  5
184
330
17B
100
AcDbEntity
  8
DIM
100
AcDbMText
 10
328.3520588947
 20
122.7705665878
 30
0.0
 40
3.4925
 41
0.0
 71
     1
 72
     1
  1
48
  7
SLDTEXTSTYLE0
 11
6.123233995736766E-17
 21
1.0
 31
0.0
 73
     1
 44
1.0
  0
ENDBLK
  5
17D
330
17B
100
AcDbEntity
  8
0
100
AcDbBlockEnd
  0
BLOCK
  5
188
330
187
100
AcDbEntity
  8
0
100
AcDbBlockBegin
  2
_D_1
 70
     0
 10
0.0
 20
0.0
 30
0.0
  3
_D_1
  1
_D_1
  0
SOLID
  5
18A
330
187
100
AcDbEntity
  8
DIM
100
AcDbTrace
 10
324.7658237947
 20
133.4308564342
 30
0.0
 11
325.3754237947
 21
137.3932564342
 31
0.0
 12
324.1562237947
 22
137.3932564342
 32
0.0
 13
324.1562237947
 23
137.3932564342
 33
0.0
  0
SOLID
  5
18B
330
187
100
AcDbEntity
  8
DIM
100
AcDbTrace
 10
324.7658237947
 20
111.4308564342
 30
0.0
 11
324.1562237947
 21
107.4684564342
 31
0.0
 12
325.3754237947
 22
107.4684564342
 32
0.0
 13
325.3754237947
 23
107.4684564342
 33
0.0
  0
LINE
  5
18C
330
187
100
AcDbEntity
  8
DIM
100
AcDbLine
 10
307.82607663
 20
133.4308564342
 30
0.0
 11
325.9658237947
 21
133.4308564342
 31
0.0
  0
LINE
  5
18D
330
187
100
AcDbEntity
  8
DIM
100
AcDbLine
 10
307.82607663
 20
111.4308564342
 30
0.0
 11
325.9658237947
 21
111.4308564342
 31
0.0
  0
LINE
  5
18E
330
187
100
AcDbEntity
  8
DIM
100
AcDbLine
 10
324.7658237947
 20
133.4308564342
 30
0.0
 11
324.7658237947
 21
141.0508564342
 31
0.0
  0
LINE
  5
18F
330
187
100
AcDbEntity
  8
DIM
100
AcDbLine
 10
324.7658237947
 20
133.4308564342
 30
0.0
 11
324.7658237947
 21
111.4308564342
 31
0.0
  0
LINE
  5
190
330
187
100
AcDbEntity
  8
DIM
100
AcDbLine
 10
324.7658237947
 20
111.4308564342
 30
0.0
 11
324.7658237947
 21
103.8108564342
 31
0.0
  0
MTEXT
  5
191
330
187
100
AcDbEntity
  8
DIM
100
AcDbMText
 10
320.2637544342
 20
117.3698035083
 30
0.0
 40
3.4925
 41
0.0
 71
     1
 72
     1
  1
%%c
  7
SLDTEXTSTYLE0
 11
-7.044195017643634E-15
 21
1.0
 31
0.0
 73
     1
 44
1.0
  0
MTEXT
  5
192
330
187
100
AcDbEntity
  8
DIM
100
AcDbMText
 10
320.2637544342
 20
122.7705665878
 30
0.0
 40
3.4925
 41
0.0
 71
     1
 72
     1
  1
22
  7
SLDTEXTSTYLE0
 11
-7.044195017643634E-15
 21
1.0
 31
0.0
 73
     1
 44
1.0
  0
ENDBLK
  5
189
330
187
100
AcDbEntity
  8
0
100
AcDbBlockEnd
  0
BLOCK
  5
195
330
194
100
AcDbEntity
  8
0
100
AcDbBlockBegin
  2
_D_2
 70
     0
 10
0.0
 20
0.0
 30
0.0
  3
_D_2
  1
_D_2
  0
SOLID
  5
197
330
194
100
AcDbEntity
  8
DIM
100
AcDbTrace
 10
307.1168243588
 20
66.6091588131
 30
0.0
 11
311.0792243588
 21
65.9995588131
 31
0.0
 12
311.0792243588
 22
67.2187588131
 32
0.0
 13
311.0792243588
 23
67.2187588131
 33
0.0
  0
SOLID
  5
198
330
194
100
AcDbEntity
  8
DIM
100
AcDbTrace
 10
288.1168243588
 20
66.6091588131
 30
0.0
 11
284.1544243588
 21
67.2187588131
 31
0.0
 12
284.1544243588
 22
65.9995588131
 32
0.0
 13
284.1544243588
 23
65.9995588131
 33
0.0
  0
LINE
  5
199
330
194
100
AcDbEntity
  8
DIM
100
AcDbLine
 10
307.1168243588
 20
111.0808564342
 30
0.0
 11
307.1168243588
 21
65.4091588131
 31
0.0
  0
LINE
  5
19A
330
194
100
AcDbEntity
  8
DIM
100
AcDbLine
 10
288.1168243588
 20
98.2308564342
 30
0.0
 11
288.1168243588
 21
65.4091588131
 31
0.0
  0
LINE
  5
19B
330
194
100
AcDbEntity
  8
DIM
100
AcDbLine
 10
307.1168243588
 20
66.6091588131
 30
0.0
 11
314.7368243588
 21
66.6091588131
 31
0.0
  0
LINE
  5
19C
330
194
100
AcDbEntity
  8
DIM
100
AcDbLine
 10
307.1168243588
 20
66.6091588131
 30
0.0
 11
288.1168243588
 21
66.6091588131
 31
0.0
  0
LINE
  5
19D
330
194
100
AcDbEntity
  8
DIM
100
AcDbLine
 10
288.1168243588
 20
66.6091588131
 30
0.0
 11
280.4968243588
 21
66.6091588131
 31
0.0
  0
MTEXT
  5
19E
330
194
100
AcDbEntity
  8
DIM
100
AcDbMText
 10
295.2561529727
 20
71.1112281737
 30
0.0
 40
3.4925
 41
0.0
 71
     1
 72
     1
  1
19
  7
SLDTEXTSTYLE0
 73
     1
 44
1.0
  0
ENDBLK
  5
196
330
194
100
AcDbEntity
  8
0
100
AcDbBlockEnd
  0
BLOCK
  5
1A1
330
1A0
100
AcDbEntity
  8
0
100
AcDbBlockBegin
  2
_D_3
 70
     0
 10
0.0
 20
0.0
 30
0.0
  3
_D_3
  1
_D_3
  0
SOLID
  5
1A3
330
1A0
100
AcDbEntity
  8
DIM
100
AcDbTrace
 10
288.1168243588
 20
66.6091588131
 30
0.0
 11
284.1544243588
 21
67.2187588131
 31
0.0
 12
284.1544243588
 22
65.9995588131
 32
0.0
 13
284.1544243588
 23
65.9995588131
 33
0.0
  0
SOLID
  5
1A4
330
1A0
100
AcDbEntity
  8
DIM
100
AcDbTrace
 10
243.1168243588
 20
66.6091588131
 30
0.0
 11
247.0792243588
 21
65.9995588131
 31
0.0
 12
247.0792243588
 22
67.2187588131
 32
0.0
 13
247.0792243588
 23
67.2187588131
 33
0.0
  0
LINE
  5
1A5
330
1A0
100
AcDbEntity
  8
DIM
100
AcDbLine
 10
288.1168243588
 20
98.2308564342
 30
0.0
 11
288.1168243588
 21
65.4091588131
 31
0.0
  0
LINE
  5
1A6
330
1A0
100
AcDbEntity
  8
DIM
100
AcDbLine
 10
243.1168243588
 20
86.3058564342
 30
0.0
 11
243.1168243588
 21
65.4091588131
 31
0.0
  0
LINE
  5
1A7
330
1A0
100
AcDbEntity
  8
DIM
100
AcDbLine
 10
288.1168243588
 20
66.6091588131
 30
0.0
 11
243.1168243588
 21
66.6091588131
 31
0.0
  0
MTEXT
  5
1A8
330
1A0
100
AcDbEntity
  8
DIM
100
AcDbMText
 10
263.2561529727
 20
71.1112281737
 30
0.0
 40
3.4925
 41
0.0
 71
     1
 72
     1
  1
45
  7
SLDTEXTSTYLE0
 73
     1
 44
1.0
  0
ENDBLK
  5
1A2
330
1A0
100
AcDbEntity
  8
0
100
AcDbBlockEnd
  0
BLOCK
  5
1AB
330
1AA
100
AcDbEntity
  8
0
100
AcDbBlockBegin
  2
_D_4
 70
     0
 10
0.0
 20
0.0
 30
0.0
  3
_D_4
  1
_D_4
  0
SOLID
  5
1AD
330
1AA
100
AcDbEntity
  8
DIM
100
AcDbTrace
 10
318.1168243588
 20
54.4807564342
 30
0.0
 11
314.1544243588
 21
55.0903564342
 31
0.0
 12
314.1544243588
 22
53.8711564342
 32
0.0
 13
314.1544243588
 23
53.8711564342
 33
0.0
  0
SOLID
  5
1AE
330
1AA
100
AcDbEntity
  8
DIM
100
AcDbTrace
 10
141.3668243588
 20
54.4807564342
 30
0.0
 11
145.3292243588
 21
53.8711564342
 31
0.0
 12
145.3292243588
 22
55.0903564342
 32
0.0
 13
145.3292243588
 23
55.0903564342
 33
0.0
  0
LINE
  5
1AF
330
1AA
100
AcDbEntity
  8
DIM
100
AcDbLine
 10
318.1168243588
 20
108.2308564342
 30
0.0
 11
318.1168243588
 21
53.2807564342
 31
0.0
  0
LINE
  5
1B0
330
1AA
100
AcDbEntity
  8
DIM
100
AcDbLine
 10
141.3668243588
 20
121.2308564342
 30
0.0
 11
141.3668243588
 21
53.2807564342
 31
0.0
  0
LINE
  5
1B1
330
1AA
100
AcDbEntity
  8
DIM
100
AcDbLine
 10
318.1168243588
 20
54.4807564342
 30
0.0
 11
141.3668243588
 21
54.4807564342
 31
0.0
  0
MTEXT
  5
1B2
330
1AA
100
AcDbEntity
  8
DIM
100
AcDbMText
 10
223.2192569748
 20
58.9828257948
 30
0.0
 40
3.4925
 41
0.0
 71
     1
 72
     1
  1
176.75
  7
SLDTEXTSTYLE0
 73
     1
 44
1.0
  0
ENDBLK
  5
1AC
330
1AA
100
AcDbEntity
  8
0
100
AcDbBlockEnd
  0
BLOCK
  5
1B6
330
1B5
100
AcDbEntity
  8
0
100
AcDbBlockBegin
  2
_D_5
 70
     0
 10
0.0
 20
0.0
 30
0.0
  3
_D_5
  1
_D_5
  0
SOLID
  5
1B8
330
1B5
100
AcDbEntity
  8
DIM
100
AcDbTrace
 10
134.6778965424
 20
171.1808564342
 30
0.0
 11
134.0682965424
 21
167.2184564342
 31
0.0
 12
135.2874965424
 22
167.2184564342
 32
0.0
 13
135.2874965424
 23
167.2184564342
 33
0.0
  0
SOLID
  5
1B9
330
1B5
100
AcDbEntity
  8
DIM
100
AcDbTrace
 10
134.6778965424
 20
73.6808564342
 30
0.0
 11
135.2874965424
 21
77.6432564342
 31
0.0
 12
134.0682965424
 22
77.6432564342
 32
0.0
 13
134.0682965424
 23
77.6432564342
 33
0.0
  0
LINE
  5
1BA
330
1B5
100
AcDbEntity
  8
DIM
100
AcDbLine
 10
246.2825097837
 20
171.1808564342
 30
0.0
 11
133.4778965424
 21
171.1808564342
 31
0.0
  0
LINE
  5
1BB
330
1B5
100
AcDbEntity
  8
DIM
100
AcDbLine
 10
246.2825097837
 20
73.6808564342
 30
0.0
 11
133.4778965424
 21
73.6808564342
 31
0.0
  0
LINE
  5
1BC
330
1B5
100
AcDbEntity
  8
DIM
100
AcDbLine
 10
134.6778965424
 20
171.1808564342
 30
0.0
 11
134.6778965424
 21
73.6808564342
 31
0.0
  0
MTEXT
  5
1BD
330
1B5
100
AcDbEntity
  8
DIM
100
AcDbMText
 10
130.1758271818
 20
114.3882432036
 30
0.0
 40
3.4925
 41
0.0
 71
     1
 72
     1
  1
%%c
  7
SLDTEXTSTYLE0
 11
-7.044195017643634E-15
 21
1.0
 31
0.0
 73
     1
 44
1.0
  0
MTEXT
  5
1BE
330
1B5
100
AcDbEntity
  8
DIM
100
AcDbMText
 10
130.1758271818
 20
119.7890062831
 30
0.0
 40
3.4925
 41
0.0
 71
     1
 72
     1
  1
97.50
  7
SLDTEXTSTYLE0
 11
-7.044195017643634E-15
 21
1.0
 31
0.0
 73
     1
 44
1.0
  0
ENDBLK
  5
1B7
330
1B5
100
AcDbEntity
  8
0
100
AcDbBlockEnd
  0
ENDSEC
  0
SECTION
  2
ENTITIES
  0
LINE
  5
76
330
1F
100
AcDbEntity
  8
DIM
100
AcDbLine
 10
125.6453096268
 20
11.7491897482
 30
0.0
 11
125.6453096268
 21
5.7491897482
 31
0.0
  0
LINE
  5
77
330
1F
100
AcDbEntity
  8
DIM
100
AcDbLine
 10
305.3635220344
 20
11.7491897482
 30
0.0
 11
305.3635220344
 21
5.7491897482
 31
0.0
  0
LINE
  5
78
330
1F
100
AcDbEntity
  8
DIM
100
AcDbLine
 10
284.9420519179
 20
11.7491897482
 30
0.0
 11
284.9420519179
 21
5.7491897482
 31
0.0
  0
LINE
  5
79
330
1F
100
AcDbEntity
  8
DIM
100
AcDbLine
 10
334.6853096268
 20
5.7491897482
 30
0.0
 11
334.6853096268
 21
11.7491897482
 31
0.0
  0
LINE
  5
7A
330
1F
100
AcDbEntity
  8
DIM
100
AcDbLine
 10
135.0053096268
 20
11.7491897482
 30
0.0
 11
135.0053096268
 21
5.7491897482
 31
0.0
  0
LINE
  5
7B
330
1F
100
AcDbEntity
  8
DIM
100
AcDbLine
 10
158.0344525473
 20
11.7491897482
 30
0.0
 11
158.0344525473
 21
5.7491897482
 31
0.0
  0
LINE
  5
7C
330
1F
100
AcDbEntity
  8
DIM
100
AcDbLine
 10
350.2853096268
 20
5.7491897482
 30
0.0
 11
350.2853096268
 21
92.4491897482
 31
0.0
  0
LINE
  5
7D
330
1F
100
AcDbEntity
  8
DIM
100
AcDbLine
 10
342.9828056336
 20
72.0491897482
 30
0.0
 11
350.2853096268
 21
72.0491897482
 31
0.0
  0
LINE
  5
7E
330
1F
100
AcDbEntity
  8
DIM
100
AcDbLine
 10
178.924021023
 20
10.8491897482
 30
0.0
 11
178.924021023
 21
5.7491897482
 31
0.0
  0
LINE
  5
7F
330
1F
100
AcDbEntity
  8
DIM
100
AcDbLine
 10
236.1167389925
 20
11.7491897482
 30
0.0
 11
236.1167389925
 21
5.7491897482
 31
0.0
  0
LINE
  5
80
330
1F
100
AcDbEntity
  8
DIM
100
AcDbLine
 10
178.924021023
 20
11.7491897482
 30
0.0
 11
178.924021023
 21
10.8491897482
 31
0.0
  0
LINE
  5
81
330
1F
100
AcDbEntity
  8
DIM
100
AcDbLine
 10
344.2853096268
 20
21.0491033482
 30
0.0
 11
350.2853096268
 21
21.0491033482
 31
0.0
  0
LINE
  5
82
330
1F
100
AcDbEntity
  8
DIM
100
AcDbLine
 10
344.2853096268
 20
239.7491897482
 30
0.0
 11
11.8853096268
 21
239.7491897482
 31
0.0
  0
LINE
  5
83
330
1F
100
AcDbEntity
  8
DIM
100
AcDbLine
 10
350.2853096268
 20
245.7491897482
 30
0.0
 11
5.8853096268
 21
245.7491897482
 31
0.0
  0
LINE
  5
84
330
1F
100
AcDbEntity
  8
DIM
100
AcDbLine
 10
11.8853096268
 20
239.7491897482
 30
0.0
 11
11.8853096268
 21
11.7491897482
 31
0.0
  0
LINE
  5
85
330
1F
100
AcDbEntity
  8
DIM
100
AcDbLine
 10
5.8853096268
 20
245.7491897482
 30
0.0
 11
5.8853096268
 21
5.7491897482
 31
0.0
  0
LINE
  5
86
330
1F
100
AcDbEntity
  8
DIM
100
AcDbLine
 10
11.8853096268
 20
65.7491897482
 30
0.0
 11
5.8853096268
 21
65.7491897482
 31
0.0
  0
LINE
  5
87
330
1F
100
AcDbEntity
  8
DIM
100
AcDbLine
 10
5.8853096268
 20
125.7491897482
 30
0.0
 11
11.8853096268
 21
125.7491897482
 31
0.0
  0
LINE
  5
88
330
1F
100
AcDbEntity
  8
DIM
100
AcDbLine
 10
5.8853096268
 20
5.7491897482
 30
0.0
 11
350.2853096268
 21
5.7491897482
 31
0.0
  0
LINE
  5
89
330
1F
100
AcDbEntity
  8
DIM
100
AcDbLine
 10
11.8853096268
 20
11.7491897482
 30
0.0
 11
350.2853096268
 21
11.7491897482
 31
0.0
  0
LINE
  5
8A
330
1F
100
AcDbEntity
  8
DIM
100
AcDbLine
 10
58.0853096268
 20
5.7491897482
 30
0.0
 11
58.0853096268
 21
11.7491897482
 31
0.0
  0
LINE
  5
8B
330
1F
100
AcDbEntity
  8
DIM
100
AcDbLine
 10
118.0853096268
 20
11.7491897482
 30
0.0
 11
118.0853096268
 21
5.7491897482
 31
0.0
  0
LINE
  5
8C
330
1F
100
AcDbEntity
  8
DIM
100
AcDbLine
 10
11.8853096268
 20
185.7491897482
 30
0.0
 11
5.8853096268
 21
185.7491897482
 31
0.0
  0
LINE
  5
8D
330
1F
100
AcDbEntity
  8
DIM
100
AcDbLine
 10
58.0853096268
 20
239.7491897482
 30
0.0
 11
58.0853096268
 21
245.7491897482
 31
0.0
  0
LINE
  5
8E
330
1F
100
AcDbEntity
  8
DIM
100
AcDbLine
 10
118.0853096268
 20
245.7491897482
 30
0.0
 11
118.0853096268
 21
239.7491897482
 31
0.0
  0
LINE
  5
8F
330
1F
100
AcDbEntity
  8
DIM
100
AcDbLine
 10
178.0853096268
 20
245.7491897482
 30
0.0
 11
178.0853096268
 21
239.7491897482
 31
0.0
  0
LINE
  5
90
330
1F
100
AcDbEntity
  8
DIM
100
AcDbLine
 10
344.2853096268
 20
11.7491897482
 30
0.0
 11
344.2853096268
 21
239.7491897482
 31
0.0
  0
LINE
  5
91
330
1F
100
AcDbEntity
  8
DIM
100
AcDbLine
 10
350.2853096268
 20
92.4491897482
 30
0.0
 11
350.2853096268
 21
245.7491897482
 31
0.0
  0
LINE
  5
92
330
1F
100
AcDbEntity
  8
DIM
100
AcDbLine
 10
350.2853096268
 20
125.7491897482
 30
0.0
 11
344.2853096268
 21
125.7491897482
 31
0.0
  0
LINE
  5
93
330
1F
100
AcDbEntity
  8
DIM
100
AcDbLine
 10
238.0853096268
 20
245.7491897482
 30
0.0
 11
238.0853096268
 21
239.7491897482
 31
0.0
  0
LINE
  5
94
330
1F
100
AcDbEntity
  8
DIM
100
AcDbLine
 10
298.0853096268
 20
239.7491897482
 30
0.0
 11
298.0853096268
 21
245.7491897482
 31
0.0
  0
LINE
  5
95
330
1F
100
AcDbEntity
  8
DIM
100
AcDbLine
 10
344.2853096268
 20
185.7491897482
 30
0.0
 11
350.2853096268
 21
185.7491897482
 31
0.0
  0
MTEXT
  5
97
330
1F
100
AcDbEntity
  8
DIM
100
AcDbMText
 10
19.3556044454
 20
232.6416591592
 30
0.0
 40
5.08
 41
0.0
 71
     1
 72
     1
  1
SK 50 FMH22 045 AD/6.3G15000 SL SP.S
  7
SLDTEXTSTYLE0
 73
     1
 44
1.0
  0
MTEXT
  5
99
330
1F
100
AcDbEntity
  8
DIM
 62
     7
100
AcDbMText
 10
237.279334376
 20
9.3623418316
 30
0.0
 40
1.79832
 41
0.0
 71
     1
 72
     1
  1
WEIGHT:
  7
SLDTEXTSTYLE1
 73
     1
 44
1.0
  0
MTEXT
  5
9A
330
1F
100
AcDbEntity
  8
DIM
 62
     7
100
AcDbMText
 10
346.3164921058
 20
98.3287362099
 30
0.0
 40
2.2225
 41
0.0
 71
     1
 72
     1
  1
C
  7
SLDTEXTSTYLE1
 73
     1
 44
1.0
  0
MTEXT
  5
9B
330
1F
100
AcDbEntity
  8
DIM
 62
     7
100
AcDbMText
 10
339.6522967434
 20
17.8247783803
 30
0.0
 40
3.4925
 41
0.0
 71
     1
 72
     1
  1
A4
  7
SLDTEXTSTYLE1
 73
     1
 44
1.0
  0
MTEXT
  5
9C
330
1F
100
AcDbEntity
  8
DIM
 62
     7
100
AcDbMText
 10
327.0853144268
 20
244.1508094325
 30
0.0
 40
2.2225
 41
0.0
 71
     1
 72
     1
  1
6
  7
SLDTEXTSTYLE1
 73
     1
 44
1.0
  0
MTEXT
  5
9D
330
1F
100
AcDbEntity
  8
DIM
 62
     7
100
AcDbMText
 10
267.0853144268
 20
244.1508094325
 30
0.0
 40
2.2225
 41
0.0
 71
     1
 72
     1
  1
5
  7
SLDTEXTSTYLE1
 73
     1
 44
1.0
  0
MTEXT
  5
9E
330
1F
100
AcDbEntity
  8
DIM
 62
     7
100
AcDbMText
 10
346.2853192268
 20
217.1508094325
 30
0.0
 40
2.2225
 41
0.0
 71
     1
 72
     1
  1
A
  7
SLDTEXTSTYLE1
 73
     1
 44
1.0
  0
MTEXT
  5
9F
330
1F
100
AcDbEntity
  8
DIM
 62
     7
100
AcDbMText
 10
346.2853192268
 20
157.1508094325
 30
0.0
 40
2.2225
 41
0.0
 71
     1
 72
     1
  1
B
  7
SLDTEXTSTYLE1
 73
     1
 44
1.0
  0
MTEXT
  5
A0
330
1F
100
AcDbEntity
  8
DIM
 62
     7
100
AcDbMText
 10
207.0853144268
 20
244.1508094325
 30
0.0
 40
2.2225
 41
0.0
 71
     1
 72
     1
  1
4
  7
SLDTEXTSTYLE1
 73
     1
 44
1.0
  0
MTEXT
  5
A1
330
1F
100
AcDbEntity
  8
DIM
 62
     7
100
AcDbMText
 10
27.5853144268
 20
244.1508094325
 30
0.0
 40
2.2225
 41
0.0
 71
     1
 72
     1
  1
1
  7
SLDTEXTSTYLE1
 73
     1
 44
1.0
  0
MTEXT
  5
A2
330
1F
100
AcDbEntity
  8
DIM
 62
     7
100
AcDbMText
 10
87.0853144268
 20
244.1508094325
 30
0.0
 40
2.2225
 41
0.0
 71
     1
 72
     1
  1
2
  7
SLDTEXTSTYLE1
 73
     1
 44
1.0
  0
MTEXT
  5
A3
330
1F
100
AcDbEntity
  8
DIM
 62
     7
100
AcDbMText
 10
147.0853144268
 20
244.1508094325
 30
0.0
 40
2.2225
 41
0.0
 71
     1
 72
     1
  1
3
  7
SLDTEXTSTYLE1
 73
     1
 44
1.0
  0
MTEXT
  5
A4
330
1F
100
AcDbEntity
  8
DIM
 62
     7
100
AcDbMText
 10
7.8853096268
 20
217.1508094325
 30
0.0
 40
2.2225
 41
0.0
 71
     1
 72
     1
  1
A
  7
SLDTEXTSTYLE1
 73
     1
 44
1.0
  0
MTEXT
  5
A5
330
1F
100
AcDbEntity
  8
DIM
 62
     7
100
AcDbMText
 10
87.0853144268
 20
10.1508094325
 30
0.0
 40
2.2225
 41
0.0
 71
     1
 72
     1
  1
2
  7
SLDTEXTSTYLE1
 73
     1
 44
1.0
  0
MTEXT
  5
A6
330
1F
100
AcDbEntity
  8
DIM
 62
     7
100
AcDbMText
 10
27.5853144268
 20
10.1508094325
 30
0.0
 40
2.2225
 41
0.0
 71
     1
 72
     1
  1
1
  7
SLDTEXTSTYLE1
 73
     1
 44
1.0
  0
MTEXT
  5
A7
330
1F
100
AcDbEntity
  8
DIM
 62
     7
100
AcDbMText
 10
7.8853096268
 20
37.1508094325
 30
0.0
 40
2.2225
 41
0.0
 71
     1
 72
     1
  1
D
  7
SLDTEXTSTYLE1
 73
     1
 44
1.0
  0
MTEXT
  5
A8
330
1F
100
AcDbEntity
  8
DIM
 62
     7
100
AcDbMText
 10
7.8853096268
 20
97.1508094325
 30
0.0
 40
2.2225
 41
0.0
 71
     1
 72
     1
  1
C
  7
SLDTEXTSTYLE1
 73
     1
 44
1.0
  0
MTEXT
  5
A9
330
1F
100
AcDbEntity
  8
DIM
 62
     7
100
AcDbMText
 10
7.8853096268
 20
157.1508094325
 30
0.0
 40
2.2225
 41
0.0
 71
     1
 72
     1
  1
B
  7
SLDTEXTSTYLE1
 73
     1
 44
1.0
  0
MTEXT
  5
AA
330
1F
100
AcDbEntity
  8
DIM
 62
     7
100
AcDbMText
 10
346.3164921058
 20
98.3287362099
 30
0.0
 40
2.2225
 41
0.0
 71
     1
 72
     1
  1
C
  7
SLDTEXTSTYLE1
 73
     1
 44
1.0
  0
MTEXT
  5
AC
330
1F
100
AcDbEntity
  8
DIM
 62
     7
100
AcDbMText
 10
307.830438975
 20
9.2292944777
 30
0.0
 40
1.8
 41
0.0
 71
     1
 72
     1
  1
SHEET 1 OF 1
  7
SLDTEXTSTYLE2
 73
     1
 44
1.0
  0
MTEXT
  5
AD
330
1F
100
AcDbEntity
  8
DIM
 62
     7
100
AcDbMText
 10
180.4461364601
 20
9.4240409804
 30
0.0
 40
1.8
 41
0.0
 71
     1
 72
     1
  1
MATERIAL:
  7
SLDTEXTSTYLE1
 73
     1
 44
1.0
  0
MTEXT
  5
AE
330
1F
100
AcDbEntity
  8
DIM
 62
     7
100
AcDbMText
 10
327.0853144268
 20
244.1508094325
 30
0.0
 40
2.2225
 41
0.0
 71
     1
 72
     1
  1
6
  7
SLDTEXTSTYLE1
 73
     1
 44
1.0
  0
MTEXT
  5
AF
330
1F
100
AcDbEntity
  8
DIM
 62
     7
100
AcDbMText
 10
267.0853144268
 20
244.1508094325
 30
0.0
 40
2.2225
 41
0.0
 71
     1
 72
     1
  1
5
  7
SLDTEXTSTYLE1
 73
     1
 44
1.0
  0
MTEXT
  5
B0
330
1F
100
AcDbEntity
  8
DIM
 62
     7
100
AcDbMText
 10
346.2853192268
 20
217.1508094325
 30
0.0
 40
2.2225
 41
0.0
 71
     1
 72
     1
  1
A
  7
SLDTEXTSTYLE1
 73
     1
 44
1.0
  0
MTEXT
  5
B1
330
1F
100
AcDbEntity
  8
DIM
 62
     7
100
AcDbMText
 10
346.2853192268
 20
157.1508094325
 30
0.0
 40
2.2225
 41
0.0
 71
     1
 72
     1
  1
B
  7
SLDTEXTSTYLE1
 73
     1
 44
1.0
  0
MTEXT
  5
B2
330
1F
100
AcDbEntity
  8
DIM
 62
     7
100
AcDbMText
 10
207.0853144268
 20
244.1508094325
 30
0.0
 40
2.2225
 41
0.0
 71
     1
 72
     1
  1
4
  7
SLDTEXTSTYLE1
 73
     1
 44
1.0
  0
MTEXT
  5
B3
330
1F
100
AcDbEntity
  8
DIM
 62
     7
100
AcDbMText
 10
27.5853144268
 20
244.1508094325
 30
0.0
 40
2.2225
 41
0.0
 71
     1
 72
     1
  1
1
  7
SLDTEXTSTYLE1
 73
     1
 44
1.0
  0
MTEXT
  5
B4
330
1F
100
AcDbEntity
  8
DIM
 62
     7
100
AcDbMText
 10
87.0853144268
 20
244.1508094325
 30
0.0
 40
2.2225
 41
0.0
 71
     1
 72
     1
  1
2
  7
SLDTEXTSTYLE1
 73
     1
 44
1.0
  0
MTEXT
  5
B5
330
1F
100
AcDbEntity
  8
DIM
 62
     7
100
AcDbMText
 10
147.0853144268
 20
244.1508094325
 30
0.0
 40
2.2225
 41
0.0
 71
     1
 72
     1
  1
3
  7
SLDTEXTSTYLE1
 73
     1
 44
1.0
  0
MTEXT
  5
B6
330
1F
100
AcDbEntity
  8
DIM
 62
     7
100
AcDbMText
 10
7.8853096268
 20
217.1508094325
 30
0.0
 40
2.2225
 41
0.0
 71
     1
 72
     1
  1
A
  7
SLDTEXTSTYLE1
 73
     1
 44
1.0
  0
MTEXT
  5
B7
330
1F
100
AcDbEntity
  8
DIM
 62
     7
100
AcDbMText
 10
87.0853144268
 20
10.1508094325
 30
0.0
 40
2.2225
 41
0.0
 71
     1
 72
     1
  1
2
  7
SLDTEXTSTYLE1
 73
     1
 44
1.0
  0
MTEXT
  5
B8
330
1F
100
AcDbEntity
  8
DIM
 62
     7
100
AcDbMText
 10
27.5853144268
 20
10.1508094325
 30
0.0
 40
2.2225
 41
0.0
 71
     1
 72
     1
  1
1
  7
SLDTEXTSTYLE1
 73
     1
 44
1.0
  0
MTEXT
  5
B9
330
1F
100
AcDbEntity
  8
DIM
 62
     7
100
AcDbMText
 10
7.8853096268
 20
37.1508094325
 30
0.0
 40
2.2225
 41
0.0
 71
     1
 72
     1
  1
D
  7
SLDTEXTSTYLE1
 73
     1
 44
1.0
  0
MTEXT
  5
BA
330
1F
100
AcDbEntity
  8
DIM
 62
     7
100
AcDbMText
 10
7.8853096268
 20
97.1508094325
 30
0.0
 40
2.2225
 41
0.0
 71
     1
 72
     1
  1
C
  7
SLDTEXTSTYLE1
 73
     1
 44
1.0
  0
MTEXT
  5
BB
330
1F
100
AcDbEntity
  8
DIM
 62
     7
100
AcDbMText
 10
7.8853096268
 20
157.1508094325
 30
0.0
 40
2.2225
 41
0.0
 71
     1
 72
     1
  1
B
  7
SLDTEXTSTYLE1
 73
     1
 44
1.0
  0
SPLINE
  5
BC
330
1F
100
AcDbEntity
  8
0
  6
Continuous
 62
     7
370
    15
100
AcDbSpline
210
0.0
220
0.0
230
1.0
 70
     8
 71
     3
 72
    14
 73
    10
 74
     0
 42
0.000000001
 43
0.00000001
 40
0.0
 40
0.0
 40
0.0
 40
0.0
 40
0.25
 40
0.25
 40
0.5
 40
0.5
 40
0.75
 40
0.75
 40
1.0
 40
1.0
 40
1.0
 40
1.0
 10
91.22484868954668
 20
122.4308564342062
 30
0.0
 10
91.22484868954668
 20
117.3331220574318
 30
0.0
 10
89.19962226347774
 20
112.4437929527397
 30
0.0
 10
81.99033717046777
 20
105.2345078597298
 30
0.0
 10
77.10100806577574
 20
103.2092814336608
 30
0.0
 10
66.90553931222685
 20
103.2092814336608
 30
0.0
 10
62.01621020753482
 20
105.2345078597298
 30
0.0
 10
54.80692511452484
 20
112.4437929527397
 30
0.0
 10
52.78169868845589
 20
117.3331220574318
 30
0.0
 10
52.78169868845588
 20
122.4308564342062
 30
0.0
  0
SPLINE
  5
BD
330
1F
100
AcDbEntity
  8
0
  6
Continuous
 62
     7
370
    15
100
AcDbSpline
210
0.0
220
0.0
230
1.0
 70
     8
 71
     3
 72
    14
 73
    10
 74
     0
 42
0.000000001
 43
0.00000001
 40
0.0
 40
0.0
 40
0.0
 40
0.0
 40
0.25
 40
0.25
 40
0.5
 40
0.5
 40
0.75
 40
0.75
 40
1.0
 40
1.0
 40
1.0
 40
1.0
 10
52.78169868845589
 20
122.4308564342062
 30
0.0
 10
52.78169868845589
 20
127.5285908109807
 30
0.0
 10
54.80692511452484
 20
132.4179199156727
 30
0.0
 10
62.01621020753482
 20
139.6272050086827
 30
0.0
 10
66.90553931222685
 20
141.6524314347516
 30
0.0
 10
77.10100806577574
 20
141.6524314347516
 30
0.0
 10
81.99033717046775
 20
139.6272050086827
 30
0.0
 10
89.19962226347774
 20
132.4179199156727
 30
0.0
 10
91.22484868954668
 20
127.5285908109807
 30
0.0
 10
91.22484868954668
 20
122.4308564342062
 30
0.0
  0
CIRCLE
  5
BE
330
1F
100
AcDbEntity
  8
0
  6
Continuous
 62
     7
370
    15
100
AcDbCircle
 10
72.003273689
 20
122.4308564342
 30
0.0
 40
20.21110778703758
  0
CIRCLE
  5
BF
330
1F
100
AcDbEntity
  8
0
  6
Continuous
 62
     7
370
    15
100
AcDbCircle
 10
72.003273689
 20
122.4308564342
 30
0.0
 40
34.925
  0
SPLINE
  5
C0
330
1F
100
AcDbEntity
  8
0
  6
Continuous
 62
     7
370
    15
100
AcDbSpline
210
0.0
220
0.0
230
1.0
 70
     8
 71
     3
 72
    52
 73
    48
 74
     0
 42
0.000000001
 43
0.00000001
 40
0.0
 40
0.0
 40
0.0
 40
0.0
 40
0.0053074994726554
 40
0.0106084744807156
 40
0.0159043870752884
 40
0.0211967035030982
 40
0.0264868930010475
 40
0.031776426578386
 40
0.0370667757915106
 40
0.0423594115164833
 40
0.0476558027243854
 40
0.0529574152645906
 40
0.0582657106609693
 40
0.0891348494758177
 40
0.1200087595578935
 40
0.1521645941108524
 40
0.1843252192282218
 40
0.2171652710885947
 40
0.2500102154523581
 40
0.2828502674523063
 40
0.3156952119562962
 40
0.3478510468948057
 40
0.380011672397905
 40
0.4108808109142898
 40
0.4417547207534483
 40
0.470875333637603
 40
0.5000007798720159
 40
0.5291213927975412
 40
0.5582468390472084
 40
0.5891159778617261
 40
0.6199898879441322
 40
0.652145722497098
 40
0.6843063476144644
 40
0.7171463994755694
 40
0.7499913438386044
 40
0.7828313958395676
 40
0.8156763403425417
 40
0.8478321752819549
 40
0.8799928007841501
 40
0.9108619393016738
 40
0.941735849139696
 40
0.9514609652020397
 40
0.9611682412334405
 40
0.9708667191333772
 40
0.9805654654081966
 40
0.9902735458123287
 40
1.0
 40
1.0
 40
1.0
 40
1.0
 10
37.00327368900128
 20
122.4308564342062
 30
0.0
 10
37.00420171991173
 20
122.6253185922592
 30
0.0
 10
37.00605664091205
 20
123.0140038576648
 30
0.0
 10
37.02108567526367
 20
123.5965668276864
 30
0.0
 10
37.04508430429806
 20
124.1782527150557
 30
0.0
 10
37.07892860838117
 20
124.7590614098728
 30
0.0
 10
37.12238415011477
 20
125.3389927582921
 30
0.0
 10
37.17551371118082
 20
125.9180466787167
 30
0.0
 10
37.23830038090301
 20
126.4962228428534
 30
0.0
 10
37.31074897341959
 20
127.0735218402217
 30
0.0
 10
37.3928570109126
 20
127.6499408403693
 30
0.0
 10
37.48462941290627
 20
128.2254898019474
 30
0.0
 10
37.74876891453967
 20
129.7221024054611
 30
0.0
 10
38.31253666744507
 20
132.1178092666292
 30
0.0
 10
39.42515384778378
 20
135.3786803726816
 30
0.0
 10
40.87232006332439
 20
138.5585692549754
 30
0.0
 10
42.6714956927311
 20
141.6370681867311
 30
0.0
 10
44.78791626829145
 20
144.538528094768
 30
0.0
 10
47.21080146180657
 20
147.2230750707619
 30
0.0
 10
49.89546194042503
 20
149.6461002457084
 30
0.0
 10
52.79676207998532
 20
151.7624394817855
 30
0.0
 10
55.87541517801232
 20
153.5617316739045
 30
0.0
 10
59.05507861202064
 20
155.0088398071118
 30
0.0
 10
62.31631491002696
 20
156.1215696241167
 30
0.0
 10
65.56205920876097
 20
156.8854571095129
 30
0.0
 10
68.8009253269169
 20
157.3337351095233
 30
0.0
 10
72.00309671684676
 20
157.4794129743635
 30
0.0
 10
75.20544418749303
 20
157.333751596915
 30
0.0
 10
78.44414244720694
 20
156.8855214044539
 30
0.0
 10
81.69006305677999
 20
156.1216193453312
 30
0.0
 10
84.95114345733944
 20
155.0089690159725
 30
0.0
 10
88.13097402579453
 20
153.5618120409171
 30
0.0
 10
91.20948886600453
 20
151.762633873688
 30
0.0
 10
94.11094442213111
 20
149.6462140568404
 30
0.0
 10
96.79549258014062
 20
147.2233284157301
 30
0.0
 10
99.21851740972339
 20
144.5386689632446
 30
0.0
 10
101.3348568438884
 20
141.6373651918917
 30
0.0
 10
103.1341485965265
 20
138.5587253293097
 30
0.0
 10
104.5812582658861
 20
135.3790133838859
 30
0.0
 10
105.6939825895493
 20
132.1179511742106
 30
0.0
 10
106.2948285215921
 20
129.5645370888564
 30
0.0
 10
106.6027686011113
 20
127.7471173832547
 30
0.0
 10
106.7489077120338
 20
126.6896706450262
 30
0.0
 10
106.8627137392949
 20
125.6292333916514
 30
0.0
 10
106.9434090601015
 20
124.5657794174992
 30
0.0
 10
106.9939305955172
 20
123.4993190487648
 30
0.0
 10
107.0001573622048
 20
122.7872350450391
 30
0.0
 10
107.0032736890013
 20
122.4308564342062
 30
0.0
  0
SPLINE
  5
C1
330
1F
100
AcDbEntity
  8
0
  6
Continuous
 62
     7
370
    15
100
AcDbSpline
210
0.0
220
0.0
230
1.0
 70
     8
 71
     3
 72
    52
 73
    48
 74
     0
 42
0.000000001
 43
0.00000001
 40
0.0
 40
0.0
 40
0.0
 40
0.0
 40
0.0053074994726554
 40
0.0106084744807156
 40
0.0159043870752884
 40
0.0211967035030983
 40
0.0264868930010475
 40
0.0317764265783861
 40
0.0370667757915106
 40
0.0423594115164834
 40
0.0476558027243854
 40
0.0529574152645907
 40
0.0582657106609694
 40
0.0891348494759667
 40
0.1200087595578951
 40
0.1521645941111445
 40
0.1843252192282232
 40
0.2171652710889209
 40
0.25001021545236
 40
0.2828502674525652
 40
0.315695211956297
 40
0.3478510468951538
 40
0.3800116723979077
 40
0.41088081091547
 40
0.4417547207534571
 40
0.4708753336379863
 40
0.5000007798720127
 40
0.5291213927971703
 40
0.5582468390472111
 40
0.5891159778626601
 40
0.6199898879441411
 40
0.6521457224976949
 40
0.6843063476144631
 40
0.7171463994753853
 40
0.7499913438386053
 40
0.7828313958393156
 40
0.8156763403425399
 40
0.8478321752809374
 40
0.8799928007841432
 40
0.9108619393011222
 40
0.9417358491396983
 40
0.9514609652021586
 40
0.9611682412336295
 40
0.9708667191335897
 40
0.9805654654083855
 40
0.9902735458124469
 40
1.0
 40
1.0
 40
1.0
 40
1.0
 10
107.0032736890013
 20
122.4308564342062
 30
0.0
 10
107.0023456580908
 20
122.2363942761533
 30
0.0
 10
107.0004907370905
 20
121.8477090107476
 30
0.0
 10
106.9854617027389
 20
121.2651460407261
 30
0.0
 10
106.9614630737045
 20
120.6834601533567
 30
0.0
 10
106.9276187696214
 20
120.1026514585396
 30
0.0
 10
106.8841632278878
 20
119.5227201101204
 30
0.0
 10
106.8310336668218
 20
118.9436661896957
 30
0.0
 10
106.7682469970996
 20
118.3654900255591
 30
0.0
 10
106.695798404583
 20
117.7881910281907
 30
0.0
 10
106.61369036709
 20
117.2117720280431
 30
0.0
 10
106.5219179650963
 20
116.636223066465
 30
0.0
 10
106.2577784634619
 20
115.139610462946
 30
0.0
 10
105.6940107105588
 20
112.7439036017772
 30
0.0
 10
104.5813935302124
 20
109.483032495716
 30
0.0
 10
103.1342273146734
 20
106.3031436134275
 30
0.0
 10
101.335051685259
 20
103.2246446816626
 30
0.0
 10
99.21863110970406
 20
100.3231847736348
 30
0.0
 10
96.79574591618103
 20
97.6386377976354
 30
0.0
 10
94.111085437569
 20
95.21561262269934
 30
0.0
 10
91.20978529799855
 20
93.09927338661541
 30
0.0
 10
88.13113219998077
 20
91.29998119449814
 30
0.0
 10
84.95146876592936
 20
89.8528730612821
 30
0.0
 10
81.69023246793698
 20
88.7401432442741
 30
0.0
 10
78.4444881691858
 20
87.97625575888665
 30
0.0
 10
75.20562205106955
 20
87.52797775891096
 30
0.0
 10
72.00345066115575
 20
87.38229989404708
 30
0.0
 10
68.80110319052186
 20
87.52796127148558
 30
0.0
 10
65.56240493077615
 20
87.97619146396543
 30
0.0
 10
62.31648432118679
 20
88.74009352307993
 30
0.0
 10
59.05540392061085
 20
89.85274385246005
 30
0.0
 10
55.8755733521967
 20
91.29990082752084
 30
0.0
 10
52.79705851198422
 20
93.09907899473049
 30
0.0
 10
49.8956029558754
 20
95.21549881156628
 30
0.0
 10
47.21105479787269
 20
97.63838445267058
 30
0.0
 10
44.78802996828934
 20
100.323043905164
 30
0.0
 10
42.67169053413776
 20
103.2243476764808
 30
0.0
 10
40.87239878150108
 20
106.3029875390738
 30
0.0
 10
39.42528911213912
 20
109.4826994844737
 30
0.0
 10
38.31256478844239
 20
112.7437616941776
 30
0.0
 10
37.71171885641188
 20
115.2971757795402
 30
0.0
 10
37.40377877689166
 20
117.1145954851691
 30
0.0
 10
37.25763966596905
 20
118.1720422234054
 30
0.0
 10
37.14383363870789
 20
119.2324794767828
 30
0.0
 10
37.06313831790124
 20
120.2959334509323
 30
0.0
 10
37.01261678248544
 20
121.3623938196589
 30
0.0
 10
37.00639001579774
 20
122.0744778233776
 30
0.0
 10
37.00327368900128
 20
122.4308564342062
 30
0.0
  0
ARC
  5
C2
330
1F
100
AcDbEntity
  8
0
  6
Continuous
 62
     7
370
    15
100
AcDbCircle
 10
72.003273689
 20
122.4308564342
 30
0.0
 40
47.86715728752539
100
AcDbArc
 50
128.8096103904
 51
141.1903896096
  0
SPLINE
  5
C3
330
1F
100
AcDbEntity
  8
0
  6
Continuous
 62
     7
370
    15
100
AcDbSpline
210
0.0
220
0.0
230
1.0
 70
    24
 71
     3
 72
     8
 73
     4
 74
     0
 42
0.000000001
 43
0.00000001
 40
0.0
 40
0.0
 40
0.0
 40
0.0
 40
1.0
 40
1.0
 40
1.0
 40
1.0
 10
42.00327368900127
 20
159.7305179177733
 30
0.0
 10
42.00327368900127
 20
159.6270088735389
 30
0.0
 10
42.00327368900128
 20
159.4975853117068
 30
0.0
 10
42.00327368900128
 20
159.3668415107869
 30
0.0
  0
ARC
  5
C4
330
1F
100
AcDbEntity
  8
0
  6
Continuous
 62
     7
370
    15
100
AcDbCircle
 10
72.003273689
 20
122.4308564342
 30
0.0
 40
47.58431457505078
100
AcDbArc
 50
129.0840578538
 51
140.9159421462
  0
SPLINE
  5
C5
330
1F
100
AcDbEntity
  8
0
  6
Continuous
 62
     7
370
    15
100
AcDbSpline
210
0.0
220
0.0
230
1.0
 70
    24
 71
     3
 72
     8
 73
     4
 74
     0
 42
0.000000001
 43
0.00000001
 40
0.0
 40
0.0
 40
0.0
 40
0.0
 40
1.0
 40
1.0
 40
1.0
 40
1.0
 10
35.06728861242063
 20
152.4308564342062
 30
0.0
 10
34.93658446281374
 20
152.4308564342062
 30
0.0
 10
34.80704749579757
 20
152.4308564342062
 30
0.0
 10
34.70361220543423
 20
152.4308564342062
 30
0.0
  0
ARC
  5
C6
330
1F
100
AcDbEntity
  8
0
  6
Continuous
 62
     7
370
    15
100
AcDbCircle
 10
72.003273689
 20
122.4308564342
 30
0.0
 40
47.58431457505078
100
AcDbArc
 50
343.4556342686
 51
16.5443657314
  0
SPLINE
  5
C7
330
1F
100
AcDbEntity
  8
0
  6
Continuous
 62
     7
370
    15
100
AcDbSpline
210
0.0
220
0.0
230
1.0
 70
     8
 71
     3
 72
    10
 73
     6
 74
     0
 42
0.000000001
 43
0.00000001
 40
0.0
 40
0.0
 40
0.0
 40
0.0
 40
0.5
 40
0.5
 40
1.0
 40
1.0
 40
1.0
 40
1.0
 10
117.6175751039895
 20
135.9808564342062
 30
0.0
 10
117.6815267928326
 20
135.9808564342062
 30
0.0
 10
117.7430911312837
 20
135.9670105581814
 30
0.0
 10
117.8537164821327
 20
135.924844781994
 30
0.0
 10
117.9034031738021
 20
135.896354081731
 30
0.0
 10
117.946972750468
 20
135.8636991466809
 30
0.0
  0
ARC
  5
C8
330
1F
100
AcDbEntity
  8
0
  6
Continuous
 62
     7
370
    15
100
AcDbCircle
 10
72.003273689
 20
122.4308564342
 30
0.0
 40
47.86715728752539
100
AcDbArc
 50
343.7023380383
 51
16.2976619617
  0
SPLINE
  5
C9
330
1F
100
AcDbEntity
  8
0
  6
Continuous
 62
     7
370
    15
100
AcDbSpline
210
0.0
220
0.0
230
1.0
 70
     8
 71
     3
 72
    10
 73
     6
 74
     0
 42
0.000000001
 43
0.00000001
 40
0.0
 40
0.0
 40
0.0
 40
0.0
 40
0.5
 40
0.5
 40
1.0
 40
1.0
 40
1.0
 40
1.0
 10
117.9469727504679
 20
108.9980137217316
 30
0.0
 10
117.9034323590492
 20
108.9653806607143
 30
0.0
 10
117.8548777549315
 20
108.9373997744481
 30
0.0
 10
117.7434282191696
 20
108.8947429240731
 30
0.0
 10
117.6814699665805
 20
108.8808564342063
 30
0.0
 10
117.6175751039895
 20
108.8808564342063
 30
0.0
  0
SPLINE
  5
CA
330
1F
100
AcDbEntity
  8
0
  6
Continuous
 62
     7
370
    15
100
AcDbSpline
210
0.0
220
0.0
230
1.0
 70
     8
 71
     3
 72
    10
 73
     6
 74
     0
 42
0.000000001
 43
0.00000001
 40
0.0
 40
0.0
 40
0.0
 40
0.0
 40
0.5
 40
0.5
 40
1.0
 40
1.0
 40
1.0
 40
1.0
 10
26.38897227401314
 20
108.8808564342063
 30
0.0
 10
26.32502058517002
 20
108.8808564342063
 30
0.0
 10
26.26345624671889
 20
108.8947023102311
 30
0.0
 10
26.15283089586985
 20
108.9368680864184
 30
0.0
 10
26.10314420420043
 20
108.9653587866815
 30
0.0
 10
26.05957462753462
 20
108.9980137217316
 30
0.0
  0
ARC
  5
CB
330
1F
100
AcDbEntity
  8
0
  6
Continuous
 62
     7
370
    15
100
AcDbCircle
 10
72.003273689
 20
122.4308564342
 30
0.0
 40
47.86715728752539
100
AcDbArc
 50
163.7023380383
 51
196.2976619617
  0
SPLINE
  5
CC
330
1F
100
AcDbEntity
  8
0
  6
Continuous
 62
     7
370
    15
100
AcDbSpline
210
0.0
220
0.0
230
1.0
 70
     8
 71
     3
 72
    10
 73
     6
 74
     0
 42
0.000000001
 43
0.00000001
 40
0.0
 40
0.0
 40
0.0
 40
0.0
 40
0.5
 40
0.5
 40
1.0
 40
1.0
 40
1.0
 40
1.0
 10
26.38897227401315
 20
135.9808564342062
 30
0.0
 10
26.32502058517002
 20
135.9808564342062
 30
0.0
 10
26.26345624671886
 20
135.9670105581814
 30
0.0
 10
26.15283089586987
 20
135.924844781994
 30
0.0
 10
26.10314420420043
 20
135.896354081731
 30
0.0
 10
26.05957462753462
 20
135.8636991466809
 30
0.0
  0
ARC
  5
CD
330
1F
100
AcDbEntity
  8
0
  6
Continuous
 62
     7
370
    15
100
AcDbCircle
 10
72.003273689
 20
122.4308564342
 30
0.0
 40
47.58431457505078
100
AcDbArc
 50
163.4556342686
 51
196.5443657314
  0
SPLINE
  5
CE
330
1F
100
AcDbEntity
  8
0
  6
Continuous
 62
     7
370
    15
100
AcDbSpline
210
0.0
220
0.0
230
1.0
 70
     8
 71
     3
 72
    40
 73
    36
 74
     0
 42
0.000000001
 43
0.00000001
 40
0.0
 40
0.0
 40
0.0
 40
0.0
 40
0.0076138096090706
 40
0.015222703696619
 40
0.0228283796622113
 40
0.0304325370604607
 40
0.0380368764641707
 40
0.0456430983240686
 40
0.0532529018289472
 40
0.0608679837700325
 40
0.0919930035882894
 40
0.1231236538966525
 40
0.1547321881285151
 40
0.1863461940165317
 40
0.2182020912711853
 40
0.2500635030030784
 40
0.3137495787501998
 40
0.3769416086590435
 40
0.439168148565131
 40
0.5000004350472922
 40
0.5608327215294534
 40
0.6230592614355407
 40
0.6862512913443847
 40
0.7499373670915059
 40
0.7817932643700992
 40
0.813654676120411
 40
0.8452632104154371
 40
0.8768772163635395
 40
0.9080022357785864
 40
0.9391328857746177
 40
0.9513123423166135
 40
0.963481817855821
 40
0.9756482751522532
 40
0.9878186821461872
 40
1.0
 40
1.0
 40
1.0
 40
1.0
 10
117.6175751039894
 20
135.9808564342062
 30
0.0
 10
117.5490756931571
 20
136.2078691919289
 30
0.0
 10
117.4121210951264
 20
136.6617481465651
 30
0.0
 10
117.1938910059894
 20
137.3384153677354
 30
0.0
 10
116.9663953845939
 20
138.0116860683023
 30
0.0
 10
116.7287104204257
 20
138.6812855990925
 30
0.0
 10
116.481083274384
 20
139.3472877394429
 30
0.0
 10
116.2234488443325
 20
140.0096712744617
 30
0.0
 10
115.9558206639849
 20
140.6684467094746
 30
0.0
 10
115.392628013995
 20
141.9975504447149
 30
0.0
 10
114.4676093418292
 20
143.9688512161248
 30
0.0
 10
113.0651966293784
 20
146.5356962955393
 30
0.0
 10
111.4996570212701
 20
149.0246461219465
 30
0.0
 10
109.7691455660167
 20
151.429675534042
 30
0.0
 10
107.887491128852
 20
153.7287858917814
 30
0.0
 10
105.1856613617539
 20
156.6373797657325
 30
0.0
 10
101.486297624235
 20
159.9379586121914
 30
0.0
 10
96.62602071909612
 20
163.2900079297655
 30
0.0
 10
91.46973301824156
 20
165.9783187187422
 30
0.0
 10
86.09656920273048
 20
167.998947386015
 30
0.0
 10
80.5208325294638
 20
169.3645937873108
 30
0.0
 10
74.74715898232876
 20
170.0567005178625
 30
0.0
 10
68.84309232765546
 20
170.0338465851374
 30
0.0
 10
63.92646460224007
 20
169.3980955730876
 30
0.0
 10
60.05431881029276
 20
168.5227205468476
 30
0.0
 10
57.20339135879307
 20
167.6874147615249
 30
0.0
 10
54.41709354069236
 20
166.6792487708396
 30
0.0
 10
51.71990811075092
 20
165.5088083763277
 30
0.0
 10
49.11306537926258
 20
164.181823063554
 30
0.0
 10
47.11409345355656
 20
163.0048030360055
 30
0.0
 10
45.66362921967156
 20
162.0657293503535
 30
0.0
 10
44.72389696165835
 20
161.425087547004
 30
0.0
 10
43.80033488516184
 20
160.7619058057092
 30
0.0
 10
42.89137840106956
 20
160.0780906178142
 30
0.0
 10
42.29939700600907
 20
159.6039953530419
 30
0.0
 10
42.00327368900128
 20
159.3668415107869
 30
0.0
  0
SPLINE
  5
CF
330
1F
100
AcDbEntity
  8
0
  6
Continuous
 62
     7
370
    15
100
AcDbSpline
210
0.0
220
0.0
230
1.0
 70
     8
 71
     3
 72
    48
 73
    44
 74
     0
 42
0.000000001
 43
0.00000001
 40
0.0
 40
0.0
 40
0.0
 40
0.0
 40
0.0054347037870314
 40
0.0108647463485207
 40
0.0162911759177293
 40
0.0217150428226928
 40
0.0271373988806366
 40
0.0325592967880729
 40
0.0379817895083434
 40
0.0434059296583851
 40
0.0488327688965038
 40
0.0542633573129332
 40
0.059698742824938
 40
0.0907177254008823
 40
0.1217409090757531
 40
0.1535986684470912
 40
0.1854607425290452
 40
0.2177550902622351
 40
0.2500538118399259
 40
0.2823481596244854
 40
0.3146468812542022
 40
0.346504640772552
 40
0.3783667150011477
 40
0.440359683087698
 40
0.5000005600694972
 40
0.5596414370512967
 40
0.621634405137847
 40
0.6534921645093787
 40
0.6853542385911302
 40
0.7176485863248414
 40
0.749947307902022
 40
0.7822416556872713
 40
0.8145403773162883
 40
0.8463981368333431
 40
0.87826021106323
 40
0.9092791938585987
 40
0.9403023777537969
 40
0.9502622131370424
 40
0.9602093142102202
 40
0.970150156833966
 40
0.98009122909965
 40
0.9900390186493149
 40
0.9999999999999999
 40
0.9999999999999999
 40
0.9999999999999999
 40
0.9999999999999999
 10
26.38897227401315
 20
108.8808564342062
 30
0.0
 10
26.45273277110157
 20
108.6693170977783
 30
0.0
 10
26.58019907930668
 20
108.2464198575444
 30
0.0
 10
26.78246261032934
 20
107.6157456153166
 30
0.0
 10
26.99270717882983
 20
106.988168135634
 30
0.0
 10
27.21173264357408
 20
106.363925084181
 30
0.0
 10
27.43932484690329
 20
105.7429529363862
 30
0.0
 10
27.67554113438283
 20
105.1252687623362
 30
0.0
 10
27.92036601723601
 20
104.5108681954979
 30
0.0
 10
28.1738039621421
 20
103.8997520557915
 30
0.0
 10
28.43585240513731
 20
103.2919218397049
 30
0.0
 10
28.70651693267654
 20
102.6873711326108
 30
0.0
 10
29.42379617304745
 20
101.1430725374325
 30
0.0
 10
30.69530970018734
 20
98.70863006840254
 30
0.0
 10
32.72907485052863
 20
95.47368440931731
 30
0.0
 10
35.03629791244011
 20
92.38420541179644
 30
0.0
 10
37.62326357825331
 20
89.45561559918383
 30
0.0
 10
40.45399299855658
 20
86.73571167480557
 30
0.0
 10
43.51465858662823
 20
84.24944976512175
 30
0.0
 10
46.76968744998462
 20
82.02335858772776
 30
0.0
 10
50.18283084469726
 20
80.08439813163861
 30
0.0
 10
53.72722487148383
 20
78.43840187526374
 30
0.0
 10
58.52745967344669
 20
76.67091594794289
 30
0.0
 10
64.62738196798979
 20
75.2255545412955
 30
0.0
 10
72.00327373084467
 20
74.66070007460887
 30
0.0
 10
79.37916523933885
 20
75.22555461100303
 30
0.0
 10
85.47891672473379
 20
76.67087508562201
 30
0.0
 10
90.27915913899774
 20
78.43833482034489
 30
0.0
 10
93.82340275867746
 20
80.08423631075598
 30
0.0
 10
97.23670789602347
 20
82.02326399372988
 30
0.0
 10
100.4916038850675
 20
84.24923719137921
 30
0.0
 10
103.552420525301
 20
86.73559294581732
 30
0.0
 10
106.3830388727401
 20
89.45536061201163
 30
0.0
 10
108.9701403558313
 20
92.38406898380885
 30
0.0
 10
111.2772705102396
 20
95.47339497406028
 30
0.0
 10
113.3111748016832
 20
98.70849602459786
 30
0.0
 10
114.6678789156481
 20
101.3061078938103
 30
0.0
 10
115.5293129106105
 20
103.1889953238502
 30
0.0
 10
116.0058597042707
 20
104.305050298275
 30
0.0
 10
116.4536062336482
 20
105.432144433294
 30
0.0
 10
116.8718453743931
 20
106.5705093569543
 30
0.0
 10
117.2632585787091
 20
107.7193408382408
 30
0.0
 10
117.499417434957
 20
108.4935135766992
 30
0.0
 10
117.6175751039894
 20
108.8808564342062
 30
0.0
  0
SPLINE
  5
D0
330
1F
100
AcDbEntity
  8
0
  6
Continuous
 62
     7
370
    15
100
AcDbSpline
210
0.0
220
0.0
230
1.0
 70
     8
 71
     3
 72
    27
 73
    23
 74
     0
 42
0.000000001
 43
0.00000001
 40
0.0
 40
0.0
 40
0.0
 40
0.0
 40
0.0385569892848211
 40
0.0770658329194701
 40
0.1155353026399639
 40
0.1539741971376514
 40
0.1923913361118491
 40
0.2307955542506346
 40
0.2691956951601454
 40
0.3076006052631416
 40
0.3460191276878565
 40
0.3844600961682111
 40
0.4229323289763935
 40
0.461444622908547
 40
0.5000057473438686
 40
0.5715713334491092
 40
0.6429967682524639
 40
0.7143384572505677
 40
0.7856530046539444
 40
0.8569970792753662
 40
0.9284272796518032
 40
1.0
 40
1.0
 40
1.0
 40
1.0
 10
35.06728861242063
 20
152.4308564342062
 30
0.0
 10
34.91641927659069
 20
152.2434512500344
 30
0.0
 10
34.61486899366135
 20
151.8688748922968
 30
0.0
 10
34.17358331415558
 20
151.2987641988792
 30
0.0
 10
33.7407961928701
 20
150.7231223635079
 30
0.0
 10
33.31727217670784
 20
150.1413285279671
 30
0.0
 10
32.90280679844825
 20
149.5535489172882
 30
0.0
 10
32.49745488062911
 20
148.9597391482074
 30
0.0
 10
32.10120183323962
 20
148.3599112217697
 30
0.0
 10
31.7140516436418
 20
147.7540620345705
 30
0.0
 10
31.33600332388874
 20
147.1421925769986
 30
0.0
 10
30.96705718020523
 20
146.5243025852891
 30
0.0
 10
30.60721328044796
 20
145.9003927378828
 30
0.0
 10
30.2564713124004
 20
145.2704612115843
 30
0.0
 10
29.81754055446876
 20
144.4534100626019
 30
0.0
 10
29.30289932934307
 20
143.444054469845
 30
0.0
 10
28.72900811108959
 20
142.2358910688333
 30
0.0
 10
28.19003082780059
 20
141.0134663899554
 30
0.0
 10
27.68573925678286
 20
139.7768569619321
 30
0.0
 10
27.21700294777811
 20
138.5258055202618
 30
0.0
 10
26.78057305522228
 20
137.2612799780584
 30
0.0
 10
26.51959256745132
 20
136.4079477656042
 30
0.0
 10
26.38897227401315
 20
135.9808564342062
 30
0.0
  0
ARC
  5
D1
330
1F
100
AcDbEntity
  8
0
  6
Continuous
 62
     7
370
    15
100
AcDbCircle
 10
72.003273689
 20
122.4308564342
 30
0.0
 40
47.86715728752539
100
AcDbArc
 50
196.2976619617
 51
343.7023380383
  0
ARC
  5
D2
330
1F
100
AcDbEntity
  8
0
  6
Continuous
 62
     7
370
    15
100
AcDbCircle
 10
72.003273689
 20
122.4308564342
 30
0.0
 40
47.86715728752541
100
AcDbArc
 50
16.2976619617
 51
128.8096103904
  0
ARC
  5
D3
330
1F
100
AcDbEntity
  8
0
  6
Continuous
 62
     7
370
    15
100
AcDbCircle
 10
72.003273689
 20
122.4308564342
 30
0.0
 40
47.86715728752539
100
AcDbArc
 50
141.1903896096
 51
163.7023380383
  0
ARC
  5
D4
330
1F
100
AcDbEntity
  8
0
  6
Continuous
 62
     7
370
    15
100
AcDbCircle
 10
72.003273689
 20
122.4308564342
 30
0.0
 40
48.63284271247464
100
AcDbArc
 50
141.9122882504
 51
164.0342140175
  0
ARC
  5
D5
330
1F
100
AcDbEntity
  8
0
  6
Continuous
 62
     7
370
    15
100
AcDbCircle
 10
72.003273689
 20
122.4308564342
 30
0.0
 40
48.63284271247463
100
AcDbArc
 50
128.0877117496
 51
141.9122882504
  0
ARC
  5
D6
330
1F
100
AcDbEntity
  8
0
  6
Continuous
 62
     7
370
    15
100
AcDbCircle
 10
72.003273689
 20
122.4308564342
 30
0.0
 40
48.63284271247465
100
AcDbArc
 50
15.8741097166
 51
128.0877117496
  0
ARC
  5
D7
330
1F
100
AcDbEntity
  8
0
  6
Continuous
 62
     7
370
    15
100
AcDbCircle
 10
72.003273689
 20
122.4308564342
 30
0.0
 40
48.63284271247462
100
AcDbArc
 50
344.1258902834
 51
15.8741097166
  0
ARC
  5
D8
330
1F
100
AcDbEntity
  8
0
  6
Continuous
 62
     7
370
    15
100
AcDbCircle
 10
72.003273689
 20
122.4308564342
 30
0.0
 40
48.63284271247463
100
AcDbArc
 50
195.9657859825
 51
344.1258902834
  0
ARC
  5
D9
330
1F
100
AcDbEntity
  8
0
  6
Continuous
 62
     7
370
    15
100
AcDbCircle
 10
72.003273689
 20
122.4308564342
 30
0.0
 40
48.63284271247462
100
AcDbArc
 50
164.0342140175
 51
195.9657859825
  0
SPLINE
  5
DA
330
1F
100
AcDbEntity
  8
0
  6
Continuous
 62
     7
370
    15
100
AcDbSpline
210
0.0
220
0.0
230
1.0
 70
    24
 71
     3
 72
     8
 73
     4
 74
     0
 42
0.000000001
 43
0.00000001
 40
0.0
 40
0.0
 40
0.0
 40
0.0
 40
1.0
 40
1.0
 40
1.0
 40
1.0
 10
118.87630214321
 20
135.8279346056189
 30
0.0
 10
118.87630214321
 20
135.8279346056189
 30
0.0
 10
118.8392055501437
 20
135.7908380125527
 30
0.0
 10
118.7815032120468
 20
135.7331356744557
 30
0.0
  0
ARC
  5
DB
330
1F
100
AcDbEntity
  8
0
  6
Continuous
 62
     7
370
    15
100
AcDbCircle
 10
72.003273689
 20
122.4308564342
 30
0.0
 40
48.75000000000001
100
AcDbArc
 50
344.0491974398
 51
15.9508025602
  0
SPLINE
  5
DC
330
1F
100
AcDbEntity
  8
0
  6
Continuous
 62
     7
370
    15
100
AcDbSpline
210
0.0
220
0.0
230
1.0
 70
    24
 71
     3
 72
     8
 73
     4
 74
     0
 42
0.000000001
 43
0.00000001
 40
0.0
 40
0.0
 40
0.0
 40
0.0
 40
1.0
 40
1.0
 40
1.0
 40
1.0
 10
118.87630214321
 20
109.0337782627935
 30
0.0
 10
118.87630214321
 20
109.0337782627935
 30
0.0
 10
118.8392055501437
 20
109.0708748558597
 30
0.0
 10
118.7815032120467
 20
109.1285771939567
 30
0.0
  0
ARC
  5
DD
330
1F
100
AcDbEntity
  8
0
  6
Continuous
 62
     7
370
    15
100
AcDbCircle
 10
72.003273689
 20
122.4308564342
 30
0.0
 40
48.75000000000002
100
AcDbArc
 50
127.9798724449
 51
142.0201275551
  0
SPLINE
  5
DE
330
1F
100
AcDbEntity
  8
0
  6
Continuous
 62
     7
370
    15
100
AcDbSpline
210
0.0
220
0.0
230
1.0
 70
    24
 71
     3
 72
     8
 73
     4
 74
     0
 42
0.000000001
 43
0.00000001
 40
0.0
 40
0.0
 40
0.0
 40
0.0
 40
1.0
 40
1.0
 40
1.0
 40
1.0
 10
42.00327368900128
 20
160.8569218065547
 30
0.0
 10
42.00327368900128
 20
160.8569218065547
 30
0.0
 10
42.00327368900128
 20
160.7954062581233
 30
0.0
 10
42.00327368900128
 20
160.7081785753422
 30
0.0
  0
SPLINE
  5
DF
330
1F
100
AcDbEntity
  8
0
  6
Continuous
 62
     7
370
    15
100
AcDbSpline
210
0.0
220
0.0
230
1.0
 70
    24
 71
     3
 72
     8
 73
     4
 74
     0
 42
0.000000001
 43
0.00000001
 40
0.0
 40
0.0
 40
0.0
 40
0.0
 40
1.0
 40
1.0
 40
1.0
 40
1.0
 10
33.72595154786534
 20
152.4308564342062
 30
0.0
 10
33.63867713165126
 20
152.4308564342062
 30
0.0
 10
33.57720831665277
 20
152.4308564342062
 30
0.0
 10
33.57720831665277
 20
152.4308564342062
 30
0.0
  0
SPLINE
  5
E0
330
1F
100
AcDbEntity
  8
0
  6
Continuous
 62
     7
370
    15
100
AcDbSpline
210
0.0
220
0.0
230
1.0
 70
    24
 71
     3
 72
    10
 73
     6
 74
     0
 42
0.000000001
 43
0.00000001
 40
0.0
 40
0.0
 40
0.0
 40
0.0
 40
0.5
 40
0.5
 40
1.0
 40
1.0
 40
1.0
 40
1.0
 10
25.24638838457687
 20
109.0537466220981
 30
0.0
 10
25.22344686433978
 20
109.0135532898349
 30
0.0
 10
25.2033257741202
 20
108.9783013249983
 30
0.0
 10
25.17405650006365
 20
108.9270218262946
 30
0.0
 10
25.16530990254986
 20
108.9116978679689
 30
0.0
 10
25.16530990254988
 20
108.911697867969
 30
0.0
  0
ARC
  5
E1
330
1F
100
AcDbEntity
  8
0
  6
Continuous
 62
     7
370
    15
100
AcDbCircle
 10
72.003273689
 20
122.4308564342
 30
0.0
 40
48.75000000000002
100
AcDbArc
 50
163.8999153276
 51
196.1000846724
  0
SPLINE
  5
E2
330
1F
100
AcDbEntity
  8
0
  6
Continuous
 62
     7
370
    15
100
AcDbSpline
210
0.0
220
0.0
230
1.0
 70
    24
 71
     3
 72
    10
 73
     6
 74
     0
 42
0.000000001
 43
0.00000001
 40
0.0
 40
0.0
 40
0.0
 40
0.0
 40
0.5
 40
0.5
 40
1.0
 40
1.0
 40
1.0
 40
1.0
 10
25.24638838457688
 20
135.8079662463143
 30
0.0
 10
25.22344686433978
 20
135.8481595785776
 30
0.0
 10
25.2033257741202
 20
135.8834115434142
 30
0.0
 10
25.17405650006365
 20
135.9346910421178
 30
0.0
 10
25.16530990254988
 20
135.9500150004436
 30
0.0
 10
25.16530990254989
 20
135.9500150004436
 30
0.0
  0
ARC
  5
E3
330
1F
100
AcDbEntity
  8
0
  6
Continuous
 62
     7
370
    15
100
AcDbCircle
 10
72.003273689
 20
122.4308564342
 30
0.0
 40
48.75000000000002
100
AcDbArc
 50
142.0201275551
 51
163.8999153276
  0
ARC
  5
E4
330
1F
100
AcDbEntity
  8
0
  6
Continuous
 62
     7
370
    15
100
AcDbCircle
 10
72.003273689
 20
122.4308564342
 30
0.0
 40
48.75000000000001
100
AcDbArc
 50
196.1000846724
 51
344.0491974398
  0
ARC
  5
E5
330
1F
100
AcDbEntity
  8
0
  6
Continuous
 62
     7
370
    15
100
AcDbCircle
 10
72.003273689
 20
122.4308564342
 30
0.0
 40
48.75000000000002
100
AcDbArc
 50
15.9508025602
 51
127.9798724449
  0
ARC
  5
E6
330
1F
100
AcDbEntity
  8
0
  6
Continuous
 62
     7
370
    15
100
AcDbCircle
 10
72.003273689
 20
122.4308564342
 30
0.0
 40
48.75000000000001
100
AcDbArc
 50
180.0
 51
196.1000846724
  0
ARC
  5
E7
330
1F
100
AcDbEntity
  8
0
  6
Continuous
 62
     7
370
    15
100
AcDbCircle
 10
72.003273689
 20
122.4308564342
 30
0.0
 40
48.75000000000002
100
AcDbArc
 50
163.8999153276
 51
180.0
  0
INSERT
  5
F3
330
1F
100
AcDbEntity
  8
DIM
100
AcDbBlockReference
  2
SW_CENTERMARKSYMBOL_0
 10
72.003273689
 20
122.4308564342
 30
0.0
  0
LINE
  5
F4
330
1F
100
AcDbEntity
  8
0
  6
Continuous
 62
     7
370
    15
100
AcDbLine
 10
257.464419623
 20
73.6808564342
 30
0.0
 11
261.0511389338
 21
73.6808564342
 31
0.0
  0
LINE
  5
F5
330
1F
100
AcDbEntity
  8
0
  6
Continuous
 62
     7
370
    15
100
AcDbLine
 10
261.0511389338
 20
171.1808564342
 30
0.0
 11
257.464419623
 21
171.1808564342
 31
0.0
  0
LINE
  5
F6
330
1F
100
AcDbEntity
  8
0
  6
Continuous
 62
     7
370
    15
100
AcDbLine
 10
257.464419623
 20
171.1808564342
 30
0.0
 11
256.1168243588
 21
168.8467529686
 31
0.0
  0
LINE
  5
F7
330
1F
100
AcDbEntity
  8
0
  6
Continuous
 62
     7
370
    15
100
AcDbLine
 10
256.1168243588
 20
76.0149598998
 30
0.0
 11
257.464419623
 21
73.6808564342
 31
0.0
  0
LINE
  5
F8
330
1F
100
AcDbEntity
  8
0
  6
Continuous
 62
     7
370
    15
100
AcDbLine
 10
250.9692290946
 20
73.6808564342
 30
0.0
 11
252.3168243588
 21
76.0149598998
 31
0.0
  0
LINE
  5
F9
330
1F
100
AcDbEntity
  8
0
  6
Continuous
 62
     7
370
    15
100
AcDbLine
 10
252.3168243588
 20
168.8467529686
 30
0.0
 11
250.9692290946
 21
171.1808564342
 31
0.0
  0
LINE
  5
FA
330
1F
100
AcDbEntity
  8
0
  6
Continuous
 62
     7
370
    15
100
AcDbLine
 10
247.4825097837
 20
73.6808564342
 30
0.0
 11
250.9692290946
 21
73.6808564342
 31
0.0
  0
LINE
  5
FB
330
1F
100
AcDbEntity
  8
0
  6
Continuous
 62
     7
370
    15
100
AcDbLine
 10
250.9692290946
 20
171.1808564342
 30
0.0
 11
247.4825097837
 21
171.1808564342
 31
0.0
  0
LINE
  5
FC
330
1F
100
AcDbEntity
  8
0
  6
Continuous
 62
     7
370
    15
100
AcDbLine
 10
247.1996670713
 20
171.0636991467
 30
0.0
 11
246.4339816463
 21
170.2980137217
 31
0.0
  0
LINE
  5
FD
330
1F
100
AcDbEntity
  8
0
  6
Continuous
 62
     7
370
    15
100
AcDbLine
 10
246.4339816463
 20
74.5636991467
 30
0.0
 11
247.1996670713
 21
73.7980137217
 31
0.0
  0
ARC
  5
FE
330
1F
100
AcDbEntity
  8
0
  6
Continuous
 62
     7
370
    15
100
AcDbCircle
 10
261.0511389338
 20
74.0808564342
 30
0.0
 40
0.4000000000000093
100
AcDbArc
 50
270.0
 51
315.0
  0
ARC
  5
FF
330
1F
100
AcDbEntity
  8
0
  6
Continuous
 62
     7
370
    15
100
AcDbCircle
 10
247.4825097837
 20
74.0808564342
 30
0.0
 40
0.4000000000000057
100
AcDbArc
 50
225.0
 51
270.0
  0
ARC
  5
100
330
1F
100
AcDbEntity
  8
0
  6
Continuous
 62
     7
370
    15
100
AcDbCircle
 10
261.0511389338
 20
170.7808564342
 30
0.0
 40
0.3999999999999992
100
AcDbArc
 50
45.0
 51
90.0
  0
ARC
  5
101
330
1F
100
AcDbEntity
  8
0
  6
Continuous
 62
     7
370
    15
100
AcDbCircle
 10
247.4825097837
 20
170.7808564342
 30
0.0
 40
0.3999999999999791
100
AcDbArc
 50
90.0
 51
135.0
  0
LINE
  5
102
330
1F
100
AcDbEntity
  8
0
  6
Continuous
 62
     7
370
    15
100
AcDbLine
 10
261.3339816463
 20
73.7980137217
 30
0.0
 11
262.0996670713
 21
74.5636991467
 31
0.0
  0
LINE
  5
103
330
1F
100
AcDbEntity
  8
0
  6
Continuous
 62
     7
370
    15
100
AcDbLine
 10
262.0996670713
 20
170.2980137217
 30
0.0
 11
261.3339816463
 21
171.0636991467
 31
0.0
  0
ARC
  5
104
330
1F
100
AcDbEntity
  8
0
  6
Continuous
 62
     7
370
    15
100
AcDbCircle
 10
261.8168243588
 20
74.8465418592
 30
0.0
 40
0.4000000000000341
100
AcDbArc
 50
315.0
 51
0.0
  0
ARC
  5
105
330
1F
100
AcDbEntity
  8
0
  6
Continuous
 62
     7
370
    15
100
AcDbCircle
 10
261.8168243588
 20
170.0151710093
 30
0.0
 40
0.4000000000000341
100
AcDbArc
 50
0.0
 51
45.0
  0
ARC
  5
106
330
1F
100
AcDbEntity
  8
0
  6
Continuous
 62
     7
370
    15
100
AcDbCircle
 10
246.7168243588
 20
74.8465418592
 30
0.0
 40
0.4000000000000093
100
AcDbArc
 50
180.0
 51
225.0
  0
ARC
  5
107
330
1F
100
AcDbEntity
  8
0
  6
Continuous
 62
     7
370
    15
100
AcDbCircle
 10
246.7168243588
 20
170.0151710093
 30
0.0
 40
0.4000000000000193
100
AcDbArc
 50
135.0
 51
180.0
  0
LINE
  5
108
330
1F
100
AcDbEntity
  8
0
  6
Continuous
 62
     7
370
    15
100
AcDbLine
 10
252.3168243588
 20
76.9308564342
 30
0.0
 11
256.1168243588
 21
76.9308564342
 31
0.0
  0
LINE
  5
109
330
1F
100
AcDbEntity
  8
0
  6
Continuous
 62
     7
370
    15
100
AcDbLine
 10
256.1168243588
 20
167.9308564342
 30
0.0
 11
252.3168243588
 21
167.9308564342
 31
0.0
  0
ARC
  5
10A
330
1F
100
AcDbEntity
  8
0
  6
Continuous
 62
     7
370
    15
100
AcDbCircle
 10
245.8168243588
 20
87.4308564342
 30
0.0
 40
0.5000000000000142
100
AcDbArc
 50
0.0
 51
90.0
  0
ARC
  5
10B
330
1F
100
AcDbEntity
  8
0
  6
Continuous
 62
     7
370
    15
100
AcDbCircle
 10
245.8168243588
 20
157.4308564342
 30
0.0
 40
0.5000000000000284
100
AcDbArc
 50
270.0
 51
0.0
  0
LINE
  5
10C
330
1F
100
AcDbEntity
  8
0
  6
Continuous
 62
     7
370
    15
100
AcDbLine
 10
243.1168243588
 20
87.5058564342
 30
0.0
 11
244.0282398
 21
87.9308564342
 31
0.0
  0
LINE
  5
10D
330
1F
100
AcDbEntity
  8
0
  6
Continuous
 62
     7
370
    15
100
AcDbLine
 10
244.0282398
 20
156.9308564342
 30
0.0
 11
243.1168243588
 21
157.3558564342
 31
0.0
  0
LINE
  5
10E
330
1F
100
AcDbEntity
  8
0
  6
Continuous
 62
     7
370
    15
100
AcDbLine
 10
243.1168243588
 20
157.3558564342
 30
0.0
 11
142.2225161315
 21
142.6419642212
 31
0.0
  0
LINE
  5
10F
330
1F
100
AcDbEntity
  8
0
  6
Continuous
 62
     7
370
    15
100
AcDbLine
 10
142.2225161315
 20
102.2197486472
 30
0.0
 11
243.1168243588
 21
87.5058564342
 31
0.0
  0
LINE
  5
110
330
1F
100
AcDbEntity
  8
0
  6
Continuous
 62
     7
370
    15
100
AcDbLine
 10
244.0282398
 20
87.9308564342
 30
0.0
 11
245.8168243588
 21
87.9308564342
 31
0.0
  0
LINE
  5
111
330
1F
100
AcDbEntity
  8
0
  6
Continuous
 62
     7
370
    15
100
AcDbLine
 10
245.8168243588
 20
156.9308564342
 30
0.0
 11
244.0282398
 21
156.9308564342
 31
0.0
  0
ARC
  5
112
330
1F
100
AcDbEntity
  8
0
  6
Continuous
 62
     7
370
    15
100
AcDbCircle
 10
265.2168243588
 20
149.4308564342
 30
0.0
 40
3.0
100
AcDbArc
 50
180.0
 51
270.0
  0
ARC
  5
113
330
1F
100
AcDbEntity
  8
0
  6
Continuous
 62
     7
370
    15
100
AcDbCircle
 10
265.2168243588
 20
95.4308564342
 30
0.0
 40
3.0
100
AcDbArc
 50
90.0
 51
180.0
  0
LINE
  5
114
330
1F
100
AcDbEntity
  8
0
  6
Continuous
 62
     7
370
    15
100
AcDbLine
 10
287.1168243588
 20
98.4308564342
 30
0.0
 11
288.1168243588
 21
99.4308564342
 31
0.0
  0
LINE
  5
115
330
1F
100
AcDbEntity
  8
0
  6
Continuous
 62
     7
370
    15
100
AcDbLine
 10
288.1168243588
 20
145.4308564342
 30
0.0
 11
287.1168243588
 21
146.4308564342
 31
0.0
  0
LINE
  5
116
330
1F
100
AcDbEntity
  8
0
  6
Continuous
 62
     7
370
    15
100
AcDbLine
 10
265.2168243588
 20
98.4308564342
 30
0.0
 11
287.1168243588
 21
98.4308564342
 31
0.0
  0
LINE
  5
117
330
1F
100
AcDbEntity
  8
0
  6
Continuous
 62
     7
370
    15
100
AcDbLine
 10
287.1168243588
 20
146.4308564342
 30
0.0
 11
265.2168243588
 21
146.4308564342
 31
0.0
  0
ARC
  5
118
330
1F
100
AcDbEntity
  8
0
  6
Continuous
 62
     7
370
    15
100
AcDbCircle
 10
142.3668243588
 20
103.2092814337
 30
0.0
 40
1.0
100
AcDbArc
 50
180.0
 51
261.7027777778
  0
ARC
  5
119
330
1F
100
AcDbEntity
  8
0
  6
Continuous
 62
     7
370
    15
100
AcDbCircle
 10
142.3668243588
 20
141.6524314348
 30
0.0
 40
1.0
100
AcDbArc
 50
98.2972222222
 51
180.0
  0
LINE
  5
11A
330
1F
100
AcDbEntity
  8
0
  6
Continuous
 62
     7
370
    15
100
AcDbLine
 10
317.1168243588
 20
108.4308564342
 30
0.0
 11
318.1168243588
 21
109.4308564342
 31
0.0
  0
LINE
  5
11B
330
1F
100
AcDbEntity
  8
0
  6
Continuous
 62
     7
370
    15
100
AcDbLine
 10
318.1168243588
 20
135.4308564342
 30
0.0
 11
317.1168243588
 21
136.4308564342
 31
0.0
  0
LINE
  5
11C
330
1F
100
AcDbEntity
  8
0
  6
Continuous
 62
     7
370
    15
100
AcDbLine
 10
311.1168243588
 20
108.4308564342
 30
0.0
 11
317.1168243588
 21
108.4308564342
 31
0.0
  0
LINE
  5
11D
330
1F
100
AcDbEntity
  8
0
  6
Continuous
 62
     7
370
    15
100
AcDbLine
 10
317.1168243588
 20
136.4308564342
 30
0.0
 11
311.1168243588
 21
136.4308564342
 31
0.0
  0
LINE
  5
11E
330
1F
100
AcDbEntity
  8
0
  6
Continuous
 62
     7
370
    15
100
AcDbLine
 10
311.1168243588
 20
136.4308564342
 30
0.0
 11
310.1168243588
 21
135.4308564342
 31
0.0
  0
LINE
  5
11F
330
1F
100
AcDbEntity
  8
0
  6
Continuous
 62
     7
370
    15
100
AcDbLine
 10
310.1168243588
 20
109.4308564342
 30
0.0
 11
311.1168243588
 21
108.4308564342
 31
0.0
  0
LINE
  5
120
330
1F
100
AcDbEntity
  8
0
  6
Continuous
 62
     7
370
    15
100
AcDbLine
 10
306.62607663
 20
111.4308564342
 30
0.0
 11
307.1168243588
 21
112.2808564342
 31
0.0
  0
LINE
  5
121
330
1F
100
AcDbEntity
  8
0
  6
Continuous
 62
     7
370
    15
100
AcDbLine
 10
307.1168243588
 20
132.5808564342
 30
0.0
 11
306.62607663
 21
133.4308564342
 31
0.0
  0
LINE
  5
122
330
1F
100
AcDbEntity
  8
0
  6
Continuous
 62
     7
370
    15
100
AcDbLine
 10
288.1168243588
 20
111.4308564342
 30
0.0
 11
306.62607663
 21
111.4308564342
 31
0.0
  0
LINE
  5
123
330
1F
100
AcDbEntity
  8
0
  6
Continuous
 62
     7
370
    15
100
AcDbLine
 10
306.62607663
 20
133.4308564342
 30
0.0
 11
288.1168243588
 21
133.4308564342
 31
0.0
  0
ARC
  5
124
330
1F
100
AcDbEntity
  8
0
  6
Continuous
 62
     7
370
    15
100
AcDbCircle
 10
309.6168243588
 20
116.9308564342
 30
0.0
 40
0.5
100
AcDbArc
 50
0.0
 51
90.0
  0
ARC
  5
125
330
1F
100
AcDbEntity
  8
0
  6
Continuous
 62
     7
370
    15
100
AcDbCircle
 10
309.6168243588
 20
127.9308564342
 30
0.0
 40
0.5
100
AcDbArc
 50
270.0
 51
0.0
  0
LINE
  5
126
330
1F
100
AcDbEntity
  8
0
  6
Continuous
 62
     7
370
    15
100
AcDbLine
 10
307.1168243588
 20
117.4308564342
 30
0.0
 11
309.6168243588
 21
117.4308564342
 31
0.0
  0
LINE
  5
127
330
1F
100
AcDbEntity
  8
0
  6
Continuous
 62
     7
370
    15
100
AcDbLine
 10
309.6168243588
 20
127.4308564342
 30
0.0
 11
307.1168243588
 21
127.4308564342
 31
0.0
  0
LINE
  5
128
330
1F
100
AcDbEntity
  8
0
  6
Continuous
 62
     7
370
    15
100
AcDbLine
 10
261.0511389338
 20
135.8279346056
 30
0.0
 11
261.0511389338
 21
109.0337782628
 31
0.0
  0
LINE
  5
129
330
1F
100
AcDbEntity
  8
0
  6
Continuous
 62
     7
370
    15
100
AcDbLine
 10
257.464419623
 20
73.6808564342
 30
0.0
 11
257.464419623
 21
171.1808564342
 31
0.0
  0
SPLINE
  5
12A
330
1F
100
AcDbEntity
  8
0
  6
Continuous
 62
     7
370
    15
100
AcDbSpline
210
0.0
220
0.0
230
1.0
 70
     8
 71
     3
 72
     8
 73
     4
 74
     0
 42
0.000000001
 43
0.00000001
 40
0.0
 40
0.0
 40
0.0
 40
0.0
 40
1.0
 40
1.0
 40
1.0
 40
1.0
 10
261.0511389338347
 20
135.8279346056189
 30
0.0
 10
261.1596559252857
 20
135.8279346056189
 30
0.0
 10
261.2626967771481
 20
135.7908380125527
 30
0.0
 10
261.3339816463093
 20
135.7331356744557
 30
0.0
  0
LINE
  5
12B
330
1F
100
AcDbEntity
  8
0
  6
Continuous
 62
     7
370
    15
100
AcDbLine
 10
261.3339816463
 20
135.7331356745
 30
0.0
 11
261.3339816463
 21
109.128577194
 31
0.0
  0
SPLINE
  5
12C
330
1F
100
AcDbEntity
  8
0
  6
Continuous
 62
     7
370
    15
100
AcDbSpline
210
0.0
220
0.0
230
1.0
 70
     8
 71
     3
 72
     8
 73
     4
 74
     0
 42
0.000000001
 43
0.00000001
 40
0.0
 40
0.0
 40
0.0
 40
0.0
 40
1.0
 40
1.0
 40
1.0
 40
1.0
 10
261.3339816463093
 20
109.1285771939567
 30
0.0
 10
261.2626658341274
 20
109.070849808684
 30
0.0
 10
261.1597646764906
 20
109.0337782627935
 30
0.0
 10
261.0511389338347
 20
109.0337782627935
 30
0.0
  0
LINE
  5
12D
330
1F
100
AcDbEntity
  8
0
  6
Continuous
 62
     7
370
    15
100
AcDbLine
 10
256.1168243588
 20
168.8467529686
 30
0.0
 11
256.1168243588
 21
76.0149598998
 31
0.0
  0
LINE
  5
12E
330
1F
100
AcDbEntity
  8
0
  6
Continuous
 62
     7
370
    15
100
AcDbLine
 10
252.3168243588
 20
122.4308564342
 30
0.0
 11
252.3168243588
 21
168.8467529686
 31
0.0
  0
LINE
  5
12F
330
1F
100
AcDbEntity
  8
0
  6
Continuous
 62
     7
370
    15
100
AcDbLine
 10
252.3168243588
 20
76.0149598998
 30
0.0
 11
252.3168243588
 21
122.4308564342
 31
0.0
  0
LINE
  5
130
330
1F
100
AcDbEntity
  8
0
  6
Continuous
 62
     7
370
    15
100
AcDbLine
 10
250.9692290946
 20
122.4308564342
 30
0.0
 11
250.9692290946
 21
171.1808564342
 31
0.0
  0
LINE
  5
131
330
1F
100
AcDbEntity
  8
0
  6
Continuous
 62
     7
370
    15
100
AcDbLine
 10
250.9692290946
 20
73.6808564342
 30
0.0
 11
250.9692290946
 21
122.4308564342
 31
0.0
  0
LINE
  5
132
330
1F
100
AcDbEntity
  8
0
  6
Continuous
 62
     7
370
    15
100
AcDbLine
 10
247.4825097837
 20
135.8279346056
 30
0.0
 11
247.4825097837
 21
109.0337782628
 31
0.0
  0
LINE
  5
133
330
1F
100
AcDbEntity
  8
0
  6
Continuous
 62
     7
370
    15
100
AcDbLine
 10
247.1996670713
 20
135.7331356745
 30
0.0
 11
247.1996670713
 21
109.128577194
 31
0.0
  0
SPLINE
  5
134
330
1F
100
AcDbEntity
  8
0
  6
Continuous
 62
     7
370
    15
100
AcDbSpline
210
0.0
220
0.0
230
1.0
 70
     8
 71
     3
 72
     8
 73
     4
 74
     0
 42
0.000000001
 43
0.00000001
 40
0.0
 40
0.0
 40
0.0
 40
0.0
 40
1.0
 40
1.0
 40
1.0
 40
1.0
 10
247.4825097837331
 20
135.8279346056189
 30
0.0
 10
247.3739927922821
 20
135.8279346056189
 30
0.0
 10
247.2709519404198
 20
135.7908380125527
 30
0.0
 10
247.1996670712585
 20
135.7331356744557
 30
0.0
  0
SPLINE
  5
135
330
1F
100
AcDbEntity
  8
0
  6
Continuous
 62
     7
370
    15
100
AcDbSpline
210
0.0
220
0.0
230
1.0
 70
     8
 71
     3
 72
     8
 73
     4
 74
     0
 42
0.000000001
 43
0.00000001
 40
0.0
 40
0.0
 40
0.0
 40
0.0
 40
1.0
 40
1.0
 40
1.0
 40
1.0
 10
247.4825097837331
 20
109.0337782627935
 30
0.0
 10
247.3739927922821
 20
109.0337782627935
 30
0.0
 10
247.2709519404198
 20
109.0708748558597
 30
0.0
 10
247.1996670712585
 20
109.1285771939567
 30
0.0
  0
SPLINE
  5
136
330
1F
100
AcDbEntity
  8
0
  6
Continuous
 62
     7
370
    15
100
AcDbSpline
210
0.0
220
0.0
230
1.0
 70
     8
 71
     3
 72
     8
 73
     4
 74
     0
 42
0.000000001
 43
0.00000001
 40
0.0
 40
0.0
 40
0.0
 40
0.0
 40
0.0008486337084205
 40
0.0008486337084205
 40
0.0008486337084205
 40
0.0008486337084205
 10
261.8917146906429
 20
135.2808564342037
 30
0.0
 10
261.7059969970612
 20
135.4317352700076
 30
0.0
 10
261.5200833156029
 20
135.582493587736
 30
0.0
 10
261.3339816463093
 20
135.7331356744557
 30
0.0
  0
LINE
  5
137
330
1F
100
AcDbEntity
  8
0
  6
Continuous
 62
     7
370
    15
100
AcDbLine
 10
261.8917146906
 20
135.2808564342
 30
0.0
 11
262.0996670713
 21
135.2808564342
 31
0.0
  0
LINE
  5
138
330
1F
100
AcDbEntity
  8
0
  6
Continuous
 62
     7
370
    15
100
AcDbLine
 10
262.099667075
 20
135.2808564342
 30
0.0
 11
262.099667075
 21
109.5808564342
 31
0.0
  0
LINE
  5
139
330
1F
100
AcDbEntity
  8
0
  6
Continuous
 62
     7
370
    15
100
AcDbLine
 10
262.0996670713
 20
109.5808564342
 30
0.0
 11
261.8917147861
 21
109.5808564342
 31
0.0
  0
SPLINE
  5
13A
330
1F
100
AcDbEntity
  8
0
  6
Continuous
 62
     7
370
    15
100
AcDbSpline
210
0.0
220
0.0
230
1.0
 70
     8
 71
     3
 72
     8
 73
     4
 74
     0
 42
0.000000001
 43
0.00000001
 40
0.0
 40
0.0
 40
0.0
 40
0.0
 40
0.0008486338238831
 40
0.0008486338238831
 40
0.0008486338238831
 40
0.0008486338238831
 10
261.8917147664475
 20
109.5808564957932
 30
0.0
 10
261.705997047651
 20
109.4299776394283
 30
0.0
 10
261.5200833409233
 20
109.2792193011724
 30
0.0
 10
261.3339816463093
 20
109.1285771939567
 30
0.0
  0
LINE
  5
13B
330
1F
100
AcDbEntity
  8
0
  6
Continuous
 62
     7
370
    15
100
AcDbLine
 10
246.4339816463
 20
135.8636991467
 30
0.0
 11
246.4339816463
 21
108.9980137217
 31
0.0
  0
SPLINE
  5
13C
330
1F
100
AcDbEntity
  8
0
  6
Continuous
 62
     7
370
    15
100
AcDbSpline
210
0.0
220
0.0
230
1.0
 70
    24
 71
     3
 72
     8
 73
     4
 74
     0
 42
0.000000001
 43
0.00000001
 40
0.0
 40
0.0
 40
0.0
 40
0.0
 40
1.0
 40
1.0
 40
1.0
 40
1.0
 10
262.2168243587839
 20
135.2808564342062
 30
0.0
 10
262.2168243587839
 20
135.2808564342062
 30
0.0
 10
262.1752806248314
 20
135.2808564342062
 30
0.0
 10
262.0996670712585
 20
135.2808564342062
 30
0.0
  0
LINE
  5
13D
330
1F
100
AcDbEntity
  8
0
  6
Continuous
 62
     7
370
    15
100
AcDbLine
 10
262.2168243588
 20
135.280881187
 30
0.0
 11
262.2168243588
 21
109.5808316814
 31
0.0
  0
SPLINE
  5
13E
330
1F
100
AcDbEntity
  8
0
  6
Continuous
 62
     7
370
    15
100
AcDbSpline
210
0.0
220
0.0
230
1.0
 70
    24
 71
     3
 72
     8
 73
     4
 74
     0
 42
0.000000001
 43
0.00000001
 40
0.0
 40
0.0
 40
0.0
 40
0.0
 40
1.0
 40
1.0
 40
1.0
 40
1.0
 10
262.0996670712585
 20
109.5808564342062
 30
0.0
 10
262.1752551020131
 20
109.5808564342062
 30
0.0
 10
262.2168243587839
 20
109.5808564342062
 30
0.0
 10
262.2168243587839
 20
109.5808564342062
 30
0.0
  0
LINE
  5
13F
330
1F
100
AcDbEntity
  8
0
  6
Continuous
 62
     7
370
    15
100
AcDbLine
 10
246.3168243588
 20
135.9808564342
 30
0.0
 11
246.3168243588
 21
108.8808564342
 31
0.0
  0
SPLINE
  5
140
330
1F
100
AcDbEntity
  8
0
  6
Continuous
 62
     7
370
    15
100
AcDbSpline
210
0.0
220
0.0
230
1.0
 70
    24
 71
     3
 72
    10
 73
     6
 74
     0
 42
0.000000001
 43
0.00000001
 40
0.0
 40
0.0
 40
0.0
 40
0.0
 40
0.5
 40
0.5
 40
1.0
 40
1.0
 40
1.0
 40
1.0
 10
246.3168243587839
 20
135.9808564342062
 30
0.0
 10
246.3168243587839
 20
135.9808564342062
 30
0.0
 10
246.3306702348088
 20
135.9670105581814
 30
0.0
 10
246.3728360109961
 20
135.924844781994
 30
0.0
 10
246.4013267112593
 20
135.896354081731
 30
0.0
 10
246.4339816463094
 20
135.8636991466809
 30
0.0
  0
SPLINE
  5
141
330
1F
100
AcDbEntity
  8
0
  6
Continuous
 62
     7
370
    15
100
AcDbSpline
210
0.0
220
0.0
230
1.0
 70
    24
 71
     3
 72
    10
 73
     6
 74
     0
 42
0.000000001
 43
0.00000001
 40
0.0
 40
0.0
 40
0.0
 40
0.0
 40
0.5
 40
0.5
 40
1.0
 40
1.0
 40
1.0
 40
1.0
 10
246.4339816463093
 20
108.9980137217316
 30
0.0
 10
246.401348585292
 20
108.9653806607143
 30
0.0
 10
246.3733676990258
 20
108.9373997744481
 30
0.0
 10
246.3307108486508
 20
108.8947429240731
 30
0.0
 10
246.3168243587839
 20
108.8808564342063
 30
0.0
 10
246.3168243587839
 20
108.8808564342063
 30
0.0
  0
SPLINE
  5
142
330
1F
100
AcDbEntity
  8
0
  6
Continuous
 62
     7
370
    15
100
AcDbSpline
210
0.0
220
0.0
230
1.0
 70
    24
 71
     3
 72
    36
 73
    32
 74
     0
 42
0.000000001
 43
0.00000001
 40
0.0
 40
0.0
 40
0.0
 40
0.0
 40
0.010855060115309
 40
0.021700603247601
 40
0.0325387683476148
 40
0.0433716987364442
 40
0.0542015408431699
 40
0.0650304429332853
 40
0.0758605538316704
 40
0.0866940216439018
 40
0.0975329924797007
 40
0.1083796091823073
 40
0.1192360100675244
 40
0.181247834122235
 40
0.2432679244012066
 40
0.3069990489490812
 40
0.370738668921532
 40
0.4353656024873025
 40
0.5000011508910791
 40
0.5646280845655833
 40
0.6292636330748704
 40
0.6929947579300935
 40
0.7567343782029041
 40
0.8187462027125846
 40
0.8807662934441524
 40
0.9006583299602414
 40
0.9205248324912559
 40
0.9403790153804057
 40
0.9602341175685198
 40
0.9801033761588329
 40
1.0
 40
1.0
 40
1.0
 40
1.0
 10
262.2168243587839
 20
109.5808564342062
 30
0.0
 10
262.2168243587839
 20
109.3660695598439
 30
0.0
 10
262.2168243587839
 20
108.9366841217334
 30
0.0
 10
262.2168243587839
 20
108.2961876116329
 30
0.0
 10
262.2168243587839
 20
107.6587374002041
 30
0.0
 10
262.2168243587839
 20
107.0245637457318
 30
0.0
 10
262.2168243587839
 20
106.3936051137436
 30
0.0
 10
262.2168243587839
 20
105.7658780451593
 30
0.0
 10
262.2168243587839
 20
105.1413783260806
 30
0.0
 10
262.2168243587839
 20
104.5201067205555
 30
0.0
 10
262.2168243587839
 20
103.9020648212507
 30
0.0
 10
262.2168243587839
 20
103.2872459091091
 30
0.0
 10
262.2168243587839
 20
101.7153882524504
 30
0.0
 10
262.2168243587839
 20
99.23573895841824
 30
0.0
 10
262.2168243587839
 20
95.93706589994522
 30
0.0
 10
262.2168243587839
 20
92.78368897476419
 30
0.0
 10
262.2168243587839
 20
89.79161626619765
 30
0.0
 10
262.2168243587839
 20
87.01087005758222
 30
0.0
 10
262.2168243587839
 20
84.46757075050596
 30
0.0
 10
262.2168243587839
 20
82.1895592654377
 30
0.0
 10
262.2168243587839
 20
80.20512676971889
 30
0.0
 10
262.2168243587839
 20
78.52037353264892
 30
0.0
 10
262.2168243587839
 20
77.15751303909812
 30
0.0
 10
262.2168243587839
 20
76.1053347184424
 30
0.0
 10
262.2168243587839
 20
75.53183326638776
 30
0.0
 10
262.2168243587839
 20
75.23580586570395
 30
0.0
 10
262.2168243587839
 20
75.09379078025815
 30
0.0
 10
262.2168243587839
 20
74.98318858769642
 30
0.0
 10
262.2168243587839
 20
74.90475905848241
 30
0.0
 10
262.2168243587839
 20
74.85564294667769
 30
0.0
 10
262.2168243587839
 20
74.84957694645381
 30
0.0
 10
262.2168243587839
 20
74.84654185915547
 30
0.0
  0
SPLINE
  5
143
330
1F
100
AcDbEntity
  8
0
  6
Continuous
 62
     7
370
    15
100
AcDbSpline
210
0.0
220
0.0
230
1.0
 70
    24
 71
     3
 72
    23
 73
    19
 74
     0
 42
0.000000001
 43
0.00000001
 40
0.0
 40
0.0
 40
0.0
 40
0.0
 40
0.049344142439785
 40
0.1126391337887782
 40
0.1752432992499413
 40
0.2371050695636289
 40
0.2989591199343767
 40
0.3615634382303971
 40
0.4248659973704123
 40
0.4891594850324235
 40
0.5537405807095876
 40
0.6185525319731143
 40
0.6833570688697037
 40
0.7479382231567704
 40
0.812239066728002
 40
0.8755340580753496
 40
0.9381401318495213
 40
1.0
 40
1.0
 40
1.0
 40
1.0
 10
262.2168243587839
 20
169.9856829101731
 30
0.0
 10
262.2168243587839
 20
169.9787358289439
 30
0.0
 10
262.2168243587839
 20
169.9628775492509
 30
0.0
 10
262.2168243587839
 20
169.5561261363364
 30
0.0
 10
262.2168243587839
 20
168.8463109224432
 30
0.0
 10
262.2168243587839
 20
167.8299039969435
 30
0.0
 10
262.2168243587839
 20
166.5230345118233
 30
0.0
 10
262.2168243587839
 20
164.9163225028593
 30
0.0
 10
262.2168243587839
 20
163.0034773701502
 30
0.0
 10
262.2168243587839
 20
160.7919114584928
 30
0.0
 10
262.2168243587839
 20
158.2944052192125
 30
0.0
 10
262.2168243587839
 20
155.5374820673856
 30
0.0
 10
262.2168243587839
 20
152.5471648060455
 30
0.0
 10
262.2168243587839
 20
149.3529375036899
 30
0.0
 10
262.2168243587839
 20
145.9970578687265
 30
0.0
 10
262.2168243587839
 20
142.5139735104544
 30
0.0
 10
262.2168243587839
 20
138.9485630115862
 30
0.0
 10
262.2168243587839
 20
136.4985290969462
 30
0.0
 10
262.2168243587839
 20
135.2808564342062
 30
0.0
  0
SPLINE
  5
144
330
1F
100
AcDbEntity
  8
0
  6
Continuous
 62
     7
370
    15
100
AcDbSpline
210
0.0
220
0.0
230
1.0
 70
    24
 71
     3
 72
    36
 73
    32
 74
     0
 42
0.000000001
 43
0.00000001
 40
0.0
 40
0.0
 40
0.0
 40
0.0
 40
0.0108663901693764
 40
0.0217235992689927
 40
0.0325737239461297
 40
0.0434188649567969
 40
0.0542611259538548
 40
0.0651026122666534
 40
0.0759454296758007
 40
0.0867916831866139
 40
0.0976434758048303
 40
0.1085029073181251
 40
0.1193720730869558
 40
0.1813968254495411
 40
0.2434299782169203
 40
0.3071319268850098
 40
0.3708425031356519
 40
0.4354174425596918
 40
0.5000011278075956
 40
0.5645760673346892
 40
0.6291597526862437
 40
0.6928617016453169
 40
0.7565722781921671
 40
0.8185970309917204
 40
0.88063018420144
 40
0.9005456124940234
 40
0.9204355775907559
 40
0.9403130284544624
 40
0.9601909385042273
 40
0.9800822802606719
 40
1.0
 40
1.0
 40
1.0
 40
1.0
 10
246.3168243587839
 20
74.84654185915545
 30
0.0
 10
246.3168243587839
 20
74.84742290603734
 30
0.0
 10
246.3168243587839
 20
74.84918425539999
 30
0.0
 10
246.3168243587839
 20
74.8634795022467
 30
0.0
 10
246.3168243587839
 20
74.88630839877206
 30
0.0
 10
246.3168243587839
 20
74.91850551770726
 30
0.0
 10
246.3168243587839
 20
74.95984743327662
 30
0.0
 10
246.3168243587839
 20
75.01039399124232
 30
0.0
 10
246.3168243587839
 20
75.07012909467325
 30
0.0
 10
246.3168243587839
 20
75.1390572669458
 30
0.0
 10
246.3168243587839
 20
75.21717644880376
 30
0.0
 10
246.3168243587839
 20
75.3044902697962
 30
0.0
 10
246.3168243587839
 20
75.55232698420535
 30
0.0
 10
246.3168243587839
 20
76.07797479923629
 30
0.0
 10
246.3168243587839
 20
77.10636580575972
 30
0.0
 10
246.3168243587839
 20
78.43831561905387
 30
0.0
 10
246.3168243587839
 20
80.08424153376808
 30
0.0
 10
246.3168243587839
 20
82.02326258604413
 30
0.0
 10
246.3168243587839
 20
84.24923756854301
 30
0.0
 10
246.3168243587839
 20
86.73559284470034
 30
0.0
 10
246.3168243587839
 20
89.45536063869781
 30
0.0
 10
246.3168243587839
 20
92.38406897669124
 30
0.0
 10
246.3168243587839
 20
95.47339497591607
 30
0.0
 10
246.3168243587839
 20
98.70849602408944
 30
0.0
 10
246.3168243587839
 20
101.3061078938491
 30
0.0
 10
246.3168243587839
 20
103.1889953238447
 30
0.0
 10
246.3168243587839
 20
104.3050502982764
 30
0.0
 10
246.3168243587839
 20
105.4321444332936
 30
0.0
 10
246.3168243587839
 20
106.5705093569544
 30
0.0
 10
246.3168243587839
 20
107.7193408382408
 30
0.0
 10
246.3168243587839
 20
108.4935135766992
 30
0.0
 10
246.3168243587839
 20
108.8808564342062
 30
0.0
  0
SPLINE
  5
145
330
1F
100
AcDbEntity
  8
0
  6
Continuous
 62
     7
370
    15
100
AcDbSpline
210
0.0
220
0.0
230
1.0
 70
    24
 71
     3
 72
    23
 73
    19
 74
     0
 42
0.000000001
 43
0.00000001
 40
0.0
 40
0.0
 40
0.0
 40
0.0
 40
0.0621371780016823
 40
0.1250125041989178
 40
0.18858029616004
 40
0.253127189537456
 40
0.3179582992717379
 40
0.3830175621109775
 40
0.4480693138239227
 40
0.5129004819881641
 40
0.5774548282112543
 40
0.6410149507156808
 40
0.70389205390056
 40
0.7660351298220105
 40
0.8281703793520515
 40
0.8910476401564842
 40
0.9546154321206017
 40
1.0
 40
1.0
 40
1.0
 40
1.0
 10
246.3168243587839
 20
135.9808564342062
 30
0.0
 10
246.3168243587839
 20
137.183811594111
 30
0.0
 10
246.3168243587839
 20
139.6040122181984
 30
0.0
 10
246.3168243587839
 20
143.120856687089
 30
0.0
 10
246.3168243587839
 20
146.5521980501128
 30
0.0
 10
246.3168243587839
 20
149.8539927131875
 30
0.0
 10
246.3168243587839
 20
152.9928932091412
 30
0.0
 10
246.3168243587839
 20
155.9278488561517
 30
0.0
 10
246.3168243587839
 20
158.6304246866008
 30
0.0
 10
246.3168243587839
 20
161.0755860993737
 30
0.0
 10
246.3168243587839
 20
163.2377093967399
 30
0.0
 10
246.3168243587839
 20
165.1046345807973
 30
0.0
 10
246.3168243587839
 20
166.6694891798107
 30
0.0
 10
246.3168243587839
 20
167.938135643602
 30
0.0
 10
246.3168243587839
 20
168.9202249289101
 30
0.0
 10
246.3168243587839
 20
169.5982710270485
 30
0.0
 10
246.3168243587839
 20
169.9744001579491
 30
0.0
 10
246.3168243587839
 20
169.979210440563
 30
0.0
 10
246.3168243587839
 20
169.9812141842003
 30
0.0
  0
LINE
  5
146
330
1F
100
AcDbEntity
  8
0
  6
Continuous
 62
     7
370
    15
100
AcDbLine
 10
244.0282398
 20
122.4308564342
 30
0.0
 11
244.0282398
 21
156.9308564342
 31
0.0
  0
LINE
  5
147
330
1F
100
AcDbEntity
  8
0
  6
Continuous
 62
     7
370
    15
100
AcDbLine
 10
244.0282398
 20
87.9308564342
 30
0.0
 11
244.0282398
 21
122.4308564342
 31
0.0
  0
LINE
  5
148
330
1F
100
AcDbEntity
  8
0
  6
Continuous
 62
     7
370
    15
100
AcDbLine
 10
243.1168243588
 20
87.5058564342
 30
0.0
 11
243.1168243588
 21
157.3558564342
 31
0.0
  0
LINE
  5
149
330
1F
100
AcDbEntity
  8
0
  6
Continuous
 62
     7
370
    15
100
AcDbLine
 10
288.1168243588
 20
122.4308564342
 30
0.0
 11
288.1168243588
 21
145.4308564342
 31
0.0
  0
LINE
  5
14A
330
1F
100
AcDbEntity
  8
0
  6
Continuous
 62
     7
370
    15
100
AcDbLine
 10
288.1168243588
 20
99.4308564342
 30
0.0
 11
288.1168243588
 21
122.4308564342
 31
0.0
  0
LINE
  5
14B
330
1F
100
AcDbEntity
  8
0
  6
Continuous
 62
     7
370
    15
100
AcDbLine
 10
287.1168243588
 20
122.4308564342
 30
0.0
 11
287.1168243588
 21
146.4308564342
 31
0.0
  0
LINE
  5
14C
330
1F
100
AcDbEntity
  8
0
  6
Continuous
 62
     7
370
    15
100
AcDbLine
 10
287.1168243588
 20
98.4308564342
 30
0.0
 11
287.1168243588
 21
122.4308564342
 31
0.0
  0
SPLINE
  5
14D
330
1F
100
AcDbEntity
  8
0
  6
Continuous
 62
     7
370
    15
100
AcDbSpline
210
0.0
220
0.0
230
1.0
 70
    24
 71
     3
 72
    10
 73
     6
 74
     0
 42
0.000000001
 43
0.00000001
 40
0.0
 40
0.0
 40
0.0
 40
0.0
 40
0.4999999999999997
 40
0.4999999999999997
 40
0.9999999999999999
 40
0.9999999999999999
 40
0.9999999999999999
 40
0.9999999999999999
 10
141.3668243587839
 20
141.6524314347516
 30
0.0
 10
141.3668243587839
 20
141.6524314347515
 30
0.0
 10
141.3668243587839
 20
139.6272050086826
 30
0.0
 10
141.3668243587839
 20
132.4179199156725
 30
0.0
 10
141.3668243587839
 20
127.5285908109807
 30
0.0
 10
141.3668243587839
 20
122.4308564342062
 30
0.0
  0
SPLINE
  5
14E
330
1F
100
AcDbEntity
  8
0
  6
Continuous
 62
     7
370
    15
100
AcDbSpline
210
0.0
220
0.0
230
1.0
 70
    24
 71
     3
 72
    10
 73
     6
 74
     0
 42
0.000000001
 43
0.00000001
 40
0.0
 40
0.0
 40
0.0
 40
0.0
 40
0.4999999999999999
 40
0.4999999999999999
 40
0.9999999999999999
 40
0.9999999999999999
 40
0.9999999999999999
 40
0.9999999999999999
 10
141.3668243587839
 20
122.4308564342062
 30
0.0
 10
141.3668243587839
 20
117.3331220574318
 30
0.0
 10
141.3668243587839
 20
112.4437929527395
 30
0.0
 10
141.3668243587839
 20
105.2345078597296
 30
0.0
 10
141.3668243587839
 20
103.2092814336607
 30
0.0
 10
141.3668243587839
 20
103.2092814336608
 30
0.0
  0
LINE
  5
14F
330
1F
100
AcDbEntity
  8
0
  6
Continuous
 62
     7
370
    15
100
AcDbLine
 10
318.1168243588
 20
122.4308564342
 30
0.0
 11
318.1168243588
 21
135.4308564342
 31
0.0
  0
LINE
  5
150
330
1F
100
AcDbEntity
  8
0
  6
Continuous
 62
     7
370
    15
100
AcDbLine
 10
318.1168243588
 20
109.4308564342
 30
0.0
 11
318.1168243588
 21
122.4308564342
 31
0.0
  0
LINE
  5
151
330
1F
100
AcDbEntity
  8
0
  6
Continuous
 62
     7
370
    15
100
AcDbLine
 10
317.1168243588
 20
122.4308564342
 30
0.0
 11
317.1168243588
 21
136.4308564342
 31
0.0
  0
LINE
  5
152
330
1F
100
AcDbEntity
  8
0
  6
Continuous
 62
     7
370
    15
100
AcDbLine
 10
317.1168243588
 20
108.4308564342
 30
0.0
 11
317.1168243588
 21
122.4308564342
 31
0.0
  0
LINE
  5
153
330
1F
100
AcDbEntity
  8
0
  6
Continuous
 62
     7
370
    15
100
AcDbLine
 10
311.1168243588
 20
108.4308564342
 30
0.0
 11
311.1168243588
 21
136.4308564342
 31
0.0
  0
LINE
  5
154
330
1F
100
AcDbEntity
  8
0
  6
Continuous
 62
     7
370
    15
100
AcDbLine
 10
310.1168243588
 20
109.4308564342
 30
0.0
 11
310.1168243588
 21
135.4308564342
 31
0.0
  0
LINE
  5
155
330
1F
100
AcDbEntity
  8
0
  6
Continuous
 62
     7
370
    15
100
AcDbLine
 10
306.62607663
 20
122.4308564342
 30
0.0
 11
306.62607663
 21
133.4308564342
 31
0.0
  0
LINE
  5
156
330
1F
100
AcDbEntity
  8
0
  6
Continuous
 62
     7
370
    15
100
AcDbLine
 10
306.62607663
 20
111.4308564342
 30
0.0
 11
306.62607663
 21
122.4308564342
 31
0.0
  0
LINE
  5
157
330
1F
100
AcDbEntity
  8
0
  6
Continuous
 62
     7
370
    15
100
AcDbLine
 10
307.1168243588
 20
122.4308564342
 30
0.0
 11
307.1168243588
 21
132.5808564342
 31
0.0
  0
LINE
  5
158
330
1F
100
AcDbEntity
  8
0
  6
Continuous
 62
     7
370
    15
100
AcDbLine
 10
307.1168243588
 20
112.2808564342
 30
0.0
 11
307.1168243588
 21
122.4308564342
 31
0.0
  0
LINE
  5
159
330
1F
100
AcDbEntity
  8
0
  6
Continuous
 62
     7
370
    15
100
AcDbLine
 10
288.1168243588
 20
109.9308564342
 30
0.0
 11
293.9168243588
 21
109.9308564342
 31
0.0
  0
LINE
  5
15A
330
1F
100
AcDbEntity
  8
0
  6
Continuous
 62
     7
370
    15
100
AcDbLine
 10
293.9168243588
 20
110.4308564342
 30
0.0
 11
288.1168243588
 21
110.4308564342
 31
0.0
  0
LINE
  5
15B
330
1F
100
AcDbEntity
  8
0
  6
Continuous
 62
     7
370
    15
100
AcDbLine
 10
293.9168243588
 20
110.4308564342
 30
0.0
 11
293.9168243588
 21
109.9308564342
 31
0.0
  0
LINE
  5
15C
330
1F
100
AcDbEntity
  8
0
  6
Continuous
 62
     7
370
    15
100
AcDbLine
 10
293.9168243588
 20
100.9308564342
 30
0.0
 11
288.1168243588
 21
100.9308564342
 31
0.0
  0
LINE
  5
15D
330
1F
100
AcDbEntity
  8
0
  6
Continuous
 62
     7
370
    15
100
AcDbLine
 10
293.9168243588
 20
109.9308564342
 30
0.0
 11
293.9168243588
 21
100.9308564342
 31
0.0
  0
LINE
  5
15E
330
1F
100
AcDbEntity
  8
0
  6
Continuous
 62
     7
370
    15
100
AcDbLine
 10
288.1168243588
 20
100.4308564342
 30
0.0
 11
293.9168243588
 21
100.4308564342
 31
0.0
  0
LINE
  5
15F
330
1F
100
AcDbEntity
  8
0
  6
Continuous
 62
     7
370
    15
100
AcDbLine
 10
293.9168243588
 20
100.9308564342
 30
0.0
 11
293.9168243588
 21
100.4308564342
 31
0.0
  0
LINE
  5
160
330
1F
100
AcDbEntity
  8
0
  6
Continuous
 62
     7
370
    15
100
AcDbLine
 10
293.9168243588
 20
144.4308564342
 30
0.0
 11
293.9168243588
 21
143.9308564342
 31
0.0
  0
LINE
  5
161
330
1F
100
AcDbEntity
  8
0
  6
Continuous
 62
     7
370
    15
100
AcDbLine
 10
288.1168243588
 20
143.9308564342
 30
0.0
 11
293.9168243588
 21
143.9308564342
 31
0.0
  0
LINE
  5
162
330
1F
100
AcDbEntity
  8
0
  6
Continuous
 62
     7
370
    15
100
AcDbLine
 10
293.9168243588
 20
144.4308564342
 30
0.0
 11
288.1168243588
 21
144.4308564342
 31
0.0
  0
LINE
  5
163
330
1F
100
AcDbEntity
  8
0
  6
Continuous
 62
     7
370
    15
100
AcDbLine
 10
293.9168243588
 20
143.9308564342
 30
0.0
 11
293.9168243588
 21
134.9308564342
 31
0.0
  0
LINE
  5
164
330
1F
100
AcDbEntity
  8
0
  6
Continuous
 62
     7
370
    15
100
AcDbLine
 10
293.9168243588
 20
134.9308564342
 30
0.0
 11
288.1168243588
 21
134.9308564342
 31
0.0
  0
LINE
  5
165
330
1F
100
AcDbEntity
  8
0
  6
Continuous
 62
     7
370
    15
100
AcDbLine
 10
288.1168243588
 20
134.4308564342
 30
0.0
 11
293.9168243588
 21
134.4308564342
 31
0.0
  0
LINE
  5
166
330
1F
100
AcDbEntity
  8
0
  6
Continuous
 62
     7
370
    15
100
AcDbLine
 10
293.9168243588
 20
134.9308564342
 30
0.0
 11
293.9168243588
 21
134.4308564342
 31
0.0
  0
LINE
  5
167
330
1F
100
AcDbEntity
  8
0
  6
Continuous
 62
     8
370
    15
100
AcDbLine
 10
261.0511389338
 20
135.8279346056
 30
0.0
 11
261.0511389338
 21
171.1808564342
 31
0.0
  0
LINE
  5
168
330
1F
100
AcDbEntity
  8
0
  6
Continuous
 62
     8
370
    15
100
AcDbLine
 10
261.0511389338
 20
73.6808564342
 30
0.0
 11
261.0511389338
 21
109.0337782628
 31
0.0
  0
LINE
  5
169
330
1F
100
AcDbEntity
  8
0
  6
Continuous
 62
     8
370
    15
100
AcDbLine
 10
247.4825097837
 20
73.6808564342
 30
0.0
 11
247.4825097837
 21
109.0337782628
 31
0.0
  0
LINE
  5
16A
330
1F
100
AcDbEntity
  8
0
  6
Continuous
 62
     8
370
    15
100
AcDbLine
 10
247.4825097837
 20
171.1808564342
 30
0.0
 11
247.4825097837
 21
135.8279346056
 31
0.0
  0
LINE
  5
16B
330
1F
100
AcDbEntity
  8
0
  6
Continuous
 62
     8
370
    15
100
AcDbLine
 10
246.4339816463
 20
74.5636991467
 30
0.0
 11
246.4339816463
 21
108.9980137217
 31
0.0
  0
LINE
  5
16C
330
1F
100
AcDbEntity
  8
0
  6
Continuous
 62
     8
370
    15
100
AcDbLine
 10
246.4339816463
 20
135.8636991467
 30
0.0
 11
246.4339816463
 21
170.2980137217
 31
0.0
  0
LINE
  5
16D
330
1F
100
AcDbEntity
  8
0
  6
Continuous
 62
     8
370
    15
100
AcDbLine
 10
247.1996670713
 20
135.7331356745
 30
0.0
 11
247.1996670713
 21
171.0636991467
 31
0.0
  0
LINE
  5
16E
330
1F
100
AcDbEntity
  8
0
  6
Continuous
 62
     8
370
    15
100
AcDbLine
 10
247.1996670713
 20
73.7980137217
 30
0.0
 11
247.1996670713
 21
109.128577194
 31
0.0
  0
LINE
  5
16F
330
1F
100
AcDbEntity
  8
0
  6
Continuous
 62
     8
370
    15
100
AcDbLine
 10
261.3339816463
 20
109.128577194
 30
0.0
 11
261.3339816463
 21
73.7980137217
 31
0.0
  0
LINE
  5
170
330
1F
100
AcDbEntity
  8
0
  6
Continuous
 62
     8
370
    15
100
AcDbLine
 10
261.3339816463
 20
135.7331356745
 30
0.0
 11
261.3339816463
 21
171.0636991467
 31
0.0
  0
LINE
  5
171
330
1F
100
AcDbEntity
  8
0
  6
Continuous
 62
     8
370
    15
100
AcDbLine
 10
262.0996670713
 20
109.5808564352
 30
0.0
 11
262.0996670713
 21
74.5636991467
 31
0.0
  0
LINE
  5
172
330
1F
100
AcDbEntity
  8
0
  6
Continuous
 62
     8
370
    15
100
AcDbLine
 10
262.0996670713
 20
170.2980137217
 30
0.0
 11
262.0996670713
 21
135.2808564342
 31
0.0
  0
LINE
  5
173
330
1F
100
AcDbEntity
  8
0
  6
Continuous
 62
     8
370
    15
100
AcDbLine
 10
245.8168243588
 20
122.4308564342
 30
0.0
 11
245.8168243588
 21
156.9308564342
 31
0.0
  0
LINE
  5
174
330
1F
100
AcDbEntity
  8
0
  6
Continuous
 62
     8
370
    15
100
AcDbLine
 10
245.8168243588
 20
87.9308564342
 30
0.0
 11
245.8168243588
 21
122.4308564342
 31
0.0
  0
LINE
  5
175
330
1F
100
AcDbEntity
  8
0
  6
Continuous
 62
     8
370
    15
100
AcDbLine
 10
142.2225161315
 20
142.6419642212
 30
0.0
 11
142.2225161315
 21
102.2197486472
 31
0.0
  0
LINE
  5
176
330
1F
100
AcDbEntity
  8
0
  6
Continuous
 62
     8
370
    15
100
AcDbLine
 10
265.2168243588
 20
146.4308564342
 30
0.0
 11
265.2168243588
 21
98.4308564342
 31
0.0
  0
LINE
  5
177
330
1F
100
AcDbEntity
  8
0
  6
Continuous
 62
     8
370
    15
100
AcDbLine
 10
309.6168243588
 20
122.4308564342
 30
0.0
 11
309.6168243588
 21
127.4308564342
 31
0.0
  0
LINE
  5
178
330
1F
100
AcDbEntity
  8
0
  6
Continuous
 62
     8
370
    15
100
AcDbLine
 10
309.6168243588
 20
117.4308564342
 30
0.0
 11
309.6168243588
 21
122.4308564342
 31
0.0
  0
DIMENSION
  5
179
330
1F
100
AcDbEntity
  8
DIM
100
AcDbDimension
  2
_D
 10
332.8541282553
 20
146.4308564342
 30
0.0
 11
332.8541282553
 21
122.4308564342
 31
0.0
 70
   160
  1
%%c<>
 71
     2
 42
-1.0
  3
SLDDIMSTYLE0
100
AcDbAlignedDimension
 13
287.1168243588
 23
98.4308564342
 33
0.0
 14
287.1168243588
 24
146.4308564342
 34
0.0
 50
90.0
100
AcDbRotatedDimension
  0
DIMENSION
  5
185
330
1F
100
AcDbEntity
  8
DIM
100
AcDbDimension
  2
_D_1
 10
324.7658237947
 20
111.4308564342
 30
0.0
 11
324.7658237947
 21
122.4308564342
 31
0.0
 70
   160
  1
%%c<>
 71
     2
 42
-1.0
  3
SLDDIMSTYLE1
100
AcDbAlignedDimension
 13
306.62607663
 23
133.4308564342
 33
0.0
 14
306.62607663
 24
111.4308564342
 34
0.0
 50
90.0
100
AcDbRotatedDimension
  0
DIMENSION
  5
193
330
1F
100
AcDbEntity
  8
DIM
100
AcDbDimension
  2
_D_2
 10
288.1168243588
 20
66.6091588131
 30
0.0
 11
297.6168243588
 21
66.6091588131
 31
0.0
 70
   160
  1
<>
 71
     2
 42
-1.0
  3
SLDDIMSTYLE1
100
AcDbAlignedDimension
 13
307.1168243588
 23
112.2808564342
 33
0.0
 14
288.1168243588
 24
99.4308564342
 34
0.0
100
AcDbRotatedDimension
  0
DIMENSION
  5
19F
330
1F
100
AcDbEntity
  8
DIM
100
AcDbDimension
  2
_D_3
 10
243.1168243588
 20
66.6091588131
 30
0.0
 11
265.6168243588
 21
66.6091588131
 31
0.0
 70
   160
  1
<>
 71
     2
 42
-1.0
  3
SLDDIMSTYLE0
100
AcDbAlignedDimension
 13
288.1168243588
 23
99.4308564342
 33
0.0
 14
243.1168243588
 24
87.5058564342
 34
0.0
100
AcDbRotatedDimension
  0
DIMENSION
  5
1A9
330
1F
100
AcDbEntity
  8
DIM
100
AcDbDimension
  2
_D_4
 10
141.3668243588
 20
54.4807564342
 30
0.0
 11
229.7418243588
 21
54.4807564342
 31
0.0
 70
   160
  1
<>
 71
     2
 42
-1.0
  3
SLDDIMSTYLE0
100
AcDbAlignedDimension
 13
318.1168243588
 23
109.4308564342
 33
0.0
 14
141.3668243588
 24
122.4308564342
 34
0.0
100
AcDbRotatedDimension
  0
DIMENSION
  5
1B3
330
1F
100
AcDbEntity
  8
DIM
100
AcDbDimension
  2
_D_5
 10
134.6778965424
 20
73.6808564342
 30
0.0
 11
134.6778965424
 21
122.4308564342
 31
0.0
 70
   160
  1
%%c<>
 71
     2
 42
-1.0
  3
SLDDIMSTYLE2
100
AcDbAlignedDimension
 13
247.4825097837
 23
171.1808564342
 33
0.0
 14
247.4825097837
 24
73.6808564342
 34
0.0
 50
90.0
100
AcDbRotatedDimension
  0
LINE
  5
1BF
330
1F
100
AcDbEntity
  8
DIM
  6
CENTERX2
 48
1.6666666667
370
     0
100
AcDbLine
 10
141.5990180641
 20
122.4308564342
 30
0.0
 11
318.9284198836
 21
122.4308564342
 31
0.0
  0
ENDSEC
  0
SECTION
  2
OBJECTS
  0
DICTIONARY
  5
C
330
0
100
AcDbDictionary
281
     1
  3
ACAD_GROUP
350
D
  3
ACAD_LAYOUT
350
1A
  3
ACAD_MLINESTYLE
350
17
  3
ACAD_PLOTSETTINGS
350
19
  3
ACAD_PLOTSTYLENAME
350
E
  3
ACAD_SCALELIST
350
47
  0
DICTIONARY
  5
D
102
{ACAD_REACTORS
330
C
102
}
330
C
100
AcDbDictionary
281
     1
  0
DICTIONARY
  5
1A
102
{ACAD_REACTORS
330
C
102
}
330
C
100
AcDbDictionary
281
     1
  3
Layout1
350
1E
  3
Layout2
350
26
  3
Model
350
22
  0
DICTIONARY
  5
17
102
{ACAD_REACTORS
330
C
102
}
330
C
100
AcDbDictionary
281
     1
  3
Standard
350
18
  0
DICTIONARY
  5
19
102
{ACAD_REACTORS
330
C
102
}
330
C
100
AcDbDictionary
281
     1
  0
ACDBDICTIONARYWDFLT
  5
E
102
{ACAD_REACTORS
330
C
102
}
330
C
100
AcDbDictionary
281
     1
  3
Normal
350
F
100
AcDbDictionaryWithDefault
340
F
  0
DICTIONARY
  5
47
102
{ACAD_REACTORS
330
C
102
}
330
C
100
AcDbDictionary
281
     1
  3
A0
350
48
  3
A1
350
49
  3
A2
350
4A
  3
A3
350
4B
  3
A4
350
4C
  3
A5
350
4D
  3
A6
350
4E
  3
A7
350
4F
  3
A8
350
50
  3
A9
350
51
  3
B0
350
52
  3
B1
350
53
  3
B2
350
54
  3
B3
350
55
  3
B4
350
56
  3
B5
350
57
  3
B6
350
58
  3
B7
350
59
  3
B8
350
5A
  3
B9
350
5B
  3
C0
350
5C
  3
C1
350
5D
  3
C2
350
5E
  3
C3
350
5F
  3
C4
350
60
  3
C5
350
61
  3
C6
350
62
  3
C7
350
63
  3
C8
350
64
  3
C9
350
65
  3
D0
350
66
  3
D1
350
67
  3
D2
350
68
  0
LAYOUT
  5
1E
102
{ACAD_REACTORS
330
1A
102
}
330
1A
100
AcDbPlotSettings
  1

  2
none_device
  4

  6

 40
0.0
 41
0.0
 42
0.0
 43
0.0
 44
0.0
 45
0.0
 46
0.0
 47
0.0
 48
0.0
 49
0.0
140
0.0
141
0.0
142
1.0
143
1.0
 70
   688
 72
     1
 73
     0
 74
     5
  7

 75
    16
147
1.0
148
0.0
149
0.0
100
AcDbLayout
  1
Layout1
 70
     1
 71
     1
 10
0.0
 20
0.0
 11
420.0
 21
297.0
 12
0.0
 22
0.0
 32
0.0
 14
1.0000000000E+20
 24
1.0000000000E+20
 34
1.0000000000E+20
 15
-1.0000000000E+20
 25
-1.0000000000E+20
 35
-1.0000000000E+20
146
0.0
 13
0.0
 23
0.0
 33
0.0
 16
1.0
 26
0.0
 36
0.0
 17
0.0
 27
1.0
 37
0.0
 76
     0
330
1B
  0
LAYOUT
  5
26
102
{ACAD_REACTORS
330
1A
102
}
330
1A
100
AcDbPlotSettings
  1

  2
none_device
  4

  6

 40
0.0
 41
0.0
 42
0.0
 43
0.0
 44
0.0
 45
0.0
 46
0.0
 47
0.0
 48
0.0
 49
0.0
140
0.0
141
0.0
142
1.0
143
1.0
 70
   688
 72
     1
 73
     0
 74
     5
  7

 75
    16
147
1.0
148
0.0
149
0.0
100
AcDbLayout
  1
Layout2
 70
     1
 71
     2
 10
0.0
 20
0.0
 11
0.0
 21
0.0
 12
0.0
 22
0.0
 32
0.0
 14
0.0
 24
0.0
 34
0.0
 15
0.0
 25
0.0
 35
0.0
146
0.0
 13
0.0
 23
0.0
 33
0.0
 16
1.0
 26
0.0
 36
0.0
 17
0.0
 27
1.0
 37
0.0
 76
     0
330
23
  0
LAYOUT
  5
22
102
{ACAD_REACTORS
330
1A
102
}
330
1A
100
AcDbPlotSettings
  1

  2
none_device
  4
Letter_(8.50_x_11.00_Inches)
  6

 40
6.35
 41
6.35
 42
6.35000508
 43
6.35000508
 44
215.9
 45
279.4
 46
0.0
 47
0.0
 48
0.0
 49
0.0
140
0.0
141
0.0
142
1.0
143
1.0
 70
  1712
 72
     1
 73
     0
 74
     0
  7

 75
     0
147
1.0
148
0.0
149
0.0
100
AcDbLayout
  1
Model
 70
     1
 71
     0
 10
0.0
 20
0.0
 11
356.4
 21
252.0
 12
0.0
 22
0.0
 32
0.0
 14
0.0
 24
0.0
 34
0.0
 15
356.4
 25
252.0
 35
0.0
146
0.0
 13
0.0
 23
0.0
 33
0.0
 16
1.0
 26
0.0
 36
0.0
 17
0.0
 27
1.0
 37
0.0
 76
     0
330
1F
331
29
  0
MLINESTYLE
  5
18
102
{ACAD_REACTORS
330
17
102
}
330
17
100
AcDbMlineStyle
  2
Standard
 70
     0
  3

 62
   256
 51
90.0
 52
90.0
 71
     2
 49
0.5
 62
   256
  6
BYLAYER
 49
-0.5
 62
   256
  6
BYLAYER
  0
ACDBPLACEHOLDER
  5
F
102
{ACAD_REACTORS
330
E
102
}
330
E
  0
SCALE
  5
48
102
{ACAD_REACTORS
330
47
102
}
330
47
100
AcDbScale
 70
     0
300
1:1
140
1.0
141
1.0
290
     1
  0
SCALE
  5
49
102
{ACAD_REACTORS
330
47
102
}
330
47
100
AcDbScale
 70
     0
300
1:2
140
1.0
141
2.0
290
     0
  0
SCALE
  5
4A
102
{ACAD_REACTORS
330
47
102
}
330
47
100
AcDbScale
 70
     0
300
1:4
140
1.0
141
4.0
290
     0
  0
SCALE
  5
4B
102
{ACAD_REACTORS
330
47
102
}
330
47
100
AcDbScale
 70
     0
300
1:5
140
1.0
141
5.0
290
     0
  0
SCALE
  5
4C
102
{ACAD_REACTORS
330
47
102
}
330
47
100
AcDbScale
 70
     0
300
1:8
140
1.0
141
8.0
290
     0
  0
SCALE
  5
4D
102
{ACAD_REACTORS
330
47
102
}
330
47
100
AcDbScale
 70
     0
300
1:10
140
1.0
141
10.0
290
     0
  0
SCALE
  5
4E
102
{ACAD_REACTORS
330
47
102
}
330
47
100
AcDbScale
 70
     0
300
1:16
140
1.0
141
16.0
290
     0
  0
SCALE
  5
4F
102
{ACAD_REACTORS
330
47
102
}
330
47
100
AcDbScale
 70
     0
300
1:20
140
1.0
141
20.0
290
     0
  0
SCALE
  5
50
102
{ACAD_REACTORS
330
47
102
}
330
47
100
AcDbScale
 70
     0
300
1:30
140
1.0
141
30.0
290
     0
  0
SCALE
  5
51
102
{ACAD_REACTORS
330
47
102
}
330
47
100
AcDbScale
 70
     0
300
1:40
140
1.0
141
40.0
290
     0
  0
SCALE
  5
52
102
{ACAD_REACTORS
330
47
102
}
330
47
100
AcDbScale
 70
     0
300
1:50
140
1.0
141
50.0
290
     0
  0
SCALE
  5
53
102
{ACAD_REACTORS
330
47
102
}
330
47
100
AcDbScale
 70
     0
300
1:100
140
1.0
141
100.0
290
     0
  0
SCALE
  5
54
102
{ACAD_REACTORS
330
47
102
}
330
47
100
AcDbScale
 70
     0
300
2:1
140
2.0
141
1.0
290
     0
  0
SCALE
  5
55
102
{ACAD_REACTORS
330
47
102
}
330
47
100
AcDbScale
 70
     0
300
4:1
140
4.0
141
1.0
290
     0
  0
SCALE
  5
56
102
{ACAD_REACTORS
330
47
102
}
330
47
100
AcDbScale
 70
     0
300
8:1
140
8.0
141
1.0
290
     0
  0
SCALE
  5
57
102
{ACAD_REACTORS
330
47
102
}
330
47
100
AcDbScale
 70
     0
300
10:1
140
10.0
141
1.0
290
     0
  0
SCALE
  5
58
102
{ACAD_REACTORS
330
47
102
}
330
47
100
AcDbScale
 70
     0
300
100:1
140
100.0
141
1.0
290
     0
  0
SCALE
  5
59
102
{ACAD_REACTORS
330
47
102
}
330
47
100
AcDbScale
 70
     0
300
1/128" = 1'-0"
140
0.0078125
141
12.0
290
     0
  0
SCALE
  5
5A
102
{ACAD_REACTORS
330
47
102
}
330
47
100
AcDbScale
 70
     0
300
1/64" = 1'-0"
140
0.015625
141
12.0
290
     0
  0
SCALE
  5
5B
102
{ACAD_REACTORS
330
47
102
}
330
47
100
AcDbScale
 70
     0
300
1/32" = 1'-0"
140
0.03125
141
12.0
290
     0
  0
SCALE
  5
5C
102
{ACAD_REACTORS
330
47
102
}
330
47
100
AcDbScale
 70
     0
300
1/16" = 1'-0"
140
0.0625
141
12.0
290
     0
  0
SCALE
  5
5D
102
{ACAD_REACTORS
330
47
102
}
330
47
100
AcDbScale
 70
     0
300
3/32" = 1'-0"
140
0.09375
141
12.0
290
     0
  0
SCALE
  5
5E
102
{ACAD_REACTORS
330
47
102
}
330
47
100
AcDbScale
 70
     0
300
1/8" = 1'-0"
140
0.125
141
12.0
290
     0
  0
SCALE
  5
5F
102
{ACAD_REACTORS
330
47
102
}
330
47
100
AcDbScale
 70
     0
300
3/16" = 1'-0"
140
0.1875
141
12.0
290
     0
  0
SCALE
  5
60
102
{ACAD_REACTORS
330
47
102
}
330
47
100
AcDbScale
 70
     0
300
1/4" = 1'-0"
140
0.25
141
12.0
290
     0
  0
SCALE
  5
61
102
{ACAD_REACTORS
330
47
102
}
330
47
100
AcDbScale
 70
     0
300
3/8" = 1'-0"
140
0.375
141
12.0
290
     0
  0
SCALE
  5
62
102
{ACAD_REACTORS
330
47
102
}
330
47
100
AcDbScale
 70
     0
300
1/2" = 1'-0"
140
0.5
141
12.0
290
     0
  0
SCALE
  5
63
102
{ACAD_REACTORS
330
47
102
}
330
47
100
AcDbScale
 70
     0
300
3/4" = 1'-0"
140
0.75
141
12.0
290
     0
  0
SCALE
  5
64
102
{ACAD_REACTORS
330
47
102
}
330
47
100
AcDbScale
 70
     0
300
1" = 1'-0"
140
1.0
141
12.0
290
     0
  0
SCALE
  5
65
102
{ACAD_REACTORS
330
47
102
}
330
47
100
AcDbScale
 70
     0
300
1-1/2" = 1'-0"
140
1.5
141
12.0
290
     0
  0
SCALE
  5
66
102
{ACAD_REACTORS
330
47
102
}
330
47
100
AcDbScale
 70
     0
300
3" = 1'-0"
140
3.0
141
12.0
290
     0
  0
SCALE
  5
67
102
{ACAD_REACTORS
330
47
102
}
330
47
100
AcDbScale
 70
     0
300
6" = 1'-0"
140
6.0
141
12.0
290
     0
  0
SCALE
  5
68
102
{ACAD_REACTORS
330
47
102
}
330
47
100
AcDbScale
 70
     0
300
1'-0" = 1'-0"
140
12.0
141
12.0
290
     0
  0
ENDSEC
  0
EOF
