  0
SECTION
  2
HEADER
  9
$ACADVER
  1
AC1015
  9
$ACADMAINTVER
 70
     6
  9
$DWGCODEPAGE
  3
ANSI_1252
  9
$INSBASE
 10
0.0
 20
0.0
 30
0.0
  9
$EXTMIN
 10
0.0
 20
0.0
 30
0.0
  9
$EXTMAX
 10
371.25
 20
262.5
 30
0.0
  9
$LIMMIN
 10
0.0
 20
0.0
  9
$LIMMAX
 10
371.25
 20
262.5
  9
$ORTHOMODE
 70
     0
  9
$REGENMODE
 70
     1
  9
$FILLMODE
 70
     1
  9
$QTEXTMODE
 70
     0
  9
$MIRRTEXT
 70
     1
  9
$LTSCALE
 40
1.25
  9
$ATTMODE
 70
     1
  9
$TEXTSIZE
 40
4.8506944444
  9
$TRACEWID
 40
1.0
  9
$TEXTSTYLE
  7
Standard
  9
$CLAYER
  8
0
  9
$CELTYPE
  6
ByLayer
  9
$CECOLOR
 62
   256
  9
$CELTSCALE
 40
1.0
  9
$DISPSILH
 70
     0
  9
$DIMSCALE
 40
1.0
  9
$DIMASZ
 40
4.1275
  9
$DIMEXO
 40
1.25
  9
$DIMDLI
 40
3.75
  9
$DIMRND
 40
0.0
  9
$DIMDLE
 40
0.0
  9
$DIMEXE
 40
1.25
  9
$DIMTP
 40
0.0
  9
$DIMTM
 40
0.0
  9
$DIMTXT
 40
4.8506944444
  9
$DIMCEN
 40
2.5
  9
$DIMTSZ
 40
0.0
  9
$DIMTOL
 70
     0
  9
$DIMLIM
 70
     0
  9
$DIMTIH
 70
     1
  9
$DIMTOH
 70
     1
  9
$DIMSE1
 70
     0
  9
$DIMSE2
 70
     0
  9
$DIMTAD
 70
     1
  9
$DIMZIN
 70
     0
  9
$DIMBLK
  1

  9
$DIMASO
 70
     1
  9
$DIMSHO
 70
     1
  9
$DIMPOST
  1

  9
$DIMAPOST
  1

  9
$DIMALT
 70
     0
  9
$DIMALTD
 70
     3
  9
$DIMALTF
 40
0.0393700787
  9
$DIMLFAC
 40
1.0
  9
$DIMTOFL
 70
     1
  9
$DIMTVP
 40
0.0
  9
$DIMTIX
 70
     0
  9
$DIMSOXD
 70
     0
  9
$DIMSAH
 70
     0
  9
$DIMBLK1
  1

  9
$DIMBLK2
  1

  9
$DIMSTYLE
  2
ISO-25
  9
$DIMCLRD
 70
     0
  9
$DIMCLRE
 70
     0
  9
$DIMCLRT
 70
     0
  9
$DIMTFAC
 40
1.0
  9
$DIMGAP
 40
1.905
  9
$DIMJUST
 70
     0
  9
$DIMSD1
 70
     0
  9
$DIMSD2
 70
     0
  9
$DIMTOLJ
 70
     0
  9
$DIMTZIN
 70
     0
  9
$DIMALTZ
 70
     0
  9
$DIMALTTZ
 70
     0
  9
$DIMUPT
 70
     0
  9
$DIMDEC
 70
     2
  9
$DIMTDEC
 70
     2
  9
$DIMALTU
 70
     2
  9
$DIMALTTD
 70
     3
  9
$DIMTXSTY
  7
Standard
  9
$DIMAUNIT
 70
     0
  9
$DIMADEC
 70
     2
  9
$DIMALTRND
 40
0.0
  9
$DIMAZIN
 70
     0
  9
$DIMDSEP
 70
    44
  9
$DIMATFIT
 70
     3
  9
$DIMFRAC
 70
     0
  9
$DIMLDRBLK
  1

  9
$DIMLUNIT
 70
     2
  9
$DIMLWD
 70
    -2
  9
$DIMLWE
 70
    -2
  9
$DIMTMOVE
 70
     0
  9
$LUNITS
 70
     2
  9
$LUPREC
 70
     2
  9
$SKETCHINC
 40
1.0
  9
$FILLETRAD
 40
10.0
  9
$AUNITS
 70
     1
  9
$AUPREC
 70
     2
  9
$MENU
  1
.
  9
$ELEVATION
 40
0.0
  9
$PELEVATION
 40
0.0
  9
$THICKNESS
 40
0.0
  9
$LIMCHECK
 70
     0
  9
$CHAMFERA
 40
0.0
  9
$CHAMFERB
 40
0.0
  9
$CHAMFERC
 40
0.0
  9
$CHAMFERD
 40
0.0
  9
$SKPOLY
 70
     0
  9
$TDCREATE
 40
2458601.521211077
  9
$TDUCREATE
 40
2458601.29204441
  9
$TDUPDATE
 40
2458601.521211887
  9
$TDUUPDATE
 40
2458601.29204522
  9
$TDINDWG
 40
0.0000000116
  9
$TDUSRTIMER
 40
0.0000000116
  9
$USRTIMER
 70
     1
  9
$ANGBASE
 50
0.0
  9
$ANGDIR
 70
     0
  9
$PDMODE
 70
     0
  9
$PDSIZE
 40
-1.0
  9
$PLINEWID
 40
0.0
  9
$SPLFRAME
 70
     0
  9
$SPLINETYPE
 70
     6
  9
$SPLINESEGS
 70
     8
  9
$HANDSEED
  5
14C
  9
$SURFTAB1
 70
     6
  9
$SURFTAB2
 70
     6
  9
$SURFTYPE
 70
     6
  9
$SURFU
 70
     6
  9
$SURFV
 70
     6
  9
$UCSBASE
  2

  9
$UCSNAME
  2

  9
$UCSORG
 10
0.0
 20
0.0
 30
0.0
  9
$UCSXDIR
 10
1.0
 20
0.0
 30
0.0
  9
$UCSYDIR
 10
0.0
 20
1.0
 30
0.0
  9
$UCSORTHOREF
  2

  9
$UCSORTHOVIEW
 70
     0
  9
$UCSORGTOP
 10
0.0
 20
0.0
 30
0.0
  9
$UCSORGBOTTOM
 10
0.0
 20
0.0
 30
0.0
  9
$UCSORGLEFT
 10
0.0
 20
0.0
 30
0.0
  9
$UCSORGRIGHT
 10
0.0
 20
0.0
 30
0.0
  9
$UCSORGFRONT
 10
0.0
 20
0.0
 30
0.0
  9
$UCSORGBACK
 10
0.0
 20
0.0
 30
0.0
  9
$PUCSBASE
  2

  9
$PUCSNAME
  2

  9
$PUCSORG
 10
0.0
 20
0.0
 30
0.0
  9
$PUCSXDIR
 10
1.0
 20
0.0
 30
0.0
  9
$PUCSYDIR
 10
0.0
 20
1.0
 30
0.0
  9
$PUCSORTHOREF
  2

  9
$PUCSORTHOVIEW
 70
     0
  9
$PUCSORGTOP
 10
0.0
 20
0.0
 30
0.0
  9
$PUCSORGBOTTOM
 10
0.0
 20
0.0
 30
0.0
  9
$PUCSORGLEFT
 10
0.0
 20
0.0
 30
0.0
  9
$PUCSORGRIGHT
 10
0.0
 20
0.0
 30
0.0
  9
$PUCSORGFRONT
 10
0.0
 20
0.0
 30
0.0
  9
$PUCSORGBACK
 10
0.0
 20
0.0
 30
0.0
  9
$USERI1
 70
     0
  9
$USERI2
 70
     0
  9
$USERI3
 70
     0
  9
$USERI4
 70
     0
  9
$USERI5
 70
     0
  9
$USERR1
 40
0.0
  9
$USERR2
 40
0.0
  9
$USERR3
 40
0.0
  9
$USERR4
 40
0.0
  9
$USERR5
 40
0.0
  9
$WORLDVIEW
 70
     1
  9
$SHADEDGE
 70
     3
  9
$SHADEDIF
 70
    70
  9
$TILEMODE
 70
     1
  9
$MAXACTVP
 70
    64
  9
$PINSBASE
 10
0.0
 20
0.0
 30
0.0
  9
$PLIMCHECK
 70
     0
  9
$PEXTMIN
 10
1.0000000000E+20
 20
1.0000000000E+20
 30
1.0000000000E+20
  9
$PEXTMAX
 10
-1.0000000000E+20
 20
-1.0000000000E+20
 30
-1.0000000000E+20
  9
$PLIMMIN
 10
0.0
 20
0.0
  9
$PLIMMAX
 10
420.0
 20
297.0
  9
$UNITMODE
 70
     0
  9
$VISRETAIN
 70
     1
  9
$PLINEGEN
 70
     0
  9
$PSLTSCALE
 70
     1
  9
$TREEDEPTH
 70
  3020
  9
$CMLSTYLE
  2
Standard
  9
$CMLJUST
 70
     0
  9
$CMLSCALE
 40
20.0
  9
$PROXYGRAPHICS
 70
     1
  9
$MEASUREMENT
 70
     1
  9
$CELWEIGHT
370
    -1
  9
$ENDCAPS
280
     0
  9
$JOINSTYLE
280
     0
  9
$LWDISPLAY
290
     1
  9
$INSUNITS
 70
     4
  9
$HYPERLINKBASE
  1

  9
$STYLESHEET
  1

  9
$XEDIT
290
     1
  9
$CEPSNTYPE
380
     0
  9
$PSTYLEMODE
290
     1
  9
$FINGERPRINTGUID
  2
{AAB0C822-B76D-4A3E-B79B-4FEB71EE3891}
  9
$VERSIONGUID
  2
{FAEB1C32-E019-11D5-929B-00C0DF256EC4}
  9
$EXTNAMES
290
     1
  9
$PSVPSCALE
 40
0.0
  9
$OLESTARTUP
290
     0
  0
ENDSEC
  0
SECTION
  2
CLASSES
  0
CLASS
  1
ACDBDICTIONARYWDFLT
  2
AcDbDictionaryWithDefault
  3
ObjectDBX Classes
 90
        0
280
     0
281
     0
  0
CLASS
  1
VISUALSTYLE
  2
AcDbVisualStyle
  3
ObjectDBX Classes
 90
     4095
280
     0
281
     0
  0
CLASS
  1
MATERIAL
  2
AcDbMaterial
  3
ObjectDBX Classes
 90
     1153
280
     0
281
     0
  0
CLASS
  1
SCALE
  2
AcDbScale
  3
ObjectDBX Classes
 90
     1153
280
     0
281
     0
  0
CLASS
  1
SUN
  2
AcDbSun
  3
SCENEOE
 90
     1153
280
     0
281
     0
  0
CLASS
  1
ACDBPLACEHOLDER
  2
AcDbPlaceHolder
  3
ObjectDBX Classes
 90
        0
280
     0
281
     0
  0
CLASS
  1
LAYOUT
  2
AcDbLayout
  3
ObjectDBX Classes
 90
        0
280
     0
281
     0
  0
ENDSEC
  0
SECTION
  2
TABLES
  0
TABLE
  2
VPORT
  5
8
330
0
100
AcDbSymbolTable
 70
     1
  0
VPORT
  5
29
330
8
100
AcDbSymbolTableRecord
100
AcDbViewportTableRecord
  2
*Active
 70
     0
 10
0.0
 20
0.0
 11
1.0
 21
1.0
 12
185.625
 22
131.25
 13
0.0
 23
0.0
 14
10.0
 24
10.0
 15
10.0
 25
10.0
 16
0.0
 26
0.0
 36
1.0
 17
0.0
 27
0.0
 37
0.0
 40
262.5
 41
1.4142857143
 42
50.0
 43
0.0
 44
0.0
 50
0.0
 51
0.0
 71
     0
 72
  2000
 73
     1
 74
     3
 75
     0
 76
     0
 77
     0
 78
     0
281
     0
 65
     1
110
0.0
120
0.0
130
0.0
111
1.0
121
0.0
131
0.0
112
0.0
122
1.0
132
0.0
 79
     0
146
0.0
  0
ENDTAB
  0
TABLE
  2
LTYPE
  5
5
330
0
100
AcDbSymbolTable
 70
     6
  0
LTYPE
  5
14
330
5
100
AcDbSymbolTableRecord
100
AcDbLinetypeTableRecord
  2
ByBlock
 70
     0
  3

 72
    65
 73
     0
 40
0.0
  0
LTYPE
  5
15
330
5
100
AcDbSymbolTableRecord
100
AcDbLinetypeTableRecord
  2
ByLayer
 70
     0
  3

 72
    65
 73
     0
 40
0.0
  0
LTYPE
  5
16
330
5
100
AcDbSymbolTableRecord
100
AcDbLinetypeTableRecord
  2
Continuous
 70
     0
  3
Solid line
 72
    65
 73
     0
 40
0.0
  0
LTYPE
  5
6A
330
5
100
AcDbSymbolTableRecord
100
AcDbLinetypeTableRecord
  2
HIDDEN
 70
     0
  3
Hidden __ __ __ __ __ __ __ __ __ __ __ __ __ __
 72
    65
 73
     2
 40
1.905
 49
1.27
 74
     0
 49
-0.635
 74
     0
  0
LTYPE
  5
6B
330
5
100
AcDbSymbolTableRecord
100
AcDbLinetypeTableRecord
  2
PHANTOM
 70
     0
  3
Phantom ______  __  __  ______  __  __  ______
 72
    65
 73
     6
 40
12.7
 49
6.35
 74
     0
 49
-1.27
 74
     0
 49
1.27
 74
     0
 49
-1.27
 74
     0
 49
1.27
 74
     0
 49
-1.27
 74
     0
  0
LTYPE
  5
6C
330
5
100
AcDbSymbolTableRecord
100
AcDbLinetypeTableRecord
  2
CENTER
 70
     0
  3
Center ____ _ ____ _ ____ _ ____ _ ____ _ ____
 72
    65
 73
     4
 40
10.16
 49
6.35
 74
     0
 49
-1.27
 74
     0
 49
1.27
 74
     0
 49
-1.27
 74
     0
  0
LTYPE
  5
6D
330
5
100
AcDbSymbolTableRecord
100
AcDbLinetypeTableRecord
  2
CENTERX2
 70
     0
  3
Center (2x) ________  __  ________  __  _____
 72
    65
 73
     4
 40
20.32
 49
12.7
 74
     0
 49
-2.54
 74
     0
 49
2.54
 74
     0
 49
-2.54
 74
     0
  0
LTYPE
  5
6E
330
5
100
AcDbSymbolTableRecord
100
AcDbLinetypeTableRecord
  2
DOT2
 70
     0
  3
Dot (.5x) ........................................
 72
    65
 73
     2
 40
0.635
 49
0.0
 74
     0
 49
-0.635
 74
     0
  0
ENDTAB
  0
TABLE
  2
LAYER
  5
2
330
0
100
AcDbSymbolTable
 70
     8
  0
LAYER
  5
10
330
2
100
AcDbSymbolTableRecord
100
AcDbLayerTableRecord
  2
0
 70
     0
 62
     7
  6
Continuous
370
    -3
390
F
  0
LAYER
  5
6F
330
2
100
AcDbSymbolTableRecord
100
AcDbLayerTableRecord
  2
FORMAT
 70
     0
 62
     7
  6
Continuous
370
    -3
390
F
  0
LAYER
  5
70
330
2
100
AcDbSymbolTableRecord
100
AcDbLayerTableRecord
  2
SLD-0
 70
     0
 62
     2
  6
Continuous
370
    -3
390
F
  0
LAYER
  5
71
330
2
100
AcDbSymbolTableRecord
100
AcDbLayerTableRecord
  2
DIM
 70
     0
 62
   179
  6
Continuous
370
    -3
390
F
  0
LAYER
  5
72
330
2
100
AcDbSymbolTableRecord
100
AcDbLayerTableRecord
  2
SLD-DEFPOINTS
 70
     0
 62
   179
  6
Continuous
370
    -3
390
F
  0
LAYER
  5
73
330
2
100
AcDbSymbolTableRecord
100
AcDbLayerTableRecord
  2
HAT
 70
     0
 62
   135
  6
Continuous
370
    -3
390
F
  0
LAYER
  5
74
330
2
100
AcDbSymbolTableRecord
100
AcDbLayerTableRecord
  2
JOB
 70
     0
 62
   201
  6
Continuous
370
    -3
390
F
  0
LAYER
  5
75
330
2
100
AcDbSymbolTableRecord
100
AcDbLayerTableRecord
  2
INSPECTION_REPORT
 70
     0
 62
   255
  6
Continuous
370
    -3
390
F
  0
ENDTAB
  0
TABLE
  2
STYLE
  5
3
330
0
100
AcDbSymbolTable
 70
     4
  0
STYLE
  5
11
330
3
100
AcDbSymbolTableRecord
100
AcDbTextStyleTableRecord
  2
Standard
 70
     0
 40
0.0
 41
1.0
 50
0.0
 71
     0
 42
4.8506944444
  3
txt
  4

  0
STYLE
  5
96
330
3
100
AcDbSymbolTableRecord
100
AcDbTextStyleTableRecord
  2
SLDTEXTSTYLE0
 70
     0
 40
0.0
 41
0.7
 50
0.0
 71
     0
 42
4.8506944444
  3
TXT
  4

  0
STYLE
  5
98
330
3
100
AcDbSymbolTableRecord
100
AcDbTextStyleTableRecord
  2
SLDTEXTSTYLE1
 70
     0
 40
0.0
 41
0.75
 50
0.0
 71
     0
 42
4.8506944444
  3
TXT
  4

  0
STYLE
  5
AB
330
3
100
AcDbSymbolTableRecord
100
AcDbTextStyleTableRecord
  2
SLDTEXTSTYLE2
 70
     0
 40
0.0
 41
0.6875
 50
0.0
 71
     0
 42
4.8506944444
  3
TXT
  4

  0
ENDTAB
  0
TABLE
  2
VIEW
  5
6
330
0
100
AcDbSymbolTable
 70
     0
  0
ENDTAB
  0
TABLE
  2
UCS
  5
7
330
0
100
AcDbSymbolTable
 70
     0
  0
ENDTAB
  0
TABLE
  2
APPID
  5
9
330
0
100
AcDbSymbolTable
 70
     1
  0
APPID
  5
12
330
9
100
AcDbSymbolTableRecord
100
AcDbRegAppTableRecord
  2
ACAD
 70
     0
  0
ENDTAB
  0
TABLE
  2
DIMSTYLE
  5
A
330
0
100
AcDbSymbolTable
 70
     4
100
AcDbDimStyleTable
  0
DIMSTYLE
105
27
330
A
100
AcDbSymbolTableRecord
100
AcDbDimStyleTableRecord
  2
ISO-25
 70
     0
 41
2.5
 42
0.625
 43
3.75
 44
1.25
 73
     0
 74
     0
 77
     1
 78
     8
140
2.5
141
2.5
143
0.0393700787
147
0.625
171
     3
172
     1
178
     0
271
     2
272
     2
274
     3
278
    44
283
     0
284
     8
340
11
  0
DIMSTYLE
105
11D
102
{ACAD_REACTORS
330
11C
330
140
102
}
330
A
100
AcDbSymbolTableRecord
100
AcDbDimStyleTableRecord
  2
SLDDIMSTYLE0
 70
     0
 41
4.1275
 44
0.0
 45
0.000000001
 73
     0
 74
     0
 77
     1
 78
     4
 79
     1
140
3.6380208333
147
0.9095052083
173
     1
178
     0
271
     2
272
     2
276
     2
284
    12
340
96
  0
DIMSTYLE
105
128
102
{ACAD_REACTORS
330
127
102
}
330
A
100
AcDbSymbolTableRecord
100
AcDbDimStyleTableRecord
  2
SLDDIMSTYLE1
 70
     0
 41
4.1275
 44
0.0
 45
0.000000001
 73
     0
 74
     0
 77
     1
 78
    12
 79
     3
140
3.6380208333
147
0.9095052083
173
     1
178
     0
271
     2
272
     2
276
     2
284
    12
340
96
  0
DIMSTYLE
105
133
102
{ACAD_REACTORS
330
132
102
}
330
A
100
AcDbSymbolTableRecord
100
AcDbDimStyleTableRecord
  2
SLDDIMSTYLE2
 70
     0
 41
4.1275
 44
0.0
 45
0.000000001
 73
     0
 74
     0
 77
     1
 78
    12
 79
     3
140
3.6380208333
147
0.9095052083
172
     1
173
     1
178
     0
271
     2
272
     2
276
     2
284
    12
289
     0
340
96
  0
ENDTAB
  0
TABLE
  2
BLOCK_RECORD
  5
1
330
0
100
AcDbSymbolTable
 70
     6
  0
BLOCK_RECORD
  5
1F
330
1
100
AcDbSymbolTableRecord
100
AcDbBlockTableRecord
  2
*Model_Space
340
22
  0
BLOCK_RECORD
  5
1B
330
1
100
AcDbSymbolTableRecord
100
AcDbBlockTableRecord
  2
*Paper_Space
340
1E
  0
BLOCK_RECORD
  5
23
330
1
100
AcDbSymbolTableRecord
100
AcDbBlockTableRecord
  2
*Paper_Space0
340
26
  0
BLOCK_RECORD
  5
C9
330
1
100
AcDbSymbolTableRecord
100
AcDbBlockTableRecord
  2
SW_CENTERMARKSYMBOL_0
340
0
102
{BLKREFS
331
D4
102
}
  0
BLOCK_RECORD
  5
11E
330
1
100
AcDbSymbolTableRecord
100
AcDbBlockTableRecord
  2
_D
340
0
  0
BLOCK_RECORD
  5
129
330
1
100
AcDbSymbolTableRecord
100
AcDbBlockTableRecord
  2
_D_1
340
0
  0
BLOCK_RECORD
  5
134
330
1
100
AcDbSymbolTableRecord
100
AcDbBlockTableRecord
  2
_D_2
340
0
  0
BLOCK_RECORD
  5
141
330
1
100
AcDbSymbolTableRecord
100
AcDbBlockTableRecord
  2
_D_3
340
0
  0
ENDTAB
  0
ENDSEC
  0
SECTION
  2
BLOCKS
  0
BLOCK
  5
20
330
1F
100
AcDbEntity
  8
0
100
AcDbBlockBegin
  2
*Model_Space
 70
     0
 10
0.0
 20
0.0
 30
0.0
  3
*Model_Space
  1
*Model_Space
  0
ENDBLK
  5
21
330
1F
100
AcDbEntity
  8
0
100
AcDbBlockEnd
  0
BLOCK
  5
1C
330
1B
100
AcDbEntity
 67
     1
  8
0
100
AcDbBlockBegin
  2
*Paper_Space
 70
     0
 10
0.0
 20
0.0
 30
0.0
  3
*Paper_Space
  1
*Paper_Space
  0
ENDBLK
  5
1D
330
1B
100
AcDbEntity
 67
     1
  8
0
100
AcDbBlockEnd
  0
BLOCK
  5
24
330
23
100
AcDbEntity
  8
0
100
AcDbBlockBegin
  2
*Paper_Space0
 70
     0
 10
0.0
 20
0.0
 30
0.0
  3
*Paper_Space0
  1
*Paper_Space0
  0
ENDBLK
  5
25
330
23
100
AcDbEntity
  8
0
100
AcDbBlockEnd
  0
BLOCK
  5
CA
330
C9
100
AcDbEntity
  8
0
100
AcDbBlockBegin
  2
SW_CENTERMARKSYMBOL_0
 70
     0
 10
0.0
 20
0.0
 30
0.0
  3
SW_CENTERMARKSYMBOL_0
  1
SW_CENTERMARKSYMBOL_0
  0
LINE
  5
CC
330
C9
100
AcDbEntity
  8
DIM
 62
     0
100
AcDbLine
 10
0.0
 20
0.0
 30
0.0
 11
0.0
 21
2.5
 31
0.0
  0
LINE
  5
CD
330
C9
100
AcDbEntity
  8
DIM
 62
     0
100
AcDbLine
 10
0.0
 20
0.0
 30
0.0
 11
-2.5
 21
0.0
 31
0.0
  0
LINE
  5
CE
330
C9
100
AcDbEntity
  8
DIM
 62
     0
100
AcDbLine
 10
0.0
 20
0.0
 30
0.0
 11
0.0
 21
-2.5
 31
0.0
  0
LINE
  5
CF
330
C9
100
AcDbEntity
  8
DIM
 62
     0
100
AcDbLine
 10
0.0
 20
0.0
 30
0.0
 11
2.5
 21
0.0
 31
0.0
  0
LINE
  5
D0
330
C9
100
AcDbEntity
  8
DIM
 62
     0
100
AcDbLine
 10
0.0
 20
5.0
 30
0.0
 11
0.0
 21
33.25
 31
0.0
  0
LINE
  5
D1
330
C9
100
AcDbEntity
  8
DIM
 62
     0
100
AcDbLine
 10
-5.0
 20
0.0
 30
0.0
 11
-33.25
 21
0.0
 31
0.0
  0
LINE
  5
D2
330
C9
100
AcDbEntity
  8
DIM
 62
     0
100
AcDbLine
 10
0.0
 20
-5.0
 30
0.0
 11
0.0
 21
-33.25
 31
0.0
  0
LINE
  5
D3
330
C9
100
AcDbEntity
  8
DIM
 62
     0
100
AcDbLine
 10
5.0
 20
0.0
 30
0.0
 11
33.25
 21
0.0
 31
0.0
  0
ENDBLK
  5
CB
330
C9
100
AcDbEntity
  8
0
100
AcDbBlockEnd
  0
BLOCK
  5
11F
330
11E
100
AcDbEntity
  8
0
100
AcDbBlockBegin
  2
_D
 70
     0
 10
0.0
 20
0.0
 30
0.0
  3
_D
  1
_D
  0
SOLID
  5
121
330
11E
100
AcDbEntity
  8
DIM
100
AcDbTrace
 10
154.7077072361
 20
87.0596650653
 30
0.0
 11
158.8352072361
 21
86.4246650653
 31
0.0
 12
158.8352072361
 22
87.6946650653
 32
0.0
 13
158.8352072361
 23
87.6946650653
 33
0.0
  0
SOLID
  5
122
330
11E
100
AcDbEntity
  8
DIM
100
AcDbTrace
 10
323.1077072359
 20
87.0596650653
 30
0.0
 11
318.9802072359
 21
87.6946650653
 31
0.0
 12
318.9802072359
 22
86.4246650653
 32
0.0
 13
318.9802072359
 23
86.4246650653
 33
0.0
  0
LINE
  5
123
330
11E
100
AcDbEntity
  8
DIM
100
AcDbLine
 10
154.7077072361
 20
134.6082991844
 30
0.0
 11
154.7077072361
 21
85.8096650653
 31
0.0
  0
LINE
  5
124
330
11E
100
AcDbEntity
  8
DIM
100
AcDbLine
 10
323.1077072359
 20
127.1082991844
 30
0.0
 11
323.1077072359
 21
85.8096650653
 31
0.0
  0
LINE
  5
125
330
11E
100
AcDbEntity
  8
DIM
100
AcDbLine
 10
154.7077072361
 20
87.0596650653
 30
0.0
 11
323.1077072359
 21
87.0596650653
 31
0.0
  0
MTEXT
  5
126
330
11E
100
AcDbEntity
  8
DIM
100
AcDbMText
 10
232.113366211
 20
91.7493206492
 30
0.0
 40
3.6380208333
 41
0.0
 71
     1
 72
     1
  1
168.40
  7
SLDTEXTSTYLE0
 73
     1
 44
1.0
  0
ENDBLK
  5
120
330
11E
100
AcDbEntity
  8
0
100
AcDbBlockEnd
  0
BLOCK
  5
12A
330
129
100
AcDbEntity
  8
0
100
AcDbBlockBegin
  2
_D_1
 70
     0
 10
0.0
 20
0.0
 30
0.0
  3
_D_1
  1
_D_1
  0
SOLID
  5
12C
330
129
100
AcDbEntity
  8
DIM
100
AcDbTrace
 10
223.1077072359
 20
97.9648924398
 30
0.0
 11
227.2352072359
 21
97.3298924398
 31
0.0
 12
227.2352072359
 22
98.5998924398
 32
0.0
 13
227.2352072359
 23
98.5998924398
 33
0.0
  0
SOLID
  5
12D
330
129
100
AcDbEntity
  8
DIM
100
AcDbTrace
 10
323.1077072359
 20
97.9648924398
 30
0.0
 11
318.9802072359
 21
98.5998924398
 31
0.0
 12
318.9802072359
 22
97.3298924398
 32
0.0
 13
318.9802072359
 23
97.3298924398
 33
0.0
  0
LINE
  5
12E
330
129
100
AcDbEntity
  8
DIM
100
AcDbLine
 10
223.1077072359
 20
112.3832991844
 30
0.0
 11
223.1077072359
 21
96.7148924398
 31
0.0
  0
LINE
  5
12F
330
129
100
AcDbEntity
  8
DIM
100
AcDbLine
 10
323.1077072359
 20
127.1082991844
 30
0.0
 11
323.1077072359
 21
96.7148924398
 31
0.0
  0
LINE
  5
130
330
129
100
AcDbEntity
  8
DIM
100
AcDbLine
 10
223.1077072359
 20
97.9648924398
 30
0.0
 11
323.1077072359
 21
97.9648924398
 31
0.0
  0
MTEXT
  5
131
330
129
100
AcDbEntity
  8
DIM
100
AcDbMText
 10
269.4191581951
 20
102.6545480238
 30
0.0
 40
3.6380208333
 41
0.0
 71
     1
 72
     1
  1
100
  7
SLDTEXTSTYLE0
 73
     1
 44
1.0
  0
ENDBLK
  5
12B
330
129
100
AcDbEntity
  8
0
100
AcDbBlockEnd
  0
BLOCK
  5
135
330
134
100
AcDbEntity
  8
0
100
AcDbBlockBegin
  2
_D_2
 70
     0
 10
0.0
 20
0.0
 30
0.0
  3
_D_2
  1
_D_2
  0
SOLID
  5
137
330
134
100
AcDbEntity
  8
DIM
100
AcDbTrace
 10
335.6077072359
 20
148.3582991844
 30
0.0
 11
336.2427072359
 21
152.4857991844
 31
0.0
 12
334.9727072359
 22
152.4857991844
 32
0.0
 13
334.9727072359
 23
152.4857991844
 33
0.0
  0
SOLID
  5
138
330
134
100
AcDbEntity
  8
DIM
100
AcDbTrace
 10
335.6077072359
 20
123.3582991844
 30
0.0
 11
334.9727072359
 21
119.2307991844
 31
0.0
 12
336.2427072359
 22
119.2307991844
 32
0.0
 13
336.2427072359
 23
119.2307991844
 33
0.0
  0
LINE
  5
139
330
134
100
AcDbEntity
  8
DIM
100
AcDbLine
 10
313.6351726329
 20
148.3582991844
 30
0.0
 11
336.8577072359
 21
148.3582991844
 31
0.0
  0
LINE
  5
13A
330
134
100
AcDbEntity
  8
DIM
100
AcDbLine
 10
313.6351726329
 20
123.3582991844
 30
0.0
 11
336.8577072359
 21
123.3582991844
 31
0.0
  0
LINE
  5
13B
330
134
100
AcDbEntity
  8
DIM
100
AcDbLine
 10
335.6077072359
 20
148.3582991844
 30
0.0
 11
335.6077072359
 21
156.2957991844
 31
0.0
  0
LINE
  5
13C
330
134
100
AcDbEntity
  8
DIM
100
AcDbLine
 10
335.6077072359
 20
148.3582991844
 30
0.0
 11
335.6077072359
 21
123.3582991844
 31
0.0
  0
LINE
  5
13D
330
134
100
AcDbEntity
  8
DIM
100
AcDbLine
 10
335.6077072359
 20
123.3582991844
 30
0.0
 11
335.6077072359
 21
115.4207991844
 31
0.0
  0
MTEXT
  5
13E
330
134
100
AcDbEntity
  8
DIM
100
AcDbMText
 10
330.918051652
 20
130.5863690533
 30
0.0
 40
3.6380208333
 41
0.0
 71
     1
 72
     1
  1
%%c
  7
SLDTEXTSTYLE0
 11
-7.044195017643634E-15
 21
1.0
 31
0.0
 73
     1
 44
1.0
  0
MTEXT
  5
13F
330
134
100
AcDbEntity
  8
DIM
100
AcDbMText
 10
330.918051652
 20
136.2121639278
 30
0.0
 40
3.6380208333
 41
0.0
 71
     1
 72
     1
  1
25
  7
SLDTEXTSTYLE0
 11
-7.044195017643634E-15
 21
1.0
 31
0.0
 73
     1
 44
1.0
  0
ENDBLK
  5
136
330
134
100
AcDbEntity
  8
0
100
AcDbBlockEnd
  0
BLOCK
  5
142
330
141
100
AcDbEntity
  8
0
100
AcDbBlockBegin
  2
_D_3
 70
     0
 10
0.0
 20
0.0
 30
0.0
  3
_D_3
  1
_D_3
  0
SOLID
  5
144
330
141
100
AcDbEntity
  8
DIM
100
AcDbTrace
 10
146.6451932919
 20
167.6082991844
 30
0.0
 11
146.0101932919
 21
163.4807991844
 31
0.0
 12
147.2801932919
 22
163.4807991844
 32
0.0
 13
147.2801932919
 23
163.4807991844
 33
0.0
  0
SOLID
  5
145
330
141
100
AcDbEntity
  8
DIM
100
AcDbTrace
 10
146.6451932919
 20
104.1082991844
 30
0.0
 11
147.2801932919
 21
108.2357991844
 31
0.0
 12
146.0101932919
 22
108.2357991844
 32
0.0
 13
146.0101932919
 23
108.2357991844
 33
0.0
  0
LINE
  5
146
330
141
100
AcDbEntity
  8
DIM
100
AcDbLine
 10
226.0577072359
 20
167.6082991844
 30
0.0
 11
145.3951932919
 21
167.6082991844
 31
0.0
  0
LINE
  5
147
330
141
100
AcDbEntity
  8
DIM
100
AcDbLine
 10
226.0577072359
 20
104.1082991844
 30
0.0
 11
145.3951932919
 21
104.1082991844
 31
0.0
  0
LINE
  5
148
330
141
100
AcDbEntity
  8
DIM
100
AcDbLine
 10
146.6451932919
 20
167.6082991844
 30
0.0
 11
146.6451932919
 21
104.1082991844
 31
0.0
  0
MTEXT
  5
149
330
141
100
AcDbEntity
  8
DIM
100
AcDbMText
 10
141.955537708
 20
127.4805770692
 30
0.0
 40
3.6380208333
 41
0.0
 71
     1
 72
     1
  1
%%c
  7
SLDTEXTSTYLE0
 11
-7.044195017643634E-15
 21
1.0
 31
0.0
 73
     1
 44
1.0
  0
MTEXT
  5
14A
330
141
100
AcDbEntity
  8
DIM
100
AcDbMText
 10
141.955537708
 20
133.1063719437
 30
0.0
 40
3.6380208333
 41
0.0
 71
     1
 72
     1
  1
63.50
  7
SLDTEXTSTYLE0
 11
-7.044195017643634E-15
 21
1.0
 31
0.0
 73
     1
 44
1.0
  0
ENDBLK
  5
143
330
141
100
AcDbEntity
  8
0
100
AcDbBlockEnd
  0
ENDSEC
  0
SECTION
  2
ENTITIES
  0
LINE
  5
76
330
1F
100
AcDbEntity
  8
DIM
100
AcDbLine
 10
130.8805308612
 20
12.2387393211
 30
0.0
 11
130.8805308612
 21
5.9887393211
 31
0.0
  0
LINE
  5
77
330
1F
100
AcDbEntity
  8
DIM
100
AcDbLine
 10
318.0870021191
 20
12.2387393211
 30
0.0
 11
318.0870021191
 21
5.9887393211
 31
0.0
  0
LINE
  5
78
330
1F
100
AcDbEntity
  8
DIM
100
AcDbLine
 10
296.8146374145
 20
12.2387393211
 30
0.0
 11
296.8146374145
 21
5.9887393211
 31
0.0
  0
LINE
  5
79
330
1F
100
AcDbEntity
  8
DIM
100
AcDbLine
 10
348.6305308612
 20
5.9887393211
 30
0.0
 11
348.6305308612
 21
12.2387393211
 31
0.0
  0
LINE
  5
7A
330
1F
100
AcDbEntity
  8
DIM
100
AcDbLine
 10
140.6305308612
 20
12.2387393211
 30
0.0
 11
140.6305308612
 21
5.9887393211
 31
0.0
  0
LINE
  5
7B
330
1F
100
AcDbEntity
  8
DIM
100
AcDbLine
 10
164.6192214035
 20
12.2387393211
 30
0.0
 11
164.6192214035
 21
5.9887393211
 31
0.0
  0
LINE
  5
7C
330
1F
100
AcDbEntity
  8
DIM
100
AcDbLine
 10
364.8805308612
 20
5.9887393211
 30
0.0
 11
364.8805308612
 21
96.3012393211
 31
0.0
  0
LINE
  5
7D
330
1F
100
AcDbEntity
  8
DIM
100
AcDbLine
 10
357.2737558684
 20
75.0512393211
 30
0.0
 11
364.8805308612
 21
75.0512393211
 31
0.0
  0
LINE
  5
7E
330
1F
100
AcDbEntity
  8
DIM
100
AcDbLine
 10
186.3791885657
 20
11.3012393211
 30
0.0
 11
186.3791885657
 21
5.9887393211
 31
0.0
  0
LINE
  5
7F
330
1F
100
AcDbEntity
  8
DIM
100
AcDbLine
 10
245.9549364505
 20
12.2387393211
 30
0.0
 11
245.9549364505
 21
5.9887393211
 31
0.0
  0
LINE
  5
80
330
1F
100
AcDbEntity
  8
DIM
100
AcDbLine
 10
186.3791885657
 20
12.2387393211
 30
0.0
 11
186.3791885657
 21
11.3012393211
 31
0.0
  0
LINE
  5
81
330
1F
100
AcDbEntity
  8
DIM
100
AcDbLine
 10
358.6305308612
 20
21.9261493211
 30
0.0
 11
364.8805308612
 21
21.9261493211
 31
0.0
  0
LINE
  5
82
330
1F
100
AcDbEntity
  8
DIM
100
AcDbLine
 10
358.6305308612
 20
249.7387393211
 30
0.0
 11
12.3805308612
 21
249.7387393211
 31
0.0
  0
LINE
  5
83
330
1F
100
AcDbEntity
  8
DIM
100
AcDbLine
 10
364.8805308612
 20
255.9887393211
 30
0.0
 11
6.1305308612
 21
255.9887393211
 31
0.0
  0
LINE
  5
84
330
1F
100
AcDbEntity
  8
DIM
100
AcDbLine
 10
12.3805308612
 20
249.7387393211
 30
0.0
 11
12.3805308612
 21
12.2387393211
 31
0.0
  0
LINE
  5
85
330
1F
100
AcDbEntity
  8
DIM
100
AcDbLine
 10
6.1305308612
 20
255.9887393211
 30
0.0
 11
6.1305308612
 21
5.9887393211
 31
0.0
  0
LINE
  5
86
330
1F
100
AcDbEntity
  8
DIM
100
AcDbLine
 10
12.3805308612
 20
68.4887393211
 30
0.0
 11
6.1305308612
 21
68.4887393211
 31
0.0
  0
LINE
  5
87
330
1F
100
AcDbEntity
  8
DIM
100
AcDbLine
 10
6.1305308612
 20
130.9887393211
 30
0.0
 11
12.3805308612
 21
130.9887393211
 31
0.0
  0
LINE
  5
88
330
1F
100
AcDbEntity
  8
DIM
100
AcDbLine
 10
6.1305308612
 20
5.9887393211
 30
0.0
 11
364.8805308612
 21
5.9887393211
 31
0.0
  0
LINE
  5
89
330
1F
100
AcDbEntity
  8
DIM
100
AcDbLine
 10
12.3805308612
 20
12.2387393211
 30
0.0
 11
364.8805308612
 21
12.2387393211
 31
0.0
  0
LINE
  5
8A
330
1F
100
AcDbEntity
  8
DIM
100
AcDbLine
 10
60.5055308612
 20
5.9887393211
 30
0.0
 11
60.5055308612
 21
12.2387393211
 31
0.0
  0
LINE
  5
8B
330
1F
100
AcDbEntity
  8
DIM
100
AcDbLine
 10
123.0055308612
 20
12.2387393211
 30
0.0
 11
123.0055308612
 21
5.9887393211
 31
0.0
  0
LINE
  5
8C
330
1F
100
AcDbEntity
  8
DIM
100
AcDbLine
 10
12.3805308612
 20
193.4887393211
 30
0.0
 11
6.1305308612
 21
193.4887393211
 31
0.0
  0
LINE
  5
8D
330
1F
100
AcDbEntity
  8
DIM
100
AcDbLine
 10
60.5055308612
 20
249.7387393211
 30
0.0
 11
60.5055308612
 21
255.9887393211
 31
0.0
  0
LINE
  5
8E
330
1F
100
AcDbEntity
  8
DIM
100
AcDbLine
 10
123.0055308612
 20
255.9887393211
 30
0.0
 11
123.0055308612
 21
249.7387393211
 31
0.0
  0
LINE
  5
8F
330
1F
100
AcDbEntity
  8
DIM
100
AcDbLine
 10
185.5055308612
 20
255.9887393211
 30
0.0
 11
185.5055308612
 21
249.7387393211
 31
0.0
  0
LINE
  5
90
330
1F
100
AcDbEntity
  8
DIM
100
AcDbLine
 10
358.6305308612
 20
12.2387393211
 30
0.0
 11
358.6305308612
 21
249.7387393211
 31
0.0
  0
LINE
  5
91
330
1F
100
AcDbEntity
  8
DIM
100
AcDbLine
 10
364.8805308612
 20
96.3012393211
 30
0.0
 11
364.8805308612
 21
255.9887393211
 31
0.0
  0
LINE
  5
92
330
1F
100
AcDbEntity
  8
DIM
100
AcDbLine
 10
364.8805308612
 20
130.9887393211
 30
0.0
 11
358.6305308612
 21
130.9887393211
 31
0.0
  0
LINE
  5
93
330
1F
100
AcDbEntity
  8
DIM
100
AcDbLine
 10
248.0055308612
 20
255.9887393211
 30
0.0
 11
248.0055308612
 21
249.7387393211
 31
0.0
  0
LINE
  5
94
330
1F
100
AcDbEntity
  8
DIM
100
AcDbLine
 10
310.5055308612
 20
249.7387393211
 30
0.0
 11
310.5055308612
 21
255.9887393211
 31
0.0
  0
LINE
  5
95
330
1F
100
AcDbEntity
  8
DIM
100
AcDbLine
 10
358.6305308612
 20
193.4887393211
 30
0.0
 11
364.8805308612
 21
193.4887393211
 31
0.0
  0
MTEXT
  5
97
330
1F
100
AcDbEntity
  8
DIM
100
AcDbMText
 10
16.5759429274
 20
236.8706738435
 30
0.0
 40
5.2916666667
 41
0.0
 71
     1
 72
     1
  1
SK 40 WE06 100 AD/6.3G15000 SL
  7
SLDTEXTSTYLE0
 73
     1
 44
1.0
  0
MTEXT
  5
99
330
1F
100
AcDbEntity
  8
DIM
 62
     7
100
AcDbMText
 10
247.1659733083
 20
9.7524394079
 30
0.0
 40
1.87325
 41
0.0
 71
     1
 72
     1
  1
WEIGHT:
  7
SLDTEXTSTYLE1
 73
     1
 44
1.0
  0
MTEXT
  5
9A
330
1F
100
AcDbEntity
  8
DIM
 62
     7
100
AcDbMText
 10
360.7463459435
 20
102.4257668853
 30
0.0
 40
2.3151041667
 41
0.0
 71
     1
 72
     1
  1
C
  7
SLDTEXTSTYLE1
 73
     1
 44
1.0
  0
MTEXT
  5
9B
330
1F
100
AcDbEntity
  8
DIM
 62
     7
100
AcDbMText
 10
353.8044757743
 20
18.5674774795
 30
0.0
 40
3.6380208333
 41
0.0
 71
     1
 72
     1
  1
A4
  7
SLDTEXTSTYLE1
 73
     1
 44
1.0
  0
MTEXT
  5
9C
330
1F
100
AcDbEntity
  8
DIM
 62
     7
100
AcDbMText
 10
340.7138691946
 20
254.3237598255
 30
0.0
 40
2.3151041667
 41
0.0
 71
     1
 72
     1
  1
6
  7
SLDTEXTSTYLE1
 73
     1
 44
1.0
  0
MTEXT
  5
9D
330
1F
100
AcDbEntity
  8
DIM
 62
     7
100
AcDbMText
 10
278.2138691946
 20
254.3237598255
 30
0.0
 40
2.3151041667
 41
0.0
 71
     1
 72
     1
  1
5
  7
SLDTEXTSTYLE1
 73
     1
 44
1.0
  0
MTEXT
  5
9E
330
1F
100
AcDbEntity
  8
DIM
 62
     7
100
AcDbMText
 10
360.7138741946
 20
226.1987598255
 30
0.0
 40
2.3151041667
 41
0.0
 71
     1
 72
     1
  1
A
  7
SLDTEXTSTYLE1
 73
     1
 44
1.0
  0
MTEXT
  5
9F
330
1F
100
AcDbEntity
  8
DIM
 62
     7
100
AcDbMText
 10
360.7138741946
 20
163.6987598255
 30
0.0
 40
2.3151041667
 41
0.0
 71
     1
 72
     1
  1
B
  7
SLDTEXTSTYLE1
 73
     1
 44
1.0
  0
MTEXT
  5
A0
330
1F
100
AcDbEntity
  8
DIM
 62
     7
100
AcDbMText
 10
215.7138691946
 20
254.3237598255
 30
0.0
 40
2.3151041667
 41
0.0
 71
     1
 72
     1
  1
4
  7
SLDTEXTSTYLE1
 73
     1
 44
1.0
  0
MTEXT
  5
A1
330
1F
100
AcDbEntity
  8
DIM
 62
     7
100
AcDbMText
 10
28.7347025279
 20
254.3237598255
 30
0.0
 40
2.3151041667
 41
0.0
 71
     1
 72
     1
  1
1
  7
SLDTEXTSTYLE1
 73
     1
 44
1.0
  0
MTEXT
  5
A2
330
1F
100
AcDbEntity
  8
DIM
 62
     7
100
AcDbMText
 10
90.7138691946
 20
254.3237598255
 30
0.0
 40
2.3151041667
 41
0.0
 71
     1
 72
     1
  1
2
  7
SLDTEXTSTYLE1
 73
     1
 44
1.0
  0
MTEXT
  5
A3
330
1F
100
AcDbEntity
  8
DIM
 62
     7
100
AcDbMText
 10
153.2138691946
 20
254.3237598255
 30
0.0
 40
2.3151041667
 41
0.0
 71
     1
 72
     1
  1
3
  7
SLDTEXTSTYLE1
 73
     1
 44
1.0
  0
MTEXT
  5
A4
330
1F
100
AcDbEntity
  8
DIM
 62
     7
100
AcDbMText
 10
8.2138641946
 20
226.1987598255
 30
0.0
 40
2.3151041667
 41
0.0
 71
     1
 72
     1
  1
A
  7
SLDTEXTSTYLE1
 73
     1
 44
1.0
  0
MTEXT
  5
A5
330
1F
100
AcDbEntity
  8
DIM
 62
     7
100
AcDbMText
 10
90.7138691946
 20
10.5737598255
 30
0.0
 40
2.3151041667
 41
0.0
 71
     1
 72
     1
  1
2
  7
SLDTEXTSTYLE1
 73
     1
 44
1.0
  0
MTEXT
  5
A6
330
1F
100
AcDbEntity
  8
DIM
 62
     7
100
AcDbMText
 10
28.7347025279
 20
10.5737598255
 30
0.0
 40
2.3151041667
 41
0.0
 71
     1
 72
     1
  1
1
  7
SLDTEXTSTYLE1
 73
     1
 44
1.0
  0
MTEXT
  5
A7
330
1F
100
AcDbEntity
  8
DIM
 62
     7
100
AcDbMText
 10
8.2138641946
 20
38.6987598255
 30
0.0
 40
2.3151041667
 41
0.0
 71
     1
 72
     1
  1
D
  7
SLDTEXTSTYLE1
 73
     1
 44
1.0
  0
MTEXT
  5
A8
330
1F
100
AcDbEntity
  8
DIM
 62
     7
100
AcDbMText
 10
8.2138641946
 20
101.1987598255
 30
0.0
 40
2.3151041667
 41
0.0
 71
     1
 72
     1
  1
C
  7
SLDTEXTSTYLE1
 73
     1
 44
1.0
  0
MTEXT
  5
A9
330
1F
100
AcDbEntity
  8
DIM
 62
     7
100
AcDbMText
 10
8.2138641946
 20
163.6987598255
 30
0.0
 40
2.3151041667
 41
0.0
 71
     1
 72
     1
  1
B
  7
SLDTEXTSTYLE1
 73
     1
 44
1.0
  0
MTEXT
  5
AA
330
1F
100
AcDbEntity
  8
DIM
 62
     7
100
AcDbMText
 10
360.7463459435
 20
102.4257668853
 30
0.0
 40
2.3151041667
 41
0.0
 71
     1
 72
     1
  1
C
  7
SLDTEXTSTYLE1
 73
     1
 44
1.0
  0
MTEXT
  5
AC
330
1F
100
AcDbEntity
  8
DIM
 62
     7
100
AcDbMText
 10
320.6567072656
 20
9.6138484142
 30
0.0
 40
1.875
 41
0.0
 71
     1
 72
     1
  1
SHEET 1 OF 1
  7
SLDTEXTSTYLE2
 73
     1
 44
1.0
  0
MTEXT
  5
AD
330
1F
100
AcDbEntity
  8
DIM
 62
     7
100
AcDbMText
 10
187.9647254793
 20
9.8167093546
 30
0.0
 40
1.875
 41
0.0
 71
     1
 72
     1
  1
MATERIAL:
  7
SLDTEXTSTYLE1
 73
     1
 44
1.0
  0
MTEXT
  5
AE
330
1F
100
AcDbEntity
  8
DIM
 62
     7
100
AcDbMText
 10
340.7138691946
 20
254.3237598255
 30
0.0
 40
2.3151041667
 41
0.0
 71
     1
 72
     1
  1
6
  7
SLDTEXTSTYLE1
 73
     1
 44
1.0
  0
MTEXT
  5
AF
330
1F
100
AcDbEntity
  8
DIM
 62
     7
100
AcDbMText
 10
278.2138691946
 20
254.3237598255
 30
0.0
 40
2.3151041667
 41
0.0
 71
     1
 72
     1
  1
5
  7
SLDTEXTSTYLE1
 73
     1
 44
1.0
  0
MTEXT
  5
B0
330
1F
100
AcDbEntity
  8
DIM
 62
     7
100
AcDbMText
 10
360.7138741946
 20
226.1987598255
 30
0.0
 40
2.3151041667
 41
0.0
 71
     1
 72
     1
  1
A
  7
SLDTEXTSTYLE1
 73
     1
 44
1.0
  0
MTEXT
  5
B1
330
1F
100
AcDbEntity
  8
DIM
 62
     7
100
AcDbMText
 10
360.7138741946
 20
163.6987598255
 30
0.0
 40
2.3151041667
 41
0.0
 71
     1
 72
     1
  1
B
  7
SLDTEXTSTYLE1
 73
     1
 44
1.0
  0
MTEXT
  5
B2
330
1F
100
AcDbEntity
  8
DIM
 62
     7
100
AcDbMText
 10
215.7138691946
 20
254.3237598255
 30
0.0
 40
2.3151041667
 41
0.0
 71
     1
 72
     1
  1
4
  7
SLDTEXTSTYLE1
 73
     1
 44
1.0
  0
MTEXT
  5
B3
330
1F
100
AcDbEntity
  8
DIM
 62
     7
100
AcDbMText
 10
28.7347025279
 20
254.3237598255
 30
0.0
 40
2.3151041667
 41
0.0
 71
     1
 72
     1
  1
1
  7
SLDTEXTSTYLE1
 73
     1
 44
1.0
  0
MTEXT
  5
B4
330
1F
100
AcDbEntity
  8
DIM
 62
     7
100
AcDbMText
 10
90.7138691946
 20
254.3237598255
 30
0.0
 40
2.3151041667
 41
0.0
 71
     1
 72
     1
  1
2
  7
SLDTEXTSTYLE1
 73
     1
 44
1.0
  0
MTEXT
  5
B5
330
1F
100
AcDbEntity
  8
DIM
 62
     7
100
AcDbMText
 10
153.2138691946
 20
254.3237598255
 30
0.0
 40
2.3151041667
 41
0.0
 71
     1
 72
     1
  1
3
  7
SLDTEXTSTYLE1
 73
     1
 44
1.0
  0
MTEXT
  5
B6
330
1F
100
AcDbEntity
  8
DIM
 62
     7
100
AcDbMText
 10
8.2138641946
 20
226.1987598255
 30
0.0
 40
2.3151041667
 41
0.0
 71
     1
 72
     1
  1
A
  7
SLDTEXTSTYLE1
 73
     1
 44
1.0
  0
MTEXT
  5
B7
330
1F
100
AcDbEntity
  8
DIM
 62
     7
100
AcDbMText
 10
90.7138691946
 20
10.5737598255
 30
0.0
 40
2.3151041667
 41
0.0
 71
     1
 72
     1
  1
2
  7
SLDTEXTSTYLE1
 73
     1
 44
1.0
  0
MTEXT
  5
B8
330
1F
100
AcDbEntity
  8
DIM
 62
     7
100
AcDbMText
 10
28.7347025279
 20
10.5737598255
 30
0.0
 40
2.3151041667
 41
0.0
 71
     1
 72
     1
  1
1
  7
SLDTEXTSTYLE1
 73
     1
 44
1.0
  0
MTEXT
  5
B9
330
1F
100
AcDbEntity
  8
DIM
 62
     7
100
AcDbMText
 10
8.2138641946
 20
38.6987598255
 30
0.0
 40
2.3151041667
 41
0.0
 71
     1
 72
     1
  1
D
  7
SLDTEXTSTYLE1
 73
     1
 44
1.0
  0
MTEXT
  5
BA
330
1F
100
AcDbEntity
  8
DIM
 62
     7
100
AcDbMText
 10
8.2138641946
 20
101.1987598255
 30
0.0
 40
2.3151041667
 41
0.0
 71
     1
 72
     1
  1
C
  7
SLDTEXTSTYLE1
 73
     1
 44
1.0
  0
MTEXT
  5
BB
330
1F
100
AcDbEntity
  8
DIM
 62
     7
100
AcDbMText
 10
8.2138641946
 20
163.6987598255
 30
0.0
 40
2.3151041667
 41
0.0
 71
     1
 72
     1
  1
B
  7
SLDTEXTSTYLE1
 73
     1
 44
1.0
  0
SPLINE
  5
BC
330
1F
100
AcDbEntity
  8
0
  6
Continuous
 62
     7
370
    15
100
AcDbSpline
210
0.0
220
0.0
230
1.0
 70
     8
 71
     3
 72
    38
 73
    34
 74
     0
 42
0.000000001
 43
0.00000001
 40
0.0
 40
0.0
 40
0.0
 40
0.0
 40
0.0625
 40
0.0625
 40
0.125
 40
0.125
 40
0.1875
 40
0.1875
 40
0.25
 40
0.25
 40
0.3125
 40
0.3125
 40
0.375
 40
0.375
 40
0.4375
 40
0.4375
 40
0.5
 40
0.5
 40
0.5625
 40
0.5625
 40
0.625
 40
0.625
 40
0.6875
 40
0.6875
 40
0.75
 40
0.75
 40
0.8125
 40
0.8125
 40
0.875
 40
0.875
 40
0.9375
 40
0.9375
 40
1.0
 40
1.0
 40
1.0
 40
1.0
 10
96.87743164197323
 20
135.8582991844447
 30
0.0
 10
96.87743164197325
 20
135.3839174099679
 30
0.0
 10
96.84800800931734
 20
134.8795918881164
 30
0.0
 10
96.7053479721979
 20
133.8143969442839
 30
0.0
 10
96.59204356644996
 20
133.2533739844379
 30
0.0
 10
96.25200671050735
 20
132.0875333354838
 30
0.0
 10
96.02508958739588
 20
131.4825600138387
 30
0.0
 10
95.4271565440499
 20
130.2560306941463
 30
0.0
 10
95.05580562799493
 20
129.6344103033096
 30
0.0
 10
94.14499262100577
 20
128.4199929606491
 30
0.0
 10
93.60509648910279
 20
127.8273691476282
 30
0.0
 10
92.3517102281557
 20
126.7335047744305
 30
0.0
 10
91.63789315021036
 20
126.2327811030201
 30
0.0
 10
90.06209210005609
 20
125.3923538762654
 30
0.0
 10
89.2001941954877
 20
125.0533981379482
 30
0.0
 10
87.3893470336631
 20
124.5935004460532
 30
0.0
 10
86.44103260355581
 20
124.4731365970025
 30
0.0
 10
84.54350550566171
 20
124.4731365970025
 30
0.0
 10
83.59519107555442
 20
124.5935004460532
 30
0.0
 10
81.78434391372983
 20
125.0533981379482
 30
0.0
 10
80.92244600916143
 20
125.3923538762654
 30
0.0
 10
79.34664495900718
 20
126.2327811030201
 30
0.0
 10
78.63282788106184
 20
126.7335047744305
 30
0.0
 10
77.37944162011473
 20
127.8273691476282
 30
0.0
 10
76.83954548821177
 20
128.4199929606491
 30
0.0
 10
75.92873248122261
 20
129.6344103033096
 30
0.0
 10
75.55738156516763
 20
130.2560306941463
 30
0.0
 10
74.95944852182163
 20
131.4825600138387
 30
0.0
 10
74.73253139871018
 20
132.0875333354838
 30
0.0
 10
74.39249454276757
 20
133.2533739844379
 30
0.0
 10
74.27919013701964
 20
133.8143969442839
 30
0.0
 10
74.13653009990017
 20
134.8795918881164
 30
0.0
 10
74.1071064672443
 20
135.3839174099679
 30
0.0
 10
74.1071064672443
 20
135.8582991844447
 30
0.0
  0
SPLINE
  5
BD
330
1F
100
AcDbEntity
  8
0
  6
Continuous
 62
     7
370
    15
100
AcDbSpline
210
0.0
220
0.0
230
1.0
 70
     8
 71
     3
 72
    38
 73
    34
 74
     0
 42
0.000000001
 43
0.00000001
 40
0.0
 40
0.0
 40
0.0
 40
0.0
 40
0.0624999999999999
 40
0.0624999999999999
 40
0.1249999999999999
 40
0.1249999999999999
 40
0.1874999999999999
 40
0.1874999999999999
 40
0.2499999999999999
 40
0.2499999999999999
 40
0.3124999999999999
 40
0.3124999999999999
 40
0.3749999999999999
 40
0.3749999999999999
 40
0.4374999999999999
 40
0.4374999999999999
 40
0.4999999999999999
 40
0.4999999999999999
 40
0.5624999999999999
 40
0.5624999999999999
 40
0.625
 40
0.625
 40
0.6875
 40
0.6875
 40
0.75
 40
0.75
 40
0.8125
 40
0.8125
 40
0.875
 40
0.875
 40
0.9375
 40
0.9375
 40
1.0
 40
1.0
 40
1.0
 40
1.0
 10
74.1071064672443
 20
135.8582991844447
 30
0.0
 10
74.1071064672443
 20
136.3326809589214
 30
0.0
 10
74.13653009990018
 20
136.837006480773
 30
0.0
 10
74.27919013701964
 20
137.9022014246055
 30
0.0
 10
74.39249454276757
 20
138.4632243844515
 30
0.0
 10
74.73253139871018
 20
139.6290650334055
 30
0.0
 10
74.95944852182164
 20
140.2340383550506
 30
0.0
 10
75.55738156516763
 20
141.4605676747431
 30
0.0
 10
75.92873248122261
 20
142.0821880655797
 30
0.0
 10
76.83954548821177
 20
143.2966054082403
 30
0.0
 10
77.37944162011473
 20
143.8892292212612
 30
0.0
 10
78.63282788106184
 20
144.9830935944589
 30
0.0
 10
79.34664495900718
 20
145.4838172658693
 30
0.0
 10
80.92244600916143
 20
146.324244492624
 30
0.0
 10
81.78434391372983
 20
146.6632002309411
 30
0.0
 10
83.59519107555442
 20
147.1230979228362
 30
0.0
 10
84.54350550566171
 20
147.2434617718869
 30
0.0
 10
86.44103260355581
 20
147.2434617718869
 30
0.0
 10
87.3893470336631
 20
147.1230979228362
 30
0.0
 10
89.2001941954877
 20
146.6632002309411
 30
0.0
 10
90.06209210005609
 20
146.324244492624
 30
0.0
 10
91.63789315021036
 20
145.4838172658693
 30
0.0
 10
92.3517102281557
 20
144.9830935944589
 30
0.0
 10
93.60509648910279
 20
143.8892292212612
 30
0.0
 10
94.14499262100577
 20
143.2966054082403
 30
0.0
 10
95.05580562799493
 20
142.0821880655797
 30
0.0
 10
95.42715654404991
 20
141.4605676747431
 30
0.0
 10
96.02508958739588
 20
140.2340383550506
 30
0.0
 10
96.25200671050735
 20
139.6290650334055
 30
0.0
 10
96.59204356644996
 20
138.4632243844515
 30
0.0
 10
96.70534797219788
 20
137.9022014246055
 30
0.0
 10
96.84800800931734
 20
136.837006480773
 30
0.0
 10
96.87743164197323
 20
136.3326809589215
 30
0.0
 10
96.87743164197323
 20
135.8582991844447
 30
0.0
  0
SPLINE
  5
BE
330
1F
100
AcDbEntity
  8
0
  6
Continuous
 62
     7
370
    15
100
AcDbSpline
210
0.0
220
0.0
230
1.0
 70
    24
 71
     3
 72
    14
 73
    10
 74
     0
 42
0.000000001
 43
0.00000001
 40
0.0
 40
0.0
 40
0.0
 40
0.0
 40
0.25
 40
0.25
 40
0.5
 40
0.5
 40
0.75
 40
0.75
 40
1.0
 40
1.0
 40
1.0
 40
1.0
 10
96.87743164201231
 20
135.8582991844447
 30
0.0
 10
96.98644819104237
 20
135.8582991844447
 30
0.0
 10
97.1025261826266
 20
135.8582991844447
 30
0.0
 10
97.32835522192464
 20
135.8582991844447
 30
0.0
 10
97.43763358157511
 20
135.8582991844447
 30
0.0
 10
97.62542829244974
 20
135.8582991844447
 30
0.0
 10
97.70352288835512
 20
135.8582991844447
 30
0.0
 10
97.81636884814068
 20
135.8582991844447
 30
0.0
 10
97.85123244552071
 20
135.8582991844447
 30
0.0
 10
97.8669644304821
 20
135.8582991844447
 30
0.0
  0
ARC
  5
BF
330
1F
100
AcDbEntity
  8
0
  6
Continuous
 62
     7
370
    15
100
AcDbCircle
 10
85.4922690546
 20
135.8582991844
 30
0.0
 40
12.37469537590596
100
AcDbArc
 50
180.0000000026
 51
359.9999999868
  0
SPLINE
  5
C0
330
1F
100
AcDbEntity
  8
0
  6
Continuous
 62
     7
370
    15
100
AcDbSpline
210
0.0
220
0.0
230
1.0
 70
    24
 71
     3
 72
    14
 73
    10
 74
     0
 42
0.000000001
 43
0.00000001
 40
0.0
 40
0.0
 40
0.0
 40
0.0
 40
0.25
 40
0.25
 40
0.5
 40
0.5
 40
0.75
 40
0.75
 40
1.0
 40
1.0
 40
1.0
 40
1.0
 10
74.10710646720521
 20
135.8582991844447
 30
0.0
 10
73.99808991817433
 20
135.8582991844447
 30
0.0
 10
73.88201192658914
 20
135.8582991844447
 30
0.0
 10
73.65618288728949
 20
135.8582991844447
 30
0.0
 10
73.54690452763839
 20
135.8582991844447
 30
0.0
 10
73.35910981676325
 20
135.8582991844447
 30
0.0
 10
73.28101522085802
 20
135.8582991844447
 30
0.0
 10
73.1681692610735
 20
135.8582991844447
 30
0.0
 10
73.13330566369437
 20
135.8582991844447
 30
0.0
 10
73.11757367873399
 20
135.8582991844447
 30
0.0
  0
ARC
  5
C1
330
1F
100
AcDbEntity
  8
0
  6
Continuous
 62
     7
370
    15
100
AcDbCircle
 10
85.4922690546
 20
135.8582991844
 30
0.0
 40
12.37469537590596
100
AcDbArc
 50
359.9999999868
 51
180.0000000026
  0
CIRCLE
  5
C2
330
1F
100
AcDbEntity
  8
0
  6
Continuous
 62
     7
370
    15
100
AcDbCircle
 10
85.4922690546
 20
135.8582991844
 30
0.0
 40
22.225
  0
SPLINE
  5
C3
330
1F
100
AcDbEntity
  8
0
  6
Continuous
 62
     7
370
    15
100
AcDbSpline
210
0.0
220
0.0
230
1.0
 70
     8
 71
     3
 72
    46
 73
    42
 74
     0
 42
0.000000001
 43
0.00000001
 40
0.0
 40
0.0
 40
0.0
 40
0.0
 40
0.0060605096052363
 40
0.0121160627794822
 40
0.0181688501794615
 40
0.024221065465193
 40
0.0302749029186268
 40
0.0363325550589054
 40
0.0423962102671863
 40
0.0663723762632336
 40
0.0903614245161389
 40
0.117383531387204
 40
0.1444187375096105
 40
0.1746377134538832
 40
0.2048704270446635
 40
0.2382459271693794
 40
0.2716357371802406
 40
0.3078460574011299
 40
0.3440707643419448
 40
0.3824528172773539
 40
0.4208496145207212
 40
0.4604174444186661
 40
0.5000006351345542
 40
0.5395683786428678
 40
0.5791516575942705
 40
0.6175334667195513
 40
0.6559305126792472
 40
0.6921404472125949
 40
0.7283655382187632
 40
0.761740544172946
 40
0.7951308492378586
 40
0.8253489820944796
 40
0.8555825399657285
 40
0.8826032238231494
 40
0.9096398523510193
 40
0.933614321140139
 40
0.9576050666839391
 40
0.9682066398996676
 40
0.9787984726931264
 40
0.9893923375023622
 40
1.0
 40
1.0
 40
1.0
 40
1.0
 10
62.99226904809905
 20
135.8582991844447
 30
0.0
 10
62.99305030223427
 20
136.0010374212403
 30
0.0
 10
62.99461217157621
 20
136.2863971600572
 30
0.0
 10
63.00726177996919
 20
136.7141589785561
 30
0.0
 10
63.02745919741295
 20
137.1414161005418
 30
0.0
 10
63.05594279800464
 20
137.5681687981235
 30
0.0
 10
63.09251404196711
 20
137.9944153085509
 30
0.0
 10
63.13722901229337
 20
138.4201614078714
 30
0.0
 10
63.24205573970808
 20
139.263857503361
 30
0.0
 10
63.45837602625067
 20
140.519217723776
 30
0.0
 10
63.88933571130774
 20
142.2335309735665
 30
0.0
 10
64.4787622103
 20
143.9770168719332
 30
0.0
 10
65.2733668510807
 20
145.7984011617003
 30
0.0
 10
66.26409959049643
 20
147.608692593746
 30
0.0
 10
67.50698160686525
 20
149.4397442964334
 30
0.0
 10
68.97357266738032
 20
151.1969058232777
 30
0.0
 10
70.71857446331403
 20
152.8874593579384
 30
0.0
 10
72.69003339663392
 20
154.4213024266627
 30
0.0
 10
74.92483308359685
 20
155.780139898431
 30
0.0
 10
77.34961430615525
 20
156.893079051098
 30
0.0
 10
79.96680984993846
 20
157.7267560613448
 30
0.0
 10
82.69394716854532
 20
158.2434771830578
 30
0.0
 10
85.49190562075185
 20
158.4156981588682
 30
0.0
 10
88.29022442539237
 20
158.2435250232516
 30
0.0
 10
91.01703379369154
 20
157.7269306301208
 30
0.0
 10
93.63459126699023
 20
156.893213066946
 30
0.0
 10
96.05908650133333
 20
155.780467896765
 30
0.0
 10
98.29421363298378
 20
154.4215015514213
 30
0.0
 10
100.2654383036834
 20
152.8879157774915
 30
0.0
 10
102.0107262647061
 20
151.1971649540808
 30
0.0
 10
103.4771398386002
 20
149.4402963012036
 30
0.0
 10
104.7202592734453
 20
147.6089891196526
 30
0.0
 10
105.7108686696512
 20
145.7990163616711
 30
0.0
 10
106.5056538253041
 20
143.9773371605029
 30
0.0
 10
107.0949989579726
 20
142.2341913265396
 30
0.0
 10
107.5261238604034
 20
140.5195453528103
 30
0.0
 10
107.7605162432368
 20
139.1587893881437
 30
0.0
 10
107.8844626519994
 20
138.1016991143799
 30
0.0
 10
107.9463499013581
 20
137.3554955255368
 30
0.0
 10
107.985099866956
 20
136.6074990870437
 30
0.0
 10
107.989878293151
 20
136.1081408106815
 30
0.0
 10
107.9922690611185
 20
135.8582991844447
 30
0.0
  0
SPLINE
  5
C4
330
1F
100
AcDbEntity
  8
0
  6
Continuous
 62
     7
370
    15
100
AcDbSpline
210
0.0
220
0.0
230
1.0
 70
     8
 71
     3
 72
    46
 73
    42
 74
     0
 42
0.000000001
 43
0.00000001
 40
0.0
 40
0.0
 40
0.0
 40
0.0
 40
0.0060605096059856
 40
0.012116062780731
 40
0.0181688501809596
 40
0.0242210654666906
 40
0.0302749029198752
 40
0.0363325550596565
 40
0.0423962102671932
 40
0.0663723762644347
 40
0.0903614245161322
 40
0.1173835313868685
 40
0.1444187375096037
 40
0.1746377134537195
 40
0.2048704270446567
 40
0.2382459271690202
 40
0.2716357371802286
 40
0.3078460574024585
 40
0.3440707643419493
 40
0.3824528172784671
 40
0.4208496145206945
 40
0.4604174444179889
 40
0.5000006351345287
 40
0.5395683786429317
 40
0.5791516575942532
 40
0.6175334667203426
 40
0.6559305126792304
 40
0.6921404472131442
 40
0.72836553821874
 40
0.7617405441729123
 40
0.7951308492378333
 40
0.825348982095816
 40
0.8555825399657241
 40
0.8826032238245884
 40
0.9096398523510109
 40
0.9336143211403861
 40
0.9576050666839362
 40
0.9682066398998608
 40
0.9787984726933857
 40
0.9893923375025573
 40
1.0
 40
1.0
 40
1.0
 40
1.0
 10
107.9922690611185
 20
135.8582991844447
 30
0.0
 10
107.9914878069833
 20
135.7155609476314
 30
0.0
 10
107.9899259376415
 20
135.4302012087851
 30
0.0
 10
107.9772763292487
 20
135.0024393902509
 30
0.0
 10
107.9570789118051
 20
134.5751822682476
 30
0.0
 10
107.9285953112136
 20
134.1484295706658
 30
0.0
 10
107.8920240672512
 20
133.7221830602561
 30
0.0
 10
107.8473090969255
 20
133.2964369609708
 30
0.0
 10
107.7424823694955
 20
132.4527408654842
 30
0.0
 10
107.5261620829471
 20
131.1973806450889
 30
0.0
 10
107.0952023979062
 20
129.4830673953029
 30
0.0
 10
106.5057758989224
 20
127.7395814969629
 30
0.0
 10
105.711171258142
 20
125.9181972071998
 30
0.0
 10
104.7204385187219
 20
124.1079057751477
 30
0.0
 10
103.4775565023598
 20
122.2768540724659
 30
0.0
 10
102.0109654418436
 20
120.5196925456175
 30
0.0
 10
100.2659636458846
 20
118.8291390109387
 30
0.0
 10
98.2945047125711
 20
117.295295942191
 30
0.0
 10
96.05970502557007
 20
115.9364584704315
 30
0.0
 10
93.63492380302905
 20
114.823519317807
 30
0.0
 10
91.01772825927075
 20
113.9898423075383
 30
0.0
 10
88.29059094068857
 20
113.4731211858326
 30
0.0
 10
85.49263248848061
 20
113.3009002100226
 30
0.0
 10
82.69431368382334
 20
113.4730733456288
 30
0.0
 10
79.96750431550734
 20
113.9896677387751
 30
0.0
 10
77.34994684221004
 20
114.8233853019477
 30
0.0
 10
74.92545160785656
 20
115.9361304721385
 30
0.0
 10
72.69032447622685
 20
117.2950968174792
 30
0.0
 10
70.7190998055249
 20
118.8286825914047
 30
0.0
 10
68.97381184451356
 20
120.5194334148085
 30
0.0
 10
67.5073982706015
 20
122.2763020677114
 30
0.0
 10
66.26427883574193
 20
124.1076092492542
 30
0.0
 10
65.27366943953736
 20
125.9175820072765
 30
0.0
 10
64.4788842839144
 20
127.7392612084226
 30
0.0
 10
63.88953915123237
 20
129.482407042387
 30
0.0
 10
63.45841424881171
 20
131.1970530160843
 30
0.0
 10
63.22402186597829
 20
132.5578089807557
 30
0.0
 10
63.10007545721879
 20
133.6148992545201
 30
0.0
 10
63.03818820785973
 20
134.3611028433678
 30
0.0
 10
62.99943824226165
 20
135.1090992818563
 30
0.0
 10
62.99465981606654
 20
135.6084575582125
 30
0.0
 10
62.99226904809905
 20
135.8582991844447
 30
0.0
  0
CIRCLE
  5
C5
330
1F
100
AcDbEntity
  8
0
  6
Continuous
 62
     7
370
    15
100
AcDbCircle
 10
85.4922690546
 20
135.8582991844
 30
0.0
 40
30.74999999999994
  0
CIRCLE
  5
C6
330
1F
100
AcDbEntity
  8
0
  6
Continuous
 62
     7
370
    15
100
AcDbCircle
 10
85.4922690546
 20
135.8582991844
 30
0.0
 40
31.74999999999983
  0
SPLINE
  5
C7
330
1F
100
AcDbEntity
  8
0
  6
Continuous
 62
     8
370
    15
100
AcDbSpline
210
0.0
220
0.0
230
1.0
 70
    24
 71
     3
 72
     9
 73
     5
 74
     0
 42
0.000000001
 43
0.00000001
 40
0.0
 40
0.0
 40
0.0
 40
0.0
 40
0.4412680435181025
 40
0.9999999999999999
 40
0.9999999999999999
 40
0.9999999999999999
 40
0.9999999999999999
 10
63.26726905460876
 20
135.8582991844447
 30
0.0
 10
63.230610287839
 20
135.8582991844447
 30
0.0
 10
63.14753432684828
 20
135.8582991844447
 30
0.0
 10
63.04792433418503
 20
135.8582991844447
 30
0.0
 10
62.99226904809915
 20
135.8582991844447
 30
0.0
  0
SPLINE
  5
C8
330
1F
100
AcDbEntity
  8
0
  6
Continuous
 62
     8
370
    15
100
AcDbSpline
210
0.0
220
0.0
230
1.0
 70
    24
 71
     3
 72
     9
 73
     5
 74
     0
 42
0.000000001
 43
0.00000001
 40
0.0
 40
0.0
 40
0.0
 40
0.0
 40
0.5551693299669976
 40
1.0
 40
1.0
 40
1.0
 40
1.0
 10
107.9922690611184
 20
135.8582991844447
 30
0.0
 10
107.9199759215423
 20
135.8582991844447
 30
0.0
 10
107.7897577418378
 20
135.8582991844447
 30
0.0
 10
107.6945428689844
 20
135.8582991844447
 30
0.0
 10
107.652188373296
 20
135.8582991844447
 30
0.0
  0
INSERT
  5
D4
330
1F
100
AcDbEntity
  8
DIM
100
AcDbBlockReference
  2
SW_CENTERMARKSYMBOL_0
 10
85.4922690546
 20
135.8582991844
 30
0.0
  0
LINE
  5
D5
330
1F
100
AcDbEntity
  8
0
  6
Continuous
 62
     7
370
    15
100
AcDbLine
 10
241.2077072359
 20
104.1082991844
 30
0.0
 11
242.2077072359
 21
105.1082991844
 31
0.0
  0
LINE
  5
D6
330
1F
100
AcDbEntity
  8
0
  6
Continuous
 62
     7
370
    15
100
AcDbLine
 10
242.2077072359
 20
166.6082991844
 30
0.0
 11
241.2077072359
 21
167.6082991844
 31
0.0
  0
LINE
  5
D7
330
1F
100
AcDbEntity
  8
0
  6
Continuous
 62
     7
370
    15
100
AcDbLine
 10
237.7295438778
 20
104.1082991844
 30
0.0
 11
241.2077072359
 21
104.1082991844
 31
0.0
  0
LINE
  5
D8
330
1F
100
AcDbEntity
  8
0
  6
Continuous
 62
     7
370
    15
100
AcDbLine
 10
241.2077072359
 20
167.6082991844
 30
0.0
 11
237.7295438778
 21
167.6082991844
 31
0.0
  0
LINE
  5
D9
330
1F
100
AcDbEntity
  8
0
  6
Continuous
 62
     7
370
    15
100
AcDbLine
 10
237.7295438778
 20
167.6082991843
 30
0.0
 11
236.1077072359
 21
164.7991957184
 31
0.0
  0
LINE
  5
DA
330
1F
100
AcDbEntity
  8
0
  6
Continuous
 62
     7
370
    15
100
AcDbLine
 10
236.1077072359
 20
106.9174026504
 30
0.0
 11
237.7295438778
 21
104.1082991845
 31
0.0
  0
LINE
  5
DB
330
1F
100
AcDbEntity
  8
0
  6
Continuous
 62
     7
370
    15
100
AcDbLine
 10
227.3077072359
 20
104.1082991844
 30
0.0
 11
230.6858705941
 21
104.1082991844
 31
0.0
  0
LINE
  5
DC
330
1F
100
AcDbEntity
  8
0
  6
Continuous
 62
     7
370
    15
100
AcDbLine
 10
230.6858705941
 20
167.6082991844
 30
0.0
 11
227.3077072359
 21
167.6082991844
 31
0.0
  0
LINE
  5
DD
330
1F
100
AcDbEntity
  8
0
  6
Continuous
 62
     7
370
    15
100
AcDbLine
 10
227.3077072359
 20
167.6082991844
 30
0.0
 11
226.3077072359
 21
166.6082991844
 31
0.0
  0
LINE
  5
DE
330
1F
100
AcDbEntity
  8
0
  6
Continuous
 62
     7
370
    15
100
AcDbLine
 10
226.3077072359
 20
105.1082991844
 30
0.0
 11
227.3077072359
 21
104.1082991844
 31
0.0
  0
LINE
  5
DF
330
1F
100
AcDbEntity
  8
0
  6
Continuous
 62
     7
370
    15
100
AcDbLine
 10
230.6858705941
 20
104.1082991848
 30
0.0
 11
232.3077072359
 21
106.9174026504
 31
0.0
  0
LINE
  5
E0
330
1F
100
AcDbEntity
  8
0
  6
Continuous
 62
     7
370
    15
100
AcDbLine
 10
232.3077072359
 20
164.7991957184
 30
0.0
 11
230.6858705941
 21
167.6082991841
 31
0.0
  0
LINE
  5
E1
330
1F
100
AcDbEntity
  8
0
  6
Continuous
 62
     7
370
    15
100
AcDbLine
 10
232.3077072376
 20
107.8582991844
 30
0.0
 11
236.1077072377
 21
107.8582991844
 31
0.0
  0
LINE
  5
E2
330
1F
100
AcDbEntity
  8
0
  6
Continuous
 62
     7
370
    15
100
AcDbLine
 10
236.1077072377
 20
163.8582991844
 30
0.0
 11
232.3077072376
 21
163.8582991844
 31
0.0
  0
SPLINE
  5
E3
330
1F
100
AcDbEntity
  8
0
  6
Continuous
 62
     7
370
    15
100
AcDbSpline
210
0.0
220
0.0
230
1.0
 70
     8
 71
     3
 72
    13
 73
     9
 74
     0
 42
0.000000001
 43
0.00000001
 40
0.0
 40
0.0
 40
0.0
 40
0.0
 40
0.2394568446493024
 40
0.3683606606410503
 40
0.5000000005299661
 40
0.6316393403604627
 40
0.7605431561667914
 40
1.0
 40
1.0
 40
1.0
 40
1.0
 10
225.8077072364497
 20
113.8582991843422
 30
0.0
 10
225.8706053973945
 20
113.8516201891964
 30
0.0
 10
225.9673627406755
 20
113.8413457739133
 30
0.0
 10
226.0837707828121
 20
113.778996973882
 30
0.0
 10
226.1638741459842
 20
113.7144660887117
 30
0.0
 10
226.2284050297674
 20
113.6343627244822
 30
0.0
 10
226.2907538277731
 20
113.5179546816095
 30
0.0
 10
226.3010282418203
 20
113.4211973384886
 30
0.0
 10
226.3077072361581
 20
113.3582991776913
 30
0.0
  0
SPLINE
  5
E4
330
1F
100
AcDbEntity
  8
0
  6
Continuous
 62
     7
370
    15
100
AcDbSpline
210
0.0
220
0.0
230
1.0
 70
     8
 71
     3
 72
    13
 73
     9
 74
     0
 42
0.000000001
 43
0.00000001
 40
0.0
 40
0.0
 40
0.0
 40
0.0
 40
0.2394568438332045
 40
0.3683606596395453
 40
0.4999999994700367
 40
0.6316393393589524
 40
0.7605431553507017
 40
1.0
 40
1.0
 40
1.0
 40
1.0
 10
226.3077072361581
 20
158.3582991911981
 30
0.0
 10
226.3010282418203
 20
158.2954010304008
 30
0.0
 10
226.2907538277731
 20
158.1986436872799
 30
0.0
 10
226.2284050297674
 20
158.0822356444071
 30
0.0
 10
226.1638741459842
 20
158.0021322801777
 30
0.0
 10
226.0837707828121
 20
157.9376013950073
 30
0.0
 10
225.9673627406755
 20
157.875252594976
 30
0.0
 10
225.8706053973945
 20
157.8649781796929
 30
0.0
 10
225.8077072364497
 20
157.8582991845472
 30
0.0
  0
LINE
  5
E5
330
1F
100
AcDbEntity
  8
0
  6
Continuous
 62
     7
370
    15
100
AcDbLine
 10
223.1077072359
 20
158.0832991844
 30
0.0
 11
155.5633990089
 21
148.2329945604
 31
0.0
  0
LINE
  5
E6
330
1F
100
AcDbEntity
  8
0
  6
Continuous
 62
     7
370
    15
100
AcDbLine
 10
155.5633990089
 20
123.4836038084
 30
0.0
 11
223.1077072359
 21
113.6332991844
 31
0.0
  0
LINE
  5
E7
330
1F
100
AcDbEntity
  8
0
  6
Continuous
 62
     7
370
    15
100
AcDbLine
 10
223.1077072359
 20
113.6332991844
 30
0.0
 11
223.5902212929
 21
113.8582991844
 31
0.0
  0
LINE
  5
E8
330
1F
100
AcDbEntity
  8
0
  6
Continuous
 62
     7
370
    15
100
AcDbLine
 10
223.5902212929
 20
157.8582991844
 30
0.0
 11
223.1077072359
 21
158.0832991844
 31
0.0
  0
LINE
  5
E9
330
1F
100
AcDbEntity
  8
0
  6
Continuous
 62
     7
370
    15
100
AcDbLine
 10
223.5902212929
 20
113.8582991844
 30
0.0
 11
225.8077072364
 21
113.8582991844
 31
0.0
  0
LINE
  5
EA
330
1F
100
AcDbEntity
  8
0
  6
Continuous
 62
     7
370
    15
100
AcDbLine
 10
225.8077072364
 20
157.8582991844
 30
0.0
 11
223.5902212929
 21
157.8582991844
 31
0.0
  0
SPLINE
  5
EB
330
1F
100
AcDbEntity
  8
0
  6
Continuous
 62
     7
370
    15
100
AcDbSpline
210
0.0
220
0.0
230
1.0
 70
     8
 71
     3
 72
    11
 73
     7
 74
     0
 42
0.000000001
 43
0.00000001
 40
0.0
 40
0.0
 40
0.0
 40
0.0
 40
0.2452124894608623
 40
0.4999999999181429
 40
0.7547875104099658
 40
1.0
 40
1.0
 40
1.0
 40
1.0
 10
242.2077072358805
 20
117.0489603841882
 30
0.0
 10
242.2816305887134
 20
117.2136027741886
 30
0.0
 10
242.4323638425197
 20
117.5493164858665
 30
0.0
 10
242.8235211076965
 20
117.9517285336368
 30
0.0
 10
243.3008385952877
 20
118.2468682945249
 30
0.0
 10
243.6611641127081
 20
118.3216328021474
 30
0.0
 10
243.837876747058
 20
118.3582991842356
 30
0.0
  0
SPLINE
  5
EC
330
1F
100
AcDbEntity
  8
0
  6
Continuous
 62
     7
370
    15
100
AcDbSpline
210
0.0
220
0.0
230
1.0
 70
     8
 71
     3
 72
    11
 73
     7
 74
     0
 42
0.000000001
 43
0.00000001
 40
0.0
 40
0.0
 40
0.0
 40
0.0
 40
0.2452124895903317
 40
0.5000000000818593
 40
0.7547875105388419
 40
1.0
 40
1.0
 40
1.0
 40
1.0
 10
243.8378767470247
 20
153.358299184658
 30
0.0
 10
243.6611641126805
 20
153.3949655667477
 30
0.0
 10
243.3008385952723
 20
153.4697300743731
 30
0.0
 10
242.8235211076975
 20
153.7648698352537
 30
0.0
 10
242.4323638425315
 20
154.1672818830097
 30
0.0
 10
242.2816305887249
 20
154.502995594675
 30
0.0
 10
242.2077072358919
 20
154.6676379846694
 30
0.0
  0
LINE
  5
ED
330
1F
100
AcDbEntity
  8
0
  6
Continuous
 62
     7
370
    15
100
AcDbLine
 10
243.837876747
 20
118.3582991845
 30
0.0
 11
282.9819104909
 21
123.3422822134
 31
0.0
  0
LINE
  5
EE
330
1F
100
AcDbEntity
  8
0
  6
Continuous
 62
     7
370
    15
100
AcDbLine
 10
282.9819104909
 20
148.3743161554
 30
0.0
 11
243.837876747
 21
153.3582991844
 31
0.0
  0
LINE
  5
EF
330
1F
100
AcDbEntity
  8
0
  6
Continuous
 62
     7
370
    15
100
AcDbLine
 10
283.2345195556
 20
148.3582991845
 30
0.0
 11
282.9819104908
 21
148.3743161551
 31
0.0
  0
LINE
  5
F0
330
1F
100
AcDbEntity
  8
0
  6
Continuous
 62
     7
370
    15
100
AcDbLine
 10
282.9819104908
 20
123.3422822138
 30
0.0
 11
283.2345195556
 21
123.3582991844
 31
0.0
  0
LINE
  5
F1
330
1F
100
AcDbEntity
  8
0
  6
Continuous
 62
     7
370
    15
100
AcDbLine
 10
283.2345195556
 20
123.3582991844
 30
0.0
 11
312.3851726329
 21
123.3582991844
 31
0.0
  0
LINE
  5
F2
330
1F
100
AcDbEntity
  8
0
  6
Continuous
 62
     7
370
    15
100
AcDbLine
 10
312.3851726329
 20
148.3582991844
 30
0.0
 11
283.2345195557
 21
148.3582991844
 31
0.0
  0
LINE
  5
F3
330
1F
100
AcDbEntity
  8
0
  6
Continuous
 62
     7
370
    15
100
AcDbLine
 10
312.3851726329
 20
123.3582991844
 30
0.0
 11
323.1077072359
 21
128.3582991844
 31
0.0
  0
LINE
  5
F4
330
1F
100
AcDbEntity
  8
0
  6
Continuous
 62
     7
370
    15
100
AcDbLine
 10
323.1077072359
 20
143.3582991844
 30
0.0
 11
312.3851726329
 21
148.3582991844
 31
0.0
  0
SPLINE
  5
F5
330
1F
100
AcDbEntity
  8
0
  6
Continuous
 62
     7
370
    15
100
AcDbSpline
210
0.0
220
0.0
230
1.0
 70
     8
 71
     3
 72
    11
 73
     7
 74
     0
 42
0.000000001
 43
0.00000001
 40
0.0
 40
0.0
 40
0.0
 40
0.0
 40
0.2418856032532126
 40
0.5000000001157457
 40
0.7581143969353249
 40
1.0
 40
1.0
 40
1.0
 40
1.0
 10
155.56339900892
 20
148.2329945603991
 30
0.0
 10
155.4512468274013
 20
148.2049392647041
 30
0.0
 10
155.2194178552833
 20
148.1469463636712
 30
0.0
 10
154.9358023298644
 20
147.910961310205
 30
0.0
 10
154.743215436952
 20
147.5962598639153
 30
0.0
 10
154.7192843884011
 20
147.3584886424868
 30
0.0
 10
154.707707236177
 20
147.2434617718869
 30
0.0
  0
SPLINE
  5
F6
330
1F
100
AcDbEntity
  8
0
  6
Continuous
 62
     7
370
    15
100
AcDbSpline
210
0.0
220
0.0
230
1.0
 70
     8
 71
     3
 72
    11
 73
     7
 74
     0
 42
0.000000001
 43
0.00000001
 40
0.0
 40
0.0
 40
0.0
 40
0.0
 40
0.2418856030641144
 40
0.4999999998830896
 40
0.7581143967456611
 40
1.0
 40
1.0
 40
1.0
 40
1.0
 10
154.707707236177
 20
124.4731365970025
 30
0.0
 10
154.7192843884007
 20
124.3581097264048
 30
0.0
 10
154.7432154369506
 20
124.1203385049809
 30
0.0
 10
154.935802329856
 20
123.8056370586953
 30
0.0
 10
155.2194178552662
 20
123.5696520052282
 30
0.0
 10
155.4512468273795
 20
123.5116591041909
 30
0.0
 10
155.5633990088962
 20
123.4836038084937
 30
0.0
  0
LINE
  5
F7
330
1F
100
AcDbEntity
  8
0
  6
Continuous
 62
     7
370
    15
100
AcDbLine
 10
241.2077072359
 20
135.8582991844
 30
0.0
 11
241.2077072359
 21
167.6082991844
 31
0.0
  0
LINE
  5
F8
330
1F
100
AcDbEntity
  8
0
  6
Continuous
 62
     7
370
    15
100
AcDbLine
 10
241.2077072359
 20
104.1082991844
 30
0.0
 11
241.2077072359
 21
135.8582991844
 31
0.0
  0
LINE
  5
F9
330
1F
100
AcDbEntity
  8
0
  6
Continuous
 62
     7
370
    15
100
AcDbLine
 10
242.2077072359
 20
135.8582991844
 30
0.0
 11
242.2077072359
 21
166.6082991844
 31
0.0
  0
LINE
  5
FA
330
1F
100
AcDbEntity
  8
0
  6
Continuous
 62
     7
370
    15
100
AcDbLine
 10
242.2077072359
 20
105.1082991844
 30
0.0
 11
242.2077072359
 21
135.8582991844
 31
0.0
  0
LINE
  5
FB
330
1F
100
AcDbEntity
  8
0
  6
Continuous
 62
     7
370
    15
100
AcDbLine
 10
237.7295438778
 20
167.6082991844
 30
0.0
 11
237.7295438778
 21
104.1082991844
 31
0.0
  0
LINE
  5
FC
330
1F
100
AcDbEntity
  8
0
  6
Continuous
 62
     7
370
    15
100
AcDbLine
 10
236.1077072359
 20
164.7991957184
 30
0.0
 11
236.1077072359
 21
106.9174026504
 31
0.0
  0
LINE
  5
FD
330
1F
100
AcDbEntity
  8
0
  6
Continuous
 62
     7
370
    15
100
AcDbLine
 10
227.3077072359
 20
135.8582991844
 30
0.0
 11
227.3077072359
 21
167.6082991844
 31
0.0
  0
LINE
  5
FE
330
1F
100
AcDbEntity
  8
0
  6
Continuous
 62
     7
370
    15
100
AcDbLine
 10
227.3077072359
 20
104.1082991844
 30
0.0
 11
227.3077072359
 21
135.8582991844
 31
0.0
  0
LINE
  5
FF
330
1F
100
AcDbEntity
  8
0
  6
Continuous
 62
     7
370
    15
100
AcDbLine
 10
230.6858705941
 20
135.8582991844
 30
0.0
 11
230.6858705941
 21
104.1082991844
 31
0.0
  0
LINE
  5
100
330
1F
100
AcDbEntity
  8
0
  6
Continuous
 62
     7
370
    15
100
AcDbLine
 10
230.6858705941
 20
167.6082991844
 30
0.0
 11
230.6858705941
 21
135.8582991844
 31
0.0
  0
LINE
  5
101
330
1F
100
AcDbEntity
  8
0
  6
Continuous
 62
     7
370
    15
100
AcDbLine
 10
226.3077072359
 20
135.8582991844
 30
0.0
 11
226.3077072359
 21
166.6082991844
 31
0.0
  0
LINE
  5
102
330
1F
100
AcDbEntity
  8
0
  6
Continuous
 62
     7
370
    15
100
AcDbLine
 10
226.3077072359
 20
105.1082991844
 30
0.0
 11
226.3077072359
 21
135.8582991844
 31
0.0
  0
LINE
  5
103
330
1F
100
AcDbEntity
  8
0
  6
Continuous
 62
     7
370
    15
100
AcDbLine
 10
232.3077072359
 20
135.8582991844
 30
0.0
 11
232.3077072359
 21
164.7991957184
 31
0.0
  0
LINE
  5
104
330
1F
100
AcDbEntity
  8
0
  6
Continuous
 62
     7
370
    15
100
AcDbLine
 10
232.3077072359
 20
106.9174026504
 30
0.0
 11
232.3077072359
 21
135.8582991844
 31
0.0
  0
SPLINE
  5
105
330
1F
100
AcDbEntity
  8
0
  6
Continuous
 62
     7
370
    15
100
AcDbSpline
210
0.0
220
0.0
230
1.0
 70
    24
 71
     3
 72
    14
 73
    10
 74
     0
 42
0.000000001
 43
0.00000001
 40
0.0
 40
0.0
 40
0.0
 40
0.0
 40
0.25
 40
0.25
 40
0.5
 40
0.5
 40
0.75
 40
0.75
 40
1.0
 40
1.0
 40
1.0
 40
1.0
 10
226.3077072361581
 20
135.8582991844447
 30
0.0
 10
226.3077072368647
 20
135.8582991844447
 30
0.0
 10
226.2969678681874
 20
135.8582991844447
 30
0.0
 10
226.2482349091153
 20
135.8582991844447
 30
0.0
 10
226.2100761660116
 20
135.8582991844447
 30
0.0
 10
226.1124450930414
 20
135.8582991844447
 30
0.0
 10
226.0533030685596
 20
135.8582991844447
 30
0.0
 10
225.9302061172108
 20
135.8582991844447
 30
0.0
 10
225.8666328021054
 20
135.8582991844447
 30
0.0
 10
225.8077072364496
 20
135.8582991844447
 30
0.0
  0
LINE
  5
106
330
1F
100
AcDbEntity
  8
0
  6
Continuous
 62
     7
370
    15
100
AcDbLine
 10
223.1077072359
 20
113.6332991844
 30
0.0
 11
223.1077072359
 21
158.0832991844
 31
0.0
  0
LINE
  5
107
330
1F
100
AcDbEntity
  8
0
  6
Continuous
 62
     7
370
    15
100
AcDbLine
 10
223.5902212929
 20
135.8582991844
 30
0.0
 11
223.5902212929
 21
157.8582991844
 31
0.0
  0
LINE
  5
108
330
1F
100
AcDbEntity
  8
0
  6
Continuous
 62
     7
370
    15
100
AcDbLine
 10
223.5902212929
 20
113.8582991844
 30
0.0
 11
223.5902212929
 21
135.8582991844
 31
0.0
  0
SPLINE
  5
109
330
1F
100
AcDbEntity
  8
0
  6
Continuous
 62
     7
370
    15
100
AcDbSpline
210
0.0
220
0.0
230
1.0
 70
    24
 71
     3
 72
    14
 73
    10
 74
     0
 42
0.000000001
 43
0.00000001
 40
0.0
 40
0.0
 40
0.0
 40
0.0
 40
0.25
 40
0.25
 40
0.5
 40
0.5
 40
0.75
 40
0.75
 40
1.0
 40
1.0
 40
1.0
 40
1.0
 10
243.8378767470184
 20
135.8582991844447
 30
0.0
 10
243.6650313239528
 20
135.8582991844447
 30
0.0
 10
243.488496351718
 20
135.8582991844447
 30
0.0
 10
243.1482104096409
 20
135.8582991844447
 30
0.0
 10
242.9847270056195
 20
135.8582991844447
 30
0.0
 10
242.6913996185576
 20
135.8582991844447
 30
0.0
 10
242.5617790916212
 20
135.8582991844447
 30
0.0
 10
242.3493119180621
 20
135.8582991844447
 30
0.0
 10
242.2664825205095
 20
135.8582991844447
 30
0.0
 10
242.2077072358822
 20
135.8582991844447
 30
0.0
  0
SPLINE
  5
10A
330
1F
100
AcDbEntity
  8
0
  6
Continuous
 62
     7
370
    15
100
AcDbSpline
210
0.0
220
0.0
230
1.0
 70
    24
 71
     3
 72
     8
 73
     4
 74
     0
 42
0.000000001
 43
0.00000001
 40
0.0
 40
0.0
 40
0.0
 40
0.0
 40
1.0
 40
1.0
 40
1.0
 40
1.0
 10
283.2345195556259
 20
135.8582991833223
 30
0.0
 10
283.1501474413655
 20
135.8582991833223
 30
0.0
 10
283.0656069122048
 20
135.8582991833218
 30
0.0
 10
282.9819104908599
 20
135.8582991833208
 30
0.0
  0
LINE
  5
10B
330
1F
100
AcDbEntity
  8
0
  6
Continuous
 62
     7
370
    15
100
AcDbLine
 10
312.3851726329
 20
135.8582991844
 30
0.0
 11
312.3851726329
 21
148.3582991844
 31
0.0
  0
LINE
  5
10C
330
1F
100
AcDbEntity
  8
0
  6
Continuous
 62
     7
370
    15
100
AcDbLine
 10
312.3851726329
 20
123.3582991844
 30
0.0
 11
312.3851726329
 21
135.8582991844
 31
0.0
  0
LINE
  5
10D
330
1F
100
AcDbEntity
  8
0
  6
Continuous
 62
     7
370
    15
100
AcDbLine
 10
323.1077072359
 20
135.8582991844
 30
0.0
 11
323.1077072359
 21
143.3582991844
 31
0.0
  0
LINE
  5
10E
330
1F
100
AcDbEntity
  8
0
  6
Continuous
 62
     7
370
    15
100
AcDbLine
 10
323.1077072359
 20
128.3582991844
 30
0.0
 11
323.1077072359
 21
135.8582991844
 31
0.0
  0
SPLINE
  5
10F
330
1F
100
AcDbEntity
  8
0
  6
Continuous
 62
     7
370
    15
100
AcDbSpline
210
0.0
220
0.0
230
1.0
 70
    24
 71
     3
 72
    14
 73
    10
 74
     0
 42
0.000000001
 43
0.00000001
 40
0.0
 40
0.0
 40
0.0
 40
0.0
 40
0.25
 40
0.25
 40
0.5
 40
0.5
 40
0.75
 40
0.75
 40
1.0
 40
1.0
 40
1.0
 40
1.0
 10
154.707707236177
 20
135.8582991844447
 30
0.0
 10
154.7077072359387
 20
135.8582991844447
 30
0.0
 10
154.7260114175805
 20
135.8582991844447
 30
0.0
 10
154.8071173414212
 20
135.8582991844447
 30
0.0
 10
154.8701014386495
 20
135.8582991844447
 30
0.0
 10
155.0324956420723
 20
135.8582991844447
 30
0.0
 10
155.1315410382162
 20
135.8582991844447
 30
0.0
 10
155.3433020245786
 20
135.8582991844447
 30
0.0
 10
155.4555235591284
 20
135.8582991844447
 30
0.0
 10
155.5633990088969
 20
135.8582991844447
 30
0.0
  0
SPLINE
  5
110
330
1F
100
AcDbEntity
  8
0
  6
Continuous
 62
     7
370
    15
100
AcDbSpline
210
0.0
220
0.0
230
1.0
 70
    24
 71
     3
 72
    22
 73
    18
 74
     0
 42
0.000000001
 43
0.00000001
 40
0.0
 40
0.0
 40
0.0
 40
0.0
 40
0.1249999999999999
 40
0.1249999999999999
 40
0.2499999999999998
 40
0.2499999999999998
 40
0.3749999999999998
 40
0.3749999999999998
 40
0.4999999999999997
 40
0.4999999999999997
 40
0.6249999999999998
 40
0.6249999999999998
 40
0.7499999999999999
 40
0.7499999999999999
 40
0.875
 40
0.875
 40
1.0
 40
1.0
 40
1.0
 40
1.0
 10
154.707707236177
 20
147.2434617718869
 30
0.0
 10
154.707707236177
 20
147.2434617718767
 30
0.0
 10
154.707707236177
 20
147.1230979228172
 30
0.0
 10
154.707707236177
 20
146.6632002309083
 30
0.0
 10
154.707707236177
 20
146.3242444925863
 30
0.0
 10
154.707707236177
 20
145.4838172658258
 30
0.0
 10
154.707707236177
 20
144.9830935944144
 30
0.0
 10
154.707707236177
 20
143.8892292212176
 30
0.0
 10
154.707707236177
 20
143.2966054081986
 30
0.0
 10
154.707707236177
 20
142.0821880655433
 30
0.0
 10
154.707707236177
 20
141.46056767471
 30
0.0
 10
154.707707236177
 20
140.2340383550246
 30
0.0
 10
154.707707236177
 20
139.6290650333832
 30
0.0
 10
154.707707236177
 20
138.4632243844363
 30
0.0
 10
154.707707236177
 20
137.9022014245938
 30
0.0
 10
154.707707236177
 20
136.8370064807675
 30
0.0
 10
154.707707236177
 20
136.3326809589189
 30
0.0
 10
154.707707236177
 20
135.8582991844447
 30
0.0
  0
SPLINE
  5
111
330
1F
100
AcDbEntity
  8
0
  6
Continuous
 62
     7
370
    15
100
AcDbSpline
210
0.0
220
0.0
230
1.0
 70
    24
 71
     3
 72
    22
 73
    18
 74
     0
 42
0.000000001
 43
0.00000001
 40
0.0
 40
0.0
 40
0.0
 40
0.0
 40
0.125
 40
0.125
 40
0.25
 40
0.25
 40
0.375
 40
0.375
 40
0.5
 40
0.5
 40
0.625
 40
0.625
 40
0.75
 40
0.75
 40
0.875
 40
0.875
 40
1.0
 40
1.0
 40
1.0
 40
1.0
 10
154.707707236177
 20
135.8582991844447
 30
0.0
 10
154.707707236177
 20
135.3839174099654
 30
0.0
 10
154.707707236177
 20
134.879591888111
 30
0.0
 10
154.707707236177
 20
133.8143969442721
 30
0.0
 10
154.707707236177
 20
133.2533739844227
 30
0.0
 10
154.707707236177
 20
132.0875333354615
 30
0.0
 10
154.707707236177
 20
131.4825600138126
 30
0.0
 10
154.707707236177
 20
130.2560306941131
 30
0.0
 10
154.707707236177
 20
129.6344103032731
 30
0.0
 10
154.707707236177
 20
128.4199929606074
 30
0.0
 10
154.707707236177
 20
127.8273691475846
 30
0.0
 10
154.707707236177
 20
126.733504774386
 30
0.0
 10
154.707707236177
 20
126.2327811029766
 30
0.0
 10
154.707707236177
 20
125.3923538762277
 30
0.0
 10
154.707707236177
 20
125.0533981379155
 30
0.0
 10
154.707707236177
 20
124.5935004460341
 30
0.0
 10
154.707707236177
 20
124.4731365969923
 30
0.0
 10
154.707707236177
 20
124.4731365970025
 30
0.0
  0
LINE
  5
112
330
1F
100
AcDbEntity
  8
0
  6
Continuous
 62
     8
370
    15
100
AcDbLine
 10
225.8077072364
 20
135.8582991844
 30
0.0
 11
225.8077072364
 21
113.8582991844
 31
0.0
  0
LINE
  5
113
330
1F
100
AcDbEntity
  8
0
  6
Continuous
 62
     8
370
    15
100
AcDbLine
 10
225.8077072364
 20
135.8582991844
 30
0.0
 11
225.8077072364
 21
157.8582991652
 31
0.0
  0
LINE
  5
114
330
1F
100
AcDbEntity
  8
0
  6
Continuous
 62
     8
370
    15
100
AcDbLine
 10
155.5633990089
 20
135.8582991816
 30
0.0
 11
155.5633990089
 21
123.4836038085
 31
0.0
  0
LINE
  5
115
330
1F
100
AcDbEntity
  8
0
  6
Continuous
 62
     8
370
    15
100
AcDbLine
 10
155.5633990089
 20
148.2329945604
 30
0.0
 11
155.5633990089
 21
135.8582991816
 31
0.0
  0
LINE
  5
116
330
1F
100
AcDbEntity
  8
0
  6
Continuous
 62
     8
370
    15
100
AcDbLine
 10
243.837876747
 20
135.8582991837
 30
0.0
 11
243.837876747
 21
118.3582992607
 31
0.0
  0
LINE
  5
117
330
1F
100
AcDbEntity
  8
0
  6
Continuous
 62
     8
370
    15
100
AcDbLine
 10
243.837876747
 20
135.8582991844
 30
0.0
 11
243.837876747
 21
153.3582991843
 31
0.0
  0
LINE
  5
118
330
1F
100
AcDbEntity
  8
0
  6
Continuous
 62
     8
370
    15
100
AcDbLine
 10
282.9819104909
 20
135.8582991833
 30
0.0
 11
282.9819104909
 21
148.3743161554
 31
0.0
  0
LINE
  5
119
330
1F
100
AcDbEntity
  8
0
  6
Continuous
 62
     8
370
    15
100
AcDbLine
 10
282.9819104909
 20
123.3422822134
 30
0.0
 11
282.9819104909
 21
135.8582991833
 31
0.0
  0
LINE
  5
11A
330
1F
100
AcDbEntity
  8
0
  6
Continuous
 62
     8
370
    15
100
AcDbLine
 10
283.2345195557
 20
148.35829916
 30
0.0
 11
283.2345195556
 21
135.8582991839
 31
0.0
  0
LINE
  5
11B
330
1F
100
AcDbEntity
  8
0
  6
Continuous
 62
     8
370
    15
100
AcDbLine
 10
283.2345195556
 20
135.8582991839
 30
0.0
 11
283.2345195556
 21
123.3582991846
 31
0.0
  0
DIMENSION
  5
11C
330
1F
100
AcDbEntity
  8
DIM
100
AcDbDimension
  2
_D
 10
323.1077072359
 20
87.0596650653
 30
0.0
 11
238.907707236
 21
87.0596650653
 31
0.0
 70
   160
  1
<>
 71
     2
 42
-1.0
  3
SLDDIMSTYLE0
100
AcDbAlignedDimension
 13
154.7077072361
 23
135.8582991844
 33
0.0
 14
323.1077072359
 24
128.3582991844
 34
0.0
100
AcDbRotatedDimension
  0
DIMENSION
  5
127
330
1F
100
AcDbEntity
  8
DIM
100
AcDbDimension
  2
_D_1
 10
323.1077072359
 20
97.9648924398
 30
0.0
 11
273.1077072359
 21
97.9648924398
 31
0.0
 70
   160
  1
<>
 71
     2
 42
-1.0
  3
SLDDIMSTYLE1
100
AcDbAlignedDimension
 13
223.1077072359
 23
113.6332991844
 33
0.0
 14
323.1077072359
 24
128.3582991844
 34
0.0
100
AcDbRotatedDimension
  0
DIMENSION
  5
132
330
1F
100
AcDbEntity
  8
DIM
100
AcDbDimension
  2
_D_2
 10
335.6077072359
 20
123.3582991844
 30
0.0
 11
335.6077072359
 21
135.8582991844
 31
0.0
 70
   160
  1
%%c<>
 71
     2
 42
-1.0
  3
SLDDIMSTYLE2
100
AcDbAlignedDimension
 13
312.3851726329
 23
148.3582991844
 33
0.0
 14
312.3851726329
 24
123.3582991844
 34
0.0
 50
90.0
100
AcDbRotatedDimension
  0
DIMENSION
  5
140
330
1F
100
AcDbEntity
  8
DIM
100
AcDbDimension
  2
_D_3
 10
146.6451932919
 20
104.1082991844
 30
0.0
 11
146.6451932919
 21
135.8582991844
 31
0.0
 70
   160
  1
%%c<>
 71
     2
 42
-1.0
  3
SLDDIMSTYLE0
100
AcDbAlignedDimension
 13
227.3077072359
 23
167.6082991844
 33
0.0
 14
227.3077072359
 24
104.1082991844
 34
0.0
 50
90.0
100
AcDbRotatedDimension
  0
LINE
  5
14B
330
1F
100
AcDbEntity
  8
DIM
  6
CENTERX2
 48
1.6
370
     0
100
AcDbLine
 10
152.5003041655
 20
135.8582991844
 30
0.0
 11
323.2006397142
 21
135.8582991844
 31
0.0
  0
ENDSEC
  0
SECTION
  2
OBJECTS
  0
DICTIONARY
  5
C
330
0
100
AcDbDictionary
281
     1
  3
ACAD_GROUP
350
D
  3
ACAD_LAYOUT
350
1A
  3
ACAD_MLINESTYLE
350
17
  3
ACAD_PLOTSETTINGS
350
19
  3
ACAD_PLOTSTYLENAME
350
E
  3
ACAD_SCALELIST
350
47
  0
DICTIONARY
  5
D
102
{ACAD_REACTORS
330
C
102
}
330
C
100
AcDbDictionary
281
     1
  0
DICTIONARY
  5
1A
102
{ACAD_REACTORS
330
C
102
}
330
C
100
AcDbDictionary
281
     1
  3
Layout1
350
1E
  3
Layout2
350
26
  3
Model
350
22
  0
DICTIONARY
  5
17
102
{ACAD_REACTORS
330
C
102
}
330
C
100
AcDbDictionary
281
     1
  3
Standard
350
18
  0
DICTIONARY
  5
19
102
{ACAD_REACTORS
330
C
102
}
330
C
100
AcDbDictionary
281
     1
  0
ACDBDICTIONARYWDFLT
  5
E
102
{ACAD_REACTORS
330
C
102
}
330
C
100
AcDbDictionary
281
     1
  3
Normal
350
F
100
AcDbDictionaryWithDefault
340
F
  0
DICTIONARY
  5
47
102
{ACAD_REACTORS
330
C
102
}
330
C
100
AcDbDictionary
281
     1
  3
A0
350
48
  3
A1
350
49
  3
A2
350
4A
  3
A3
350
4B
  3
A4
350
4C
  3
A5
350
4D
  3
A6
350
4E
  3
A7
350
4F
  3
A8
350
50
  3
A9
350
51
  3
B0
350
52
  3
B1
350
53
  3
B2
350
54
  3
B3
350
55
  3
B4
350
56
  3
B5
350
57
  3
B6
350
58
  3
B7
350
59
  3
B8
350
5A
  3
B9
350
5B
  3
C0
350
5C
  3
C1
350
5D
  3
C2
350
5E
  3
C3
350
5F
  3
C4
350
60
  3
C5
350
61
  3
C6
350
62
  3
C7
350
63
  3
C8
350
64
  3
C9
350
65
  3
D0
350
66
  3
D1
350
67
  3
D2
350
68
  0
LAYOUT
  5
1E
102
{ACAD_REACTORS
330
1A
102
}
330
1A
100
AcDbPlotSettings
  1

  2
none_device
  4

  6

 40
0.0
 41
0.0
 42
0.0
 43
0.0
 44
0.0
 45
0.0
 46
0.0
 47
0.0
 48
0.0
 49
0.0
140
0.0
141
0.0
142
1.0
143
1.0
 70
   688
 72
     1
 73
     0
 74
     5
  7

 75
    16
147
1.0
148
0.0
149
0.0
100
AcDbLayout
  1
Layout1
 70
     1
 71
     1
 10
0.0
 20
0.0
 11
420.0
 21
297.0
 12
0.0
 22
0.0
 32
0.0
 14
1.0000000000E+20
 24
1.0000000000E+20
 34
1.0000000000E+20
 15
-1.0000000000E+20
 25
-1.0000000000E+20
 35
-1.0000000000E+20
146
0.0
 13
0.0
 23
0.0
 33
0.0
 16
1.0
 26
0.0
 36
0.0
 17
0.0
 27
1.0
 37
0.0
 76
     0
330
1B
  0
LAYOUT
  5
26
102
{ACAD_REACTORS
330
1A
102
}
330
1A
100
AcDbPlotSettings
  1

  2
none_device
  4

  6

 40
0.0
 41
0.0
 42
0.0
 43
0.0
 44
0.0
 45
0.0
 46
0.0
 47
0.0
 48
0.0
 49
0.0
140
0.0
141
0.0
142
1.0
143
1.0
 70
   688
 72
     1
 73
     0
 74
     5
  7

 75
    16
147
1.0
148
0.0
149
0.0
100
AcDbLayout
  1
Layout2
 70
     1
 71
     2
 10
0.0
 20
0.0
 11
0.0
 21
0.0
 12
0.0
 22
0.0
 32
0.0
 14
0.0
 24
0.0
 34
0.0
 15
0.0
 25
0.0
 35
0.0
146
0.0
 13
0.0
 23
0.0
 33
0.0
 16
1.0
 26
0.0
 36
0.0
 17
0.0
 27
1.0
 37
0.0
 76
     0
330
23
  0
LAYOUT
  5
22
102
{ACAD_REACTORS
330
1A
102
}
330
1A
100
AcDbPlotSettings
  1

  2
none_device
  4
Letter_(8.50_x_11.00_Inches)
  6

 40
6.35
 41
6.35
 42
6.35000508
 43
6.35000508
 44
215.9
 45
279.4
 46
0.0
 47
0.0
 48
0.0
 49
0.0
140
0.0
141
0.0
142
1.0
143
1.0
 70
  1712
 72
     1
 73
     0
 74
     0
  7

 75
     0
147
1.0
148
0.0
149
0.0
100
AcDbLayout
  1
Model
 70
     1
 71
     0
 10
0.0
 20
0.0
 11
371.25
 21
262.5
 12
0.0
 22
0.0
 32
0.0
 14
0.0
 24
0.0
 34
0.0
 15
371.25
 25
262.5
 35
0.0
146
0.0
 13
0.0
 23
0.0
 33
0.0
 16
1.0
 26
0.0
 36
0.0
 17
0.0
 27
1.0
 37
0.0
 76
     0
330
1F
331
29
  0
MLINESTYLE
  5
18
102
{ACAD_REACTORS
330
17
102
}
330
17
100
AcDbMlineStyle
  2
Standard
 70
     0
  3

 62
   256
 51
90.0
 52
90.0
 71
     2
 49
0.5
 62
   256
  6
BYLAYER
 49
-0.5
 62
   256
  6
BYLAYER
  0
ACDBPLACEHOLDER
  5
F
102
{ACAD_REACTORS
330
E
102
}
330
E
  0
SCALE
  5
48
102
{ACAD_REACTORS
330
47
102
}
330
47
100
AcDbScale
 70
     0
300
1:1
140
1.0
141
1.0
290
     1
  0
SCALE
  5
49
102
{ACAD_REACTORS
330
47
102
}
330
47
100
AcDbScale
 70
     0
300
1:2
140
1.0
141
2.0
290
     0
  0
SCALE
  5
4A
102
{ACAD_REACTORS
330
47
102
}
330
47
100
AcDbScale
 70
     0
300
1:4
140
1.0
141
4.0
290
     0
  0
SCALE
  5
4B
102
{ACAD_REACTORS
330
47
102
}
330
47
100
AcDbScale
 70
     0
300
1:5
140
1.0
141
5.0
290
     0
  0
SCALE
  5
4C
102
{ACAD_REACTORS
330
47
102
}
330
47
100
AcDbScale
 70
     0
300
1:8
140
1.0
141
8.0
290
     0
  0
SCALE
  5
4D
102
{ACAD_REACTORS
330
47
102
}
330
47
100
AcDbScale
 70
     0
300
1:10
140
1.0
141
10.0
290
     0
  0
SCALE
  5
4E
102
{ACAD_REACTORS
330
47
102
}
330
47
100
AcDbScale
 70
     0
300
1:16
140
1.0
141
16.0
290
     0
  0
SCALE
  5
4F
102
{ACAD_REACTORS
330
47
102
}
330
47
100
AcDbScale
 70
     0
300
1:20
140
1.0
141
20.0
290
     0
  0
SCALE
  5
50
102
{ACAD_REACTORS
330
47
102
}
330
47
100
AcDbScale
 70
     0
300
1:30
140
1.0
141
30.0
290
     0
  0
SCALE
  5
51
102
{ACAD_REACTORS
330
47
102
}
330
47
100
AcDbScale
 70
     0
300
1:40
140
1.0
141
40.0
290
     0
  0
SCALE
  5
52
102
{ACAD_REACTORS
330
47
102
}
330
47
100
AcDbScale
 70
     0
300
1:50
140
1.0
141
50.0
290
     0
  0
SCALE
  5
53
102
{ACAD_REACTORS
330
47
102
}
330
47
100
AcDbScale
 70
     0
300
1:100
140
1.0
141
100.0
290
     0
  0
SCALE
  5
54
102
{ACAD_REACTORS
330
47
102
}
330
47
100
AcDbScale
 70
     0
300
2:1
140
2.0
141
1.0
290
     0
  0
SCALE
  5
55
102
{ACAD_REACTORS
330
47
102
}
330
47
100
AcDbScale
 70
     0
300
4:1
140
4.0
141
1.0
290
     0
  0
SCALE
  5
56
102
{ACAD_REACTORS
330
47
102
}
330
47
100
AcDbScale
 70
     0
300
8:1
140
8.0
141
1.0
290
     0
  0
SCALE
  5
57
102
{ACAD_REACTORS
330
47
102
}
330
47
100
AcDbScale
 70
     0
300
10:1
140
10.0
141
1.0
290
     0
  0
SCALE
  5
58
102
{ACAD_REACTORS
330
47
102
}
330
47
100
AcDbScale
 70
     0
300
100:1
140
100.0
141
1.0
290
     0
  0
SCALE
  5
59
102
{ACAD_REACTORS
330
47
102
}
330
47
100
AcDbScale
 70
     0
300
1/128" = 1'-0"
140
0.0078125
141
12.0
290
     0
  0
SCALE
  5
5A
102
{ACAD_REACTORS
330
47
102
}
330
47
100
AcDbScale
 70
     0
300
1/64" = 1'-0"
140
0.015625
141
12.0
290
     0
  0
SCALE
  5
5B
102
{ACAD_REACTORS
330
47
102
}
330
47
100
AcDbScale
 70
     0
300
1/32" = 1'-0"
140
0.03125
141
12.0
290
     0
  0
SCALE
  5
5C
102
{ACAD_REACTORS
330
47
102
}
330
47
100
AcDbScale
 70
     0
300
1/16" = 1'-0"
140
0.0625
141
12.0
290
     0
  0
SCALE
  5
5D
102
{ACAD_REACTORS
330
47
102
}
330
47
100
AcDbScale
 70
     0
300
3/32" = 1'-0"
140
0.09375
141
12.0
290
     0
  0
SCALE
  5
5E
102
{ACAD_REACTORS
330
47
102
}
330
47
100
AcDbScale
 70
     0
300
1/8" = 1'-0"
140
0.125
141
12.0
290
     0
  0
SCALE
  5
5F
102
{ACAD_REACTORS
330
47
102
}
330
47
100
AcDbScale
 70
     0
300
3/16" = 1'-0"
140
0.1875
141
12.0
290
     0
  0
SCALE
  5
60
102
{ACAD_REACTORS
330
47
102
}
330
47
100
AcDbScale
 70
     0
300
1/4" = 1'-0"
140
0.25
141
12.0
290
     0
  0
SCALE
  5
61
102
{ACAD_REACTORS
330
47
102
}
330
47
100
AcDbScale
 70
     0
300
3/8" = 1'-0"
140
0.375
141
12.0
290
     0
  0
SCALE
  5
62
102
{ACAD_REACTORS
330
47
102
}
330
47
100
AcDbScale
 70
     0
300
1/2" = 1'-0"
140
0.5
141
12.0
290
     0
  0
SCALE
  5
63
102
{ACAD_REACTORS
330
47
102
}
330
47
100
AcDbScale
 70
     0
300
3/4" = 1'-0"
140
0.75
141
12.0
290
     0
  0
SCALE
  5
64
102
{ACAD_REACTORS
330
47
102
}
330
47
100
AcDbScale
 70
     0
300
1" = 1'-0"
140
1.0
141
12.0
290
     0
  0
SCALE
  5
65
102
{ACAD_REACTORS
330
47
102
}
330
47
100
AcDbScale
 70
     0
300
1-1/2" = 1'-0"
140
1.5
141
12.0
290
     0
  0
SCALE
  5
66
102
{ACAD_REACTORS
330
47
102
}
330
47
100
AcDbScale
 70
     0
300
3" = 1'-0"
140
3.0
141
12.0
290
     0
  0
SCALE
  5
67
102
{ACAD_REACTORS
330
47
102
}
330
47
100
AcDbScale
 70
     0
300
6" = 1'-0"
140
6.0
141
12.0
290
     0
  0
SCALE
  5
68
102
{ACAD_REACTORS
330
47
102
}
330
47
100
AcDbScale
 70
     0
300
1'-0" = 1'-0"
140
12.0
141
12.0
290
     0
  0
ENDSEC
  0
EOF
