  0
SECTION
  2
HEADER
  9
$ACADVER
  1
AC1015
  9
$ACADMAINTVER
 70
     6
  9
$DWGCODEPAGE
  3
ANSI_1252
  9
$INSBASE
 10
0.0
 20
0.0
 30
0.0
  9
$EXTMIN
 10
0.0
 20
0.0
 30
0.0
  9
$EXTMAX
 10
371.25
 20
262.5
 30
0.0
  9
$LIMMIN
 10
0.0
 20
0.0
  9
$LIMMAX
 10
371.25
 20
262.5
  9
$ORTHOMODE
 70
     0
  9
$REGENMODE
 70
     1
  9
$FILLMODE
 70
     1
  9
$QTEXTMODE
 70
     0
  9
$MIRRTEXT
 70
     1
  9
$LTSCALE
 40
1.25
  9
$ATTMODE
 70
     1
  9
$TEXTSIZE
 40
4.8506944444
  9
$TRACEWID
 40
1.0
  9
$TEXTSTYLE
  7
Standard
  9
$CLAYER
  8
0
  9
$CELTYPE
  6
ByLayer
  9
$CECOLOR
 62
   256
  9
$CELTSCALE
 40
1.0
  9
$DISPSILH
 70
     0
  9
$DIMSCALE
 40
1.0
  9
$DIMASZ
 40
4.1275
  9
$DIMEXO
 40
1.25
  9
$DIMDLI
 40
3.75
  9
$DIMRND
 40
0.0
  9
$DIMDLE
 40
0.0
  9
$DIMEXE
 40
1.25
  9
$DIMTP
 40
0.0
  9
$DIMTM
 40
0.0
  9
$DIMTXT
 40
4.8506944444
  9
$DIMCEN
 40
2.5
  9
$DIMTSZ
 40
0.0
  9
$DIMTOL
 70
     0
  9
$DIMLIM
 70
     0
  9
$DIMTIH
 70
     1
  9
$DIMTOH
 70
     1
  9
$DIMSE1
 70
     0
  9
$DIMSE2
 70
     0
  9
$DIMTAD
 70
     1
  9
$DIMZIN
 70
     0
  9
$DIMBLK
  1

  9
$DIMASO
 70
     1
  9
$DIMSHO
 70
     1
  9
$DIMPOST
  1

  9
$DIMAPOST
  1

  9
$DIMALT
 70
     0
  9
$DIMALTD
 70
     3
  9
$DIMALTF
 40
0.0393700787
  9
$DIMLFAC
 40
1.0
  9
$DIMTOFL
 70
     1
  9
$DIMTVP
 40
0.0
  9
$DIMTIX
 70
     0
  9
$DIMSOXD
 70
     0
  9
$DIMSAH
 70
     0
  9
$DIMBLK1
  1

  9
$DIMBLK2
  1

  9
$DIMSTYLE
  2
ISO-25
  9
$DIMCLRD
 70
     0
  9
$DIMCLRE
 70
     0
  9
$DIMCLRT
 70
     0
  9
$DIMTFAC
 40
1.0
  9
$DIMGAP
 40
1.905
  9
$DIMJUST
 70
     0
  9
$DIMSD1
 70
     0
  9
$DIMSD2
 70
     0
  9
$DIMTOLJ
 70
     0
  9
$DIMTZIN
 70
     0
  9
$DIMALTZ
 70
     0
  9
$DIMALTTZ
 70
     0
  9
$DIMUPT
 70
     0
  9
$DIMDEC
 70
     2
  9
$DIMTDEC
 70
     2
  9
$DIMALTU
 70
     2
  9
$DIMALTTD
 70
     3
  9
$DIMTXSTY
  7
Standard
  9
$DIMAUNIT
 70
     0
  9
$DIMADEC
 70
     2
  9
$DIMALTRND
 40
0.0
  9
$DIMAZIN
 70
     0
  9
$DIMDSEP
 70
    44
  9
$DIMATFIT
 70
     3
  9
$DIMFRAC
 70
     0
  9
$DIMLDRBLK
  1

  9
$DIMLUNIT
 70
     2
  9
$DIMLWD
 70
    -2
  9
$DIMLWE
 70
    -2
  9
$DIMTMOVE
 70
     0
  9
$LUNITS
 70
     2
  9
$LUPREC
 70
     2
  9
$SKETCHINC
 40
1.0
  9
$FILLETRAD
 40
10.0
  9
$AUNITS
 70
     1
  9
$AUPREC
 70
     2
  9
$MENU
  1
.
  9
$ELEVATION
 40
0.0
  9
$PELEVATION
 40
0.0
  9
$THICKNESS
 40
0.0
  9
$LIMCHECK
 70
     0
  9
$CHAMFERA
 40
0.0
  9
$CHAMFERB
 40
0.0
  9
$CHAMFERC
 40
0.0
  9
$CHAMFERD
 40
0.0
  9
$SKPOLY
 70
     0
  9
$TDCREATE
 40
2458601.587902523
  9
$TDUCREATE
 40
2458601.358735857
  9
$TDUPDATE
 40
2458601.587903333
  9
$TDUUPDATE
 40
2458601.358736667
  9
$TDINDWG
 40
0.0000000116
  9
$TDUSRTIMER
 40
0.0000000116
  9
$USRTIMER
 70
     1
  9
$ANGBASE
 50
0.0
  9
$ANGDIR
 70
     0
  9
$PDMODE
 70
     0
  9
$PDSIZE
 40
-1.0
  9
$PLINEWID
 40
0.0
  9
$SPLFRAME
 70
     0
  9
$SPLINETYPE
 70
     6
  9
$SPLINESEGS
 70
     8
  9
$HANDSEED
  5
140
  9
$SURFTAB1
 70
     6
  9
$SURFTAB2
 70
     6
  9
$SURFTYPE
 70
     6
  9
$SURFU
 70
     6
  9
$SURFV
 70
     6
  9
$UCSBASE
  2

  9
$UCSNAME
  2

  9
$UCSORG
 10
0.0
 20
0.0
 30
0.0
  9
$UCSXDIR
 10
1.0
 20
0.0
 30
0.0
  9
$UCSYDIR
 10
0.0
 20
1.0
 30
0.0
  9
$UCSORTHOREF
  2

  9
$UCSORTHOVIEW
 70
     0
  9
$UCSORGTOP
 10
0.0
 20
0.0
 30
0.0
  9
$UCSORGBOTTOM
 10
0.0
 20
0.0
 30
0.0
  9
$UCSORGLEFT
 10
0.0
 20
0.0
 30
0.0
  9
$UCSORGRIGHT
 10
0.0
 20
0.0
 30
0.0
  9
$UCSORGFRONT
 10
0.0
 20
0.0
 30
0.0
  9
$UCSORGBACK
 10
0.0
 20
0.0
 30
0.0
  9
$PUCSBASE
  2

  9
$PUCSNAME
  2

  9
$PUCSORG
 10
0.0
 20
0.0
 30
0.0
  9
$PUCSXDIR
 10
1.0
 20
0.0
 30
0.0
  9
$PUCSYDIR
 10
0.0
 20
1.0
 30
0.0
  9
$PUCSORTHOREF
  2

  9
$PUCSORTHOVIEW
 70
     0
  9
$PUCSORGTOP
 10
0.0
 20
0.0
 30
0.0
  9
$PUCSORGBOTTOM
 10
0.0
 20
0.0
 30
0.0
  9
$PUCSORGLEFT
 10
0.0
 20
0.0
 30
0.0
  9
$PUCSORGRIGHT
 10
0.0
 20
0.0
 30
0.0
  9
$PUCSORGFRONT
 10
0.0
 20
0.0
 30
0.0
  9
$PUCSORGBACK
 10
0.0
 20
0.0
 30
0.0
  9
$USERI1
 70
     0
  9
$USERI2
 70
     0
  9
$USERI3
 70
     0
  9
$USERI4
 70
     0
  9
$USERI5
 70
     0
  9
$USERR1
 40
0.0
  9
$USERR2
 40
0.0
  9
$USERR3
 40
0.0
  9
$USERR4
 40
0.0
  9
$USERR5
 40
0.0
  9
$WORLDVIEW
 70
     1
  9
$SHADEDGE
 70
     3
  9
$SHADEDIF
 70
    70
  9
$TILEMODE
 70
     1
  9
$MAXACTVP
 70
    64
  9
$PINSBASE
 10
0.0
 20
0.0
 30
0.0
  9
$PLIMCHECK
 70
     0
  9
$PEXTMIN
 10
1.0000000000E+20
 20
1.0000000000E+20
 30
1.0000000000E+20
  9
$PEXTMAX
 10
-1.0000000000E+20
 20
-1.0000000000E+20
 30
-1.0000000000E+20
  9
$PLIMMIN
 10
0.0
 20
0.0
  9
$PLIMMAX
 10
420.0
 20
297.0
  9
$UNITMODE
 70
     0
  9
$VISRETAIN
 70
     1
  9
$PLINEGEN
 70
     0
  9
$PSLTSCALE
 70
     1
  9
$TREEDEPTH
 70
  3020
  9
$CMLSTYLE
  2
Standard
  9
$CMLJUST
 70
     0
  9
$CMLSCALE
 40
20.0
  9
$PROXYGRAPHICS
 70
     1
  9
$MEASUREMENT
 70
     1
  9
$CELWEIGHT
370
    -1
  9
$ENDCAPS
280
     0
  9
$JOINSTYLE
280
     0
  9
$LWDISPLAY
290
     1
  9
$INSUNITS
 70
     4
  9
$HYPERLINKBASE
  1

  9
$STYLESHEET
  1

  9
$XEDIT
290
     1
  9
$CEPSNTYPE
380
     0
  9
$PSTYLEMODE
290
     1
  9
$FINGERPRINTGUID
  2
{235AC8CB-E0AE-487E-862D-5EAC68FF8683}
  9
$VERSIONGUID
  2
{FAEB1C32-E019-11D5-929B-00C0DF256EC4}
  9
$EXTNAMES
290
     1
  9
$PSVPSCALE
 40
0.0
  9
$OLESTARTUP
290
     0
  0
ENDSEC
  0
SECTION
  2
CLASSES
  0
CLASS
  1
ACDBDICTIONARYWDFLT
  2
AcDbDictionaryWithDefault
  3
ObjectDBX Classes
 90
        0
280
     0
281
     0
  0
CLASS
  1
VISUALSTYLE
  2
AcDbVisualStyle
  3
ObjectDBX Classes
 90
     4095
280
     0
281
     0
  0
CLASS
  1
MATERIAL
  2
AcDbMaterial
  3
ObjectDBX Classes
 90
     1153
280
     0
281
     0
  0
CLASS
  1
SCALE
  2
AcDbScale
  3
ObjectDBX Classes
 90
     1153
280
     0
281
     0
  0
CLASS
  1
SUN
  2
AcDbSun
  3
SCENEOE
 90
     1153
280
     0
281
     0
  0
CLASS
  1
ACDBPLACEHOLDER
  2
AcDbPlaceHolder
  3
ObjectDBX Classes
 90
        0
280
     0
281
     0
  0
CLASS
  1
LAYOUT
  2
AcDbLayout
  3
ObjectDBX Classes
 90
        0
280
     0
281
     0
  0
ENDSEC
  0
SECTION
  2
TABLES
  0
TABLE
  2
VPORT
  5
8
330
0
100
AcDbSymbolTable
 70
     1
  0
VPORT
  5
29
330
8
100
AcDbSymbolTableRecord
100
AcDbViewportTableRecord
  2
*Active
 70
     0
 10
0.0
 20
0.0
 11
1.0
 21
1.0
 12
185.625
 22
131.25
 13
0.0
 23
0.0
 14
10.0
 24
10.0
 15
10.0
 25
10.0
 16
0.0
 26
0.0
 36
1.0
 17
0.0
 27
0.0
 37
0.0
 40
262.5
 41
1.4142857143
 42
50.0
 43
0.0
 44
0.0
 50
0.0
 51
0.0
 71
     0
 72
  2000
 73
     1
 74
     3
 75
     0
 76
     0
 77
     0
 78
     0
281
     0
 65
     1
110
0.0
120
0.0
130
0.0
111
1.0
121
0.0
131
0.0
112
0.0
122
1.0
132
0.0
 79
     0
146
0.0
  0
ENDTAB
  0
TABLE
  2
LTYPE
  5
5
330
0
100
AcDbSymbolTable
 70
     6
  0
LTYPE
  5
14
330
5
100
AcDbSymbolTableRecord
100
AcDbLinetypeTableRecord
  2
ByBlock
 70
     0
  3

 72
    65
 73
     0
 40
0.0
  0
LTYPE
  5
15
330
5
100
AcDbSymbolTableRecord
100
AcDbLinetypeTableRecord
  2
ByLayer
 70
     0
  3

 72
    65
 73
     0
 40
0.0
  0
LTYPE
  5
16
330
5
100
AcDbSymbolTableRecord
100
AcDbLinetypeTableRecord
  2
Continuous
 70
     0
  3
Solid line
 72
    65
 73
     0
 40
0.0
  0
LTYPE
  5
6A
330
5
100
AcDbSymbolTableRecord
100
AcDbLinetypeTableRecord
  2
HIDDEN
 70
     0
  3
Hidden __ __ __ __ __ __ __ __ __ __ __ __ __ __
 72
    65
 73
     2
 40
1.905
 49
1.27
 74
     0
 49
-0.635
 74
     0
  0
LTYPE
  5
6B
330
5
100
AcDbSymbolTableRecord
100
AcDbLinetypeTableRecord
  2
PHANTOM
 70
     0
  3
Phantom ______  __  __  ______  __  __  ______
 72
    65
 73
     6
 40
12.7
 49
6.35
 74
     0
 49
-1.27
 74
     0
 49
1.27
 74
     0
 49
-1.27
 74
     0
 49
1.27
 74
     0
 49
-1.27
 74
     0
  0
LTYPE
  5
6C
330
5
100
AcDbSymbolTableRecord
100
AcDbLinetypeTableRecord
  2
CENTER
 70
     0
  3
Center ____ _ ____ _ ____ _ ____ _ ____ _ ____
 72
    65
 73
     4
 40
10.16
 49
6.35
 74
     0
 49
-1.27
 74
     0
 49
1.27
 74
     0
 49
-1.27
 74
     0
  0
LTYPE
  5
6D
330
5
100
AcDbSymbolTableRecord
100
AcDbLinetypeTableRecord
  2
CENTERX2
 70
     0
  3
Center (2x) ________  __  ________  __  _____
 72
    65
 73
     4
 40
20.32
 49
12.7
 74
     0
 49
-2.54
 74
     0
 49
2.54
 74
     0
 49
-2.54
 74
     0
  0
LTYPE
  5
6E
330
5
100
AcDbSymbolTableRecord
100
AcDbLinetypeTableRecord
  2
DOT2
 70
     0
  3
Dot (.5x) ........................................
 72
    65
 73
     2
 40
0.635
 49
0.0
 74
     0
 49
-0.635
 74
     0
  0
ENDTAB
  0
TABLE
  2
LAYER
  5
2
330
0
100
AcDbSymbolTable
 70
     8
  0
LAYER
  5
10
330
2
100
AcDbSymbolTableRecord
100
AcDbLayerTableRecord
  2
0
 70
     0
 62
     7
  6
Continuous
370
    -3
390
F
  0
LAYER
  5
6F
330
2
100
AcDbSymbolTableRecord
100
AcDbLayerTableRecord
  2
FORMAT
 70
     0
 62
     7
  6
Continuous
370
    -3
390
F
  0
LAYER
  5
70
330
2
100
AcDbSymbolTableRecord
100
AcDbLayerTableRecord
  2
SLD-0
 70
     0
 62
     2
  6
Continuous
370
    -3
390
F
  0
LAYER
  5
71
330
2
100
AcDbSymbolTableRecord
100
AcDbLayerTableRecord
  2
DIM
 70
     0
 62
   179
  6
Continuous
370
    -3
390
F
  0
LAYER
  5
72
330
2
100
AcDbSymbolTableRecord
100
AcDbLayerTableRecord
  2
SLD-DEFPOINTS
 70
     0
 62
   179
  6
Continuous
370
    -3
390
F
  0
LAYER
  5
73
330
2
100
AcDbSymbolTableRecord
100
AcDbLayerTableRecord
  2
HAT
 70
     0
 62
   135
  6
Continuous
370
    -3
390
F
  0
LAYER
  5
74
330
2
100
AcDbSymbolTableRecord
100
AcDbLayerTableRecord
  2
JOB
 70
     0
 62
   201
  6
Continuous
370
    -3
390
F
  0
LAYER
  5
75
330
2
100
AcDbSymbolTableRecord
100
AcDbLayerTableRecord
  2
INSPECTION_REPORT
 70
     0
 62
   255
  6
Continuous
370
    -3
390
F
  0
ENDTAB
  0
TABLE
  2
STYLE
  5
3
330
0
100
AcDbSymbolTable
 70
     4
  0
STYLE
  5
11
330
3
100
AcDbSymbolTableRecord
100
AcDbTextStyleTableRecord
  2
Standard
 70
     0
 40
0.0
 41
1.0
 50
0.0
 71
     0
 42
4.8506944444
  3
txt
  4

  0
STYLE
  5
96
330
3
100
AcDbSymbolTableRecord
100
AcDbTextStyleTableRecord
  2
SLDTEXTSTYLE0
 70
     0
 40
0.0
 41
0.7
 50
0.0
 71
     0
 42
4.8506944444
  3
TXT
  4

  0
STYLE
  5
98
330
3
100
AcDbSymbolTableRecord
100
AcDbTextStyleTableRecord
  2
SLDTEXTSTYLE1
 70
     0
 40
0.0
 41
0.75
 50
0.0
 71
     0
 42
4.8506944444
  3
TXT
  4

  0
STYLE
  5
AB
330
3
100
AcDbSymbolTableRecord
100
AcDbTextStyleTableRecord
  2
SLDTEXTSTYLE2
 70
     0
 40
0.0
 41
0.6875
 50
0.0
 71
     0
 42
4.8506944444
  3
TXT
  4

  0
ENDTAB
  0
TABLE
  2
VIEW
  5
6
330
0
100
AcDbSymbolTable
 70
     0
  0
ENDTAB
  0
TABLE
  2
UCS
  5
7
330
0
100
AcDbSymbolTable
 70
     0
  0
ENDTAB
  0
TABLE
  2
APPID
  5
9
330
0
100
AcDbSymbolTable
 70
     1
  0
APPID
  5
12
330
9
100
AcDbSymbolTableRecord
100
AcDbRegAppTableRecord
  2
ACAD
 70
     0
  0
ENDTAB
  0
TABLE
  2
DIMSTYLE
  5
A
330
0
100
AcDbSymbolTable
 70
     3
100
AcDbDimStyleTable
  0
DIMSTYLE
105
27
330
A
100
AcDbSymbolTableRecord
100
AcDbDimStyleTableRecord
  2
ISO-25
 70
     0
 41
2.5
 42
0.625
 43
3.75
 44
1.25
 73
     0
 74
     0
 77
     1
 78
     8
140
2.5
141
2.5
143
0.0393700787
147
0.625
171
     3
172
     1
178
     0
271
     2
272
     2
274
     3
278
    44
283
     0
284
     8
340
11
  0
DIMSTYLE
105
114
102
{ACAD_REACTORS
330
113
330
11F
102
}
330
A
100
AcDbSymbolTableRecord
100
AcDbDimStyleTableRecord
  2
SLDDIMSTYLE0
 70
     0
 41
4.1275
 44
0.0
 45
0.000000001
 73
     0
 74
     0
 77
     1
 78
     4
 79
     1
140
3.6380208333
147
0.9095052083
173
     1
178
     0
271
     2
272
     2
276
     2
284
    12
340
96
  0
DIMSTYLE
105
12A
102
{ACAD_REACTORS
330
129
330
134
102
}
330
A
100
AcDbSymbolTableRecord
100
AcDbDimStyleTableRecord
  2
SLDDIMSTYLE1
 70
     0
 41
4.1275
 44
0.0
 45
0.000000001
 73
     0
 74
     0
 77
     1
 78
    12
 79
     3
140
3.6380208333
147
0.9095052083
173
     1
178
     0
271
     2
272
     2
276
     2
284
    12
340
96
  0
ENDTAB
  0
TABLE
  2
BLOCK_RECORD
  5
1
330
0
100
AcDbSymbolTable
 70
     6
  0
BLOCK_RECORD
  5
1F
330
1
100
AcDbSymbolTableRecord
100
AcDbBlockTableRecord
  2
*Model_Space
340
22
  0
BLOCK_RECORD
  5
1B
330
1
100
AcDbSymbolTableRecord
100
AcDbBlockTableRecord
  2
*Paper_Space
340
1E
  0
BLOCK_RECORD
  5
23
330
1
100
AcDbSymbolTableRecord
100
AcDbBlockTableRecord
  2
*Paper_Space0
340
26
  0
BLOCK_RECORD
  5
C9
330
1
100
AcDbSymbolTableRecord
100
AcDbBlockTableRecord
  2
SW_CENTERMARKSYMBOL_0
340
0
102
{BLKREFS
331
D4
102
}
  0
BLOCK_RECORD
  5
115
330
1
100
AcDbSymbolTableRecord
100
AcDbBlockTableRecord
  2
_D
340
0
  0
BLOCK_RECORD
  5
120
330
1
100
AcDbSymbolTableRecord
100
AcDbBlockTableRecord
  2
_D_1
340
0
  0
BLOCK_RECORD
  5
12B
330
1
100
AcDbSymbolTableRecord
100
AcDbBlockTableRecord
  2
_D_2
340
0
  0
BLOCK_RECORD
  5
135
330
1
100
AcDbSymbolTableRecord
100
AcDbBlockTableRecord
  2
_D_3
340
0
  0
ENDTAB
  0
ENDSEC
  0
SECTION
  2
BLOCKS
  0
BLOCK
  5
20
330
1F
100
AcDbEntity
  8
0
100
AcDbBlockBegin
  2
*Model_Space
 70
     0
 10
0.0
 20
0.0
 30
0.0
  3
*Model_Space
  1
*Model_Space
  0
ENDBLK
  5
21
330
1F
100
AcDbEntity
  8
0
100
AcDbBlockEnd
  0
BLOCK
  5
1C
330
1B
100
AcDbEntity
 67
     1
  8
0
100
AcDbBlockBegin
  2
*Paper_Space
 70
     0
 10
0.0
 20
0.0
 30
0.0
  3
*Paper_Space
  1
*Paper_Space
  0
ENDBLK
  5
1D
330
1B
100
AcDbEntity
 67
     1
  8
0
100
AcDbBlockEnd
  0
BLOCK
  5
24
330
23
100
AcDbEntity
  8
0
100
AcDbBlockBegin
  2
*Paper_Space0
 70
     0
 10
0.0
 20
0.0
 30
0.0
  3
*Paper_Space0
  1
*Paper_Space0
  0
ENDBLK
  5
25
330
23
100
AcDbEntity
  8
0
100
AcDbBlockEnd
  0
BLOCK
  5
CA
330
C9
100
AcDbEntity
  8
0
100
AcDbBlockBegin
  2
SW_CENTERMARKSYMBOL_0
 70
     0
 10
0.0
 20
0.0
 30
0.0
  3
SW_CENTERMARKSYMBOL_0
  1
SW_CENTERMARKSYMBOL_0
  0
LINE
  5
CC
330
C9
100
AcDbEntity
  8
DIM
 62
     0
100
AcDbLine
 10
0.0
 20
0.0
 30
0.0
 11
0.0
 21
2.5
 31
0.0
  0
LINE
  5
CD
330
C9
100
AcDbEntity
  8
DIM
 62
     0
100
AcDbLine
 10
0.0
 20
0.0
 30
0.0
 11
-2.5
 21
0.0
 31
0.0
  0
LINE
  5
CE
330
C9
100
AcDbEntity
  8
DIM
 62
     0
100
AcDbLine
 10
0.0
 20
0.0
 30
0.0
 11
0.0
 21
-2.5
 31
0.0
  0
LINE
  5
CF
330
C9
100
AcDbEntity
  8
DIM
 62
     0
100
AcDbLine
 10
0.0
 20
0.0
 30
0.0
 11
2.5
 21
0.0
 31
0.0
  0
LINE
  5
D0
330
C9
100
AcDbEntity
  8
DIM
 62
     0
100
AcDbLine
 10
0.0
 20
5.0
 30
0.0
 11
0.0
 21
33.25
 31
0.0
  0
LINE
  5
D1
330
C9
100
AcDbEntity
  8
DIM
 62
     0
100
AcDbLine
 10
-5.0
 20
0.0
 30
0.0
 11
-33.25
 21
0.0
 31
0.0
  0
LINE
  5
D2
330
C9
100
AcDbEntity
  8
DIM
 62
     0
100
AcDbLine
 10
0.0
 20
-5.0
 30
0.0
 11
0.0
 21
-33.25
 31
0.0
  0
LINE
  5
D3
330
C9
100
AcDbEntity
  8
DIM
 62
     0
100
AcDbLine
 10
5.0
 20
0.0
 30
0.0
 11
33.25
 21
0.0
 31
0.0
  0
ENDBLK
  5
CB
330
C9
100
AcDbEntity
  8
0
100
AcDbBlockEnd
  0
BLOCK
  5
116
330
115
100
AcDbEntity
  8
0
100
AcDbBlockBegin
  2
_D
 70
     0
 10
0.0
 20
0.0
 30
0.0
  3
_D
  1
_D
  0
SOLID
  5
118
330
115
100
AcDbEntity
  8
DIM
100
AcDbTrace
 10
140.9882186575
 20
164.6701044763
 30
0.0
 11
140.3532186575
 21
160.5426044763
 31
0.0
 12
141.6232186575
 22
160.5426044763
 32
0.0
 13
141.6232186575
 23
160.5426044763
 33
0.0
  0
SOLID
  5
119
330
115
100
AcDbEntity
  8
DIM
100
AcDbTrace
 10
140.9882186575
 20
101.1701044763
 30
0.0
 11
141.6232186575
 21
105.2976044763
 31
0.0
 12
140.3532186575
 22
105.2976044763
 32
0.0
 13
140.3532186575
 23
105.2976044763
 33
0.0
  0
LINE
  5
11A
330
115
100
AcDbEntity
  8
DIM
100
AcDbLine
 10
216.1485727862
 20
164.6701044763
 30
0.0
 11
139.7382186575
 21
164.6701044763
 31
0.0
  0
LINE
  5
11B
330
115
100
AcDbEntity
  8
DIM
100
AcDbLine
 10
216.1485727862
 20
101.1701044763
 30
0.0
 11
139.7382186575
 21
101.1701044763
 31
0.0
  0
LINE
  5
11C
330
115
100
AcDbEntity
  8
DIM
100
AcDbLine
 10
140.9882186575
 20
164.6701044763
 30
0.0
 11
140.9882186575
 21
101.1701044763
 31
0.0
  0
MTEXT
  5
11D
330
115
100
AcDbEntity
  8
DIM
100
AcDbMText
 10
136.2985630736
 20
124.542382361
 30
0.0
 40
3.6380208333
 41
0.0
 71
     1
 72
     1
  1
%%c
  7
SLDTEXTSTYLE0
 11
-7.044195017643634E-15
 21
1.0
 31
0.0
 73
     1
 44
1.0
  0
MTEXT
  5
11E
330
115
100
AcDbEntity
  8
DIM
100
AcDbMText
 10
136.2985630736
 20
130.1681772355
 30
0.0
 40
3.6380208333
 41
0.0
 71
     1
 72
     1
  1
63.50
  7
SLDTEXTSTYLE0
 11
-7.044195017643634E-15
 21
1.0
 31
0.0
 73
     1
 44
1.0
  0
ENDBLK
  5
117
330
115
100
AcDbEntity
  8
0
100
AcDbBlockEnd
  0
BLOCK
  5
121
330
120
100
AcDbEntity
  8
0
100
AcDbBlockBegin
  2
_D_1
 70
     0
 10
0.0
 20
0.0
 30
0.0
  3
_D_1
  1
_D_1
  0
SOLID
  5
123
330
120
100
AcDbEntity
  8
DIM
100
AcDbTrace
 10
144.7985727864
 20
88.6701044758
 30
0.0
 11
148.9260727864
 21
88.0351044758
 31
0.0
 12
148.9260727864
 22
89.3051044758
 32
0.0
 13
148.9260727864
 23
89.3051044758
 33
0.0
  0
SOLID
  5
124
330
120
100
AcDbEntity
  8
DIM
100
AcDbTrace
 10
313.1985727862
 20
88.6701044758
 30
0.0
 11
309.0710727862
 21
89.3051044758
 31
0.0
 12
309.0710727862
 22
88.0351044758
 32
0.0
 13
309.0710727862
 23
88.0351044758
 33
0.0
  0
LINE
  5
125
330
120
100
AcDbEntity
  8
DIM
100
AcDbLine
 10
144.7985727864
 20
131.6701044763
 30
0.0
 11
144.7985727864
 21
87.4201044758
 31
0.0
  0
LINE
  5
126
330
120
100
AcDbEntity
  8
DIM
100
AcDbLine
 10
313.1985727862
 20
116.6701044763
 30
0.0
 11
313.1985727862
 21
87.4201044758
 31
0.0
  0
LINE
  5
127
330
120
100
AcDbEntity
  8
DIM
100
AcDbLine
 10
144.7985727864
 20
88.6701044758
 30
0.0
 11
313.1985727862
 21
88.6701044758
 31
0.0
  0
MTEXT
  5
128
330
120
100
AcDbEntity
  8
DIM
100
AcDbMText
 10
222.2042317614
 20
93.3597600597
 30
0.0
 40
3.6380208333
 41
0.0
 71
     1
 72
     1
  1
168.40
  7
SLDTEXTSTYLE0
 73
     1
 44
1.0
  0
ENDBLK
  5
122
330
120
100
AcDbEntity
  8
0
100
AcDbBlockEnd
  0
BLOCK
  5
12C
330
12B
100
AcDbEntity
  8
0
100
AcDbBlockBegin
  2
_D_2
 70
     0
 10
0.0
 20
0.0
 30
0.0
  3
_D_2
  1
_D_2
  0
SOLID
  5
12E
330
12B
100
AcDbEntity
  8
DIM
100
AcDbTrace
 10
213.1985727862
 20
96.9952813609
 30
0.0
 11
217.3260727862
 21
96.3602813609
 31
0.0
 12
217.3260727862
 22
97.6302813609
 32
0.0
 13
217.3260727862
 23
97.6302813609
 33
0.0
  0
SOLID
  5
12F
330
12B
100
AcDbEntity
  8
DIM
100
AcDbTrace
 10
313.1985727862
 20
96.9952813609
 30
0.0
 11
309.0710727862
 21
97.6302813609
 31
0.0
 12
309.0710727862
 22
96.3602813609
 32
0.0
 13
309.0710727862
 23
96.3602813609
 33
0.0
  0
LINE
  5
130
330
12B
100
AcDbEntity
  8
DIM
100
AcDbLine
 10
213.1985727862
 20
109.4451044763
 30
0.0
 11
213.1985727862
 21
95.7452813609
 31
0.0
  0
LINE
  5
131
330
12B
100
AcDbEntity
  8
DIM
100
AcDbLine
 10
313.1985727862
 20
116.6701044763
 30
0.0
 11
313.1985727862
 21
95.7452813609
 31
0.0
  0
LINE
  5
132
330
12B
100
AcDbEntity
  8
DIM
100
AcDbLine
 10
213.1985727862
 20
96.9952813609
 30
0.0
 11
313.1985727862
 21
96.9952813609
 31
0.0
  0
MTEXT
  5
133
330
12B
100
AcDbEntity
  8
DIM
100
AcDbMText
 10
259.5100237454
 20
101.6849369448
 30
0.0
 40
3.6380208333
 41
0.0
 71
     1
 72
     1
  1
100
  7
SLDTEXTSTYLE0
 73
     1
 44
1.0
  0
ENDBLK
  5
12D
330
12B
100
AcDbEntity
  8
0
100
AcDbBlockEnd
  0
BLOCK
  5
136
330
135
100
AcDbEntity
  8
0
100
AcDbBlockBegin
  2
_D_3
 70
     0
 10
0.0
 20
0.0
 30
0.0
  3
_D_3
  1
_D_3
  0
SOLID
  5
138
330
135
100
AcDbEntity
  8
DIM
100
AcDbTrace
 10
323.6485494129
 20
111.9201044763
 30
0.0
 11
324.2835494129
 21
116.0476044763
 31
0.0
 12
323.0135494129
 22
116.0476044763
 32
0.0
 13
323.0135494129
 23
116.0476044763
 33
0.0
  0
SOLID
  5
139
330
135
100
AcDbEntity
  8
DIM
100
AcDbTrace
 10
323.6485494129
 20
153.9201044763
 30
0.0
 11
323.0135494129
 21
149.7926044763
 31
0.0
 12
324.2835494129
 22
149.7926044763
 32
0.0
 13
324.2835494129
 23
149.7926044763
 33
0.0
  0
LINE
  5
13A
330
135
100
AcDbEntity
  8
DIM
100
AcDbLine
 10
301.5815312632
 20
111.9201044763
 30
0.0
 11
324.8985494129
 21
111.9201044763
 31
0.0
  0
LINE
  5
13B
330
135
100
AcDbEntity
  8
DIM
100
AcDbLine
 10
301.5815312632
 20
153.9201044763
 30
0.0
 11
324.8985494129
 21
153.9201044763
 31
0.0
  0
LINE
  5
13C
330
135
100
AcDbEntity
  8
DIM
100
AcDbLine
 10
323.6485494129
 20
111.9201044763
 30
0.0
 11
323.6485494129
 21
153.9201044763
 31
0.0
  0
MTEXT
  5
13D
330
135
100
AcDbEntity
  8
DIM
100
AcDbMText
 10
318.958893829
 20
127.6481743451
 30
0.0
 40
3.6380208333
 41
0.0
 71
     1
 72
     1
  1
%%c
  7
SLDTEXTSTYLE0
 11
6.123233995736766E-17
 21
1.0
 31
0.0
 73
     1
 44
1.0
  0
MTEXT
  5
13E
330
135
100
AcDbEntity
  8
DIM
100
AcDbMText
 10
318.958893829
 20
133.2739692196
 30
0.0
 40
3.6380208333
 41
0.0
 71
     1
 72
     1
  1
42
  7
SLDTEXTSTYLE0
 11
6.123233995736766E-17
 21
1.0
 31
0.0
 73
     1
 44
1.0
  0
ENDBLK
  5
137
330
135
100
AcDbEntity
  8
0
100
AcDbBlockEnd
  0
ENDSEC
  0
SECTION
  2
ENTITIES
  0
LINE
  5
76
330
1F
100
AcDbEntity
  8
DIM
100
AcDbLine
 10
130.8805308612
 20
12.2387393211
 30
0.0
 11
130.8805308612
 21
5.9887393211
 31
0.0
  0
LINE
  5
77
330
1F
100
AcDbEntity
  8
DIM
100
AcDbLine
 10
318.0870021191
 20
12.2387393211
 30
0.0
 11
318.0870021191
 21
5.9887393211
 31
0.0
  0
LINE
  5
78
330
1F
100
AcDbEntity
  8
DIM
100
AcDbLine
 10
296.8146374145
 20
12.2387393211
 30
0.0
 11
296.8146374145
 21
5.9887393211
 31
0.0
  0
LINE
  5
79
330
1F
100
AcDbEntity
  8
DIM
100
AcDbLine
 10
348.6305308612
 20
5.9887393211
 30
0.0
 11
348.6305308612
 21
12.2387393211
 31
0.0
  0
LINE
  5
7A
330
1F
100
AcDbEntity
  8
DIM
100
AcDbLine
 10
140.6305308612
 20
12.2387393211
 30
0.0
 11
140.6305308612
 21
5.9887393211
 31
0.0
  0
LINE
  5
7B
330
1F
100
AcDbEntity
  8
DIM
100
AcDbLine
 10
164.6192214035
 20
12.2387393211
 30
0.0
 11
164.6192214035
 21
5.9887393211
 31
0.0
  0
LINE
  5
7C
330
1F
100
AcDbEntity
  8
DIM
100
AcDbLine
 10
364.8805308612
 20
5.9887393211
 30
0.0
 11
364.8805308612
 21
96.3012393211
 31
0.0
  0
LINE
  5
7D
330
1F
100
AcDbEntity
  8
DIM
100
AcDbLine
 10
357.2737558684
 20
75.0512393211
 30
0.0
 11
364.8805308612
 21
75.0512393211
 31
0.0
  0
LINE
  5
7E
330
1F
100
AcDbEntity
  8
DIM
100
AcDbLine
 10
186.3791885657
 20
11.3012393211
 30
0.0
 11
186.3791885657
 21
5.9887393211
 31
0.0
  0
LINE
  5
7F
330
1F
100
AcDbEntity
  8
DIM
100
AcDbLine
 10
245.9549364505
 20
12.2387393211
 30
0.0
 11
245.9549364505
 21
5.9887393211
 31
0.0
  0
LINE
  5
80
330
1F
100
AcDbEntity
  8
DIM
100
AcDbLine
 10
186.3791885657
 20
12.2387393211
 30
0.0
 11
186.3791885657
 21
11.3012393211
 31
0.0
  0
LINE
  5
81
330
1F
100
AcDbEntity
  8
DIM
100
AcDbLine
 10
358.6305308612
 20
21.9261493211
 30
0.0
 11
364.8805308612
 21
21.9261493211
 31
0.0
  0
LINE
  5
82
330
1F
100
AcDbEntity
  8
DIM
100
AcDbLine
 10
358.6305308612
 20
249.7387393211
 30
0.0
 11
12.3805308612
 21
249.7387393211
 31
0.0
  0
LINE
  5
83
330
1F
100
AcDbEntity
  8
DIM
100
AcDbLine
 10
364.8805308612
 20
255.9887393211
 30
0.0
 11
6.1305308612
 21
255.9887393211
 31
0.0
  0
LINE
  5
84
330
1F
100
AcDbEntity
  8
DIM
100
AcDbLine
 10
12.3805308612
 20
249.7387393211
 30
0.0
 11
12.3805308612
 21
12.2387393211
 31
0.0
  0
LINE
  5
85
330
1F
100
AcDbEntity
  8
DIM
100
AcDbLine
 10
6.1305308612
 20
255.9887393211
 30
0.0
 11
6.1305308612
 21
5.9887393211
 31
0.0
  0
LINE
  5
86
330
1F
100
AcDbEntity
  8
DIM
100
AcDbLine
 10
12.3805308612
 20
68.4887393211
 30
0.0
 11
6.1305308612
 21
68.4887393211
 31
0.0
  0
LINE
  5
87
330
1F
100
AcDbEntity
  8
DIM
100
AcDbLine
 10
6.1305308612
 20
130.9887393211
 30
0.0
 11
12.3805308612
 21
130.9887393211
 31
0.0
  0
LINE
  5
88
330
1F
100
AcDbEntity
  8
DIM
100
AcDbLine
 10
6.1305308612
 20
5.9887393211
 30
0.0
 11
364.8805308612
 21
5.9887393211
 31
0.0
  0
LINE
  5
89
330
1F
100
AcDbEntity
  8
DIM
100
AcDbLine
 10
12.3805308612
 20
12.2387393211
 30
0.0
 11
364.8805308612
 21
12.2387393211
 31
0.0
  0
LINE
  5
8A
330
1F
100
AcDbEntity
  8
DIM
100
AcDbLine
 10
60.5055308612
 20
5.9887393211
 30
0.0
 11
60.5055308612
 21
12.2387393211
 31
0.0
  0
LINE
  5
8B
330
1F
100
AcDbEntity
  8
DIM
100
AcDbLine
 10
123.0055308612
 20
12.2387393211
 30
0.0
 11
123.0055308612
 21
5.9887393211
 31
0.0
  0
LINE
  5
8C
330
1F
100
AcDbEntity
  8
DIM
100
AcDbLine
 10
12.3805308612
 20
193.4887393211
 30
0.0
 11
6.1305308612
 21
193.4887393211
 31
0.0
  0
LINE
  5
8D
330
1F
100
AcDbEntity
  8
DIM
100
AcDbLine
 10
60.5055308612
 20
249.7387393211
 30
0.0
 11
60.5055308612
 21
255.9887393211
 31
0.0
  0
LINE
  5
8E
330
1F
100
AcDbEntity
  8
DIM
100
AcDbLine
 10
123.0055308612
 20
255.9887393211
 30
0.0
 11
123.0055308612
 21
249.7387393211
 31
0.0
  0
LINE
  5
8F
330
1F
100
AcDbEntity
  8
DIM
100
AcDbLine
 10
185.5055308612
 20
255.9887393211
 30
0.0
 11
185.5055308612
 21
249.7387393211
 31
0.0
  0
LINE
  5
90
330
1F
100
AcDbEntity
  8
DIM
100
AcDbLine
 10
358.6305308612
 20
12.2387393211
 30
0.0
 11
358.6305308612
 21
249.7387393211
 31
0.0
  0
LINE
  5
91
330
1F
100
AcDbEntity
  8
DIM
100
AcDbLine
 10
364.8805308612
 20
96.3012393211
 30
0.0
 11
364.8805308612
 21
255.9887393211
 31
0.0
  0
LINE
  5
92
330
1F
100
AcDbEntity
  8
DIM
100
AcDbLine
 10
364.8805308612
 20
130.9887393211
 30
0.0
 11
358.6305308612
 21
130.9887393211
 31
0.0
  0
LINE
  5
93
330
1F
100
AcDbEntity
  8
DIM
100
AcDbLine
 10
248.0055308612
 20
255.9887393211
 30
0.0
 11
248.0055308612
 21
249.7387393211
 31
0.0
  0
LINE
  5
94
330
1F
100
AcDbEntity
  8
DIM
100
AcDbLine
 10
310.5055308612
 20
249.7387393211
 30
0.0
 11
310.5055308612
 21
255.9887393211
 31
0.0
  0
LINE
  5
95
330
1F
100
AcDbEntity
  8
DIM
100
AcDbLine
 10
358.6305308612
 20
193.4887393211
 30
0.0
 11
364.8805308612
 21
193.4887393211
 31
0.0
  0
MTEXT
  5
97
330
1F
100
AcDbEntity
  8
DIM
100
AcDbMText
 10
15.9654271693
 20
242.3653156665
 30
0.0
 40
5.2916666667
 41
0.0
 71
     1
 72
     1
  1
SK 40 WE12 100 AD/6.3G15000 SL
  7
SLDTEXTSTYLE0
 73
     1
 44
1.0
  0
MTEXT
  5
99
330
1F
100
AcDbEntity
  8
DIM
 62
     7
100
AcDbMText
 10
247.1659733083
 20
9.7524394079
 30
0.0
 40
1.87325
 41
0.0
 71
     1
 72
     1
  1
WEIGHT:
  7
SLDTEXTSTYLE1
 73
     1
 44
1.0
  0
MTEXT
  5
9A
330
1F
100
AcDbEntity
  8
DIM
 62
     7
100
AcDbMText
 10
360.7463459435
 20
102.4257668853
 30
0.0
 40
2.3151041667
 41
0.0
 71
     1
 72
     1
  1
C
  7
SLDTEXTSTYLE1
 73
     1
 44
1.0
  0
MTEXT
  5
9B
330
1F
100
AcDbEntity
  8
DIM
 62
     7
100
AcDbMText
 10
353.8044757743
 20
18.5674774795
 30
0.0
 40
3.6380208333
 41
0.0
 71
     1
 72
     1
  1
A4
  7
SLDTEXTSTYLE1
 73
     1
 44
1.0
  0
MTEXT
  5
9C
330
1F
100
AcDbEntity
  8
DIM
 62
     7
100
AcDbMText
 10
340.7138691946
 20
254.3237598255
 30
0.0
 40
2.3151041667
 41
0.0
 71
     1
 72
     1
  1
6
  7
SLDTEXTSTYLE1
 73
     1
 44
1.0
  0
MTEXT
  5
9D
330
1F
100
AcDbEntity
  8
DIM
 62
     7
100
AcDbMText
 10
278.2138691946
 20
254.3237598255
 30
0.0
 40
2.3151041667
 41
0.0
 71
     1
 72
     1
  1
5
  7
SLDTEXTSTYLE1
 73
     1
 44
1.0
  0
MTEXT
  5
9E
330
1F
100
AcDbEntity
  8
DIM
 62
     7
100
AcDbMText
 10
360.7138741946
 20
226.1987598255
 30
0.0
 40
2.3151041667
 41
0.0
 71
     1
 72
     1
  1
A
  7
SLDTEXTSTYLE1
 73
     1
 44
1.0
  0
MTEXT
  5
9F
330
1F
100
AcDbEntity
  8
DIM
 62
     7
100
AcDbMText
 10
360.7138741946
 20
163.6987598255
 30
0.0
 40
2.3151041667
 41
0.0
 71
     1
 72
     1
  1
B
  7
SLDTEXTSTYLE1
 73
     1
 44
1.0
  0
MTEXT
  5
A0
330
1F
100
AcDbEntity
  8
DIM
 62
     7
100
AcDbMText
 10
215.7138691946
 20
254.3237598255
 30
0.0
 40
2.3151041667
 41
0.0
 71
     1
 72
     1
  1
4
  7
SLDTEXTSTYLE1
 73
     1
 44
1.0
  0
MTEXT
  5
A1
330
1F
100
AcDbEntity
  8
DIM
 62
     7
100
AcDbMText
 10
28.7347025279
 20
254.3237598255
 30
0.0
 40
2.3151041667
 41
0.0
 71
     1
 72
     1
  1
1
  7
SLDTEXTSTYLE1
 73
     1
 44
1.0
  0
MTEXT
  5
A2
330
1F
100
AcDbEntity
  8
DIM
 62
     7
100
AcDbMText
 10
90.7138691946
 20
254.3237598255
 30
0.0
 40
2.3151041667
 41
0.0
 71
     1
 72
     1
  1
2
  7
SLDTEXTSTYLE1
 73
     1
 44
1.0
  0
MTEXT
  5
A3
330
1F
100
AcDbEntity
  8
DIM
 62
     7
100
AcDbMText
 10
153.2138691946
 20
254.3237598255
 30
0.0
 40
2.3151041667
 41
0.0
 71
     1
 72
     1
  1
3
  7
SLDTEXTSTYLE1
 73
     1
 44
1.0
  0
MTEXT
  5
A4
330
1F
100
AcDbEntity
  8
DIM
 62
     7
100
AcDbMText
 10
8.2138641946
 20
226.1987598255
 30
0.0
 40
2.3151041667
 41
0.0
 71
     1
 72
     1
  1
A
  7
SLDTEXTSTYLE1
 73
     1
 44
1.0
  0
MTEXT
  5
A5
330
1F
100
AcDbEntity
  8
DIM
 62
     7
100
AcDbMText
 10
90.7138691946
 20
10.5737598255
 30
0.0
 40
2.3151041667
 41
0.0
 71
     1
 72
     1
  1
2
  7
SLDTEXTSTYLE1
 73
     1
 44
1.0
  0
MTEXT
  5
A6
330
1F
100
AcDbEntity
  8
DIM
 62
     7
100
AcDbMText
 10
28.7347025279
 20
10.5737598255
 30
0.0
 40
2.3151041667
 41
0.0
 71
     1
 72
     1
  1
1
  7
SLDTEXTSTYLE1
 73
     1
 44
1.0
  0
MTEXT
  5
A7
330
1F
100
AcDbEntity
  8
DIM
 62
     7
100
AcDbMText
 10
8.2138641946
 20
38.6987598255
 30
0.0
 40
2.3151041667
 41
0.0
 71
     1
 72
     1
  1
D
  7
SLDTEXTSTYLE1
 73
     1
 44
1.0
  0
MTEXT
  5
A8
330
1F
100
AcDbEntity
  8
DIM
 62
     7
100
AcDbMText
 10
8.2138641946
 20
101.1987598255
 30
0.0
 40
2.3151041667
 41
0.0
 71
     1
 72
     1
  1
C
  7
SLDTEXTSTYLE1
 73
     1
 44
1.0
  0
MTEXT
  5
A9
330
1F
100
AcDbEntity
  8
DIM
 62
     7
100
AcDbMText
 10
8.2138641946
 20
163.6987598255
 30
0.0
 40
2.3151041667
 41
0.0
 71
     1
 72
     1
  1
B
  7
SLDTEXTSTYLE1
 73
     1
 44
1.0
  0
MTEXT
  5
AA
330
1F
100
AcDbEntity
  8
DIM
 62
     7
100
AcDbMText
 10
360.7463459435
 20
102.4257668853
 30
0.0
 40
2.3151041667
 41
0.0
 71
     1
 72
     1
  1
C
  7
SLDTEXTSTYLE1
 73
     1
 44
1.0
  0
MTEXT
  5
AC
330
1F
100
AcDbEntity
  8
DIM
 62
     7
100
AcDbMText
 10
320.6567072656
 20
9.6138484142
 30
0.0
 40
1.875
 41
0.0
 71
     1
 72
     1
  1
SHEET 1 OF 1
  7
SLDTEXTSTYLE2
 73
     1
 44
1.0
  0
MTEXT
  5
AD
330
1F
100
AcDbEntity
  8
DIM
 62
     7
100
AcDbMText
 10
187.9647254793
 20
9.8167093546
 30
0.0
 40
1.875
 41
0.0
 71
     1
 72
     1
  1
MATERIAL:
  7
SLDTEXTSTYLE1
 73
     1
 44
1.0
  0
MTEXT
  5
AE
330
1F
100
AcDbEntity
  8
DIM
 62
     7
100
AcDbMText
 10
340.7138691946
 20
254.3237598255
 30
0.0
 40
2.3151041667
 41
0.0
 71
     1
 72
     1
  1
6
  7
SLDTEXTSTYLE1
 73
     1
 44
1.0
  0
MTEXT
  5
AF
330
1F
100
AcDbEntity
  8
DIM
 62
     7
100
AcDbMText
 10
278.2138691946
 20
254.3237598255
 30
0.0
 40
2.3151041667
 41
0.0
 71
     1
 72
     1
  1
5
  7
SLDTEXTSTYLE1
 73
     1
 44
1.0
  0
MTEXT
  5
B0
330
1F
100
AcDbEntity
  8
DIM
 62
     7
100
AcDbMText
 10
360.7138741946
 20
226.1987598255
 30
0.0
 40
2.3151041667
 41
0.0
 71
     1
 72
     1
  1
A
  7
SLDTEXTSTYLE1
 73
     1
 44
1.0
  0
MTEXT
  5
B1
330
1F
100
AcDbEntity
  8
DIM
 62
     7
100
AcDbMText
 10
360.7138741946
 20
163.6987598255
 30
0.0
 40
2.3151041667
 41
0.0
 71
     1
 72
     1
  1
B
  7
SLDTEXTSTYLE1
 73
     1
 44
1.0
  0
MTEXT
  5
B2
330
1F
100
AcDbEntity
  8
DIM
 62
     7
100
AcDbMText
 10
215.7138691946
 20
254.3237598255
 30
0.0
 40
2.3151041667
 41
0.0
 71
     1
 72
     1
  1
4
  7
SLDTEXTSTYLE1
 73
     1
 44
1.0
  0
MTEXT
  5
B3
330
1F
100
AcDbEntity
  8
DIM
 62
     7
100
AcDbMText
 10
28.7347025279
 20
254.3237598255
 30
0.0
 40
2.3151041667
 41
0.0
 71
     1
 72
     1
  1
1
  7
SLDTEXTSTYLE1
 73
     1
 44
1.0
  0
MTEXT
  5
B4
330
1F
100
AcDbEntity
  8
DIM
 62
     7
100
AcDbMText
 10
90.7138691946
 20
254.3237598255
 30
0.0
 40
2.3151041667
 41
0.0
 71
     1
 72
     1
  1
2
  7
SLDTEXTSTYLE1
 73
     1
 44
1.0
  0
MTEXT
  5
B5
330
1F
100
AcDbEntity
  8
DIM
 62
     7
100
AcDbMText
 10
153.2138691946
 20
254.3237598255
 30
0.0
 40
2.3151041667
 41
0.0
 71
     1
 72
     1
  1
3
  7
SLDTEXTSTYLE1
 73
     1
 44
1.0
  0
MTEXT
  5
B6
330
1F
100
AcDbEntity
  8
DIM
 62
     7
100
AcDbMText
 10
8.2138641946
 20
226.1987598255
 30
0.0
 40
2.3151041667
 41
0.0
 71
     1
 72
     1
  1
A
  7
SLDTEXTSTYLE1
 73
     1
 44
1.0
  0
MTEXT
  5
B7
330
1F
100
AcDbEntity
  8
DIM
 62
     7
100
AcDbMText
 10
90.7138691946
 20
10.5737598255
 30
0.0
 40
2.3151041667
 41
0.0
 71
     1
 72
     1
  1
2
  7
SLDTEXTSTYLE1
 73
     1
 44
1.0
  0
MTEXT
  5
B8
330
1F
100
AcDbEntity
  8
DIM
 62
     7
100
AcDbMText
 10
28.7347025279
 20
10.5737598255
 30
0.0
 40
2.3151041667
 41
0.0
 71
     1
 72
     1
  1
1
  7
SLDTEXTSTYLE1
 73
     1
 44
1.0
  0
MTEXT
  5
B9
330
1F
100
AcDbEntity
  8
DIM
 62
     7
100
AcDbMText
 10
8.2138641946
 20
38.6987598255
 30
0.0
 40
2.3151041667
 41
0.0
 71
     1
 72
     1
  1
D
  7
SLDTEXTSTYLE1
 73
     1
 44
1.0
  0
MTEXT
  5
BA
330
1F
100
AcDbEntity
  8
DIM
 62
     7
100
AcDbMText
 10
8.2138641946
 20
101.1987598255
 30
0.0
 40
2.3151041667
 41
0.0
 71
     1
 72
     1
  1
C
  7
SLDTEXTSTYLE1
 73
     1
 44
1.0
  0
MTEXT
  5
BB
330
1F
100
AcDbEntity
  8
DIM
 62
     7
100
AcDbMText
 10
8.2138641946
 20
163.6987598255
 30
0.0
 40
2.3151041667
 41
0.0
 71
     1
 72
     1
  1
B
  7
SLDTEXTSTYLE1
 73
     1
 44
1.0
  0
SPLINE
  5
BC
330
1F
100
AcDbEntity
  8
0
  6
Continuous
 62
     7
370
    15
100
AcDbSpline
210
0.0
220
0.0
230
1.0
 70
     8
 71
     3
 72
    38
 73
    34
 74
     0
 42
0.000000001
 43
0.00000001
 40
0.0
 40
0.0
 40
0.0
 40
0.0
 40
0.0625
 40
0.0625
 40
0.125
 40
0.125
 40
0.1875
 40
0.1875
 40
0.25
 40
0.25
 40
0.3125
 40
0.3125
 40
0.375
 40
0.375
 40
0.4375
 40
0.4375
 40
0.5
 40
0.5
 40
0.5625
 40
0.5625
 40
0.625
 40
0.625
 40
0.6875
 40
0.6875
 40
0.75
 40
0.75
 40
0.8125
 40
0.8125
 40
0.875
 40
0.875
 40
0.9375
 40
0.9375
 40
1.0
 40
1.0
 40
1.0
 40
1.0
 10
87.66207240340059
 20
132.9201044762603
 30
0.0
 10
87.66207240340059
 20
132.4457227017835
 30
0.0
 10
87.6326487707447
 20
131.941397179932
 30
0.0
 10
87.48998873362525
 20
130.8762022360995
 30
0.0
 10
87.37668432787731
 20
130.3151792762535
 30
0.0
 10
87.0366474719347
 20
129.1493386272994
 30
0.0
 10
86.80973034882324
 20
128.5443653056543
 30
0.0
 10
86.21179730547726
 20
127.3178359859619
 30
0.0
 10
85.84044638942228
 20
126.6962155951252
 30
0.0
 10
84.92963338243311
 20
125.4817982524647
 30
0.0
 10
84.38973725053015
 20
124.8891744394438
 30
0.0
 10
83.13635098958305
 20
123.7953100662461
 30
0.0
 10
82.4225339116377
 20
123.2945863948357
 30
0.0
 10
80.84673286148345
 20
122.454159168081
 30
0.0
 10
79.98483495691507
 20
122.1152034297639
 30
0.0
 10
78.17398779509045
 20
121.6553057378688
 30
0.0
 10
77.22567336498315
 20
121.5349418888181
 30
0.0
 10
75.32814626708908
 20
121.5349418888181
 30
0.0
 10
74.37983183698178
 20
121.6553057378688
 30
0.0
 10
72.56898467515718
 20
122.1152034297639
 30
0.0
 10
71.70708677058879
 20
122.454159168081
 30
0.0
 10
70.13128572043453
 20
123.2945863948357
 30
0.0
 10
69.4174686424892
 20
123.7953100662461
 30
0.0
 10
68.16408238154209
 20
124.8891744394438
 30
0.0
 10
67.62418624963912
 20
125.4817982524647
 30
0.0
 10
66.71337324264996
 20
126.6962155951252
 30
0.0
 10
66.34202232659499
 20
127.3178359859619
 30
0.0
 10
65.744089283249
 20
128.5443653056543
 30
0.0
 10
65.51717216013753
 20
129.1493386272994
 30
0.0
 10
65.17713530419492
 20
130.3151792762535
 30
0.0
 10
65.063830898447
 20
130.8762022360995
 30
0.0
 10
64.92117086132754
 20
131.941397179932
 30
0.0
 10
64.89174722867165
 20
132.4457227017836
 30
0.0
 10
64.89174722867165
 20
132.9201044762603
 30
0.0
  0
SPLINE
  5
BD
330
1F
100
AcDbEntity
  8
0
  6
Continuous
 62
     7
370
    15
100
AcDbSpline
210
0.0
220
0.0
230
1.0
 70
     8
 71
     3
 72
    38
 73
    34
 74
     0
 42
0.000000001
 43
0.00000001
 40
0.0
 40
0.0
 40
0.0
 40
0.0
 40
0.0624999999999999
 40
0.0624999999999999
 40
0.1249999999999999
 40
0.1249999999999999
 40
0.1874999999999999
 40
0.1874999999999999
 40
0.2499999999999999
 40
0.2499999999999999
 40
0.3124999999999999
 40
0.3124999999999999
 40
0.3749999999999999
 40
0.3749999999999999
 40
0.4374999999999999
 40
0.4374999999999999
 40
0.4999999999999999
 40
0.4999999999999999
 40
0.5624999999999999
 40
0.5624999999999999
 40
0.625
 40
0.625
 40
0.6875
 40
0.6875
 40
0.75
 40
0.75
 40
0.8125
 40
0.8125
 40
0.875
 40
0.875
 40
0.9375
 40
0.9375
 40
1.0
 40
1.0
 40
1.0
 40
1.0
 10
64.89174722867165
 20
132.9201044762603
 30
0.0
 10
64.89174722867165
 20
133.3944862507371
 30
0.0
 10
64.92117086132754
 20
133.8988117725886
 30
0.0
 10
65.063830898447
 20
134.9640067164211
 30
0.0
 10
65.17713530419492
 20
135.5250296762671
 30
0.0
 10
65.51717216013753
 20
136.6908703252211
 30
0.0
 10
65.744089283249
 20
137.2958436468662
 30
0.0
 10
66.34202232659499
 20
138.5223729665587
 30
0.0
 10
66.71337324264996
 20
139.1439933573954
 30
0.0
 10
67.62418624963912
 20
140.3584107000559
 30
0.0
 10
68.16408238154209
 20
140.9510345130768
 30
0.0
 10
69.4174686424892
 20
142.0448988862745
 30
0.0
 10
70.13128572043453
 20
142.5456225576849
 30
0.0
 10
71.70708677058879
 20
143.3860497844396
 30
0.0
 10
72.56898467515718
 20
143.7250055227567
 30
0.0
 10
74.37983183698178
 20
144.1849032146518
 30
0.0
 10
75.32814626708908
 20
144.3052670637025
 30
0.0
 10
77.22567336498315
 20
144.3052670637025
 30
0.0
 10
78.17398779509045
 20
144.1849032146518
 30
0.0
 10
79.98483495691507
 20
143.7250055227567
 30
0.0
 10
80.84673286148345
 20
143.3860497844396
 30
0.0
 10
82.42253391163771
 20
142.5456225576849
 30
0.0
 10
83.13635098958304
 20
142.0448988862745
 30
0.0
 10
84.38973725053015
 20
140.9510345130768
 30
0.0
 10
84.92963338243312
 20
140.3584107000559
 30
0.0
 10
85.84044638942228
 20
139.1439933573954
 30
0.0
 10
86.21179730547726
 20
138.5223729665587
 30
0.0
 10
86.80973034882324
 20
137.2958436468662
 30
0.0
 10
87.0366474719347
 20
136.6908703252211
 30
0.0
 10
87.37668432787731
 20
135.5250296762671
 30
0.0
 10
87.48998873362524
 20
134.9640067164211
 30
0.0
 10
87.6326487707447
 20
133.8988117725886
 30
0.0
 10
87.66207240340059
 20
133.3944862507371
 30
0.0
 10
87.66207240340059
 20
132.9201044762603
 30
0.0
  0
SPLINE
  5
BE
330
1F
100
AcDbEntity
  8
0
  6
Continuous
 62
     7
370
    15
100
AcDbSpline
210
0.0
220
0.0
230
1.0
 70
    24
 71
     3
 72
    14
 73
    10
 74
     0
 42
0.000000001
 43
0.00000001
 40
0.0
 40
0.0
 40
0.0
 40
0.0
 40
0.25
 40
0.25
 40
0.5
 40
0.5
 40
0.75
 40
0.75
 40
1.0
 40
1.0
 40
1.0
 40
1.0
 10
87.66207240343967
 20
132.9201044727576
 30
0.0
 10
87.77108895246973
 20
132.920104472724
 30
0.0
 10
87.88716694405397
 20
132.9201044726883
 30
0.0
 10
88.11299598335202
 20
132.9201044726189
 30
0.0
 10
88.22227434300251
 20
132.9201044725853
 30
0.0
 10
88.41006905387712
 20
132.9201044725275
 30
0.0
 10
88.4881636497825
 20
132.9201044725035
 30
0.0
 10
88.60100960956808
 20
132.9201044724687
 30
0.0
 10
88.63587320694809
 20
132.920104472458
 30
0.0
 10
88.65160519190948
 20
132.9201044724531
 30
0.0
  0
ARC
  5
BF
330
1F
100
AcDbEntity
  8
0
  6
Continuous
 62
     7
370
    15
100
AcDbCircle
 10
76.276909816
 20
132.9201044763
 30
0.0
 40
12.3746953759981
100
AcDbArc
 50
180.0
 51
359.9999999824
  0
SPLINE
  5
C0
330
1F
100
AcDbEntity
  8
0
  6
Continuous
 62
     7
370
    15
100
AcDbSpline
210
0.0
220
0.0
230
1.0
 70
    24
 71
     3
 72
    14
 73
    10
 74
     0
 42
0.000000001
 43
0.00000001
 40
0.0
 40
0.0
 40
0.0
 40
0.0
 40
0.25
 40
0.25
 40
0.5
 40
0.5
 40
0.75
 40
0.75
 40
1.0
 40
1.0
 40
1.0
 40
1.0
 10
64.89174722863257
 20
132.9201044762603
 30
0.0
 10
64.78273067960141
 20
132.9201044762603
 30
0.0
 10
64.66665268801592
 20
132.9201044762603
 30
0.0
 10
64.44082364871574
 20
132.9201044762603
 30
0.0
 10
64.33154528906441
 20
132.9201044762603
 30
0.0
 10
64.14375057818911
 20
132.9201044762603
 30
0.0
 10
64.06565598228393
 20
132.9201044762603
 30
0.0
 10
63.95281002249975
 20
132.9201044762603
 30
0.0
 10
63.91794642512092
 20
132.9201044762603
 30
0.0
 10
63.90221444016088
 20
132.9201044762603
 30
0.0
  0
ARC
  5
C1
330
1F
100
AcDbEntity
  8
0
  6
Continuous
 62
     7
370
    15
100
AcDbCircle
 10
76.276909816
 20
132.9201044763
 30
0.0
 40
12.37469537600001
100
AcDbArc
 50
359.9999999824
 51
180.0
  0
CIRCLE
  5
C2
330
1F
100
AcDbEntity
  8
0
  6
Continuous
 62
     7
370
    15
100
AcDbCircle
 10
76.276909816
 20
132.9201044763
 30
0.0
 40
22.22500000000001
  0
SPLINE
  5
C3
330
1F
100
AcDbEntity
  8
0
  6
Continuous
 62
     7
370
    15
100
AcDbSpline
210
0.0
220
0.0
230
1.0
 70
     8
 71
     3
 72
    46
 73
    42
 74
     0
 42
0.000000001
 43
0.00000001
 40
0.0
 40
0.0
 40
0.0
 40
0.0
 40
0.0060605096052363
 40
0.0121160627794822
 40
0.0181688501794615
 40
0.024221065465193
 40
0.0302749029186268
 40
0.0363325550589054
 40
0.0423962102671863
 40
0.0663723762632336
 40
0.0903614245161389
 40
0.117383531387204
 40
0.1444187375096105
 40
0.1746377134538832
 40
0.2048704270446635
 40
0.2382459271693794
 40
0.2716357371802406
 40
0.3078460574011299
 40
0.3440707643419448
 40
0.3824528172773539
 40
0.4208496145207212
 40
0.4604174444186661
 40
0.5000006351345542
 40
0.5395683786428678
 40
0.5791516575942705
 40
0.6175334667195513
 40
0.6559305126792472
 40
0.6921404472125949
 40
0.7283655382187632
 40
0.761740544172946
 40
0.7951308492378586
 40
0.8253489820944796
 40
0.8555825399657285
 40
0.8826032238231494
 40
0.9096398523510193
 40
0.933614321140139
 40
0.9576050666839391
 40
0.9682066398996676
 40
0.9787984726931264
 40
0.9893923375023622
 40
1.0
 40
1.0
 40
1.0
 40
1.0
 10
53.77690980952642
 20
132.9201044762603
 30
0.0
 10
53.77769106366163
 20
133.0628427130559
 30
0.0
 10
53.77925293300357
 20
133.3482024518729
 30
0.0
 10
53.79190254139655
 20
133.7759642703718
 30
0.0
 10
53.81209995884031
 20
134.2032213923574
 30
0.0
 10
53.84058355943199
 20
134.6299740899392
 30
0.0
 10
53.87715480339447
 20
135.0562206003665
 30
0.0
 10
53.92186977372072
 20
135.481966699687
 30
0.0
 10
54.02669650113543
 20
136.3256627951766
 30
0.0
 10
54.24301678767803
 20
137.5810230155916
 30
0.0
 10
54.6739764727351
 20
139.2953362653821
 30
0.0
 10
55.26340297172735
 20
141.0388221637488
 30
0.0
 10
56.05800761250805
 20
142.860206453516
 30
0.0
 10
57.04874035192379
 20
144.6704978855616
 30
0.0
 10
58.29162236829261
 20
146.5015495882491
 30
0.0
 10
59.75821342880768
 20
148.2587111150933
 30
0.0
 10
61.50321522474138
 20
149.949264649754
 30
0.0
 10
63.47467415806128
 20
151.4831077184784
 30
0.0
 10
65.7094738450242
 20
152.8419451902466
 30
0.0
 10
68.13425506758261
 20
153.9548843429136
 30
0.0
 10
70.75145061136583
 20
154.7885613531604
 30
0.0
 10
73.47858792997268
 20
155.3052824748735
 30
0.0
 10
76.2765463821792
 20
155.4775034506839
 30
0.0
 10
79.07486518681972
 20
155.3053303150672
 30
0.0
 10
81.8016745551189
 20
154.7887359219364
 30
0.0
 10
84.41923202841758
 20
153.9550183587616
 30
0.0
 10
86.84372726276068
 20
152.8422731885806
 30
0.0
 10
89.07885439441114
 20
151.4833068432369
 30
0.0
 10
91.05007906511072
 20
149.9497210693072
 30
0.0
 10
92.79536702613346
 20
148.2589702458964
 30
0.0
 10
94.26178060002758
 20
146.5021015930192
 30
0.0
 10
95.50490003487269
 20
144.6707944114682
 30
0.0
 10
96.49550943107856
 20
142.8608216534867
 30
0.0
 10
97.29029458673152
 20
141.0391424523185
 30
0.0
 10
97.87963971939995
 20
139.2959966183553
 30
0.0
 10
98.31076462183077
 20
137.5813506446259
 30
0.0
 10
98.54515700466415
 20
136.2205946799593
 30
0.0
 10
98.66910341342673
 20
135.1635044061955
 30
0.0
 10
98.73099066278543
 20
134.4173008173525
 30
0.0
 10
98.76974062838337
 20
133.6693043788594
 30
0.0
 10
98.77451905457838
 20
133.1699461024971
 30
0.0
 10
98.77690982254583
 20
132.9201044762603
 30
0.0
  0
SPLINE
  5
C4
330
1F
100
AcDbEntity
  8
0
  6
Continuous
 62
     7
370
    15
100
AcDbSpline
210
0.0
220
0.0
230
1.0
 70
     8
 71
     3
 72
    46
 73
    42
 74
     0
 42
0.000000001
 43
0.00000001
 40
0.0
 40
0.0
 40
0.0
 40
0.0
 40
0.0060605096059856
 40
0.012116062780731
 40
0.0181688501809596
 40
0.0242210654666906
 40
0.0302749029198752
 40
0.0363325550596565
 40
0.0423962102671932
 40
0.0663723762644347
 40
0.0903614245161322
 40
0.1173835313868685
 40
0.1444187375096037
 40
0.1746377134537195
 40
0.2048704270446567
 40
0.2382459271690202
 40
0.2716357371802286
 40
0.3078460574024585
 40
0.3440707643419493
 40
0.3824528172784671
 40
0.4208496145206945
 40
0.4604174444179889
 40
0.5000006351345287
 40
0.5395683786429317
 40
0.5791516575942532
 40
0.6175334667203426
 40
0.6559305126792304
 40
0.6921404472131442
 40
0.72836553821874
 40
0.7617405441729123
 40
0.7951308492378333
 40
0.825348982095816
 40
0.8555825399657241
 40
0.8826032238245884
 40
0.9096398523510109
 40
0.9336143211403861
 40
0.9576050666839362
 40
0.9682066398998608
 40
0.9787984726933857
 40
0.9893923375025573
 40
1.0
 40
1.0
 40
1.0
 40
1.0
 10
98.77690982254583
 20
132.9201044762603
 30
0.0
 10
98.77612856841066
 20
132.7773662394471
 30
0.0
 10
98.77456669906883
 20
132.4920065006007
 30
0.0
 10
98.76191709067608
 20
132.0642446820665
 30
0.0
 10
98.74171967323244
 20
131.6369875600632
 30
0.0
 10
98.71323607264098
 20
131.2102348624814
 30
0.0
 10
98.67666482867854
 20
130.7839883520717
 30
0.0
 10
98.63194985835283
 20
130.3582422527864
 30
0.0
 10
98.5271231309229
 20
129.5145461572998
 30
0.0
 10
98.31080284437446
 20
128.2591859369046
 30
0.0
 10
97.87984315933359
 20
126.5448726871185
 30
0.0
 10
97.29041666034973
 20
124.8013867887785
 30
0.0
 10
96.49581201956939
 20
122.9800024990154
 30
0.0
 10
95.50507928014929
 20
121.1697110669633
 30
0.0
 10
94.26219726378719
 20
119.3386593642815
 30
0.0
 10
92.79560620327098
 20
117.5814978374331
 30
0.0
 10
91.050604407312
 20
115.8909443027543
 30
0.0
 10
89.07914547399845
 20
114.3571012340066
 30
0.0
 10
86.84434578699742
 20
112.9982637622471
 30
0.0
 10
84.41956456445642
 20
111.8853246096226
 30
0.0
 10
81.80236902069812
 20
111.051647599354
 30
0.0
 10
79.07523170211593
 20
110.5349264776482
 30
0.0
 10
76.27727324990798
 20
110.3627055018382
 30
0.0
 10
73.4789544452507
 20
110.5348786374444
 30
0.0
 10
70.7521450769347
 20
111.0514730305908
 30
0.0
 10
68.1345876036374
 20
111.8851905937632
 30
0.0
 10
65.71009236928391
 20
112.9979357639541
 30
0.0
 10
63.47496523765421
 20
114.3569021092948
 30
0.0
 10
61.50374056695227
 20
115.8904878832203
 30
0.0
 10
59.75845260594092
 20
117.5812387066241
 30
0.0
 10
58.29203903202885
 20
119.338107359527
 30
0.0
 10
57.04891959716929
 20
121.1694145410698
 30
0.0
 10
56.05831020096472
 20
122.9793872990921
 30
0.0
 10
55.26352504534176
 20
124.8010665002382
 30
0.0
 10
54.67417991265972
 20
126.5442123342026
 30
0.0
 10
54.24305501023908
 20
128.2588583078999
 30
0.0
 10
54.00866262740564
 20
129.6196142725713
 30
0.0
 10
53.88471621864614
 20
130.6767045463357
 30
0.0
 10
53.82282896928709
 20
131.4229081351834
 30
0.0
 10
53.78407900368901
 20
132.1709045736719
 30
0.0
 10
53.7793005774939
 20
132.6702628500281
 30
0.0
 10
53.77690980952642
 20
132.9201044762603
 30
0.0
  0
CIRCLE
  5
C5
330
1F
100
AcDbEntity
  8
0
  6
Continuous
 62
     7
370
    15
100
AcDbCircle
 10
76.276909816
 20
132.9201044763
 30
0.0
 40
30.74999999999994
  0
CIRCLE
  5
C6
330
1F
100
AcDbEntity
  8
0
  6
Continuous
 62
     7
370
    15
100
AcDbCircle
 10
76.276909816
 20
132.9201044763
 30
0.0
 40
31.74999999999996
  0
SPLINE
  5
C7
330
1F
100
AcDbEntity
  8
0
  6
Continuous
 62
     8
370
    15
100
AcDbSpline
210
0.0
220
0.0
230
1.0
 70
    24
 71
     3
 72
     9
 73
     5
 74
     0
 42
0.000000001
 43
0.00000001
 40
0.0
 40
0.0
 40
0.0
 40
0.0
 40
0.5551693299651336
 40
1.0
 40
1.0
 40
1.0
 40
1.0
 10
53.77690980952652
 20
132.9201044762603
 30
0.0
 10
53.84920294910258
 20
132.9201044762603
 30
0.0
 10
53.97942112880751
 20
132.9201044762603
 30
0.0
 10
54.07463600166114
 20
132.9201044762603
 30
0.0
 10
54.11699049734991
 20
132.9201044762603
 30
0.0
  0
SPLINE
  5
C8
330
1F
100
AcDbEntity
  8
0
  6
Continuous
 62
     8
370
    15
100
AcDbSpline
210
0.0
220
0.0
230
1.0
 70
    24
 71
     3
 72
     9
 73
     5
 74
     0
 42
0.000000001
 43
0.00000001
 40
0.0
 40
0.0
 40
0.0
 40
0.0
 40
0.4412680437681503
 40
1.0
 40
1.0
 40
1.0
 40
1.0
 10
98.5019098159213
 20
132.9201044747635
 30
0.0
 10
98.5385685827276
 20
132.9201044747611
 30
0.0
 10
98.62164454375414
 20
132.9201044747555
 30
0.0
 10
98.7212545364606
 20
132.9201044747488
 30
0.0
 10
98.77690982254572
 20
132.920104474745
 30
0.0
  0
INSERT
  5
D4
330
1F
100
AcDbEntity
  8
DIM
100
AcDbBlockReference
  2
SW_CENTERMARKSYMBOL_0
 10
76.276909816
 20
132.9201044763
 30
0.0
  0
LINE
  5
D5
330
1F
100
AcDbEntity
  8
0
  6
Continuous
 62
     7
370
    15
100
AcDbLine
 10
220.776736144
 20
101.1701044758
 30
0.0
 11
222.3985727862
 21
103.9792079423
 31
0.0
  0
LINE
  5
D6
330
1F
100
AcDbEntity
  8
0
  6
Continuous
 62
     7
370
    15
100
AcDbLine
 10
222.3985727862
 20
161.8610010103
 30
0.0
 11
220.776736144
 21
164.6701044767
 31
0.0
  0
LINE
  5
D7
330
1F
100
AcDbEntity
  8
0
  6
Continuous
 62
     7
370
    15
100
AcDbLine
 10
217.3985727862
 20
101.1701044763
 30
0.0
 11
220.776736144
 21
101.1701044763
 31
0.0
  0
LINE
  5
D8
330
1F
100
AcDbEntity
  8
0
  6
Continuous
 62
     7
370
    15
100
AcDbLine
 10
220.776736144
 20
164.6701044763
 30
0.0
 11
217.3985727862
 21
164.6701044763
 31
0.0
  0
LINE
  5
D9
330
1F
100
AcDbEntity
  8
0
  6
Continuous
 62
     7
370
    15
100
AcDbLine
 10
217.3985727862
 20
164.6701044763
 30
0.0
 11
216.3985727862
 21
163.6701044763
 31
0.0
  0
LINE
  5
DA
330
1F
100
AcDbEntity
  8
0
  6
Continuous
 62
     7
370
    15
100
AcDbLine
 10
216.3985727862
 20
102.1701044763
 30
0.0
 11
217.3985727862
 21
101.1701044763
 31
0.0
  0
LINE
  5
DB
330
1F
100
AcDbEntity
  8
0
  6
Continuous
 62
     7
370
    15
100
AcDbLine
 10
227.8204094281
 20
101.1701044763
 30
0.0
 11
231.2985727884
 21
101.1701044763
 31
0.0
  0
LINE
  5
DC
330
1F
100
AcDbEntity
  8
0
  6
Continuous
 62
     7
370
    15
100
AcDbLine
 10
231.2985727884
 20
164.6701044763
 30
0.0
 11
227.8204094281
 21
164.6701044763
 31
0.0
  0
LINE
  5
DD
330
1F
100
AcDbEntity
  8
0
  6
Continuous
 62
     7
370
    15
100
AcDbLine
 10
227.8204094281
 20
164.670104476
 30
0.0
 11
226.1985727834
 21
161.8610010053
 31
0.0
  0
LINE
  5
DE
330
1F
100
AcDbEntity
  8
0
  6
Continuous
 62
     7
370
    15
100
AcDbLine
 10
226.1985727834
 20
103.9792079472
 30
0.0
 11
227.8204094281
 21
101.1701044765
 31
0.0
  0
LINE
  5
DF
330
1F
100
AcDbEntity
  8
0
  6
Continuous
 62
     7
370
    15
100
AcDbLine
 10
231.2985727884
 20
101.1701044784
 30
0.0
 11
232.2985727862
 21
102.1701044763
 31
0.0
  0
LINE
  5
E0
330
1F
100
AcDbEntity
  8
0
  6
Continuous
 62
     7
370
    15
100
AcDbLine
 10
232.2985727862
 20
163.6701044763
 30
0.0
 11
231.2985727884
 21
164.6701044741
 31
0.0
  0
LINE
  5
E1
330
1F
100
AcDbEntity
  8
0
  6
Continuous
 62
     7
370
    15
100
AcDbLine
 10
222.3985727898
 20
104.9201044763
 30
0.0
 11
226.198572788
 21
104.9201044763
 31
0.0
  0
LINE
  5
E2
330
1F
100
AcDbEntity
  8
0
  6
Continuous
 62
     7
370
    15
100
AcDbLine
 10
226.198572788
 20
160.9201044763
 30
0.0
 11
222.3985727898
 21
160.9201044763
 31
0.0
  0
SPLINE
  5
E3
330
1F
100
AcDbEntity
  8
0
  6
Continuous
 62
     7
370
    15
100
AcDbSpline
210
0.0
220
0.0
230
1.0
 70
     8
 71
     3
 72
    13
 73
     9
 74
     0
 42
0.000000001
 43
0.00000001
 40
0.0
 40
0.0
 40
0.0
 40
0.0
 40
0.2394568438332191
 40
0.3683606596395452
 40
0.4999999994700511
 40
0.6316393393589566
 40
0.7605431553507018
 40
1.0
 40
1.0
 40
1.0
 40
1.0
 10
216.3985727864919
 20
155.4201044830137
 30
0.0
 10
216.3918937921541
 20
155.3572063222164
 30
0.0
 10
216.381619378107
 20
155.2604489790955
 30
0.0
 10
216.3192705801012
 20
155.1440409362228
 30
0.0
 10
216.254739696318
 20
155.0639375719933
 30
0.0
 10
216.1746363331459
 20
154.999406686823
 30
0.0
 10
216.0582282910094
 20
154.9370578867916
 30
0.0
 10
215.9614709477283
 20
154.9267834715086
 30
0.0
 10
215.8985727867835
 20
154.9201044763628
 30
0.0
  0
SPLINE
  5
E4
330
1F
100
AcDbEntity
  8
0
  6
Continuous
 62
     7
370
    15
100
AcDbSpline
210
0.0
220
0.0
230
1.0
 70
     8
 71
     3
 72
    13
 73
     9
 74
     0
 42
0.000000001
 43
0.00000001
 40
0.0
 40
0.0
 40
0.0
 40
0.0
 40
0.239456844649308
 40
0.3683606606410563
 40
0.5000000005299708
 40
0.6316393403604607
 40
0.76054315616679
 40
1.0
 40
1.0
 40
1.0
 40
1.0
 10
215.8985727867836
 20
110.9201044761578
 30
0.0
 10
215.9614709477284
 20
110.913425481012
 30
0.0
 10
216.0582282910094
 20
110.9031510657289
 30
0.0
 10
216.174636333146
 20
110.8408022656976
 30
0.0
 10
216.2547396963181
 20
110.7762713805272
 30
0.0
 10
216.3192705801012
 20
110.6961680162978
 30
0.0
 10
216.381619378107
 20
110.5797599734251
 30
0.0
 10
216.3918937921541
 20
110.4830026303042
 30
0.0
 10
216.3985727864919
 20
110.4201044695069
 30
0.0
  0
LINE
  5
E5
330
1F
100
AcDbEntity
  8
0
  6
Continuous
 62
     7
370
    15
100
AcDbLine
 10
213.1985727862
 20
155.1451044763
 30
0.0
 11
145.6542645592
 21
145.2947998523
 31
0.0
  0
LINE
  5
E6
330
1F
100
AcDbEntity
  8
0
  6
Continuous
 62
     7
370
    15
100
AcDbLine
 10
145.6542645592
 20
120.5454091003
 30
0.0
 11
213.1985727862
 21
110.6951044763
 31
0.0
  0
LINE
  5
E7
330
1F
100
AcDbEntity
  8
0
  6
Continuous
 62
     7
370
    15
100
AcDbLine
 10
213.1985727862
 20
110.6951044763
 30
0.0
 11
213.6810868432
 21
110.9201044763
 31
0.0
  0
LINE
  5
E8
330
1F
100
AcDbEntity
  8
0
  6
Continuous
 62
     7
370
    15
100
AcDbLine
 10
213.6810868432
 20
154.9201044763
 30
0.0
 11
213.1985727862
 21
155.1451044763
 31
0.0
  0
LINE
  5
E9
330
1F
100
AcDbEntity
  8
0
  6
Continuous
 62
     7
370
    15
100
AcDbLine
 10
213.6810868432
 20
110.9201044763
 30
0.0
 11
215.8985727868
 21
110.9201044763
 31
0.0
  0
LINE
  5
EA
330
1F
100
AcDbEntity
  8
0
  6
Continuous
 62
     7
370
    15
100
AcDbLine
 10
215.8985727868
 20
154.9201044763
 30
0.0
 11
213.6810868432
 21
154.9201044763
 31
0.0
  0
SPLINE
  5
EB
330
1F
100
AcDbEntity
  8
0
  6
Continuous
 62
     7
370
    15
100
AcDbSpline
210
0.0
220
0.0
230
1.0
 70
     8
 71
     3
 72
    11
 73
     7
 74
     0
 42
0.000000001
 43
0.00000001
 40
0.0
 40
0.0
 40
0.0
 40
0.0
 40
0.2453715388468375
 40
0.5000000001099801
 40
0.7546284613159
 40
1.0
 40
1.0
 40
1.0
 40
1.0
 10
232.2985727862257
 20
111.3897732373964
 30
0.0
 10
232.3461589341269
 20
111.4647389629671
 30
0.0
 10
232.4431264718766
 20
111.6174985819912
 30
0.0
 10
232.6607038696001
 20
111.7869334190699
 30
0.0
 10
232.9124774875183
 20
111.8994417890048
 30
0.0
 10
233.092882827167
 20
111.9133024520185
 30
0.0
 10
233.1814154987394
 20
111.9201044764417
 30
0.0
  0
SPLINE
  5
EC
330
1F
100
AcDbEntity
  8
0
  6
Continuous
 62
     7
370
    15
100
AcDbSpline
210
0.0
220
0.0
230
1.0
 70
     8
 71
     3
 72
    11
 73
     7
 74
     0
 42
0.000000001
 43
0.00000001
 40
0.0
 40
0.0
 40
0.0
 40
0.0
 40
0.245371538683514
 40
0.4999999998894203
 40
0.7546284611528711
 40
1.0
 40
1.0
 40
1.0
 40
1.0
 10
233.1814154987564
 20
153.9201044760789
 30
0.0
 10
233.0928828271827
 20
153.9269065005008
 30
0.0
 10
232.9124774875311
 20
153.9407671635118
 30
0.0
 10
232.6607038696077
 20
154.0532755334457
 30
0.0
 10
232.4431264718794
 20
154.2227103705257
 30
0.0
 10
232.3461589341278
 20
154.3754699895523
 30
0.0
 10
232.2985727862257
 20
154.4504357151242
 30
0.0
  0
LINE
  5
ED
330
1F
100
AcDbEntity
  8
0
  6
Continuous
 62
     7
370
    15
100
AcDbLine
 10
233.1814154987
 20
111.9201044763
 30
0.0
 11
300.3315312632
 21
111.9201044763
 31
0.0
  0
LINE
  5
EE
330
1F
100
AcDbEntity
  8
0
  6
Continuous
 62
     7
370
    15
100
AcDbLine
 10
300.3315312632
 20
153.9201044763
 30
0.0
 11
233.1814154988
 21
153.9201044763
 31
0.0
  0
LINE
  5
EF
330
1F
100
AcDbEntity
  8
0
  6
Continuous
 62
     7
370
    15
100
AcDbLine
 10
300.3315312632
 20
111.9201044763
 30
0.0
 11
313.1985727862
 21
117.9201044763
 31
0.0
  0
LINE
  5
F0
330
1F
100
AcDbEntity
  8
0
  6
Continuous
 62
     7
370
    15
100
AcDbLine
 10
313.1985727862
 20
147.9201044763
 30
0.0
 11
300.3315312632
 21
153.9201044763
 31
0.0
  0
SPLINE
  5
F1
330
1F
100
AcDbEntity
  8
0
  6
Continuous
 62
     7
370
    15
100
AcDbSpline
210
0.0
220
0.0
230
1.0
 70
     8
 71
     3
 72
    11
 73
     7
 74
     0
 42
0.000000001
 43
0.00000001
 40
0.0
 40
0.0
 40
0.0
 40
0.0
 40
0.2418856032524937
 40
0.5000000001150028
 40
0.7581143969349595
 40
0.9999999999999999
 40
0.9999999999999999
 40
0.9999999999999999
 40
0.9999999999999999
 10
145.6542645592691
 20
145.294799852217
 30
0.0
 10
145.5421123777491
 20
145.2667445565234
 30
0.0
 10
145.3102834056281
 20
145.2087516554933
 30
0.0
 10
145.0266678802036
 20
144.9727666020275
 30
0.0
 10
144.8340809872867
 20
144.6580651557352
 30
0.0
 10
144.8101499387353
 20
144.4202939343038
 30
0.0
 10
144.7985727865109
 20
144.3052670637025
 30
0.0
  0
SPLINE
  5
F2
330
1F
100
AcDbEntity
  8
0
  6
Continuous
 62
     7
370
    15
100
AcDbSpline
210
0.0
220
0.0
230
1.0
 70
     8
 71
     3
 72
    11
 73
     7
 74
     0
 42
0.000000001
 43
0.00000001
 40
0.0
 40
0.0
 40
0.0
 40
0.0
 40
0.241885603064
 40
0.4999999998828544
 40
0.7581143967454198
 40
1.0
 40
1.0
 40
1.0
 40
1.0
 10
144.7985727865109
 20
121.5349418888181
 30
0.0
 10
144.8101499387344
 20
121.4199150182208
 30
0.0
 10
144.8340809872842
 20
121.1821437967979
 30
0.0
 10
145.0266678801882
 20
120.8674423505131
 30
0.0
 10
145.3102834055966
 20
120.6314572970459
 30
0.0
 10
145.5421123777089
 20
120.5734643960077
 30
0.0
 10
145.6542645592252
 20
120.54540910031
 30
0.0
  0
LINE
  5
F3
330
1F
100
AcDbEntity
  8
0
  6
Continuous
 62
     7
370
    15
100
AcDbLine
 10
222.3985727862
 20
103.9792079423
 30
0.0
 11
222.3985727862
 21
161.8610010103
 31
0.0
  0
LINE
  5
F4
330
1F
100
AcDbEntity
  8
0
  6
Continuous
 62
     7
370
    15
100
AcDbLine
 10
220.776736144
 20
132.9201044763
 30
0.0
 11
220.776736144
 21
101.1701044758
 31
0.0
  0
LINE
  5
F5
330
1F
100
AcDbEntity
  8
0
  6
Continuous
 62
     7
370
    15
100
AcDbLine
 10
220.776736144
 20
164.6701044767
 30
0.0
 11
220.776736144
 21
132.9201044763
 31
0.0
  0
LINE
  5
F6
330
1F
100
AcDbEntity
  8
0
  6
Continuous
 62
     7
370
    15
100
AcDbLine
 10
217.3985727862
 20
132.9201044763
 30
0.0
 11
217.3985727862
 21
164.6701044763
 31
0.0
  0
LINE
  5
F7
330
1F
100
AcDbEntity
  8
0
  6
Continuous
 62
     7
370
    15
100
AcDbLine
 10
217.3985727862
 20
101.1701044763
 30
0.0
 11
217.3985727862
 21
132.9201044763
 31
0.0
  0
LINE
  5
F8
330
1F
100
AcDbEntity
  8
0
  6
Continuous
 62
     7
370
    15
100
AcDbLine
 10
216.3985727862
 20
132.9201044763
 30
0.0
 11
216.3985727862
 21
163.6701044763
 31
0.0
  0
LINE
  5
F9
330
1F
100
AcDbEntity
  8
0
  6
Continuous
 62
     7
370
    15
100
AcDbLine
 10
216.3985727862
 20
102.1701044763
 30
0.0
 11
216.3985727862
 21
132.9201044763
 31
0.0
  0
LINE
  5
FA
330
1F
100
AcDbEntity
  8
0
  6
Continuous
 62
     7
370
    15
100
AcDbLine
 10
231.2985727884
 20
132.9201044763
 30
0.0
 11
231.2985727884
 21
164.6701044763
 31
0.0
  0
LINE
  5
FB
330
1F
100
AcDbEntity
  8
0
  6
Continuous
 62
     7
370
    15
100
AcDbLine
 10
231.2985727884
 20
101.1701044763
 30
0.0
 11
231.2985727884
 21
132.9201044763
 31
0.0
  0
LINE
  5
FC
330
1F
100
AcDbEntity
  8
0
  6
Continuous
 62
     7
370
    15
100
AcDbLine
 10
227.8204094281
 20
101.1701044763
 30
0.0
 11
227.8204094281
 21
164.6701044763
 31
0.0
  0
LINE
  5
FD
330
1F
100
AcDbEntity
  8
0
  6
Continuous
 62
     7
370
    15
100
AcDbLine
 10
226.1985727834
 20
161.8610010053
 30
0.0
 11
226.1985727834
 21
103.9792079472
 31
0.0
  0
LINE
  5
FE
330
1F
100
AcDbEntity
  8
0
  6
Continuous
 62
     7
370
    15
100
AcDbLine
 10
232.2985727862
 20
132.9201044763
 30
0.0
 11
232.2985727862
 21
163.6701044763
 31
0.0
  0
LINE
  5
FF
330
1F
100
AcDbEntity
  8
0
  6
Continuous
 62
     7
370
    15
100
AcDbLine
 10
232.2985727862
 20
102.1701044763
 30
0.0
 11
232.2985727862
 21
132.9201044763
 31
0.0
  0
SPLINE
  5
100
330
1F
100
AcDbEntity
  8
0
  6
Continuous
 62
     7
370
    15
100
AcDbSpline
210
0.0
220
0.0
230
1.0
 70
    24
 71
     3
 72
    14
 73
    10
 74
     0
 42
0.000000001
 43
0.00000001
 40
0.0
 40
0.0
 40
0.0
 40
0.0
 40
0.25
 40
0.25
 40
0.5
 40
0.5
 40
0.75
 40
0.75
 40
1.0
 40
1.0
 40
1.0
 40
1.0
 10
216.3985727864919
 20
132.920104474745
 30
0.0
 10
216.3985727871986
 20
132.920104474749
 30
0.0
 10
216.3878334185212
 20
132.9201044747533
 30
0.0
 10
216.3391004594491
 20
132.9201044747616
 30
0.0
 10
216.3009417163455
 20
132.9201044747656
 30
0.0
 10
216.2033106433752
 20
132.9201044747721
 30
0.0
 10
216.1441686188935
 20
132.9201044747747
 30
0.0
 10
216.0210716675447
 20
132.920104474778
 30
0.0
 10
215.9574983524393
 20
132.9201044747787
 30
0.0
 10
215.8985727867835
 20
132.9201044747787
 30
0.0
  0
LINE
  5
101
330
1F
100
AcDbEntity
  8
0
  6
Continuous
 62
     7
370
    15
100
AcDbLine
 10
213.1985727862
 20
132.9201044763
 30
0.0
 11
213.1985727862
 21
110.6951044763
 31
0.0
  0
LINE
  5
102
330
1F
100
AcDbEntity
  8
0
  6
Continuous
 62
     7
370
    15
100
AcDbLine
 10
213.1985727862
 20
155.1451044763
 30
0.0
 11
213.1985727862
 21
132.9201044763
 31
0.0
  0
LINE
  5
103
330
1F
100
AcDbEntity
  8
0
  6
Continuous
 62
     7
370
    15
100
AcDbLine
 10
213.6810868432
 20
132.9201044763
 30
0.0
 11
213.6810868432
 21
110.9201044763
 31
0.0
  0
LINE
  5
104
330
1F
100
AcDbEntity
  8
0
  6
Continuous
 62
     7
370
    15
100
AcDbLine
 10
213.6810868432
 20
154.9201044763
 30
0.0
 11
213.6810868432
 21
132.9201044763
 31
0.0
  0
SPLINE
  5
105
330
1F
100
AcDbEntity
  8
0
  6
Continuous
 62
     7
370
    15
100
AcDbSpline
210
0.0
220
0.0
230
1.0
 70
    24
 71
     3
 72
    10
 73
     6
 74
     0
 42
0.000000001
 43
0.00000001
 40
0.0
 40
0.0
 40
0.0
 40
0.0
 40
0.5
 40
0.5
 40
1.0
 40
1.0
 40
1.0
 40
1.0
 10
233.181415498748
 20
132.9201044762603
 30
0.0
 10
233.0097680501703
 20
132.9201044762603
 30
0.0
 10
232.8249251088695
 20
132.9201044762603
 30
0.0
 10
232.5080211971156
 20
132.9201044762603
 30
0.0
 10
232.3791902307921
 20
132.9201044762603
 30
0.0
 10
232.2985727861743
 20
132.9201044762603
 30
0.0
  0
LINE
  5
106
330
1F
100
AcDbEntity
  8
0
  6
Continuous
 62
     7
370
    15
100
AcDbLine
 10
300.3315312632
 20
132.9201044763
 30
0.0
 11
300.3315312632
 21
153.9201044763
 31
0.0
  0
LINE
  5
107
330
1F
100
AcDbEntity
  8
0
  6
Continuous
 62
     7
370
    15
100
AcDbLine
 10
300.3315312632
 20
111.9201044763
 30
0.0
 11
300.3315312632
 21
132.9201044763
 31
0.0
  0
LINE
  5
108
330
1F
100
AcDbEntity
  8
0
  6
Continuous
 62
     7
370
    15
100
AcDbLine
 10
313.1985727862
 20
132.9201044763
 30
0.0
 11
313.1985727862
 21
147.9201044763
 31
0.0
  0
LINE
  5
109
330
1F
100
AcDbEntity
  8
0
  6
Continuous
 62
     7
370
    15
100
AcDbLine
 10
313.1985727862
 20
117.9201044763
 30
0.0
 11
313.1985727862
 21
132.9201044763
 31
0.0
  0
SPLINE
  5
10A
330
1F
100
AcDbEntity
  8
0
  6
Continuous
 62
     7
370
    15
100
AcDbSpline
210
0.0
220
0.0
230
1.0
 70
    24
 71
     3
 72
    14
 73
    10
 74
     0
 42
0.000000001
 43
0.00000001
 40
0.0
 40
0.0
 40
0.0
 40
0.0
 40
0.25
 40
0.25
 40
0.5
 40
0.5
 40
0.75
 40
0.75
 40
1.0
 40
1.0
 40
1.0
 40
1.0
 10
144.7985727865109
 20
132.9201044727576
 30
0.0
 10
144.7985727862725
 20
132.920104472724
 30
0.0
 10
144.8168769679144
 20
132.9201044726883
 30
0.0
 10
144.897982891755
 20
132.9201044726189
 30
0.0
 10
144.9609669889834
 20
132.9201044725853
 30
0.0
 10
145.1233611924062
 20
132.9201044725275
 30
0.0
 10
145.2224065885501
 20
132.9201044725035
 30
0.0
 10
145.4341675749125
 20
132.9201044724687
 30
0.0
 10
145.5463891094623
 20
132.920104472458
 30
0.0
 10
145.6542645592308
 20
132.9201044724531
 30
0.0
  0
SPLINE
  5
10B
330
1F
100
AcDbEntity
  8
0
  6
Continuous
 62
     7
370
    15
100
AcDbSpline
210
0.0
220
0.0
230
1.0
 70
    24
 71
     3
 72
    22
 73
    18
 74
     0
 42
0.000000001
 43
0.00000001
 40
0.0
 40
0.0
 40
0.0
 40
0.0
 40
0.1249999999999999
 40
0.1249999999999999
 40
0.2499999999999998
 40
0.2499999999999998
 40
0.3749999999999998
 40
0.3749999999999998
 40
0.4999999999999997
 40
0.4999999999999997
 40
0.6249999999999998
 40
0.6249999999999998
 40
0.7499999999999999
 40
0.7499999999999999
 40
0.875
 40
0.875
 40
1.0
 40
1.0
 40
1.0
 40
1.0
 10
144.7985727865109
 20
144.3052670637025
 30
0.0
 10
144.7985727865109
 20
144.3052670636923
 30
0.0
 10
144.7985727865109
 20
144.1849032146328
 30
0.0
 10
144.7985727865109
 20
143.7250055227239
 30
0.0
 10
144.7985727865109
 20
143.3860497844019
 30
0.0
 10
144.7985727865109
 20
142.5456225576414
 30
0.0
 10
144.7985727865109
 20
142.04489888623
 30
0.0
 10
144.7985727865109
 20
140.9510345130332
 30
0.0
 10
144.7985727865109
 20
140.3584107000142
 30
0.0
 10
144.7985727865109
 20
139.1439933573589
 30
0.0
 10
144.7985727865109
 20
138.5223729665256
 30
0.0
 10
144.7985727865109
 20
137.2958436468402
 30
0.0
 10
144.7985727865109
 20
136.6908703251988
 30
0.0
 10
144.7985727865109
 20
135.5250296762519
 30
0.0
 10
144.7985727865109
 20
134.9640067164094
 30
0.0
 10
144.7985727865109
 20
133.8988117725831
 30
0.0
 10
144.7985727865109
 20
133.3944862507345
 30
0.0
 10
144.7985727865109
 20
132.9201044762603
 30
0.0
  0
SPLINE
  5
10C
330
1F
100
AcDbEntity
  8
0
  6
Continuous
 62
     7
370
    15
100
AcDbSpline
210
0.0
220
0.0
230
1.0
 70
    24
 71
     3
 72
    22
 73
    18
 74
     0
 42
0.000000001
 43
0.00000001
 40
0.0
 40
0.0
 40
0.0
 40
0.0
 40
0.125
 40
0.125
 40
0.25
 40
0.25
 40
0.375
 40
0.375
 40
0.5
 40
0.5
 40
0.625
 40
0.625
 40
0.75
 40
0.75
 40
0.875
 40
0.875
 40
1.0
 40
1.0
 40
1.0
 40
1.0
 10
144.7985727865109
 20
132.9201044762603
 30
0.0
 10
144.7985727865109
 20
132.445722701781
 30
0.0
 10
144.7985727865108
 20
131.9413971799266
 30
0.0
 10
144.7985727865109
 20
130.8762022360878
 30
0.0
 10
144.7985727865109
 20
130.3151792762384
 30
0.0
 10
144.7985727865109
 20
129.1493386272771
 30
0.0
 10
144.7985727865109
 20
128.5443653056282
 30
0.0
 10
144.7985727865109
 20
127.3178359859287
 30
0.0
 10
144.7985727865109
 20
126.6962155950887
 30
0.0
 10
144.7985727865109
 20
125.481798252423
 30
0.0
 10
144.7985727865109
 20
124.8891744394002
 30
0.0
 10
144.7985727865109
 20
123.7953100662016
 30
0.0
 10
144.7985727865109
 20
123.2945863947922
 30
0.0
 10
144.7985727865109
 20
122.4541591680433
 30
0.0
 10
144.7985727865109
 20
122.1152034297311
 30
0.0
 10
144.7985727865109
 20
121.6553057378497
 30
0.0
 10
144.7985727865109
 20
121.5349418888079
 30
0.0
 10
144.7985727865109
 20
121.5349418888181
 30
0.0
  0
LINE
  5
10D
330
1F
100
AcDbEntity
  8
0
  6
Continuous
 62
     8
370
    15
100
AcDbLine
 10
215.8985727868
 20
132.9201044755
 30
0.0
 11
215.8985727868
 21
154.9201044568
 31
0.0
  0
LINE
  5
10E
330
1F
100
AcDbEntity
  8
0
  6
Continuous
 62
     8
370
    15
100
AcDbLine
 10
215.8985727868
 20
132.9201044755
 30
0.0
 11
215.8985727868
 21
110.9201044765
 31
0.0
  0
LINE
  5
10F
330
1F
100
AcDbEntity
  8
0
  6
Continuous
 62
     8
370
    15
100
AcDbLine
 10
145.6542645592
 20
132.9201044725
 30
0.0
 11
145.6542645592
 21
120.5454091003
 31
0.0
  0
LINE
  5
110
330
1F
100
AcDbEntity
  8
0
  6
Continuous
 62
     8
370
    15
100
AcDbLine
 10
145.6542645592
 20
145.2947998523
 30
0.0
 11
145.6542645592
 21
132.9201044725
 31
0.0
  0
LINE
  5
111
330
1F
100
AcDbEntity
  8
0
  6
Continuous
 62
     8
370
    15
100
AcDbLine
 10
233.1814154987
 20
132.9201044763
 30
0.0
 11
233.1814154987
 21
111.9201044847
 31
0.0
  0
LINE
  5
112
330
1F
100
AcDbEntity
  8
0
  6
Continuous
 62
     8
370
    15
100
AcDbLine
 10
233.1814154988
 20
153.9201044679
 30
0.0
 11
233.1814154987
 21
132.9201044763
 31
0.0
  0
DIMENSION
  5
113
330
1F
100
AcDbEntity
  8
DIM
100
AcDbDimension
  2
_D
 10
140.9882186575
 20
101.1701044763
 30
0.0
 11
140.9882186575
 21
132.9201044763
 31
0.0
 70
   160
  1
%%c<>
 71
     2
 42
-1.0
  3
SLDDIMSTYLE0
100
AcDbAlignedDimension
 13
217.3985727862
 23
164.6701044763
 33
0.0
 14
217.3985727862
 24
101.1701044763
 34
0.0
 50
90.0
100
AcDbRotatedDimension
  0
DIMENSION
  5
11F
330
1F
100
AcDbEntity
  8
DIM
100
AcDbDimension
  2
_D_1
 10
313.1985727862
 20
88.6701044758
 30
0.0
 11
228.9985727863
 21
88.6701044758
 31
0.0
 70
   160
  1
<>
 71
     2
 42
-1.0
  3
SLDDIMSTYLE0
100
AcDbAlignedDimension
 13
144.7985727864
 23
132.9201044763
 33
0.0
 14
313.1985727862
 24
117.9201044763
 34
0.0
 50
0.0
100
AcDbRotatedDimension
  0
DIMENSION
  5
129
330
1F
100
AcDbEntity
  8
DIM
100
AcDbDimension
  2
_D_2
 10
313.1985727862
 20
96.9952813609
 30
0.0
 11
263.1985727862
 21
96.9952813609
 31
0.0
 70
   160
  1
<>
 71
     2
 42
-1.0
  3
SLDDIMSTYLE1
100
AcDbAlignedDimension
 13
213.1985727862
 23
110.6951044763
 33
0.0
 14
313.1985727862
 24
117.9201044763
 34
0.0
100
AcDbRotatedDimension
  0
DIMENSION
  5
134
330
1F
100
AcDbEntity
  8
DIM
100
AcDbDimension
  2
_D_3
 10
323.6485494129
 20
153.9201044763
 30
0.0
 11
323.6485494129
 21
132.9201044763
 31
0.0
 70
   160
  1
%%c<>
 71
     2
 42
-1.0
  3
SLDDIMSTYLE1
100
AcDbAlignedDimension
 13
300.3315312632
 23
111.9201044763
 33
0.0
 14
300.3315312632
 24
153.9201044763
 34
0.0
 50
90.0
100
AcDbRotatedDimension
  0
LINE
  5
13F
330
1F
100
AcDbEntity
  8
DIM
  6
CENTERX2
 48
1.6
370
     0
100
AcDbLine
 10
142.5911697158
 20
132.9201044763
 30
0.0
 11
312.6036241013
 21
132.9201044763
 31
0.0
  0
ENDSEC
  0
SECTION
  2
OBJECTS
  0
DICTIONARY
  5
C
330
0
100
AcDbDictionary
281
     1
  3
ACAD_GROUP
350
D
  3
ACAD_LAYOUT
350
1A
  3
ACAD_MLINESTYLE
350
17
  3
ACAD_PLOTSETTINGS
350
19
  3
ACAD_PLOTSTYLENAME
350
E
  3
ACAD_SCALELIST
350
47
  0
DICTIONARY
  5
D
102
{ACAD_REACTORS
330
C
102
}
330
C
100
AcDbDictionary
281
     1
  0
DICTIONARY
  5
1A
102
{ACAD_REACTORS
330
C
102
}
330
C
100
AcDbDictionary
281
     1
  3
Layout1
350
1E
  3
Layout2
350
26
  3
Model
350
22
  0
DICTIONARY
  5
17
102
{ACAD_REACTORS
330
C
102
}
330
C
100
AcDbDictionary
281
     1
  3
Standard
350
18
  0
DICTIONARY
  5
19
102
{ACAD_REACTORS
330
C
102
}
330
C
100
AcDbDictionary
281
     1
  0
ACDBDICTIONARYWDFLT
  5
E
102
{ACAD_REACTORS
330
C
102
}
330
C
100
AcDbDictionary
281
     1
  3
Normal
350
F
100
AcDbDictionaryWithDefault
340
F
  0
DICTIONARY
  5
47
102
{ACAD_REACTORS
330
C
102
}
330
C
100
AcDbDictionary
281
     1
  3
A0
350
48
  3
A1
350
49
  3
A2
350
4A
  3
A3
350
4B
  3
A4
350
4C
  3
A5
350
4D
  3
A6
350
4E
  3
A7
350
4F
  3
A8
350
50
  3
A9
350
51
  3
B0
350
52
  3
B1
350
53
  3
B2
350
54
  3
B3
350
55
  3
B4
350
56
  3
B5
350
57
  3
B6
350
58
  3
B7
350
59
  3
B8
350
5A
  3
B9
350
5B
  3
C0
350
5C
  3
C1
350
5D
  3
C2
350
5E
  3
C3
350
5F
  3
C4
350
60
  3
C5
350
61
  3
C6
350
62
  3
C7
350
63
  3
C8
350
64
  3
C9
350
65
  3
D0
350
66
  3
D1
350
67
  3
D2
350
68
  0
LAYOUT
  5
1E
102
{ACAD_REACTORS
330
1A
102
}
330
1A
100
AcDbPlotSettings
  1

  2
none_device
  4

  6

 40
0.0
 41
0.0
 42
0.0
 43
0.0
 44
0.0
 45
0.0
 46
0.0
 47
0.0
 48
0.0
 49
0.0
140
0.0
141
0.0
142
1.0
143
1.0
 70
   688
 72
     1
 73
     0
 74
     5
  7

 75
    16
147
1.0
148
0.0
149
0.0
100
AcDbLayout
  1
Layout1
 70
     1
 71
     1
 10
0.0
 20
0.0
 11
420.0
 21
297.0
 12
0.0
 22
0.0
 32
0.0
 14
1.0000000000E+20
 24
1.0000000000E+20
 34
1.0000000000E+20
 15
-1.0000000000E+20
 25
-1.0000000000E+20
 35
-1.0000000000E+20
146
0.0
 13
0.0
 23
0.0
 33
0.0
 16
1.0
 26
0.0
 36
0.0
 17
0.0
 27
1.0
 37
0.0
 76
     0
330
1B
  0
LAYOUT
  5
26
102
{ACAD_REACTORS
330
1A
102
}
330
1A
100
AcDbPlotSettings
  1

  2
none_device
  4

  6

 40
0.0
 41
0.0
 42
0.0
 43
0.0
 44
0.0
 45
0.0
 46
0.0
 47
0.0
 48
0.0
 49
0.0
140
0.0
141
0.0
142
1.0
143
1.0
 70
   688
 72
     1
 73
     0
 74
     5
  7

 75
    16
147
1.0
148
0.0
149
0.0
100
AcDbLayout
  1
Layout2
 70
     1
 71
     2
 10
0.0
 20
0.0
 11
0.0
 21
0.0
 12
0.0
 22
0.0
 32
0.0
 14
0.0
 24
0.0
 34
0.0
 15
0.0
 25
0.0
 35
0.0
146
0.0
 13
0.0
 23
0.0
 33
0.0
 16
1.0
 26
0.0
 36
0.0
 17
0.0
 27
1.0
 37
0.0
 76
     0
330
23
  0
LAYOUT
  5
22
102
{ACAD_REACTORS
330
1A
102
}
330
1A
100
AcDbPlotSettings
  1

  2
none_device
  4
Letter_(8.50_x_11.00_Inches)
  6

 40
6.35
 41
6.35
 42
6.35000508
 43
6.35000508
 44
215.9
 45
279.4
 46
0.0
 47
0.0
 48
0.0
 49
0.0
140
0.0
141
0.0
142
1.0
143
1.0
 70
  1712
 72
     1
 73
     0
 74
     0
  7

 75
     0
147
1.0
148
0.0
149
0.0
100
AcDbLayout
  1
Model
 70
     1
 71
     0
 10
0.0
 20
0.0
 11
371.25
 21
262.5
 12
0.0
 22
0.0
 32
0.0
 14
0.0
 24
0.0
 34
0.0
 15
371.25
 25
262.5
 35
0.0
146
0.0
 13
0.0
 23
0.0
 33
0.0
 16
1.0
 26
0.0
 36
0.0
 17
0.0
 27
1.0
 37
0.0
 76
     0
330
1F
331
29
  0
MLINESTYLE
  5
18
102
{ACAD_REACTORS
330
17
102
}
330
17
100
AcDbMlineStyle
  2
Standard
 70
     0
  3

 62
   256
 51
90.0
 52
90.0
 71
     2
 49
0.5
 62
   256
  6
BYLAYER
 49
-0.5
 62
   256
  6
BYLAYER
  0
ACDBPLACEHOLDER
  5
F
102
{ACAD_REACTORS
330
E
102
}
330
E
  0
SCALE
  5
48
102
{ACAD_REACTORS
330
47
102
}
330
47
100
AcDbScale
 70
     0
300
1:1
140
1.0
141
1.0
290
     1
  0
SCALE
  5
49
102
{ACAD_REACTORS
330
47
102
}
330
47
100
AcDbScale
 70
     0
300
1:2
140
1.0
141
2.0
290
     0
  0
SCALE
  5
4A
102
{ACAD_REACTORS
330
47
102
}
330
47
100
AcDbScale
 70
     0
300
1:4
140
1.0
141
4.0
290
     0
  0
SCALE
  5
4B
102
{ACAD_REACTORS
330
47
102
}
330
47
100
AcDbScale
 70
     0
300
1:5
140
1.0
141
5.0
290
     0
  0
SCALE
  5
4C
102
{ACAD_REACTORS
330
47
102
}
330
47
100
AcDbScale
 70
     0
300
1:8
140
1.0
141
8.0
290
     0
  0
SCALE
  5
4D
102
{ACAD_REACTORS
330
47
102
}
330
47
100
AcDbScale
 70
     0
300
1:10
140
1.0
141
10.0
290
     0
  0
SCALE
  5
4E
102
{ACAD_REACTORS
330
47
102
}
330
47
100
AcDbScale
 70
     0
300
1:16
140
1.0
141
16.0
290
     0
  0
SCALE
  5
4F
102
{ACAD_REACTORS
330
47
102
}
330
47
100
AcDbScale
 70
     0
300
1:20
140
1.0
141
20.0
290
     0
  0
SCALE
  5
50
102
{ACAD_REACTORS
330
47
102
}
330
47
100
AcDbScale
 70
     0
300
1:30
140
1.0
141
30.0
290
     0
  0
SCALE
  5
51
102
{ACAD_REACTORS
330
47
102
}
330
47
100
AcDbScale
 70
     0
300
1:40
140
1.0
141
40.0
290
     0
  0
SCALE
  5
52
102
{ACAD_REACTORS
330
47
102
}
330
47
100
AcDbScale
 70
     0
300
1:50
140
1.0
141
50.0
290
     0
  0
SCALE
  5
53
102
{ACAD_REACTORS
330
47
102
}
330
47
100
AcDbScale
 70
     0
300
1:100
140
1.0
141
100.0
290
     0
  0
SCALE
  5
54
102
{ACAD_REACTORS
330
47
102
}
330
47
100
AcDbScale
 70
     0
300
2:1
140
2.0
141
1.0
290
     0
  0
SCALE
  5
55
102
{ACAD_REACTORS
330
47
102
}
330
47
100
AcDbScale
 70
     0
300
4:1
140
4.0
141
1.0
290
     0
  0
SCALE
  5
56
102
{ACAD_REACTORS
330
47
102
}
330
47
100
AcDbScale
 70
     0
300
8:1
140
8.0
141
1.0
290
     0
  0
SCALE
  5
57
102
{ACAD_REACTORS
330
47
102
}
330
47
100
AcDbScale
 70
     0
300
10:1
140
10.0
141
1.0
290
     0
  0
SCALE
  5
58
102
{ACAD_REACTORS
330
47
102
}
330
47
100
AcDbScale
 70
     0
300
100:1
140
100.0
141
1.0
290
     0
  0
SCALE
  5
59
102
{ACAD_REACTORS
330
47
102
}
330
47
100
AcDbScale
 70
     0
300
1/128" = 1'-0"
140
0.0078125
141
12.0
290
     0
  0
SCALE
  5
5A
102
{ACAD_REACTORS
330
47
102
}
330
47
100
AcDbScale
 70
     0
300
1/64" = 1'-0"
140
0.015625
141
12.0
290
     0
  0
SCALE
  5
5B
102
{ACAD_REACTORS
330
47
102
}
330
47
100
AcDbScale
 70
     0
300
1/32" = 1'-0"
140
0.03125
141
12.0
290
     0
  0
SCALE
  5
5C
102
{ACAD_REACTORS
330
47
102
}
330
47
100
AcDbScale
 70
     0
300
1/16" = 1'-0"
140
0.0625
141
12.0
290
     0
  0
SCALE
  5
5D
102
{ACAD_REACTORS
330
47
102
}
330
47
100
AcDbScale
 70
     0
300
3/32" = 1'-0"
140
0.09375
141
12.0
290
     0
  0
SCALE
  5
5E
102
{ACAD_REACTORS
330
47
102
}
330
47
100
AcDbScale
 70
     0
300
1/8" = 1'-0"
140
0.125
141
12.0
290
     0
  0
SCALE
  5
5F
102
{ACAD_REACTORS
330
47
102
}
330
47
100
AcDbScale
 70
     0
300
3/16" = 1'-0"
140
0.1875
141
12.0
290
     0
  0
SCALE
  5
60
102
{ACAD_REACTORS
330
47
102
}
330
47
100
AcDbScale
 70
     0
300
1/4" = 1'-0"
140
0.25
141
12.0
290
     0
  0
SCALE
  5
61
102
{ACAD_REACTORS
330
47
102
}
330
47
100
AcDbScale
 70
     0
300
3/8" = 1'-0"
140
0.375
141
12.0
290
     0
  0
SCALE
  5
62
102
{ACAD_REACTORS
330
47
102
}
330
47
100
AcDbScale
 70
     0
300
1/2" = 1'-0"
140
0.5
141
12.0
290
     0
  0
SCALE
  5
63
102
{ACAD_REACTORS
330
47
102
}
330
47
100
AcDbScale
 70
     0
300
3/4" = 1'-0"
140
0.75
141
12.0
290
     0
  0
SCALE
  5
64
102
{ACAD_REACTORS
330
47
102
}
330
47
100
AcDbScale
 70
     0
300
1" = 1'-0"
140
1.0
141
12.0
290
     0
  0
SCALE
  5
65
102
{ACAD_REACTORS
330
47
102
}
330
47
100
AcDbScale
 70
     0
300
1-1/2" = 1'-0"
140
1.5
141
12.0
290
     0
  0
SCALE
  5
66
102
{ACAD_REACTORS
330
47
102
}
330
47
100
AcDbScale
 70
     0
300
3" = 1'-0"
140
3.0
141
12.0
290
     0
  0
SCALE
  5
67
102
{ACAD_REACTORS
330
47
102
}
330
47
100
AcDbScale
 70
     0
300
6" = 1'-0"
140
6.0
141
12.0
290
     0
  0
SCALE
  5
68
102
{ACAD_REACTORS
330
47
102
}
330
47
100
AcDbScale
 70
     0
300
1'-0" = 1'-0"
140
12.0
141
12.0
290
     0
  0
ENDSEC
  0
EOF
