  0
SECTION
  2
HEADER
  9
$ACADVER
  1
AC1015
  9
$ACADMAINTVER
 70
     6
  9
$DWGCODEPAGE
  3
ANSI_1252
  9
$INSBASE
 10
0.0
 20
0.0
 30
0.0
  9
$EXTMIN
 10
0.0
 20
0.0
 30
0.0
  9
$EXTMAX
 10
349.4117647059
 20
247.0588235294
 30
0.0
  9
$LIMMIN
 10
0.0
 20
0.0
  9
$LIMMAX
 10
349.4117647059
 20
247.0588235294
  9
$ORTHOMODE
 70
     0
  9
$REGENMODE
 70
     1
  9
$FILLMODE
 70
     1
  9
$QTEXTMODE
 70
     0
  9
$MIRRTEXT
 70
     1
  9
$LTSCALE
 40
1.1764705882
  9
$ATTMODE
 70
     1
  9
$TEXTSIZE
 40
4.5653594771
  9
$TRACEWID
 40
1.0
  9
$TEXTSTYLE
  7
Standard
  9
$CLAYER
  8
0
  9
$CELTYPE
  6
ByLayer
  9
$CECOLOR
 62
   256
  9
$CELTSCALE
 40
1.0
  9
$DISPSILH
 70
     0
  9
$DIMSCALE
 40
1.0
  9
$DIMASZ
 40
3.8847058824
  9
$DIMEXO
 40
1.1764705882
  9
$DIMDLI
 40
3.75
  9
$DIMRND
 40
0.0
  9
$DIMDLE
 40
0.0
  9
$DIMEXE
 40
1.1764705882
  9
$DIMTP
 40
0.0
  9
$DIMTM
 40
0.0
  9
$DIMTXT
 40
4.5653594771
  9
$DIMCEN
 40
2.5
  9
$DIMTSZ
 40
0.0
  9
$DIMTOL
 70
     0
  9
$DIMLIM
 70
     0
  9
$DIMTIH
 70
     1
  9
$DIMTOH
 70
     1
  9
$DIMSE1
 70
     0
  9
$DIMSE2
 70
     0
  9
$DIMTAD
 70
     1
  9
$DIMZIN
 70
     0
  9
$DIMBLK
  1

  9
$DIMASO
 70
     1
  9
$DIMSHO
 70
     1
  9
$DIMPOST
  1

  9
$DIMAPOST
  1

  9
$DIMALT
 70
     0
  9
$DIMALTD
 70
     3
  9
$DIMALTF
 40
0.0393700787
  9
$DIMLFAC
 40
1.0
  9
$DIMTOFL
 70
     1
  9
$DIMTVP
 40
0.0
  9
$DIMTIX
 70
     0
  9
$DIMSOXD
 70
     0
  9
$DIMSAH
 70
     0
  9
$DIMBLK1
  1

  9
$DIMBLK2
  1

  9
$DIMSTYLE
  2
ISO-25
  9
$DIMCLRD
 70
     0
  9
$DIMCLRE
 70
     0
  9
$DIMCLRT
 70
     0
  9
$DIMTFAC
 40
1.0
  9
$DIMGAP
 40
1.7929411765
  9
$DIMJUST
 70
     0
  9
$DIMSD1
 70
     0
  9
$DIMSD2
 70
     0
  9
$DIMTOLJ
 70
     0
  9
$DIMTZIN
 70
     0
  9
$DIMALTZ
 70
     0
  9
$DIMALTTZ
 70
     0
  9
$DIMUPT
 70
     0
  9
$DIMDEC
 70
     2
  9
$DIMTDEC
 70
     2
  9
$DIMALTU
 70
     2
  9
$DIMALTTD
 70
     3
  9
$DIMTXSTY
  7
Standard
  9
$DIMAUNIT
 70
     0
  9
$DIMADEC
 70
     2
  9
$DIMALTRND
 40
0.0
  9
$DIMAZIN
 70
     0
  9
$DIMDSEP
 70
    44
  9
$DIMATFIT
 70
     3
  9
$DIMFRAC
 70
     0
  9
$DIMLDRBLK
  1

  9
$DIMLUNIT
 70
     2
  9
$DIMLWD
 70
    -2
  9
$DIMLWE
 70
    -2
  9
$DIMTMOVE
 70
     0
  9
$LUNITS
 70
     2
  9
$LUPREC
 70
     2
  9
$SKETCHINC
 40
1.0
  9
$FILLETRAD
 40
10.0
  9
$AUNITS
 70
     1
  9
$AUPREC
 70
     2
  9
$MENU
  1
.
  9
$ELEVATION
 40
0.0
  9
$PELEVATION
 40
0.0
  9
$THICKNESS
 40
0.0
  9
$LIMCHECK
 70
     0
  9
$CHAMFERA
 40
0.0
  9
$CHAMFERB
 40
0.0
  9
$CHAMFERC
 40
0.0
  9
$CHAMFERD
 40
0.0
  9
$SKPOLY
 70
     0
  9
$TDCREATE
 40
2458604.714450717
  9
$TDUCREATE
 40
2458604.485284051
  9
$TDUPDATE
 40
2458604.714451528
  9
$TDUUPDATE
 40
2458604.485284861
  9
$TDINDWG
 40
0.0000000116
  9
$TDUSRTIMER
 40
0.0000000116
  9
$USRTIMER
 70
     1
  9
$ANGBASE
 50
0.0
  9
$ANGDIR
 70
     0
  9
$PDMODE
 70
     0
  9
$PDSIZE
 40
-1.0
  9
$PLINEWID
 40
0.0
  9
$SPLFRAME
 70
     0
  9
$SPLINETYPE
 70
     6
  9
$SPLINESEGS
 70
     8
  9
$HANDSEED
  5
185
  9
$SURFTAB1
 70
     6
  9
$SURFTAB2
 70
     6
  9
$SURFTYPE
 70
     6
  9
$SURFU
 70
     6
  9
$SURFV
 70
     6
  9
$UCSBASE
  2

  9
$UCSNAME
  2

  9
$UCSORG
 10
0.0
 20
0.0
 30
0.0
  9
$UCSXDIR
 10
1.0
 20
0.0
 30
0.0
  9
$UCSYDIR
 10
0.0
 20
1.0
 30
0.0
  9
$UCSORTHOREF
  2

  9
$UCSORTHOVIEW
 70
     0
  9
$UCSORGTOP
 10
0.0
 20
0.0
 30
0.0
  9
$UCSORGBOTTOM
 10
0.0
 20
0.0
 30
0.0
  9
$UCSORGLEFT
 10
0.0
 20
0.0
 30
0.0
  9
$UCSORGRIGHT
 10
0.0
 20
0.0
 30
0.0
  9
$UCSORGFRONT
 10
0.0
 20
0.0
 30
0.0
  9
$UCSORGBACK
 10
0.0
 20
0.0
 30
0.0
  9
$PUCSBASE
  2

  9
$PUCSNAME
  2

  9
$PUCSORG
 10
0.0
 20
0.0
 30
0.0
  9
$PUCSXDIR
 10
1.0
 20
0.0
 30
0.0
  9
$PUCSYDIR
 10
0.0
 20
1.0
 30
0.0
  9
$PUCSORTHOREF
  2

  9
$PUCSORTHOVIEW
 70
     0
  9
$PUCSORGTOP
 10
0.0
 20
0.0
 30
0.0
  9
$PUCSORGBOTTOM
 10
0.0
 20
0.0
 30
0.0
  9
$PUCSORGLEFT
 10
0.0
 20
0.0
 30
0.0
  9
$PUCSORGRIGHT
 10
0.0
 20
0.0
 30
0.0
  9
$PUCSORGFRONT
 10
0.0
 20
0.0
 30
0.0
  9
$PUCSORGBACK
 10
0.0
 20
0.0
 30
0.0
  9
$USERI1
 70
     0
  9
$USERI2
 70
     0
  9
$USERI3
 70
     0
  9
$USERI4
 70
     0
  9
$USERI5
 70
     0
  9
$USERR1
 40
0.0
  9
$USERR2
 40
0.0
  9
$USERR3
 40
0.0
  9
$USERR4
 40
0.0
  9
$USERR5
 40
0.0
  9
$WORLDVIEW
 70
     1
  9
$SHADEDGE
 70
     3
  9
$SHADEDIF
 70
    70
  9
$TILEMODE
 70
     1
  9
$MAXACTVP
 70
    64
  9
$PINSBASE
 10
0.0
 20
0.0
 30
0.0
  9
$PLIMCHECK
 70
     0
  9
$PEXTMIN
 10
1.0000000000E+20
 20
1.0000000000E+20
 30
1.0000000000E+20
  9
$PEXTMAX
 10
-1.0000000000E+20
 20
-1.0000000000E+20
 30
-1.0000000000E+20
  9
$PLIMMIN
 10
0.0
 20
0.0
  9
$PLIMMAX
 10
420.0
 20
297.0
  9
$UNITMODE
 70
     0
  9
$VISRETAIN
 70
     1
  9
$PLINEGEN
 70
     0
  9
$PSLTSCALE
 70
     1
  9
$TREEDEPTH
 70
  3020
  9
$CMLSTYLE
  2
Standard
  9
$CMLJUST
 70
     0
  9
$CMLSCALE
 40
20.0
  9
$PROXYGRAPHICS
 70
     1
  9
$MEASUREMENT
 70
     1
  9
$CELWEIGHT
370
    -1
  9
$ENDCAPS
280
     0
  9
$JOINSTYLE
280
     0
  9
$LWDISPLAY
290
     1
  9
$INSUNITS
 70
     4
  9
$HYPERLINKBASE
  1

  9
$STYLESHEET
  1

  9
$XEDIT
290
     1
  9
$CEPSNTYPE
380
     0
  9
$PSTYLEMODE
290
     1
  9
$FINGERPRINTGUID
  2
{F0FA4620-6323-48F5-9A80-2D866ABC4440}
  9
$VERSIONGUID
  2
{FAEB1C32-E019-11D5-929B-00C0DF256EC4}
  9
$EXTNAMES
290
     1
  9
$PSVPSCALE
 40
0.0
  9
$OLESTARTUP
290
     0
  0
ENDSEC
  0
SECTION
  2
CLASSES
  0
CLASS
  1
ACDBDICTIONARYWDFLT
  2
AcDbDictionaryWithDefault
  3
ObjectDBX Classes
 90
        0
280
     0
281
     0
  0
CLASS
  1
VISUALSTYLE
  2
AcDbVisualStyle
  3
ObjectDBX Classes
 90
     4095
280
     0
281
     0
  0
CLASS
  1
MATERIAL
  2
AcDbMaterial
  3
ObjectDBX Classes
 90
     1153
280
     0
281
     0
  0
CLASS
  1
SCALE
  2
AcDbScale
  3
ObjectDBX Classes
 90
     1153
280
     0
281
     0
  0
CLASS
  1
SUN
  2
AcDbSun
  3
SCENEOE
 90
     1153
280
     0
281
     0
  0
CLASS
  1
ACDBPLACEHOLDER
  2
AcDbPlaceHolder
  3
ObjectDBX Classes
 90
        0
280
     0
281
     0
  0
CLASS
  1
LAYOUT
  2
AcDbLayout
  3
ObjectDBX Classes
 90
        0
280
     0
281
     0
  0
ENDSEC
  0
SECTION
  2
TABLES
  0
TABLE
  2
VPORT
  5
8
330
0
100
AcDbSymbolTable
 70
     1
  0
VPORT
  5
29
330
8
100
AcDbSymbolTableRecord
100
AcDbViewportTableRecord
  2
*Active
 70
     0
 10
0.0
 20
0.0
 11
1.0
 21
1.0
 12
174.7058823529
 22
123.5294117647
 13
0.0
 23
0.0
 14
10.0
 24
10.0
 15
10.0
 25
10.0
 16
0.0
 26
0.0
 36
1.0
 17
0.0
 27
0.0
 37
0.0
 40
247.0588235294
 41
1.4142857143
 42
50.0
 43
0.0
 44
0.0
 50
0.0
 51
0.0
 71
     0
 72
  2000
 73
     1
 74
     3
 75
     0
 76
     0
 77
     0
 78
     0
281
     0
 65
     1
110
0.0
120
0.0
130
0.0
111
1.0
121
0.0
131
0.0
112
0.0
122
1.0
132
0.0
 79
     0
146
0.0
  0
ENDTAB
  0
TABLE
  2
LTYPE
  5
5
330
0
100
AcDbSymbolTable
 70
     6
  0
LTYPE
  5
14
330
5
100
AcDbSymbolTableRecord
100
AcDbLinetypeTableRecord
  2
ByBlock
 70
     0
  3

 72
    65
 73
     0
 40
0.0
  0
LTYPE
  5
15
330
5
100
AcDbSymbolTableRecord
100
AcDbLinetypeTableRecord
  2
ByLayer
 70
     0
  3

 72
    65
 73
     0
 40
0.0
  0
LTYPE
  5
16
330
5
100
AcDbSymbolTableRecord
100
AcDbLinetypeTableRecord
  2
Continuous
 70
     0
  3
Solid line
 72
    65
 73
     0
 40
0.0
  0
LTYPE
  5
6A
330
5
100
AcDbSymbolTableRecord
100
AcDbLinetypeTableRecord
  2
HIDDEN
 70
     0
  3
Hidden __ __ __ __ __ __ __ __ __ __ __ __ __ __
 72
    65
 73
     2
 40
1.905
 49
1.27
 74
     0
 49
-0.635
 74
     0
  0
LTYPE
  5
6B
330
5
100
AcDbSymbolTableRecord
100
AcDbLinetypeTableRecord
  2
PHANTOM
 70
     0
  3
Phantom ______  __  __  ______  __  __  ______
 72
    65
 73
     6
 40
12.7
 49
6.35
 74
     0
 49
-1.27
 74
     0
 49
1.27
 74
     0
 49
-1.27
 74
     0
 49
1.27
 74
     0
 49
-1.27
 74
     0
  0
LTYPE
  5
6C
330
5
100
AcDbSymbolTableRecord
100
AcDbLinetypeTableRecord
  2
CENTER
 70
     0
  3
Center ____ _ ____ _ ____ _ ____ _ ____ _ ____
 72
    65
 73
     4
 40
10.16
 49
6.35
 74
     0
 49
-1.27
 74
     0
 49
1.27
 74
     0
 49
-1.27
 74
     0
  0
LTYPE
  5
6D
330
5
100
AcDbSymbolTableRecord
100
AcDbLinetypeTableRecord
  2
CENTERX2
 70
     0
  3
Center (2x) ________  __  ________  __  _____
 72
    65
 73
     4
 40
20.32
 49
12.7
 74
     0
 49
-2.54
 74
     0
 49
2.54
 74
     0
 49
-2.54
 74
     0
  0
LTYPE
  5
6E
330
5
100
AcDbSymbolTableRecord
100
AcDbLinetypeTableRecord
  2
DOT2
 70
     0
  3
Dot (.5x) ........................................
 72
    65
 73
     2
 40
0.635
 49
0.0
 74
     0
 49
-0.635
 74
     0
  0
ENDTAB
  0
TABLE
  2
LAYER
  5
2
330
0
100
AcDbSymbolTable
 70
     8
  0
LAYER
  5
10
330
2
100
AcDbSymbolTableRecord
100
AcDbLayerTableRecord
  2
0
 70
     0
 62
     7
  6
Continuous
370
    -3
390
F
  0
LAYER
  5
6F
330
2
100
AcDbSymbolTableRecord
100
AcDbLayerTableRecord
  2
FORMAT
 70
     0
 62
     7
  6
Continuous
370
    -3
390
F
  0
LAYER
  5
70
330
2
100
AcDbSymbolTableRecord
100
AcDbLayerTableRecord
  2
SLD-0
 70
     0
 62
     2
  6
Continuous
370
    -3
390
F
  0
LAYER
  5
71
330
2
100
AcDbSymbolTableRecord
100
AcDbLayerTableRecord
  2
DIM
 70
     0
 62
   179
  6
Continuous
370
    -3
390
F
  0
LAYER
  5
72
330
2
100
AcDbSymbolTableRecord
100
AcDbLayerTableRecord
  2
SLD-DEFPOINTS
 70
     0
 62
   179
  6
Continuous
370
    -3
390
F
  0
LAYER
  5
73
330
2
100
AcDbSymbolTableRecord
100
AcDbLayerTableRecord
  2
HAT
 70
     0
 62
   135
  6
Continuous
370
    -3
390
F
  0
LAYER
  5
74
330
2
100
AcDbSymbolTableRecord
100
AcDbLayerTableRecord
  2
JOB
 70
     0
 62
   201
  6
Continuous
370
    -3
390
F
  0
LAYER
  5
75
330
2
100
AcDbSymbolTableRecord
100
AcDbLayerTableRecord
  2
INSPECTION_REPORT
 70
     0
 62
   255
  6
Continuous
370
    -3
390
F
  0
ENDTAB
  0
TABLE
  2
STYLE
  5
3
330
0
100
AcDbSymbolTable
 70
     4
  0
STYLE
  5
11
330
3
100
AcDbSymbolTableRecord
100
AcDbTextStyleTableRecord
  2
Standard
 70
     0
 40
0.0
 41
1.0
 50
0.0
 71
     0
 42
4.5653594771
  3
txt
  4

  0
STYLE
  5
96
330
3
100
AcDbSymbolTableRecord
100
AcDbTextStyleTableRecord
  2
SLDTEXTSTYLE0
 70
     0
 40
0.0
 41
0.7
 50
0.0
 71
     0
 42
4.5653594771
  3
TXT
  4

  0
STYLE
  5
98
330
3
100
AcDbSymbolTableRecord
100
AcDbTextStyleTableRecord
  2
SLDTEXTSTYLE1
 70
     0
 40
0.0
 41
0.75
 50
0.0
 71
     0
 42
4.5653594771
  3
TXT
  4

  0
STYLE
  5
AB
330
3
100
AcDbSymbolTableRecord
100
AcDbTextStyleTableRecord
  2
SLDTEXTSTYLE2
 70
     0
 40
0.0
 41
0.6875
 50
0.0
 71
     0
 42
4.5653594771
  3
TXT
  4

  0
ENDTAB
  0
TABLE
  2
VIEW
  5
6
330
0
100
AcDbSymbolTable
 70
     0
  0
ENDTAB
  0
TABLE
  2
UCS
  5
7
330
0
100
AcDbSymbolTable
 70
     0
  0
ENDTAB
  0
TABLE
  2
APPID
  5
9
330
0
100
AcDbSymbolTable
 70
     1
  0
APPID
  5
12
330
9
100
AcDbSymbolTableRecord
100
AcDbRegAppTableRecord
  2
ACAD
 70
     0
  0
ENDTAB
  0
TABLE
  2
DIMSTYLE
  5
A
330
0
100
AcDbSymbolTable
 70
     4
100
AcDbDimStyleTable
  0
DIMSTYLE
105
27
330
A
100
AcDbSymbolTableRecord
100
AcDbDimStyleTableRecord
  2
ISO-25
 70
     0
 41
2.5
 42
0.625
 43
3.75
 44
1.25
 73
     0
 74
     0
 77
     1
 78
     8
140
2.5
141
2.5
143
0.0393700787
147
0.625
171
     3
172
     1
178
     0
271
     2
272
     2
274
     3
278
    44
283
     0
284
     8
340
11
  0
DIMSTYLE
105
14A
102
{ACAD_REACTORS
330
149
330
16F
102
}
330
A
100
AcDbSymbolTableRecord
100
AcDbDimStyleTableRecord
  2
SLDDIMSTYLE0
 70
     0
 41
3.8847058824
 44
0.0
 45
0.000000001
 73
     0
 74
     0
 77
     1
 78
    12
 79
     3
140
3.4240196078
147
0.856004902
173
     1
178
     0
271
     2
272
     2
276
     2
284
    12
340
96
  0
DIMSTYLE
105
156
102
{ACAD_REACTORS
330
155
330
163
102
}
330
A
100
AcDbSymbolTableRecord
100
AcDbDimStyleTableRecord
  2
SLDDIMSTYLE1
 70
     0
 41
3.8847058824
 44
0.0
 45
0.000000001
 73
     0
 74
     0
 77
     1
 78
    12
 79
     3
140
3.4240196078
147
0.856004902
172
     1
173
     1
178
     0
271
     2
272
     2
276
     2
284
    12
289
     0
340
96
  0
DIMSTYLE
105
17A
102
{ACAD_REACTORS
330
179
102
}
330
A
100
AcDbSymbolTableRecord
100
AcDbDimStyleTableRecord
  2
SLDDIMSTYLE2
 70
     0
 41
3.8847058824
 44
0.0
 45
0.000000001
 73
     0
 74
     0
 77
     1
 78
     4
 79
     1
140
3.4240196078
147
0.856004902
173
     1
178
     0
271
     2
272
     2
276
     2
284
    12
340
96
  0
ENDTAB
  0
TABLE
  2
BLOCK_RECORD
  5
1
330
0
100
AcDbSymbolTable
 70
     6
  0
BLOCK_RECORD
  5
1F
330
1
100
AcDbSymbolTableRecord
100
AcDbBlockTableRecord
  2
*Model_Space
340
22
  0
BLOCK_RECORD
  5
1B
330
1
100
AcDbSymbolTableRecord
100
AcDbBlockTableRecord
  2
*Paper_Space
340
1E
  0
BLOCK_RECORD
  5
23
330
1
100
AcDbSymbolTableRecord
100
AcDbBlockTableRecord
  2
*Paper_Space0
340
26
  0
BLOCK_RECORD
  5
14B
330
1
100
AcDbSymbolTableRecord
100
AcDbBlockTableRecord
  2
_D
340
0
  0
BLOCK_RECORD
  5
157
330
1
100
AcDbSymbolTableRecord
100
AcDbBlockTableRecord
  2
_D_1
340
0
  0
BLOCK_RECORD
  5
164
330
1
100
AcDbSymbolTableRecord
100
AcDbBlockTableRecord
  2
_D_2
340
0
  0
BLOCK_RECORD
  5
170
330
1
100
AcDbSymbolTableRecord
100
AcDbBlockTableRecord
  2
_D_3
340
0
  0
BLOCK_RECORD
  5
17B
330
1
100
AcDbSymbolTableRecord
100
AcDbBlockTableRecord
  2
_D_4
340
0
  0
ENDTAB
  0
ENDSEC
  0
SECTION
  2
BLOCKS
  0
BLOCK
  5
20
330
1F
100
AcDbEntity
  8
0
100
AcDbBlockBegin
  2
*Model_Space
 70
     0
 10
0.0
 20
0.0
 30
0.0
  3
*Model_Space
  1
*Model_Space
  0
ENDBLK
  5
21
330
1F
100
AcDbEntity
  8
0
100
AcDbBlockEnd
  0
BLOCK
  5
1C
330
1B
100
AcDbEntity
 67
     1
  8
0
100
AcDbBlockBegin
  2
*Paper_Space
 70
     0
 10
0.0
 20
0.0
 30
0.0
  3
*Paper_Space
  1
*Paper_Space
  0
ENDBLK
  5
1D
330
1B
100
AcDbEntity
 67
     1
  8
0
100
AcDbBlockEnd
  0
BLOCK
  5
24
330
23
100
AcDbEntity
  8
0
100
AcDbBlockBegin
  2
*Paper_Space0
 70
     0
 10
0.0
 20
0.0
 30
0.0
  3
*Paper_Space0
  1
*Paper_Space0
  0
ENDBLK
  5
25
330
23
100
AcDbEntity
  8
0
100
AcDbBlockEnd
  0
BLOCK
  5
14C
330
14B
100
AcDbEntity
  8
0
100
AcDbBlockBegin
  2
_D
 70
     0
 10
0.0
 20
0.0
 30
0.0
  3
_D
  1
_D
  0
SOLID
  5
14E
330
14B
100
AcDbEntity
  8
DIM
100
AcDbTrace
 10
306.5604000434
 20
150.9685908303
 30
0.0
 11
305.9627529846
 21
147.083884948
 31
0.0
 12
307.1580471022
 22
147.083884948
 32
0.0
 13
307.1580471022
 23
147.083884948
 33
0.0
  0
SOLID
  5
14F
330
14B
100
AcDbEntity
  8
DIM
100
AcDbTrace
 10
306.5604000434
 20
112.9685908303
 30
0.0
 11
307.1580471022
 21
116.8532967127
 31
0.0
 12
305.9627529846
 22
116.8532967127
 32
0.0
 13
305.9627529846
 23
116.8532967127
 33
0.0
  0
LINE
  5
150
330
14B
100
AcDbEntity
  8
DIM
100
AcDbLine
 10
258.9133412199
 20
150.9685908303
 30
0.0
 11
307.7368706316
 21
150.9685908303
 31
0.0
  0
LINE
  5
151
330
14B
100
AcDbEntity
  8
DIM
100
AcDbLine
 10
258.9133412199
 20
112.9685908303
 30
0.0
 11
307.7368706316
 21
112.9685908303
 31
0.0
  0
LINE
  5
152
330
14B
100
AcDbEntity
  8
DIM
100
AcDbLine
 10
306.5604000434
 20
150.9685908303
 30
0.0
 11
306.5604000434
 21
112.9685908303
 31
0.0
  0
MTEXT
  5
153
330
14B
100
AcDbEntity
  8
DIM
100
AcDbMText
 10
302.1466065527
 20
127.0067742363
 30
0.0
 40
3.4240196078
 41
0.0
 71
     1
 72
     1
  1
%%c
  7
SLDTEXTSTYLE0
 11
-7.044195017643634E-15
 21
1.0
 31
0.0
 73
     1
 44
1.0
  0
MTEXT
  5
154
330
14B
100
AcDbEntity
  8
DIM
100
AcDbMText
 10
302.1466065527
 20
132.3016400006
 30
0.0
 40
3.4240196078
 41
0.0
 71
     1
 72
     1
  1
38
  7
SLDTEXTSTYLE0
 11
-7.044195017643634E-15
 21
1.0
 31
0.0
 73
     1
 44
1.0
  0
ENDBLK
  5
14D
330
14B
100
AcDbEntity
  8
0
100
AcDbBlockEnd
  0
BLOCK
  5
158
330
157
100
AcDbEntity
  8
0
100
AcDbBlockBegin
  2
_D_1
 70
     0
 10
0.0
 20
0.0
 30
0.0
  3
_D_1
  1
_D_1
  0
SOLID
  5
15A
330
157
100
AcDbEntity
  8
DIM
100
AcDbTrace
 10
297.3804719885
 20
139.9685908303
 30
0.0
 11
297.9781190473
 21
143.8532967127
 31
0.0
 12
296.7828249297
 22
143.8532967127
 32
0.0
 13
296.7828249297
 23
143.8532967127
 33
0.0
  0
SOLID
  5
15B
330
157
100
AcDbEntity
  8
DIM
100
AcDbTrace
 10
297.3804719885
 20
123.9685908303
 30
0.0
 11
296.7828249297
 21
120.083884948
 31
0.0
 12
297.9781190473
 22
120.083884948
 32
0.0
 13
297.9781190473
 23
120.083884948
 33
0.0
  0
LINE
  5
15C
330
157
100
AcDbEntity
  8
DIM
100
AcDbLine
 10
275.5277005738
 20
139.9685908303
 30
0.0
 11
298.5569425767
 21
139.9685908303
 31
0.0
  0
LINE
  5
15D
330
157
100
AcDbEntity
  8
DIM
100
AcDbLine
 10
275.5277005738
 20
123.9685908303
 30
0.0
 11
298.5569425767
 21
123.9685908303
 31
0.0
  0
LINE
  5
15E
330
157
100
AcDbEntity
  8
DIM
100
AcDbLine
 10
297.3804719885
 20
139.9685908303
 30
0.0
 11
297.3804719885
 21
147.4391790656
 31
0.0
  0
LINE
  5
15F
330
157
100
AcDbEntity
  8
DIM
100
AcDbLine
 10
297.3804719885
 20
139.9685908303
 30
0.0
 11
297.3804719885
 21
123.9685908303
 31
0.0
  0
LINE
  5
160
330
157
100
AcDbEntity
  8
DIM
100
AcDbLine
 10
297.3804719885
 20
123.9685908303
 30
0.0
 11
297.3804719885
 21
116.498002595
 31
0.0
  0
MTEXT
  5
161
330
157
100
AcDbEntity
  8
DIM
100
AcDbMText
 10
292.9666784978
 20
127.0067742363
 30
0.0
 40
3.4240196078
 41
0.0
 71
     1
 72
     1
  1
%%c
  7
SLDTEXTSTYLE0
 11
-7.044195017643634E-15
 21
1.0
 31
0.0
 73
     1
 44
1.0
  0
MTEXT
  5
162
330
157
100
AcDbEntity
  8
DIM
100
AcDbMText
 10
292.9666784978
 20
132.3016400006
 30
0.0
 40
3.4240196078
 41
0.0
 71
     1
 72
     1
  1
16
  7
SLDTEXTSTYLE0
 11
-7.044195017643634E-15
 21
1.0
 31
0.0
 73
     1
 44
1.0
  0
ENDBLK
  5
159
330
157
100
AcDbEntity
  8
0
100
AcDbBlockEnd
  0
BLOCK
  5
165
330
164
100
AcDbEntity
  8
0
100
AcDbBlockBegin
  2
_D_2
 70
     0
 10
0.0
 20
0.0
 30
0.0
  3
_D_2
  1
_D_2
  0
SOLID
  5
167
330
164
100
AcDbEntity
  8
DIM
100
AcDbTrace
 10
275.7368706316
 20
90.2204708733
 30
0.0
 11
279.621576514
 21
89.6228238145
 31
0.0
 12
279.621576514
 22
90.8181179322
 32
0.0
 13
279.621576514
 23
90.8181179322
 33
0.0
  0
SOLID
  5
168
330
164
100
AcDbEntity
  8
DIM
100
AcDbTrace
 10
258.7368706316
 20
90.2204708733
 30
0.0
 11
254.8521647493
 21
90.8181179322
 31
0.0
 12
254.8521647493
 22
89.6228238145
 32
0.0
 13
254.8521647493
 23
89.6228238145
 33
0.0
  0
LINE
  5
169
330
164
100
AcDbEntity
  8
DIM
100
AcDbLine
 10
275.7368706316
 20
123.5921202421
 30
0.0
 11
275.7368706316
 21
89.0440002851
 31
0.0
  0
LINE
  5
16A
330
164
100
AcDbEntity
  8
DIM
100
AcDbLine
 10
258.7368706316
 20
113.2921202421
 30
0.0
 11
258.7368706316
 21
89.0440002851
 31
0.0
  0
LINE
  5
16B
330
164
100
AcDbEntity
  8
DIM
100
AcDbLine
 10
275.7368706316
 20
90.2204708733
 30
0.0
 11
283.2074588669
 21
90.2204708733
 31
0.0
  0
LINE
  5
16C
330
164
100
AcDbEntity
  8
DIM
100
AcDbLine
 10
275.7368706316
 20
90.2204708733
 30
0.0
 11
258.7368706316
 21
90.2204708733
 31
0.0
  0
LINE
  5
16D
330
164
100
AcDbEntity
  8
DIM
100
AcDbLine
 10
258.7368706316
 20
90.2204708733
 30
0.0
 11
251.2662823964
 21
90.2204708733
 31
0.0
  0
MTEXT
  5
16E
330
164
100
AcDbEntity
  8
DIM
100
AcDbMText
 10
264.9224869198
 20
94.6342643641
 30
0.0
 40
3.4240196078
 41
0.0
 71
     1
 72
     1
  1
17
  7
SLDTEXTSTYLE0
 73
     1
 44
1.0
  0
ENDBLK
  5
166
330
164
100
AcDbEntity
  8
0
100
AcDbBlockEnd
  0
BLOCK
  5
171
330
170
100
AcDbEntity
  8
0
100
AcDbBlockBegin
  2
_D_3
 70
     0
 10
0.0
 20
0.0
 30
0.0
  3
_D_3
  1
_D_3
  0
SOLID
  5
173
330
170
100
AcDbEntity
  8
DIM
100
AcDbTrace
 10
258.7368706316
 20
90.2204708733
 30
0.0
 11
254.8521647493
 21
90.8181179322
 31
0.0
 12
254.8521647493
 22
89.6228238145
 32
0.0
 13
254.8521647493
 23
89.6228238145
 33
0.0
  0
SOLID
  5
174
330
170
100
AcDbEntity
  8
DIM
100
AcDbTrace
 10
98.7368706316
 20
90.2204708733
 30
0.0
 11
102.621576514
 21
89.6228238145
 31
0.0
 12
102.621576514
 22
90.8181179322
 32
0.0
 13
102.621576514
 23
90.8181179322
 33
0.0
  0
LINE
  5
175
330
170
100
AcDbEntity
  8
DIM
100
AcDbLine
 10
258.7368706316
 20
113.2921202421
 30
0.0
 11
258.7368706316
 21
89.0440002851
 31
0.0
  0
LINE
  5
176
330
170
100
AcDbEntity
  8
DIM
100
AcDbLine
 10
98.7368706316
 20
108.5671202421
 30
0.0
 11
98.7368706316
 21
89.0440002851
 31
0.0
  0
LINE
  5
177
330
170
100
AcDbEntity
  8
DIM
100
AcDbLine
 10
258.7368706316
 20
90.2204708733
 30
0.0
 11
98.7368706316
 21
90.2204708733
 31
0.0
  0
MTEXT
  5
178
330
170
100
AcDbEntity
  8
DIM
100
AcDbMText
 10
175.2652950638
 20
94.6342643641
 30
0.0
 40
3.4240196078
 41
0.0
 71
     1
 72
     1
  1
160
  7
SLDTEXTSTYLE0
 73
     1
 44
1.0
  0
ENDBLK
  5
172
330
170
100
AcDbEntity
  8
0
100
AcDbBlockEnd
  0
BLOCK
  5
17C
330
17B
100
AcDbEntity
  8
0
100
AcDbBlockBegin
  2
_D_4
 70
     0
 10
0.0
 20
0.0
 30
0.0
  3
_D_4
  1
_D_4
  0
SOLID
  5
17E
330
17B
100
AcDbEntity
  8
DIM
100
AcDbTrace
 10
30.3368706316
 20
83.3619845807
 30
0.0
 11
34.221576514
 21
82.7643375218
 31
0.0
 12
34.221576514
 22
83.9596316395
 32
0.0
 13
34.221576514
 23
83.9596316395
 33
0.0
  0
SOLID
  5
17F
330
17B
100
AcDbEntity
  8
DIM
100
AcDbTrace
 10
287.7368706316
 20
83.3619845807
 30
0.0
 11
283.8521647493
 21
83.9596316395
 31
0.0
 12
283.8521647493
 22
82.7643375218
 32
0.0
 13
283.8521647493
 23
82.7643375218
 33
0.0
  0
LINE
  5
180
330
17B
100
AcDbEntity
  8
DIM
100
AcDbLine
 10
30.3368706316
 20
130.7921202421
 30
0.0
 11
30.3368706316
 21
82.1855139924
 31
0.0
  0
LINE
  5
181
330
17B
100
AcDbEntity
  8
DIM
100
AcDbLine
 10
287.7368706316
 20
121.4921202421
 30
0.0
 11
287.7368706316
 21
82.1855139924
 31
0.0
  0
LINE
  5
182
330
17B
100
AcDbEntity
  8
DIM
100
AcDbLine
 10
30.3368706316
 20
83.3619845807
 30
0.0
 11
287.7368706316
 21
83.3619845807
 31
0.0
  0
MTEXT
  5
183
330
17B
100
AcDbEntity
  8
DIM
100
AcDbMText
 10
152.6421967258
 20
87.7757780714
 30
0.0
 40
3.4240196078
 41
0.0
 71
     1
 72
     1
  1
257.40
  7
SLDTEXTSTYLE0
 73
     1
 44
1.0
  0
ENDBLK
  5
17D
330
17B
100
AcDbEntity
  8
0
100
AcDbBlockEnd
  0
ENDSEC
  0
SECTION
  2
ENTITIES
  0
LINE
  5
76
330
1F
100
AcDbEntity
  8
DIM
100
AcDbLine
 10
123.1816761047
 20
11.5188134787
 30
0.0
 11
123.1816761047
 21
5.6364605375
 31
0.0
  0
LINE
  5
77
330
1F
100
AcDbEntity
  8
DIM
100
AcDbLine
 10
299.3760019945
 20
11.5188134787
 30
0.0
 11
299.3760019945
 21
5.6364605375
 31
0.0
  0
LINE
  5
78
330
1F
100
AcDbEntity
  8
DIM
100
AcDbLine
 10
279.3549528607
 20
11.5188134787
 30
0.0
 11
279.3549528607
 21
5.6364605375
 31
0.0
  0
LINE
  5
79
330
1F
100
AcDbEntity
  8
DIM
100
AcDbLine
 10
328.1228525753
 20
5.6364605375
 30
0.0
 11
328.1228525753
 21
11.5188134787
 31
0.0
  0
LINE
  5
7A
330
1F
100
AcDbEntity
  8
DIM
100
AcDbLine
 10
132.3581466929
 20
11.5188134787
 30
0.0
 11
132.3581466929
 21
5.6364605375
 31
0.0
  0
LINE
  5
7B
330
1F
100
AcDbEntity
  8
DIM
100
AcDbLine
 10
154.9357377915
 20
11.5188134787
 30
0.0
 11
154.9357377915
 21
5.6364605375
 31
0.0
  0
LINE
  5
7C
330
1F
100
AcDbEntity
  8
DIM
100
AcDbLine
 10
343.4169702224
 20
5.6364605375
 30
0.0
 11
343.4169702224
 21
90.6364605375
 31
0.0
  0
LINE
  5
7D
330
1F
100
AcDbEntity
  8
DIM
100
AcDbLine
 10
336.257652582
 20
70.6364605375
 30
0.0
 11
343.4169702224
 21
70.6364605375
 31
0.0
  0
LINE
  5
7E
330
1F
100
AcDbEntity
  8
DIM
100
AcDbLine
 10
175.4157068853
 20
10.6364605375
 30
0.0
 11
175.4157068853
 21
5.6364605375
 31
0.0
  0
LINE
  5
7F
330
1F
100
AcDbEntity
  8
DIM
100
AcDbLine
 10
231.4869990123
 20
11.5188134787
 30
0.0
 11
231.4869990123
 21
5.6364605375
 31
0.0
  0
LINE
  5
80
330
1F
100
AcDbEntity
  8
DIM
100
AcDbLine
 10
175.4157068853
 20
11.5188134787
 30
0.0
 11
175.4157068853
 21
10.6364605375
 31
0.0
  0
LINE
  5
81
330
1F
100
AcDbEntity
  8
DIM
100
AcDbLine
 10
337.5346172812
 20
20.6363758316
 30
0.0
 11
343.4169702224
 21
20.6363758316
 31
0.0
  0
LINE
  5
82
330
1F
100
AcDbEntity
  8
DIM
100
AcDbLine
 10
337.5346172812
 20
235.0482252434
 30
0.0
 11
11.65226434
 21
235.0482252434
 31
0.0
  0
LINE
  5
83
330
1F
100
AcDbEntity
  8
DIM
100
AcDbLine
 10
343.4169702224
 20
240.9305781845
 30
0.0
 11
5.7699113988
 21
240.9305781845
 31
0.0
  0
LINE
  5
84
330
1F
100
AcDbEntity
  8
DIM
100
AcDbLine
 10
11.65226434
 20
235.0482252434
 30
0.0
 11
11.65226434
 21
11.5188134787
 31
0.0
  0
LINE
  5
85
330
1F
100
AcDbEntity
  8
DIM
100
AcDbLine
 10
5.7699113988
 20
240.9305781845
 30
0.0
 11
5.7699113988
 21
5.6364605375
 31
0.0
  0
LINE
  5
86
330
1F
100
AcDbEntity
  8
DIM
100
AcDbLine
 10
11.65226434
 20
64.4599899492
 30
0.0
 11
5.7699113988
 21
64.4599899492
 31
0.0
  0
LINE
  5
87
330
1F
100
AcDbEntity
  8
DIM
100
AcDbLine
 10
5.7699113988
 20
123.283519361
 30
0.0
 11
11.65226434
 21
123.283519361
 31
0.0
  0
LINE
  5
88
330
1F
100
AcDbEntity
  8
DIM
100
AcDbLine
 10
5.7699113988
 20
5.6364605375
 30
0.0
 11
343.4169702224
 21
5.6364605375
 31
0.0
  0
LINE
  5
89
330
1F
100
AcDbEntity
  8
DIM
100
AcDbLine
 10
11.65226434
 20
11.5188134787
 30
0.0
 11
343.4169702224
 21
11.5188134787
 31
0.0
  0
LINE
  5
8A
330
1F
100
AcDbEntity
  8
DIM
100
AcDbLine
 10
56.9463819871
 20
5.6364605375
 30
0.0
 11
56.9463819871
 21
11.5188134787
 31
0.0
  0
LINE
  5
8B
330
1F
100
AcDbEntity
  8
DIM
100
AcDbLine
 10
115.7699113988
 20
11.5188134787
 30
0.0
 11
115.7699113988
 21
5.6364605375
 31
0.0
  0
LINE
  5
8C
330
1F
100
AcDbEntity
  8
DIM
100
AcDbLine
 10
11.65226434
 20
182.1070487728
 30
0.0
 11
5.7699113988
 21
182.1070487728
 31
0.0
  0
LINE
  5
8D
330
1F
100
AcDbEntity
  8
DIM
100
AcDbLine
 10
56.9463819871
 20
235.0482252434
 30
0.0
 11
56.9463819871
 21
240.9305781845
 31
0.0
  0
LINE
  5
8E
330
1F
100
AcDbEntity
  8
DIM
100
AcDbLine
 10
115.7699113988
 20
240.9305781845
 30
0.0
 11
115.7699113988
 21
235.0482252434
 31
0.0
  0
LINE
  5
8F
330
1F
100
AcDbEntity
  8
DIM
100
AcDbLine
 10
174.5934408106
 20
240.9305781845
 30
0.0
 11
174.5934408106
 21
235.0482252434
 31
0.0
  0
LINE
  5
90
330
1F
100
AcDbEntity
  8
DIM
100
AcDbLine
 10
337.5346172812
 20
11.5188134787
 30
0.0
 11
337.5346172812
 21
235.0482252434
 31
0.0
  0
LINE
  5
91
330
1F
100
AcDbEntity
  8
DIM
100
AcDbLine
 10
343.4169702224
 20
90.6364605375
 30
0.0
 11
343.4169702224
 21
240.9305781845
 31
0.0
  0
LINE
  5
92
330
1F
100
AcDbEntity
  8
DIM
100
AcDbLine
 10
343.4169702224
 20
123.283519361
 30
0.0
 11
337.5346172812
 21
123.283519361
 31
0.0
  0
LINE
  5
93
330
1F
100
AcDbEntity
  8
DIM
100
AcDbLine
 10
233.4169702224
 20
240.9305781845
 30
0.0
 11
233.4169702224
 21
235.0482252434
 31
0.0
  0
LINE
  5
94
330
1F
100
AcDbEntity
  8
DIM
100
AcDbLine
 10
292.2404996341
 20
235.0482252434
 30
0.0
 11
292.2404996341
 21
240.9305781845
 31
0.0
  0
LINE
  5
95
330
1F
100
AcDbEntity
  8
DIM
100
AcDbLine
 10
337.5346172812
 20
182.1070487728
 30
0.0
 11
343.4169702224
 21
182.1070487728
 31
0.0
  0
MTEXT
  5
97
330
1F
100
AcDbEntity
  8
DIM
100
AcDbMText
 10
18.9760827896
 20
228.0800579992
 30
0.0
 40
4.9803921569
 41
0.0
 71
     1
 72
     1
  1
SK 40 FMH16 160 AD/6.3G15000 SL SP.S
  7
SLDTEXTSTYLE0
 73
     1
 44
1.0
  0
MTEXT
  5
99
330
1F
100
AcDbEntity
  8
DIM
 62
     7
100
AcDbMText
 10
232.6267984078
 20
9.1787665015
 30
0.0
 40
1.7630588235
 41
0.0
 71
     1
 72
     1
  1
WEIGHT:
  7
SLDTEXTSTYLE1
 73
     1
 44
1.0
  0
MTEXT
  5
9A
330
1F
100
AcDbEntity
  8
DIM
 62
     7
100
AcDbMText
 10
339.5259726527
 20
96.4007217744
 30
0.0
 40
2.1789215686
 41
0.0
 71
     1
 72
     1
  1
C
  7
SLDTEXTSTYLE1
 73
     1
 44
1.0
  0
MTEXT
  5
9B
330
1F
100
AcDbEntity
  8
DIM
 62
     7
100
AcDbMText
 10
332.9924477876
 20
17.4752729219
 30
0.0
 40
3.4240196078
 41
0.0
 71
     1
 72
     1
  1
A4
  7
SLDTEXTSTYLE1
 73
     1
 44
1.0
  0
MTEXT
  5
9C
330
1F
100
AcDbEntity
  8
DIM
 62
     7
100
AcDbMText
 10
320.671876889
 20
239.3635386593
 30
0.0
 40
2.1789215686
 41
0.0
 71
     1
 72
     1
  1
6
  7
SLDTEXTSTYLE1
 73
     1
 44
1.0
  0
MTEXT
  5
9D
330
1F
100
AcDbEntity
  8
DIM
 62
     7
100
AcDbMText
 10
261.8483474773
 20
239.3635386593
 30
0.0
 40
2.1789215686
 41
0.0
 71
     1
 72
     1
  1
5
  7
SLDTEXTSTYLE1
 73
     1
 44
1.0
  0
MTEXT
  5
9E
330
1F
100
AcDbEntity
  8
DIM
 62
     7
100
AcDbMText
 10
339.4954110067
 20
212.892950424
 30
0.0
 40
2.1789215686
 41
0.0
 71
     1
 72
     1
  1
A
  7
SLDTEXTSTYLE1
 73
     1
 44
1.0
  0
MTEXT
  5
9F
330
1F
100
AcDbEntity
  8
DIM
 62
     7
100
AcDbMText
 10
339.4954110067
 20
154.0694210123
 30
0.0
 40
2.1789215686
 41
0.0
 71
     1
 72
     1
  1
B
  7
SLDTEXTSTYLE1
 73
     1
 44
1.0
  0
MTEXT
  5
A0
330
1F
100
AcDbEntity
  8
DIM
 62
     7
100
AcDbMText
 10
203.0248180655
 20
239.3635386593
 30
0.0
 40
2.1789215686
 41
0.0
 71
     1
 72
     1
  1
4
  7
SLDTEXTSTYLE1
 73
     1
 44
1.0
  0
MTEXT
  5
A1
330
1F
100
AcDbEntity
  8
DIM
 62
     7
100
AcDbMText
 10
27.0444259086
 20
239.3635386593
 30
0.0
 40
2.1789215686
 41
0.0
 71
     1
 72
     1
  1
1
  7
SLDTEXTSTYLE1
 73
     1
 44
1.0
  0
MTEXT
  5
A2
330
1F
100
AcDbEntity
  8
DIM
 62
     7
100
AcDbMText
 10
85.377759242
 20
239.3635386593
 30
0.0
 40
2.1789215686
 41
0.0
 71
     1
 72
     1
  1
2
  7
SLDTEXTSTYLE1
 73
     1
 44
1.0
  0
MTEXT
  5
A3
330
1F
100
AcDbEntity
  8
DIM
 62
     7
100
AcDbMText
 10
144.2012886537
 20
239.3635386593
 30
0.0
 40
2.1789215686
 41
0.0
 71
     1
 72
     1
  1
3
  7
SLDTEXTSTYLE1
 73
     1
 44
1.0
  0
MTEXT
  5
A4
330
1F
100
AcDbEntity
  8
DIM
 62
     7
100
AcDbMText
 10
7.7306957125
 20
212.892950424
 30
0.0
 40
2.1789215686
 41
0.0
 71
     1
 72
     1
  1
A
  7
SLDTEXTSTYLE1
 73
     1
 44
1.0
  0
MTEXT
  5
A5
330
1F
100
AcDbEntity
  8
DIM
 62
     7
100
AcDbMText
 10
85.377759242
 20
9.9517739534
 30
0.0
 40
2.1789215686
 41
0.0
 71
     1
 72
     1
  1
2
  7
SLDTEXTSTYLE1
 73
     1
 44
1.0
  0
MTEXT
  5
A6
330
1F
100
AcDbEntity
  8
DIM
 62
     7
100
AcDbMText
 10
27.0444259086
 20
9.9517739534
 30
0.0
 40
2.1789215686
 41
0.0
 71
     1
 72
     1
  1
1
  7
SLDTEXTSTYLE1
 73
     1
 44
1.0
  0
MTEXT
  5
A7
330
1F
100
AcDbEntity
  8
DIM
 62
     7
100
AcDbMText
 10
7.7306957125
 20
36.4223621887
 30
0.0
 40
2.1789215686
 41
0.0
 71
     1
 72
     1
  1
D
  7
SLDTEXTSTYLE1
 73
     1
 44
1.0
  0
MTEXT
  5
A8
330
1F
100
AcDbEntity
  8
DIM
 62
     7
100
AcDbMText
 10
7.7306957125
 20
95.2458916005
 30
0.0
 40
2.1789215686
 41
0.0
 71
     1
 72
     1
  1
C
  7
SLDTEXTSTYLE1
 73
     1
 44
1.0
  0
MTEXT
  5
A9
330
1F
100
AcDbEntity
  8
DIM
 62
     7
100
AcDbMText
 10
7.7306957125
 20
154.0694210123
 30
0.0
 40
2.1789215686
 41
0.0
 71
     1
 72
     1
  1
B
  7
SLDTEXTSTYLE1
 73
     1
 44
1.0
  0
MTEXT
  5
AA
330
1F
100
AcDbEntity
  8
DIM
 62
     7
100
AcDbMText
 10
339.5259726527
 20
96.4007217744
 30
0.0
 40
2.1789215686
 41
0.0
 71
     1
 72
     1
  1
C
  7
SLDTEXTSTYLE1
 73
     1
 44
1.0
  0
MTEXT
  5
AC
330
1F
100
AcDbEntity
  8
DIM
 62
     7
100
AcDbMText
 10
301.7945480147
 20
9.0483279193
 30
0.0
 40
1.7647058824
 41
0.0
 71
     1
 72
     1
  1
SHEET 1 OF 1
  7
SLDTEXTSTYLE2
 73
     1
 44
1.0
  0
MTEXT
  5
AD
330
1F
100
AcDbEntity
  8
DIM
 62
     7
100
AcDbMText
 10
176.9079769217
 20
9.2392558631
 30
0.0
 40
1.7647058824
 41
0.0
 71
     1
 72
     1
  1
MATERIAL:
  7
SLDTEXTSTYLE1
 73
     1
 44
1.0
  0
MTEXT
  5
AE
330
1F
100
AcDbEntity
  8
DIM
 62
     7
100
AcDbMText
 10
320.671876889
 20
239.3635386593
 30
0.0
 40
2.1789215686
 41
0.0
 71
     1
 72
     1
  1
6
  7
SLDTEXTSTYLE1
 73
     1
 44
1.0
  0
MTEXT
  5
AF
330
1F
100
AcDbEntity
  8
DIM
 62
     7
100
AcDbMText
 10
261.8483474773
 20
239.3635386593
 30
0.0
 40
2.1789215686
 41
0.0
 71
     1
 72
     1
  1
5
  7
SLDTEXTSTYLE1
 73
     1
 44
1.0
  0
MTEXT
  5
B0
330
1F
100
AcDbEntity
  8
DIM
 62
     7
100
AcDbMText
 10
339.4954110067
 20
212.892950424
 30
0.0
 40
2.1789215686
 41
0.0
 71
     1
 72
     1
  1
A
  7
SLDTEXTSTYLE1
 73
     1
 44
1.0
  0
MTEXT
  5
B1
330
1F
100
AcDbEntity
  8
DIM
 62
     7
100
AcDbMText
 10
339.4954110067
 20
154.0694210123
 30
0.0
 40
2.1789215686
 41
0.0
 71
     1
 72
     1
  1
B
  7
SLDTEXTSTYLE1
 73
     1
 44
1.0
  0
MTEXT
  5
B2
330
1F
100
AcDbEntity
  8
DIM
 62
     7
100
AcDbMText
 10
203.0248180655
 20
239.3635386593
 30
0.0
 40
2.1789215686
 41
0.0
 71
     1
 72
     1
  1
4
  7
SLDTEXTSTYLE1
 73
     1
 44
1.0
  0
MTEXT
  5
B3
330
1F
100
AcDbEntity
  8
DIM
 62
     7
100
AcDbMText
 10
27.0444259086
 20
239.3635386593
 30
0.0
 40
2.1789215686
 41
0.0
 71
     1
 72
     1
  1
1
  7
SLDTEXTSTYLE1
 73
     1
 44
1.0
  0
MTEXT
  5
B4
330
1F
100
AcDbEntity
  8
DIM
 62
     7
100
AcDbMText
 10
85.377759242
 20
239.3635386593
 30
0.0
 40
2.1789215686
 41
0.0
 71
     1
 72
     1
  1
2
  7
SLDTEXTSTYLE1
 73
     1
 44
1.0
  0
MTEXT
  5
B5
330
1F
100
AcDbEntity
  8
DIM
 62
     7
100
AcDbMText
 10
144.2012886537
 20
239.3635386593
 30
0.0
 40
2.1789215686
 41
0.0
 71
     1
 72
     1
  1
3
  7
SLDTEXTSTYLE1
 73
     1
 44
1.0
  0
MTEXT
  5
B6
330
1F
100
AcDbEntity
  8
DIM
 62
     7
100
AcDbMText
 10
7.7306957125
 20
212.892950424
 30
0.0
 40
2.1789215686
 41
0.0
 71
     1
 72
     1
  1
A
  7
SLDTEXTSTYLE1
 73
     1
 44
1.0
  0
MTEXT
  5
B7
330
1F
100
AcDbEntity
  8
DIM
 62
     7
100
AcDbMText
 10
85.377759242
 20
9.9517739534
 30
0.0
 40
2.1789215686
 41
0.0
 71
     1
 72
     1
  1
2
  7
SLDTEXTSTYLE1
 73
     1
 44
1.0
  0
MTEXT
  5
B8
330
1F
100
AcDbEntity
  8
DIM
 62
     7
100
AcDbMText
 10
27.0444259086
 20
9.9517739534
 30
0.0
 40
2.1789215686
 41
0.0
 71
     1
 72
     1
  1
1
  7
SLDTEXTSTYLE1
 73
     1
 44
1.0
  0
MTEXT
  5
B9
330
1F
100
AcDbEntity
  8
DIM
 62
     7
100
AcDbMText
 10
7.7306957125
 20
36.4223621887
 30
0.0
 40
2.1789215686
 41
0.0
 71
     1
 72
     1
  1
D
  7
SLDTEXTSTYLE1
 73
     1
 44
1.0
  0
MTEXT
  5
BA
330
1F
100
AcDbEntity
  8
DIM
 62
     7
100
AcDbMText
 10
7.7306957125
 20
95.2458916005
 30
0.0
 40
2.1789215686
 41
0.0
 71
     1
 72
     1
  1
C
  7
SLDTEXTSTYLE1
 73
     1
 44
1.0
  0
MTEXT
  5
BB
330
1F
100
AcDbEntity
  8
DIM
 62
     7
100
AcDbMText
 10
7.7306957125
 20
154.0694210123
 30
0.0
 40
2.1789215686
 41
0.0
 71
     1
 72
     1
  1
B
  7
SLDTEXTSTYLE1
 73
     1
 44
1.0
  0
LINE
  5
BC
330
1F
100
AcDbEntity
  8
0
  6
Continuous
 62
     7
370
    15
100
AcDbLine
 10
113.3587072737
 20
100.2185908303
 30
0.0
 11
116.6711852067
 21
100.2185908303
 31
0.0
  0
LINE
  5
BD
330
1F
100
AcDbEntity
  8
0
  6
Continuous
 62
     7
370
    15
100
AcDbLine
 10
116.6711852067
 20
163.7185908303
 30
0.0
 11
113.3587072737
 21
163.7185908303
 31
0.0
  0
LINE
  5
BE
330
1F
100
AcDbEntity
  8
0
  6
Continuous
 62
     7
370
    15
100
AcDbLine
 10
113.3587072737
 20
163.7185908303
 30
0.0
 11
111.7368706316
 21
160.9094873647
 31
0.0
  0
LINE
  5
BF
330
1F
100
AcDbEntity
  8
0
  6
Continuous
 62
     7
370
    15
100
AcDbLine
 10
111.7368706316
 20
103.0276942959
 30
0.0
 11
113.3587072737
 21
100.2185908303
 31
0.0
  0
LINE
  5
C0
330
1F
100
AcDbEntity
  8
0
  6
Continuous
 62
     7
370
    15
100
AcDbLine
 10
106.3150339896
 20
100.2185908303
 30
0.0
 11
107.9368706316
 21
103.0276942959
 31
0.0
  0
LINE
  5
C1
330
1F
100
AcDbEntity
  8
0
  6
Continuous
 62
     7
370
    15
100
AcDbLine
 10
107.9368706316
 20
160.9094873647
 30
0.0
 11
106.3150339896
 21
163.7185908303
 31
0.0
  0
LINE
  5
C2
330
1F
100
AcDbEntity
  8
0
  6
Continuous
 62
     7
370
    15
100
AcDbLine
 10
103.1025560566
 20
100.2185908303
 30
0.0
 11
106.3150339896
 21
100.2185908303
 31
0.0
  0
LINE
  5
C3
330
1F
100
AcDbEntity
  8
0
  6
Continuous
 62
     7
370
    15
100
AcDbLine
 10
106.3150339896
 20
163.7185908303
 30
0.0
 11
103.1025560566
 21
163.7185908303
 31
0.0
  0
LINE
  5
C4
330
1F
100
AcDbEntity
  8
0
  6
Continuous
 62
     7
370
    15
100
AcDbLine
 10
116.9540279192
 20
100.3357481179
 30
0.0
 11
117.7197133441
 21
101.1014335428
 31
0.0
  0
LINE
  5
C5
330
1F
100
AcDbEntity
  8
0
  6
Continuous
 62
     7
370
    15
100
AcDbLine
 10
117.7197133441
 20
162.8357481179
 30
0.0
 11
116.9540279192
 21
163.6014335428
 31
0.0
  0
LINE
  5
C6
330
1F
100
AcDbEntity
  8
0
  6
Continuous
 62
     7
370
    15
100
AcDbLine
 10
102.8197133441
 20
163.6014335428
 30
0.0
 11
102.0540279192
 21
162.8357481179
 31
0.0
  0
LINE
  5
C7
330
1F
100
AcDbEntity
  8
0
  6
Continuous
 62
     7
370
    15
100
AcDbLine
 10
102.0540279192
 20
101.1014335428
 30
0.0
 11
102.8197133441
 21
100.3357481179
 31
0.0
  0
ARC
  5
C8
330
1F
100
AcDbEntity
  8
0
  6
Continuous
 62
     7
370
    15
100
AcDbCircle
 10
116.6711852067
 20
100.6185908303
 30
0.0
 40
0.3999999999999992
100
AcDbArc
 50
270.0
 51
315.0
  0
ARC
  5
C9
330
1F
100
AcDbEntity
  8
0
  6
Continuous
 62
     7
370
    15
100
AcDbCircle
 10
103.1025560566
 20
100.6185908303
 30
0.0
 40
0.3999999999999915
100
AcDbArc
 50
225.0
 51
270.0
  0
ARC
  5
CA
330
1F
100
AcDbEntity
  8
0
  6
Continuous
 62
     7
370
    15
100
AcDbCircle
 10
116.6711852067
 20
163.3185908303
 30
0.0
 40
0.4000000000000341
100
AcDbArc
 50
45.0
 51
90.0
  0
ARC
  5
CB
330
1F
100
AcDbEntity
  8
0
  6
Continuous
 62
     7
370
    15
100
AcDbCircle
 10
103.1025560566
 20
163.3185908303
 30
0.0
 40
0.4000000000000341
100
AcDbArc
 50
90.0
 51
135.0
  0
ARC
  5
CC
330
1F
100
AcDbEntity
  8
0
  6
Continuous
 62
     7
370
    15
100
AcDbCircle
 10
117.4368706316
 20
101.3842762553
 30
0.0
 40
0.4000000000000057
100
AcDbArc
 50
315.0
 51
0.0
  0
ARC
  5
CD
330
1F
100
AcDbEntity
  8
0
  6
Continuous
 62
     7
370
    15
100
AcDbCircle
 10
117.4368706316
 20
162.5529054054
 30
0.0
 40
0.4000000000000193
100
AcDbArc
 50
0.0
 51
45.0
  0
ARC
  5
CE
330
1F
100
AcDbEntity
  8
0
  6
Continuous
 62
     7
370
    15
100
AcDbCircle
 10
102.3368706316
 20
101.3842762553
 30
0.0
 40
0.3999999999999992
100
AcDbArc
 50
180.0
 51
225.0
  0
ARC
  5
CF
330
1F
100
AcDbEntity
  8
0
  6
Continuous
 62
     7
370
    15
100
AcDbCircle
 10
102.3368706316
 20
162.5529054054
 30
0.0
 40
0.3999999999999915
100
AcDbArc
 50
135.0
 51
180.0
  0
LINE
  5
D0
330
1F
100
AcDbEntity
  8
0
  6
Continuous
 62
     7
370
    15
100
AcDbLine
 10
107.9368706316
 20
103.9685908303
 30
0.0
 11
111.7368706316
 21
103.9685908303
 31
0.0
  0
LINE
  5
D1
330
1F
100
AcDbEntity
  8
0
  6
Continuous
 62
     7
370
    15
100
AcDbLine
 10
111.7368706316
 20
159.9685908303
 30
0.0
 11
107.9368706316
 21
159.9685908303
 31
0.0
  0
ARC
  5
D2
330
1F
100
AcDbEntity
  8
0
  6
Continuous
 62
     7
370
    15
100
AcDbCircle
 10
101.4368706316
 20
109.4685908303
 30
0.0
 40
0.5000000000000142
100
AcDbArc
 50
0.0
 51
90.0
  0
ARC
  5
D3
330
1F
100
AcDbEntity
  8
0
  6
Continuous
 62
     7
370
    15
100
AcDbCircle
 10
101.4368706316
 20
154.4685908303
 30
0.0
 40
0.5000000000000284
100
AcDbArc
 50
270.0
 51
0.0
  0
LINE
  5
D4
330
1F
100
AcDbEntity
  8
0
  6
Continuous
 62
     7
370
    15
100
AcDbLine
 10
98.7368706316
 20
109.7435908303
 30
0.0
 11
99.2193846888
 21
109.9685908303
 31
0.0
  0
LINE
  5
D5
330
1F
100
AcDbEntity
  8
0
  6
Continuous
 62
     7
370
    15
100
AcDbLine
 10
99.2193846888
 20
153.9685908303
 30
0.0
 11
98.7368706316
 21
154.1935908303
 31
0.0
  0
LINE
  5
D6
330
1F
100
AcDbEntity
  8
0
  6
Continuous
 62
     7
370
    15
100
AcDbLine
 10
98.7368706316
 20
154.1935908303
 30
0.0
 11
31.1925624044
 21
144.3432862064
 31
0.0
  0
LINE
  5
D7
330
1F
100
AcDbEntity
  8
0
  6
Continuous
 62
     7
370
    15
100
AcDbLine
 10
31.1925624044
 20
119.5938954542
 30
0.0
 11
98.7368706316
 21
109.7435908303
 31
0.0
  0
LINE
  5
D8
330
1F
100
AcDbEntity
  8
0
  6
Continuous
 62
     7
370
    15
100
AcDbLine
 10
99.2193846888
 20
109.9685908303
 30
0.0
 11
101.4368706316
 21
109.9685908303
 31
0.0
  0
LINE
  5
D9
330
1F
100
AcDbEntity
  8
0
  6
Continuous
 62
     7
370
    15
100
AcDbLine
 10
101.4368706316
 20
153.9685908303
 30
0.0
 11
99.2193846888
 21
153.9685908303
 31
0.0
  0
ARC
  5
DA
330
1F
100
AcDbEntity
  8
0
  6
Continuous
 62
     7
370
    15
100
AcDbCircle
 10
119.2197133441
 20
111.4685908303
 30
0.0
 40
1.500000000000008
100
AcDbArc
 50
90.0
 51
157.2047303272
  0
ARC
  5
DB
330
1F
100
AcDbEntity
  8
0
  6
Continuous
 62
     7
370
    15
100
AcDbCircle
 10
119.2197133441
 20
152.4685908303
 30
0.0
 40
1.500000000000002
100
AcDbArc
 50
202.7952696728
 51
270.0
  0
LINE
  5
DC
330
1F
100
AcDbEntity
  8
0
  6
Continuous
 62
     7
370
    15
100
AcDbLine
 10
257.7368706316
 20
112.9685908303
 30
0.0
 11
258.7368706316
 21
113.9685908303
 31
0.0
  0
LINE
  5
DD
330
1F
100
AcDbEntity
  8
0
  6
Continuous
 62
     7
370
    15
100
AcDbLine
 10
258.7368706316
 20
149.9685908303
 30
0.0
 11
257.7368706316
 21
150.9685908303
 31
0.0
  0
LINE
  5
DE
330
1F
100
AcDbEntity
  8
0
  6
Continuous
 62
     7
370
    15
100
AcDbLine
 10
119.2197133441
 20
112.9685908303
 30
0.0
 11
257.7368706316
 21
112.9685908303
 31
0.0
  0
LINE
  5
DF
330
1F
100
AcDbEntity
  8
0
  6
Continuous
 62
     7
370
    15
100
AcDbLine
 10
257.7368706316
 20
150.9685908303
 30
0.0
 11
119.2197133441
 21
150.9685908303
 31
0.0
  0
ARC
  5
E0
330
1F
100
AcDbEntity
  8
0
  6
Continuous
 62
     7
370
    15
100
AcDbCircle
 10
31.3368706316
 20
120.5834282407
 30
0.0
 40
1.000000000000007
100
AcDbArc
 50
180.0
 51
261.7027777778
  0
ARC
  5
E1
330
1F
100
AcDbEntity
  8
0
  6
Continuous
 62
     7
370
    15
100
AcDbCircle
 10
31.3368706316
 20
143.3537534199
 30
0.0
 40
1.000000000000007
100
AcDbArc
 50
98.2972222222
 51
180.0
  0
LINE
  5
E2
330
1F
100
AcDbEntity
  8
0
  6
Continuous
 62
     7
370
    15
100
AcDbLine
 10
280.4368706316
 20
121.9685908303
 30
0.0
 11
287.0368706316
 21
121.9685908303
 31
0.0
  0
LINE
  5
E3
330
1F
100
AcDbEntity
  8
0
  6
Continuous
 62
     7
370
    15
100
AcDbLine
 10
287.0368706316
 20
141.9685908303
 30
0.0
 11
280.4368706316
 21
141.9685908303
 31
0.0
  0
LINE
  5
E4
330
1F
100
AcDbEntity
  8
0
  6
Continuous
 62
     7
370
    15
100
AcDbLine
 10
287.0368706316
 20
121.9685908303
 30
0.0
 11
287.7368706316
 21
122.6685908303
 31
0.0
  0
LINE
  5
E5
330
1F
100
AcDbEntity
  8
0
  6
Continuous
 62
     7
370
    15
100
AcDbLine
 10
287.7368706316
 20
141.2685908303
 30
0.0
 11
287.0368706316
 21
141.9685908303
 31
0.0
  0
LINE
  5
E6
330
1F
100
AcDbEntity
  8
0
  6
Continuous
 62
     7
370
    15
100
AcDbLine
 10
280.4368706316
 20
141.9685908303
 30
0.0
 11
279.7368706316
 21
141.2685908303
 31
0.0
  0
LINE
  5
E7
330
1F
100
AcDbEntity
  8
0
  6
Continuous
 62
     7
370
    15
100
AcDbLine
 10
279.7368706316
 20
122.6685908303
 30
0.0
 11
280.4368706316
 21
121.9685908303
 31
0.0
  0
LINE
  5
E8
330
1F
100
AcDbEntity
  8
0
  6
Continuous
 62
     7
370
    15
100
AcDbLine
 10
274.3512299856
 20
123.9685908303
 30
0.0
 11
275.7368706316
 21
124.7685908303
 31
0.0
  0
LINE
  5
E9
330
1F
100
AcDbEntity
  8
0
  6
Continuous
 62
     7
370
    15
100
AcDbLine
 10
275.7368706316
 20
139.1685908303
 30
0.0
 11
274.3512299856
 21
139.9685908303
 31
0.0
  0
LINE
  5
EA
330
1F
100
AcDbEntity
  8
0
  6
Continuous
 62
     7
370
    15
100
AcDbLine
 10
258.7368706316
 20
123.9685908303
 30
0.0
 11
274.3512299856
 21
123.9685908303
 31
0.0
  0
LINE
  5
EB
330
1F
100
AcDbEntity
  8
0
  6
Continuous
 62
     7
370
    15
100
AcDbLine
 10
274.3512299856
 20
139.9685908303
 30
0.0
 11
258.7368706316
 21
139.9685908303
 31
0.0
  0
ARC
  5
EC
330
1F
100
AcDbEntity
  8
0
  6
Continuous
 62
     7
370
    15
100
AcDbCircle
 10
279.2368706316
 20
126.4685908303
 30
0.0
 40
0.5
100
AcDbArc
 50
0.0
 51
90.0
  0
ARC
  5
ED
330
1F
100
AcDbEntity
  8
0
  6
Continuous
 62
     7
370
    15
100
AcDbCircle
 10
279.2368706316
 20
137.4685908303
 30
0.0
 40
0.5
100
AcDbArc
 50
270.0
 51
0.0
  0
LINE
  5
EE
330
1F
100
AcDbEntity
  8
0
  6
Continuous
 62
     7
370
    15
100
AcDbLine
 10
275.7368706316
 20
126.9685908303
 30
0.0
 11
279.2368706316
 21
126.9685908303
 31
0.0
  0
LINE
  5
EF
330
1F
100
AcDbEntity
  8
0
  6
Continuous
 62
     7
370
    15
100
AcDbLine
 10
279.2368706316
 20
136.9685908303
 30
0.0
 11
275.7368706316
 21
136.9685908303
 31
0.0
  0
LINE
  5
F0
330
1F
100
AcDbEntity
  8
0
  6
Continuous
 62
     7
370
    15
100
AcDbLine
 10
116.6711852067
 20
123.3681597924
 30
0.0
 11
116.6711852067
 21
140.5690218682
 31
0.0
  0
LINE
  5
F1
330
1F
100
AcDbEntity
  8
0
  6
Continuous
 62
     7
370
    15
100
AcDbLine
 10
113.3587072737
 20
100.2185908303
 30
0.0
 11
113.3587072737
 21
163.7185908303
 31
0.0
  0
LINE
  5
F2
330
1F
100
AcDbEntity
  8
0
  6
Continuous
 62
     7
370
    15
100
AcDbLine
 10
116.9540279192
 20
123.4631952767
 30
0.0
 11
116.9540279192
 21
140.4739863839
 31
0.0
  0
SPLINE
  5
F3
330
1F
100
AcDbEntity
  8
0
  6
Continuous
 62
     7
370
    15
100
AcDbSpline
210
0.0
220
0.0
230
1.0
 70
     8
 71
     3
 72
     8
 73
     4
 74
     0
 42
0.000000001
 43
0.00000001
 40
0.0
 40
0.0
 40
0.0
 40
0.0
 40
1.0
 40
1.0
 40
1.0
 40
1.0
 10
116.9540279191746
 20
123.4631952767233
 30
0.0
 10
116.882782619699
 20
123.4053687734476
 30
0.0
 10
116.7798742559818
 20
123.3681597924409
 30
0.0
 10
116.6711852067
 20
123.3681597924409
 30
0.0
  0
SPLINE
  5
F4
330
1F
100
AcDbEntity
  8
0
  6
Continuous
 62
     7
370
    15
100
AcDbSpline
210
0.0
220
0.0
230
1.0
 70
     8
 71
     3
 72
     8
 73
     4
 74
     0
 42
0.000000001
 43
0.00000001
 40
0.0
 40
0.0
 40
0.0
 40
0.0
 40
1.0
 40
1.0
 40
1.0
 40
1.0
 10
116.6711852067
 20
140.5690218682124
 30
0.0
 10
116.779764198883
 20
140.5690218682124
 30
0.0
 10
116.8828135193564
 20
140.5317878073878
 30
0.0
 10
116.9540279191746
 20
140.4739863839301
 30
0.0
  0
LINE
  5
F5
330
1F
100
AcDbEntity
  8
0
  6
Continuous
 62
     7
370
    15
100
AcDbLine
 10
111.7368706316
 20
160.9094873647
 30
0.0
 11
111.7368706316
 21
103.0276942959
 31
0.0
  0
LINE
  5
F6
330
1F
100
AcDbEntity
  8
0
  6
Continuous
 62
     7
370
    15
100
AcDbLine
 10
107.9368706316
 20
131.9685908303
 30
0.0
 11
107.9368706316
 21
160.9094873647
 31
0.0
  0
LINE
  5
F7
330
1F
100
AcDbEntity
  8
0
  6
Continuous
 62
     7
370
    15
100
AcDbLine
 10
107.9368706316
 20
103.0276942959
 30
0.0
 11
107.9368706316
 21
131.9685908303
 31
0.0
  0
LINE
  5
F8
330
1F
100
AcDbEntity
  8
0
  6
Continuous
 62
     7
370
    15
100
AcDbLine
 10
106.3150339896
 20
131.9685908303
 30
0.0
 11
106.3150339896
 21
100.2185908303
 31
0.0
  0
LINE
  5
F9
330
1F
100
AcDbEntity
  8
0
  6
Continuous
 62
     7
370
    15
100
AcDbLine
 10
106.3150339896
 20
163.7185908303
 30
0.0
 11
106.3150339896
 21
131.9685908303
 31
0.0
  0
LINE
  5
FA
330
1F
100
AcDbEntity
  8
0
  6
Continuous
 62
     7
370
    15
100
AcDbLine
 10
103.1025560566
 20
123.3681597924
 30
0.0
 11
103.1025560566
 21
140.5690218682
 31
0.0
  0
SPLINE
  5
FB
330
1F
100
AcDbEntity
  8
0
  6
Continuous
 62
     7
370
    15
100
AcDbSpline
210
0.0
220
0.0
230
1.0
 70
     8
 71
     3
 72
     8
 73
     4
 74
     0
 42
0.000000001
 43
0.00000001
 40
0.0
 40
0.0
 40
0.0
 40
0.0
 40
1.0
 40
1.0
 40
1.0
 40
1.0
 10
103.1025560565985
 20
123.368159792441
 30
0.0
 10
102.9939770644155
 20
123.368159792441
 30
0.0
 10
102.8909277439422
 20
123.4053938532656
 30
0.0
 10
102.8197133441239
 20
123.4631952767233
 30
0.0
  0
LINE
  5
FC
330
1F
100
AcDbEntity
  8
0
  6
Continuous
 62
     7
370
    15
100
AcDbLine
 10
102.8197133441
 20
123.4631952767
 30
0.0
 11
102.8197133441
 21
140.4739863839
 31
0.0
  0
SPLINE
  5
FD
330
1F
100
AcDbEntity
  8
0
  6
Continuous
 62
     7
370
    15
100
AcDbSpline
210
0.0
220
0.0
230
1.0
 70
     8
 71
     3
 72
     8
 73
     4
 74
     0
 42
0.000000001
 43
0.00000001
 40
0.0
 40
0.0
 40
0.0
 40
0.0
 40
1.0
 40
1.0
 40
1.0
 40
1.0
 10
102.8197133441239
 20
140.4739863839301
 30
0.0
 10
102.8909586435995
 20
140.5318128872057
 30
0.0
 10
102.9938670073168
 20
140.5690218682124
 30
0.0
 10
103.1025560565985
 20
140.5690218682124
 30
0.0
  0
LINE
  5
FE
330
1F
100
AcDbEntity
  8
0
  6
Continuous
 62
     7
370
    15
100
AcDbLine
 10
117.7197133441
 20
123.9185908303
 30
0.0
 11
117.7197133441
 21
140.0185908303
 31
0.0
  0
LINE
  5
FF
330
1F
100
AcDbEntity
  8
0
  6
Continuous
 62
     7
370
    15
100
AcDbLine
 10
102.0540279192
 20
123.3357481179
 30
0.0
 11
102.0540279192
 21
140.6014335428
 31
0.0
  0
LINE
  5
100
330
1F
100
AcDbEntity
  8
0
  6
Continuous
 62
     7
370
    15
100
AcDbLine
 10
117.8368706316
 20
123.9185908303
 30
0.0
 11
117.8368706316
 21
140.0185908303
 31
0.0
  0
SPLINE
  5
101
330
1F
100
AcDbEntity
  8
0
  6
Continuous
 62
     7
370
    15
100
AcDbSpline
210
0.0
220
0.0
230
1.0
 70
    24
 71
     3
 72
     8
 73
     4
 74
     0
 42
0.000000001
 43
0.00000001
 40
0.0
 40
0.0
 40
0.0
 40
0.0
 40
1.0
 40
1.0
 40
1.0
 40
1.0
 10
117.8368706316493
 20
123.9185908303267
 30
0.0
 10
117.8368706316493
 20
123.9185908303267
 30
0.0
 10
117.7952801089288
 20
123.9185908303267
 30
0.0
 10
117.7197133441239
 20
123.9185908303267
 30
0.0
  0
SPLINE
  5
102
330
1F
100
AcDbEntity
  8
0
  6
Continuous
 62
     7
370
    15
100
AcDbSpline
210
0.0
220
0.0
230
1.0
 70
    24
 71
     3
 72
     8
 73
     4
 74
     0
 42
0.000000001
 43
0.00000001
 40
0.0
 40
0.0
 40
0.0
 40
0.0
 40
1.0
 40
1.0
 40
1.0
 40
1.0
 10
117.8368706316493
 20
140.0185908303267
 30
0.0
 10
117.8368706316494
 20
140.0185908303267
 30
0.0
 10
117.7952801089288
 20
140.0185908303267
 30
0.0
 10
117.7197133441239
 20
140.0185908303267
 30
0.0
  0
SPLINE
  5
103
330
1F
100
AcDbEntity
  8
0
  6
Continuous
 62
     7
370
    15
100
AcDbSpline
210
0.0
220
0.0
230
1.0
 70
    24
 71
     3
 72
    10
 73
     6
 74
     0
 42
0.000000001
 43
0.00000001
 40
0.0
 40
0.0
 40
0.0
 40
0.0
 40
0.5
 40
0.5
 40
1.0
 40
1.0
 40
1.0
 40
1.0
 10
102.0540279191746
 20
123.335748117852
 30
0.0
 10
102.0213732942454
 20
123.3030934929229
 30
0.0
 10
101.9933921798313
 20
123.2751123785087
 30
0.0
 10
101.950745973896
 20
123.2324661725734
 30
0.0
 10
101.9368706316493
 20
123.2185908303267
 30
0.0
 10
101.9368706316493
 20
123.2185908303267
 30
0.0
  0
LINE
  5
104
330
1F
100
AcDbEntity
  8
0
  6
Continuous
 62
     7
370
    15
100
AcDbLine
 10
101.9368706316
 20
123.2185908303
 30
0.0
 11
101.9368706316
 21
140.7185908303
 31
0.0
  0
SPLINE
  5
105
330
1F
100
AcDbEntity
  8
0
  6
Continuous
 62
     7
370
    15
100
AcDbSpline
210
0.0
220
0.0
230
1.0
 70
    24
 71
     3
 72
    10
 73
     6
 74
     0
 42
0.000000001
 43
0.00000001
 40
0.0
 40
0.0
 40
0.0
 40
0.0
 40
0.5
 40
0.5
 40
1.0
 40
1.0
 40
1.0
 40
1.0
 10
101.9368706316493
 20
140.7185908303267
 30
0.0
 10
101.9368706316493
 20
140.7185908303267
 30
0.0
 10
101.9507049989468
 20
140.7047564630292
 30
0.0
 10
101.9928589856203
 20
140.6626024763556
 30
0.0
 10
102.0213522570936
 20
140.6341092048824
 30
0.0
 10
102.0540279191747
 20
140.6014335428013
 30
0.0
  0
SPLINE
  5
106
330
1F
100
AcDbEntity
  8
0
  6
Continuous
 62
     7
370
    15
100
AcDbSpline
210
0.0
220
0.0
230
1.0
 70
    24
 71
     3
 72
    31
 73
    27
 74
     0
 42
0.000000001
 43
0.00000001
 40
0.0
 40
0.0
 40
0.0
 40
0.0
 40
0.0132615207442977
 40
0.0265095384681778
 40
0.0397479986757152
 40
0.052980855419985
 40
0.0662120677777281
 40
0.0794455963015391
 40
0.0926853994654406
 40
0.1059354301197711
 40
0.1191996319712225
 40
0.1812172750696335
 40
0.2432482095398756
 40
0.3070054688904406
 40
0.3707758549323026
 40
0.5000016454769403
 40
0.6292274360215779
 40
0.6929846958538618
 40
0.756755082374765
 40
0.8187727243566626
 40
0.8808036579395964
 40
0.9046617584680593
 40
0.9284873637472372
 40
0.9523035459912107
 40
0.9761334047843963
 40
1.0
 40
1.0
 40
1.0
 40
1.0
 10
117.8368706316493
 20
123.9185908303267
 30
0.0
 10
117.8368706316493
 20
123.7487549400297
 30
0.0
 10
117.8368706316493
 20
123.4092560881322
 30
0.0
 10
117.8368706316493
 20
122.9034062827101
 30
0.0
 10
117.8368706316493
 20
122.4004522170866
 30
0.0
 10
117.8368706316493
 20
121.9006114448405
 30
0.0
 10
117.8368706316493
 20
121.403826013245
 30
0.0
 10
117.8368706316493
 20
120.91011119223
 30
0.0
 10
117.8368706316493
 20
120.4194646264932
 30
0.0
 10
117.8368706316493
 20
119.9318812387512
 30
0.0
 10
117.8368706316493
 20
118.854063653032
 30
0.0
 10
117.8368706316493
 20
117.2181281995705
 30
0.0
 10
117.8368706316493
 20
115.0789655276733
 30
0.0
 10
117.8368706316493
 20
113.032989450749
 30
0.0
 10
117.8368706316493
 20
110.4387476994821
 30
0.0
 10
117.8368706316493
 20
107.546305100837
 30
0.0
 10
117.8368706316493
 20
105.2317785293958
 30
0.0
 10
117.8368706316493
 20
103.7702919763491
 30
0.0
 10
117.8368706316493
 20
102.8849255629834
 30
0.0
 10
117.8368706316493
 20
102.2015654944692
 30
0.0
 10
117.8368706316493
 20
101.8188474007442
 30
0.0
 10
117.8368706316493
 20
101.6154157474799
 30
0.0
 10
117.8368706316493
 20
101.5120158352849
 30
0.0
 10
117.8368706316493
 20
101.4386966505708
 30
0.0
 10
117.8368706316493
 20
101.3927829158421
 30
0.0
 10
117.8368706316493
 20
101.3871132644108
 30
0.0
 10
117.8368706316493
 20
101.3842762552759
 30
0.0
  0
SPLINE
  5
107
330
1F
100
AcDbEntity
  8
0
  6
Continuous
 62
     7
370
    15
100
AcDbSpline
210
0.0
220
0.0
230
1.0
 70
    24
 71
     3
 72
    18
 73
    14
 74
     0
 42
0.000000001
 43
0.00000001
 40
0.0
 40
0.0
 40
0.0
 40
0.0
 40
0.0665912235947859
 40
0.1598334488045343
 40
0.2510077520776222
 40
0.3421820553507099
 40
0.4354242805604582
 40
0.530097933237161
 40
0.6255038760388112
 40
0.7209098188404613
 40
0.8155834715171641
 40
0.9088256967269122
 40
1.0
 40
1.0
 40
1.0
 40
1.0
 10
117.8368706316493
 20
162.504265487534
 30
0.0
 10
117.8368706316493
 20
162.5014042637427
 30
0.0
 10
117.8368706316493
 20
162.4945367030992
 30
0.0
 10
117.8368706316493
 20
161.9584445064224
 30
0.0
 10
117.8368706316493
 20
160.9991927989816
 30
0.0
 10
117.8368706316493
 20
159.6105847549859
 30
0.0
 10
117.8368706316493
 20
157.8054990729364
 30
0.0
 10
117.8368706316493
 20
155.5820522981186
 30
0.0
 10
117.8368706316493
 20
152.9787047955741
 30
0.0
 10
117.8368706316493
 20
150.0517063698363
 30
0.0
 10
117.8368706316493
 20
146.8689106835215
 30
0.0
 10
117.8368706316493
 20
143.5210236226312
 30
0.0
 10
117.8368706316493
 20
141.1773081489129
 30
0.0
 10
117.8368706316493
 20
140.0185908303267
 30
0.0
  0
SPLINE
  5
108
330
1F
100
AcDbEntity
  8
0
  6
Continuous
 62
     7
370
    15
100
AcDbSpline
210
0.0
220
0.0
230
1.0
 70
    24
 71
     3
 72
    31
 73
    27
 74
     0
 42
0.000000001
 43
0.00000001
 40
0.0
 40
0.0
 40
0.0
 40
0.0
 40
0.013283147020137
 40
0.0265535276359463
 40
0.0398149668674187
 40
0.0530712974743471
 40
0.0663263566480708
 40
0.0795839826839119
 40
0.0928480116488262
 40
0.1061222740587126
 40
0.1194105915797361
 40
0.1814480340973071
 40
0.2434985684732721
 40
0.3072097122476154
 40
0.3709343011151095
 40
0.5000015948939095
 40
0.6290688886727094
 40
0.6927800329046478
 40
0.7565046222254196
 40
0.8185420654271853
 40
0.8805926004833337
 40
0.9044943901587608
 40
0.9283636595457736
 40
0.9522227660584998
 40
0.9760940956661239
 40
1.0
 40
1.0
 40
1.0
 40
1.0
 10
101.9368706316493
 20
101.3842762552759
 30
0.0
 10
101.9368706316493
 20
101.3851198219033
 30
0.0
 10
101.9368706316493
 20
101.386806144408
 30
0.0
 10
101.9368706316493
 20
101.4005040140395
 30
0.0
 10
101.9368706316493
 20
101.4223809902121
 30
0.0
 10
101.9368706316493
 20
101.4532366430589
 30
0.0
 10
101.9368706316493
 20
101.492856852994
 30
0.0
 10
101.9368706316493
 20
101.5412991849342
 30
0.0
 10
101.9368706316493
 20
101.598547338491
 30
0.0
 10
101.9368706316493
 20
101.6646088363192
 30
0.0
 10
101.9368706316493
 20
101.8309715299498
 30
0.0
 10
101.9368706316493
 20
102.1741729461645
 30
0.0
 10
101.9368706316493
 20
102.833739331554
 30
0.0
 10
101.9368706316493
 20
103.6881493671571
 30
0.0
 10
101.9368706316493
 20
105.0977454434224
 30
0.0
 10
101.9368706316493
 20
107.3305816339278
 30
0.0
 10
101.9368706316493
 20
110.1237883913848
 30
0.0
 10
101.9368706316493
 20
112.633005076648
 30
0.0
 10
101.9368706316493
 20
114.6149247013489
 30
0.0
 10
101.9368706316493
 20
116.6905456096806
 30
0.0
 10
101.9368706316493
 20
118.4033520177139
 30
0.0
 10
101.9368706316493
 20
119.7075437935763
 30
0.0
 10
101.9368706316493
 20
120.5696653741667
 30
0.0
 10
101.9368706316493
 20
121.442234429706
 30
0.0
 10
101.9368706316493
 20
122.3245260863749
 30
0.0
 10
101.9368706316493
 20
122.9204255050992
 30
0.0
 10
101.9368706316493
 20
123.2185908303267
 30
0.0
  0
SPLINE
  5
109
330
1F
100
AcDbEntity
  8
0
  6
Continuous
 62
     7
370
    15
100
AcDbSpline
210
0.0
220
0.0
230
1.0
 70
    24
 71
     3
 72
    18
 73
    14
 74
     0
 42
0.000000001
 43
0.00000001
 40
0.0
 40
0.0
 40
0.0
 40
0.0
 40
0.09281048689693
 40
0.1856275101837549
 40
0.2808601381357827
 40
0.3768109009075093
 40
0.4727616636792361
 40
0.567994291631264
 40
0.6608013885740591
 40
0.7536218463518306
 40
0.8464289454086454
 40
0.9392494051922796
 40
1.0
 40
1.0
 40
1.0
 40
1.0
 10
101.9368706316493
 20
140.7185908303267
 30
0.0
 10
101.9368706316493
 20
141.8679041065812
 30
0.0
 10
101.9368706316493
 20
144.166611602095
 30
0.0
 10
101.9368706316493
 20
147.4365221122511
 30
0.0
 10
101.9368706316493
 20
150.5279108513089
 30
0.0
 10
101.9368706316493
 20
153.3726298359551
 30
0.0
 10
101.9368706316493
 20
155.8961384662718
 30
0.0
 10
101.9368706316493
 20
158.0368249668116
 30
0.0
 10
101.9368706316493
 20
159.7785153628449
 30
0.0
 10
101.9368706316493
 20
161.1139990059335
 30
0.0
 10
101.9368706316493
 20
162.0243013682933
 30
0.0
 10
101.9368706316493
 20
162.5104697105808
 30
0.0
 10
101.9368706316493
 20
162.5032431788328
 30
0.0
 10
101.9368706316493
 20
162.5003844623692
 30
0.0
  0
LINE
  5
10A
330
1F
100
AcDbEntity
  8
0
  6
Continuous
 62
     7
370
    15
100
AcDbLine
 10
98.7368706316
 20
131.9685908303
 30
0.0
 11
98.7368706316
 21
109.7435908303
 31
0.0
  0
LINE
  5
10B
330
1F
100
AcDbEntity
  8
0
  6
Continuous
 62
     7
370
    15
100
AcDbLine
 10
98.7368706316
 20
154.1935908303
 30
0.0
 11
98.7368706316
 21
131.9685908303
 31
0.0
  0
LINE
  5
10C
330
1F
100
AcDbEntity
  8
0
  6
Continuous
 62
     7
370
    15
100
AcDbLine
 10
99.2193846888
 20
131.9685908303
 30
0.0
 11
99.2193846888
 21
109.9685908303
 31
0.0
  0
LINE
  5
10D
330
1F
100
AcDbEntity
  8
0
  6
Continuous
 62
     7
370
    15
100
AcDbLine
 10
99.2193846888
 20
153.9685908303
 30
0.0
 11
99.2193846888
 21
131.9685908303
 31
0.0
  0
LINE
  5
10E
330
1F
100
AcDbEntity
  8
0
  6
Continuous
 62
     7
370
    15
100
AcDbLine
 10
257.7368706316
 20
131.9685908303
 30
0.0
 11
257.7368706316
 21
150.9685908303
 31
0.0
  0
LINE
  5
10F
330
1F
100
AcDbEntity
  8
0
  6
Continuous
 62
     7
370
    15
100
AcDbLine
 10
257.7368706316
 20
112.9685908303
 30
0.0
 11
257.7368706316
 21
131.9685908303
 31
0.0
  0
LINE
  5
110
330
1F
100
AcDbEntity
  8
0
  6
Continuous
 62
     7
370
    15
100
AcDbLine
 10
258.7368706316
 20
131.9685908303
 30
0.0
 11
258.7368706316
 21
149.9685908303
 31
0.0
  0
LINE
  5
111
330
1F
100
AcDbEntity
  8
0
  6
Continuous
 62
     7
370
    15
100
AcDbLine
 10
258.7368706316
 20
113.9685908303
 30
0.0
 11
258.7368706316
 21
131.9685908303
 31
0.0
  0
SPLINE
  5
112
330
1F
100
AcDbEntity
  8
0
  6
Continuous
 62
     7
370
    15
100
AcDbSpline
210
0.0
220
0.0
230
1.0
 70
    24
 71
     3
 72
    10
 73
     6
 74
     0
 42
0.000000001
 43
0.00000001
 40
0.0
 40
0.0
 40
0.0
 40
0.0
 40
0.4999999999999997
 40
0.4999999999999997
 40
0.9999999999999999
 40
0.9999999999999999
 40
0.9999999999999999
 40
0.9999999999999999
 10
30.33687063164927
 20
143.3537534199456
 30
0.0
 10
30.33687063164927
 20
143.3537534199455
 30
0.0
 10
30.33687063164927
 20
142.1541882365028
 30
0.0
 10
30.33687063164927
 20
137.8840447682122
 30
0.0
 10
30.33687063164927
 20
134.9880382333943
 30
0.0
 10
30.33687063164927
 20
131.9685908303267
 30
0.0
  0
SPLINE
  5
113
330
1F
100
AcDbEntity
  8
0
  6
Continuous
 62
     7
370
    15
100
AcDbSpline
210
0.0
220
0.0
230
1.0
 70
    24
 71
     3
 72
    10
 73
     6
 74
     0
 42
0.000000001
 43
0.00000001
 40
0.0
 40
0.0
 40
0.0
 40
0.0
 40
0.5
 40
0.5
 40
1.0
 40
1.0
 40
1.0
 40
1.0
 10
30.33687063164927
 20
131.9685908303267
 30
0.0
 10
30.33687063164927
 20
128.949143427259
 30
0.0
 10
30.33687063164927
 20
126.0531368924409
 30
0.0
 10
30.33687063164927
 20
121.7829934241504
 30
0.0
 10
30.33687063164927
 20
120.5834282407077
 30
0.0
 10
30.33687063164927
 20
120.5834282407078
 30
0.0
  0
LINE
  5
114
330
1F
100
AcDbEntity
  8
0
  6
Continuous
 62
     7
370
    15
100
AcDbLine
 10
287.0368706316
 20
131.9685908303
 30
0.0
 11
287.0368706316
 21
141.9685908303
 31
0.0
  0
LINE
  5
115
330
1F
100
AcDbEntity
  8
0
  6
Continuous
 62
     7
370
    15
100
AcDbLine
 10
287.0368706316
 20
121.9685908303
 30
0.0
 11
287.0368706316
 21
131.9685908303
 31
0.0
  0
LINE
  5
116
330
1F
100
AcDbEntity
  8
0
  6
Continuous
 62
     7
370
    15
100
AcDbLine
 10
280.4368706316
 20
121.9685908303
 30
0.0
 11
280.4368706316
 21
141.9685908303
 31
0.0
  0
LINE
  5
117
330
1F
100
AcDbEntity
  8
0
  6
Continuous
 62
     7
370
    15
100
AcDbLine
 10
287.7368706316
 20
122.6685908303
 30
0.0
 11
287.7368706316
 21
141.2685908303
 31
0.0
  0
LINE
  5
118
330
1F
100
AcDbEntity
  8
0
  6
Continuous
 62
     7
370
    15
100
AcDbLine
 10
279.7368706316
 20
122.6685908303
 30
0.0
 11
279.7368706316
 21
141.2685908303
 31
0.0
  0
LINE
  5
119
330
1F
100
AcDbEntity
  8
0
  6
Continuous
 62
     7
370
    15
100
AcDbLine
 10
275.7368706316
 20
124.7685908303
 30
0.0
 11
275.7368706316
 21
139.1685908303
 31
0.0
  0
LINE
  5
11A
330
1F
100
AcDbEntity
  8
0
  6
Continuous
 62
     7
370
    15
100
AcDbLine
 10
274.3512299856
 20
131.9685908303
 30
0.0
 11
274.3512299856
 21
139.9685908303
 31
0.0
  0
LINE
  5
11B
330
1F
100
AcDbEntity
  8
0
  6
Continuous
 62
     7
370
    15
100
AcDbLine
 10
274.3512299856
 20
123.9685908303
 30
0.0
 11
274.3512299856
 21
131.9685908303
 31
0.0
  0
LINE
  5
11C
330
1F
100
AcDbEntity
  8
0
  6
Continuous
 62
     7
370
    15
100
AcDbLine
 10
264.1368706316
 20
149.4685908303
 30
0.0
 11
264.1368706316
 21
149.0685908303
 31
0.0
  0
LINE
  5
11D
330
1F
100
AcDbEntity
  8
0
  6
Continuous
 62
     7
370
    15
100
AcDbLine
 10
264.1368706316
 20
149.4685908303
 30
0.0
 11
264.5368706316
 21
149.4685908303
 31
0.0
  0
LINE
  5
11E
330
1F
100
AcDbEntity
  8
0
  6
Continuous
 62
     7
370
    15
100
AcDbLine
 10
264.5368706316
 20
148.5029054054
 30
0.0
 11
264.5368706316
 21
149.4685908303
 31
0.0
  0
LINE
  5
11F
330
1F
100
AcDbEntity
  8
0
  6
Continuous
 62
     7
370
    15
100
AcDbLine
 10
264.1368706316
 20
149.0685908303
 30
0.0
 11
264.5368706316
 21
148.5029054054
 31
0.0
  0
LINE
  5
120
330
1F
100
AcDbEntity
  8
0
  6
Continuous
 62
     7
370
    15
100
AcDbLine
 10
264.1368706316
 20
141.8685908303
 30
0.0
 11
258.7368706316
 21
141.8685908303
 31
0.0
  0
LINE
  5
121
330
1F
100
AcDbEntity
  8
0
  6
Continuous
 62
     7
370
    15
100
AcDbLine
 10
258.7368706316
 20
149.0685908303
 30
0.0
 11
264.1368706316
 21
149.0685908303
 31
0.0
  0
LINE
  5
122
330
1F
100
AcDbEntity
  8
0
  6
Continuous
 62
     7
370
    15
100
AcDbLine
 10
264.5368706316
 20
148.5029054054
 30
0.0
 11
264.5368706316
 21
142.4342762553
 31
0.0
  0
LINE
  5
123
330
1F
100
AcDbEntity
  8
0
  6
Continuous
 62
     7
370
    15
100
AcDbLine
 10
264.5368706316
 20
142.4342762553
 30
0.0
 11
264.1368706316
 21
141.8685908303
 31
0.0
  0
LINE
  5
124
330
1F
100
AcDbEntity
  8
0
  6
Continuous
 62
     7
370
    15
100
AcDbLine
 10
258.7368706316
 20
149.4685908303
 30
0.0
 11
264.1368706316
 21
149.4685908303
 31
0.0
  0
LINE
  5
125
330
1F
100
AcDbEntity
  8
0
  6
Continuous
 62
     7
370
    15
100
AcDbLine
 10
264.1368706316
 20
141.4685908303
 30
0.0
 11
264.5368706316
 21
141.4685908303
 31
0.0
  0
LINE
  5
126
330
1F
100
AcDbEntity
  8
0
  6
Continuous
 62
     7
370
    15
100
AcDbLine
 10
264.1368706316
 20
141.8685908303
 30
0.0
 11
264.1368706316
 21
141.4685908303
 31
0.0
  0
LINE
  5
127
330
1F
100
AcDbEntity
  8
0
  6
Continuous
 62
     7
370
    15
100
AcDbLine
 10
264.5368706316
 20
142.4342762553
 30
0.0
 11
264.5368706316
 21
141.4685908303
 31
0.0
  0
LINE
  5
128
330
1F
100
AcDbEntity
  8
0
  6
Continuous
 62
     7
370
    15
100
AcDbLine
 10
258.7368706316
 20
141.4685908303
 30
0.0
 11
264.1368706316
 21
141.4685908303
 31
0.0
  0
LINE
  5
129
330
1F
100
AcDbEntity
  8
0
  6
Continuous
 62
     7
370
    15
100
AcDbLine
 10
264.1368706316
 20
122.0685908303
 30
0.0
 11
258.7368706316
 21
122.0685908303
 31
0.0
  0
LINE
  5
12A
330
1F
100
AcDbEntity
  8
0
  6
Continuous
 62
     7
370
    15
100
AcDbLine
 10
264.5368706316
 20
121.5029054054
 30
0.0
 11
264.1368706316
 21
122.0685908303
 31
0.0
  0
LINE
  5
12B
330
1F
100
AcDbEntity
  8
0
  6
Continuous
 62
     7
370
    15
100
AcDbLine
 10
264.5368706316
 20
115.4342762553
 30
0.0
 11
264.5368706316
 21
121.5029054054
 31
0.0
  0
LINE
  5
12C
330
1F
100
AcDbEntity
  8
0
  6
Continuous
 62
     7
370
    15
100
AcDbLine
 10
264.1368706316
 20
114.8685908303
 30
0.0
 11
264.5368706316
 21
115.4342762553
 31
0.0
  0
LINE
  5
12D
330
1F
100
AcDbEntity
  8
0
  6
Continuous
 62
     7
370
    15
100
AcDbLine
 10
258.7368706316
 20
114.8685908303
 30
0.0
 11
264.1368706316
 21
114.8685908303
 31
0.0
  0
LINE
  5
12E
330
1F
100
AcDbEntity
  8
0
  6
Continuous
 62
     7
370
    15
100
AcDbLine
 10
264.1368706316
 20
122.0685908303
 30
0.0
 11
264.1368706316
 21
122.4685908303
 31
0.0
  0
LINE
  5
12F
330
1F
100
AcDbEntity
  8
0
  6
Continuous
 62
     7
370
    15
100
AcDbLine
 10
264.1368706316
 20
122.4685908303
 30
0.0
 11
258.7368706316
 21
122.4685908303
 31
0.0
  0
LINE
  5
130
330
1F
100
AcDbEntity
  8
0
  6
Continuous
 62
     7
370
    15
100
AcDbLine
 10
264.5368706316
 20
122.4685908303
 30
0.0
 11
264.1368706316
 21
122.4685908303
 31
0.0
  0
LINE
  5
131
330
1F
100
AcDbEntity
  8
0
  6
Continuous
 62
     7
370
    15
100
AcDbLine
 10
264.5368706316
 20
121.5029054054
 30
0.0
 11
264.5368706316
 21
122.4685908303
 31
0.0
  0
LINE
  5
132
330
1F
100
AcDbEntity
  8
0
  6
Continuous
 62
     7
370
    15
100
AcDbLine
 10
264.1368706316
 20
114.4685908303
 30
0.0
 11
258.7368706316
 21
114.4685908303
 31
0.0
  0
LINE
  5
133
330
1F
100
AcDbEntity
  8
0
  6
Continuous
 62
     7
370
    15
100
AcDbLine
 10
264.1368706316
 20
114.8685908303
 30
0.0
 11
264.1368706316
 21
114.4685908303
 31
0.0
  0
LINE
  5
134
330
1F
100
AcDbEntity
  8
0
  6
Continuous
 62
     7
370
    15
100
AcDbLine
 10
264.5368706316
 20
114.4685908303
 30
0.0
 11
264.1368706316
 21
114.4685908303
 31
0.0
  0
LINE
  5
135
330
1F
100
AcDbEntity
  8
0
  6
Continuous
 62
     7
370
    15
100
AcDbLine
 10
264.5368706316
 20
114.4685908303
 30
0.0
 11
264.5368706316
 21
115.4342762553
 31
0.0
  0
LINE
  5
136
330
1F
100
AcDbEntity
  8
0
  6
Continuous
 62
     8
370
    15
100
AcDbLine
 10
116.6711852067
 20
100.2185908303
 30
0.0
 11
116.6711852067
 21
123.3681597924
 31
0.0
  0
LINE
  5
137
330
1F
100
AcDbEntity
  8
0
  6
Continuous
 62
     8
370
    15
100
AcDbLine
 10
116.6711852067
 20
140.5690218682
 30
0.0
 11
116.6711852067
 21
163.7185908303
 31
0.0
  0
LINE
  5
138
330
1F
100
AcDbEntity
  8
0
  6
Continuous
 62
     8
370
    15
100
AcDbLine
 10
103.1025560566
 20
123.3681597924
 30
0.0
 11
103.1025560566
 21
100.2185908303
 31
0.0
  0
LINE
  5
139
330
1F
100
AcDbEntity
  8
0
  6
Continuous
 62
     8
370
    15
100
AcDbLine
 10
103.1025560566
 20
163.7185908303
 30
0.0
 11
103.1025560566
 21
140.5690218682
 31
0.0
  0
LINE
  5
13A
330
1F
100
AcDbEntity
  8
0
  6
Continuous
 62
     8
370
    15
100
AcDbLine
 10
117.7197133441
 20
162.8357481179
 30
0.0
 11
117.7197133441
 21
140.0185908303
 31
0.0
  0
LINE
  5
13B
330
1F
100
AcDbEntity
  8
0
  6
Continuous
 62
     8
370
    15
100
AcDbLine
 10
117.7197133441
 20
123.9185908303
 30
0.0
 11
117.7197133441
 21
101.1014335428
 31
0.0
  0
LINE
  5
13C
330
1F
100
AcDbEntity
  8
0
  6
Continuous
 62
     8
370
    15
100
AcDbLine
 10
116.9540279192
 20
123.4631952767
 30
0.0
 11
116.9540279192
 21
100.3357481179
 31
0.0
  0
LINE
  5
13D
330
1F
100
AcDbEntity
  8
0
  6
Continuous
 62
     8
370
    15
100
AcDbLine
 10
116.9540279192
 20
163.6014335428
 30
0.0
 11
116.9540279192
 21
140.4739863839
 31
0.0
  0
LINE
  5
13E
330
1F
100
AcDbEntity
  8
0
  6
Continuous
 62
     8
370
    15
100
AcDbLine
 10
102.0540279192
 20
140.6014335428
 30
0.0
 11
102.0540279192
 21
162.8357481179
 31
0.0
  0
LINE
  5
13F
330
1F
100
AcDbEntity
  8
0
  6
Continuous
 62
     8
370
    15
100
AcDbLine
 10
102.0540279192
 20
101.1014335428
 30
0.0
 11
102.0540279192
 21
123.3357481179
 31
0.0
  0
LINE
  5
140
330
1F
100
AcDbEntity
  8
0
  6
Continuous
 62
     8
370
    15
100
AcDbLine
 10
102.8197133441
 20
100.3357481179
 30
0.0
 11
102.8197133441
 21
123.4631952767
 31
0.0
  0
LINE
  5
141
330
1F
100
AcDbEntity
  8
0
  6
Continuous
 62
     8
370
    15
100
AcDbLine
 10
102.8197133441
 20
163.6014335428
 30
0.0
 11
102.8197133441
 21
140.4739863839
 31
0.0
  0
LINE
  5
142
330
1F
100
AcDbEntity
  8
0
  6
Continuous
 62
     8
370
    15
100
AcDbLine
 10
101.4368706316
 20
131.9685908303
 30
0.0
 11
101.4368706316
 21
153.9685908303
 31
0.0
  0
LINE
  5
143
330
1F
100
AcDbEntity
  8
0
  6
Continuous
 62
     8
370
    15
100
AcDbLine
 10
101.4368706316
 20
109.9685908303
 30
0.0
 11
101.4368706316
 21
131.9685908303
 31
0.0
  0
LINE
  5
144
330
1F
100
AcDbEntity
  8
0
  6
Continuous
 62
     8
370
    15
100
AcDbLine
 10
31.1925624044
 20
144.3432862064
 30
0.0
 11
31.1925624044
 21
119.5938954542
 31
0.0
  0
LINE
  5
145
330
1F
100
AcDbEntity
  8
0
  6
Continuous
 62
     8
370
    15
100
AcDbLine
 10
119.2197133441
 20
131.9685908303
 30
0.0
 11
119.2197133441
 21
112.9685908303
 31
0.0
  0
LINE
  5
146
330
1F
100
AcDbEntity
  8
0
  6
Continuous
 62
     8
370
    15
100
AcDbLine
 10
119.2197133441
 20
150.9685908303
 30
0.0
 11
119.2197133441
 21
131.9685908303
 31
0.0
  0
LINE
  5
147
330
1F
100
AcDbEntity
  8
0
  6
Continuous
 62
     8
370
    15
100
AcDbLine
 10
279.2368706316
 20
131.9685908303
 30
0.0
 11
279.2368706316
 21
136.9685908303
 31
0.0
  0
LINE
  5
148
330
1F
100
AcDbEntity
  8
0
  6
Continuous
 62
     8
370
    15
100
AcDbLine
 10
279.2368706316
 20
126.9685908303
 30
0.0
 11
279.2368706316
 21
131.9685908303
 31
0.0
  0
DIMENSION
  5
149
330
1F
100
AcDbEntity
  8
DIM
100
AcDbDimension
  2
_D
 10
306.5604000434
 20
112.9685908303
 30
0.0
 11
306.5604000434
 21
131.9685908303
 31
0.0
 70
   160
  1
%%c<>
 71
     2
 42
-1.0
  3
SLDDIMSTYLE0
100
AcDbAlignedDimension
 13
257.7368706316
 23
150.9685908303
 33
0.0
 14
257.7368706316
 24
112.9685908303
 34
0.0
 50
90.0
100
AcDbRotatedDimension
  0
DIMENSION
  5
155
330
1F
100
AcDbEntity
  8
DIM
100
AcDbDimension
  2
_D_1
 10
297.3804719885
 20
123.9685908303
 30
0.0
 11
297.3804719885
 21
131.9685908303
 31
0.0
 70
   160
  1
%%c<>
 71
     2
 42
-1.0
  3
SLDDIMSTYLE1
100
AcDbAlignedDimension
 13
274.3512299856
 23
139.9685908303
 33
0.0
 14
274.3512299856
 24
123.9685908303
 34
0.0
 50
90.0
100
AcDbRotatedDimension
  0
DIMENSION
  5
163
330
1F
100
AcDbEntity
  8
DIM
100
AcDbDimension
  2
_D_2
 10
258.7368706316
 20
90.2204708733
 30
0.0
 11
267.2368706316
 21
90.2204708733
 31
0.0
 70
   160
  1
<>
 71
     2
 42
-1.0
  3
SLDDIMSTYLE1
100
AcDbAlignedDimension
 13
275.7368706316
 23
124.7685908303
 33
0.0
 14
258.7368706316
 24
114.4685908303
 34
0.0
100
AcDbRotatedDimension
  0
DIMENSION
  5
16F
330
1F
100
AcDbEntity
  8
DIM
100
AcDbDimension
  2
_D_3
 10
98.7368706316
 20
90.2204708733
 30
0.0
 11
178.7368706316
 21
90.2204708733
 31
0.0
 70
   160
  1
<>
 71
     2
 42
-1.0
  3
SLDDIMSTYLE0
100
AcDbAlignedDimension
 13
258.7368706316
 23
114.4685908303
 33
0.0
 14
98.7368706316
 24
109.7435908303
 34
0.0
100
AcDbRotatedDimension
  0
DIMENSION
  5
179
330
1F
100
AcDbEntity
  8
DIM
100
AcDbDimension
  2
_D_4
 10
287.7368706316
 20
83.3619845807
 30
0.0
 11
159.0368706316
 21
83.3619845807
 31
0.0
 70
   160
  1
<>
 71
     2
 42
-1.0
  3
SLDDIMSTYLE2
100
AcDbAlignedDimension
 13
30.3368706316
 23
131.9685908303
 33
0.0
 14
287.7368706316
 24
122.6685908303
 34
0.0
 50
0.0
100
AcDbRotatedDimension
  0
LINE
  5
184
330
1F
100
AcDbEntity
  8
DIM
  6
CENTERX2
 48
1.7
370
     0
100
AcDbLine
 10
27.853810583
 20
131.9685908303
 30
0.0
 11
290.2631141337
 21
131.9685908303
 31
0.0
  0
ENDSEC
  0
SECTION
  2
OBJECTS
  0
DICTIONARY
  5
C
330
0
100
AcDbDictionary
281
     1
  3
ACAD_GROUP
350
D
  3
ACAD_LAYOUT
350
1A
  3
ACAD_MLINESTYLE
350
17
  3
ACAD_PLOTSETTINGS
350
19
  3
ACAD_PLOTSTYLENAME
350
E
  3
ACAD_SCALELIST
350
47
  0
DICTIONARY
  5
D
102
{ACAD_REACTORS
330
C
102
}
330
C
100
AcDbDictionary
281
     1
  0
DICTIONARY
  5
1A
102
{ACAD_REACTORS
330
C
102
}
330
C
100
AcDbDictionary
281
     1
  3
Layout1
350
1E
  3
Layout2
350
26
  3
Model
350
22
  0
DICTIONARY
  5
17
102
{ACAD_REACTORS
330
C
102
}
330
C
100
AcDbDictionary
281
     1
  3
Standard
350
18
  0
DICTIONARY
  5
19
102
{ACAD_REACTORS
330
C
102
}
330
C
100
AcDbDictionary
281
     1
  0
ACDBDICTIONARYWDFLT
  5
E
102
{ACAD_REACTORS
330
C
102
}
330
C
100
AcDbDictionary
281
     1
  3
Normal
350
F
100
AcDbDictionaryWithDefault
340
F
  0
DICTIONARY
  5
47
102
{ACAD_REACTORS
330
C
102
}
330
C
100
AcDbDictionary
281
     1
  3
A0
350
48
  3
A1
350
49
  3
A2
350
4A
  3
A3
350
4B
  3
A4
350
4C
  3
A5
350
4D
  3
A6
350
4E
  3
A7
350
4F
  3
A8
350
50
  3
A9
350
51
  3
B0
350
52
  3
B1
350
53
  3
B2
350
54
  3
B3
350
55
  3
B4
350
56
  3
B5
350
57
  3
B6
350
58
  3
B7
350
59
  3
B8
350
5A
  3
B9
350
5B
  3
C0
350
5C
  3
C1
350
5D
  3
C2
350
5E
  3
C3
350
5F
  3
C4
350
60
  3
C5
350
61
  3
C6
350
62
  3
C7
350
63
  3
C8
350
64
  3
C9
350
65
  3
D0
350
66
  3
D1
350
67
  3
D2
350
68
  0
LAYOUT
  5
1E
102
{ACAD_REACTORS
330
1A
102
}
330
1A
100
AcDbPlotSettings
  1

  2
none_device
  4

  6

 40
0.0
 41
0.0
 42
0.0
 43
0.0
 44
0.0
 45
0.0
 46
0.0
 47
0.0
 48
0.0
 49
0.0
140
0.0
141
0.0
142
1.0
143
1.0
 70
   688
 72
     1
 73
     0
 74
     5
  7

 75
    16
147
1.0
148
0.0
149
0.0
100
AcDbLayout
  1
Layout1
 70
     1
 71
     1
 10
0.0
 20
0.0
 11
420.0
 21
297.0
 12
0.0
 22
0.0
 32
0.0
 14
1.0000000000E+20
 24
1.0000000000E+20
 34
1.0000000000E+20
 15
-1.0000000000E+20
 25
-1.0000000000E+20
 35
-1.0000000000E+20
146
0.0
 13
0.0
 23
0.0
 33
0.0
 16
1.0
 26
0.0
 36
0.0
 17
0.0
 27
1.0
 37
0.0
 76
     0
330
1B
  0
LAYOUT
  5
26
102
{ACAD_REACTORS
330
1A
102
}
330
1A
100
AcDbPlotSettings
  1

  2
none_device
  4

  6

 40
0.0
 41
0.0
 42
0.0
 43
0.0
 44
0.0
 45
0.0
 46
0.0
 47
0.0
 48
0.0
 49
0.0
140
0.0
141
0.0
142
1.0
143
1.0
 70
   688
 72
     1
 73
     0
 74
     5
  7

 75
    16
147
1.0
148
0.0
149
0.0
100
AcDbLayout
  1
Layout2
 70
     1
 71
     2
 10
0.0
 20
0.0
 11
0.0
 21
0.0
 12
0.0
 22
0.0
 32
0.0
 14
0.0
 24
0.0
 34
0.0
 15
0.0
 25
0.0
 35
0.0
146
0.0
 13
0.0
 23
0.0
 33
0.0
 16
1.0
 26
0.0
 36
0.0
 17
0.0
 27
1.0
 37
0.0
 76
     0
330
23
  0
LAYOUT
  5
22
102
{ACAD_REACTORS
330
1A
102
}
330
1A
100
AcDbPlotSettings
  1

  2
none_device
  4
Letter_(8.50_x_11.00_Inches)
  6

 40
6.35
 41
6.35
 42
6.35000508
 43
6.35000508
 44
215.9
 45
279.4
 46
0.0
 47
0.0
 48
0.0
 49
0.0
140
0.0
141
0.0
142
1.0
143
1.0
 70
  1712
 72
     1
 73
     0
 74
     0
  7

 75
     0
147
1.0
148
0.0
149
0.0
100
AcDbLayout
  1
Model
 70
     1
 71
     0
 10
0.0
 20
0.0
 11
349.4117647059
 21
247.0588235294
 12
0.0
 22
0.0
 32
0.0
 14
0.0
 24
0.0
 34
0.0
 15
349.4117647059
 25
247.0588235294
 35
0.0
146
0.0
 13
0.0
 23
0.0
 33
0.0
 16
1.0
 26
0.0
 36
0.0
 17
0.0
 27
1.0
 37
0.0
 76
     0
330
1F
331
29
  0
MLINESTYLE
  5
18
102
{ACAD_REACTORS
330
17
102
}
330
17
100
AcDbMlineStyle
  2
Standard
 70
     0
  3

 62
   256
 51
90.0
 52
90.0
 71
     2
 49
0.5
 62
   256
  6
BYLAYER
 49
-0.5
 62
   256
  6
BYLAYER
  0
ACDBPLACEHOLDER
  5
F
102
{ACAD_REACTORS
330
E
102
}
330
E
  0
SCALE
  5
48
102
{ACAD_REACTORS
330
47
102
}
330
47
100
AcDbScale
 70
     0
300
1:1
140
1.0
141
1.0
290
     1
  0
SCALE
  5
49
102
{ACAD_REACTORS
330
47
102
}
330
47
100
AcDbScale
 70
     0
300
1:2
140
1.0
141
2.0
290
     0
  0
SCALE
  5
4A
102
{ACAD_REACTORS
330
47
102
}
330
47
100
AcDbScale
 70
     0
300
1:4
140
1.0
141
4.0
290
     0
  0
SCALE
  5
4B
102
{ACAD_REACTORS
330
47
102
}
330
47
100
AcDbScale
 70
     0
300
1:5
140
1.0
141
5.0
290
     0
  0
SCALE
  5
4C
102
{ACAD_REACTORS
330
47
102
}
330
47
100
AcDbScale
 70
     0
300
1:8
140
1.0
141
8.0
290
     0
  0
SCALE
  5
4D
102
{ACAD_REACTORS
330
47
102
}
330
47
100
AcDbScale
 70
     0
300
1:10
140
1.0
141
10.0
290
     0
  0
SCALE
  5
4E
102
{ACAD_REACTORS
330
47
102
}
330
47
100
AcDbScale
 70
     0
300
1:16
140
1.0
141
16.0
290
     0
  0
SCALE
  5
4F
102
{ACAD_REACTORS
330
47
102
}
330
47
100
AcDbScale
 70
     0
300
1:20
140
1.0
141
20.0
290
     0
  0
SCALE
  5
50
102
{ACAD_REACTORS
330
47
102
}
330
47
100
AcDbScale
 70
     0
300
1:30
140
1.0
141
30.0
290
     0
  0
SCALE
  5
51
102
{ACAD_REACTORS
330
47
102
}
330
47
100
AcDbScale
 70
     0
300
1:40
140
1.0
141
40.0
290
     0
  0
SCALE
  5
52
102
{ACAD_REACTORS
330
47
102
}
330
47
100
AcDbScale
 70
     0
300
1:50
140
1.0
141
50.0
290
     0
  0
SCALE
  5
53
102
{ACAD_REACTORS
330
47
102
}
330
47
100
AcDbScale
 70
     0
300
1:100
140
1.0
141
100.0
290
     0
  0
SCALE
  5
54
102
{ACAD_REACTORS
330
47
102
}
330
47
100
AcDbScale
 70
     0
300
2:1
140
2.0
141
1.0
290
     0
  0
SCALE
  5
55
102
{ACAD_REACTORS
330
47
102
}
330
47
100
AcDbScale
 70
     0
300
4:1
140
4.0
141
1.0
290
     0
  0
SCALE
  5
56
102
{ACAD_REACTORS
330
47
102
}
330
47
100
AcDbScale
 70
     0
300
8:1
140
8.0
141
1.0
290
     0
  0
SCALE
  5
57
102
{ACAD_REACTORS
330
47
102
}
330
47
100
AcDbScale
 70
     0
300
10:1
140
10.0
141
1.0
290
     0
  0
SCALE
  5
58
102
{ACAD_REACTORS
330
47
102
}
330
47
100
AcDbScale
 70
     0
300
100:1
140
100.0
141
1.0
290
     0
  0
SCALE
  5
59
102
{ACAD_REACTORS
330
47
102
}
330
47
100
AcDbScale
 70
     0
300
1/128" = 1'-0"
140
0.0078125
141
12.0
290
     0
  0
SCALE
  5
5A
102
{ACAD_REACTORS
330
47
102
}
330
47
100
AcDbScale
 70
     0
300
1/64" = 1'-0"
140
0.015625
141
12.0
290
     0
  0
SCALE
  5
5B
102
{ACAD_REACTORS
330
47
102
}
330
47
100
AcDbScale
 70
     0
300
1/32" = 1'-0"
140
0.03125
141
12.0
290
     0
  0
SCALE
  5
5C
102
{ACAD_REACTORS
330
47
102
}
330
47
100
AcDbScale
 70
     0
300
1/16" = 1'-0"
140
0.0625
141
12.0
290
     0
  0
SCALE
  5
5D
102
{ACAD_REACTORS
330
47
102
}
330
47
100
AcDbScale
 70
     0
300
3/32" = 1'-0"
140
0.09375
141
12.0
290
     0
  0
SCALE
  5
5E
102
{ACAD_REACTORS
330
47
102
}
330
47
100
AcDbScale
 70
     0
300
1/8" = 1'-0"
140
0.125
141
12.0
290
     0
  0
SCALE
  5
5F
102
{ACAD_REACTORS
330
47
102
}
330
47
100
AcDbScale
 70
     0
300
3/16" = 1'-0"
140
0.1875
141
12.0
290
     0
  0
SCALE
  5
60
102
{ACAD_REACTORS
330
47
102
}
330
47
100
AcDbScale
 70
     0
300
1/4" = 1'-0"
140
0.25
141
12.0
290
     0
  0
SCALE
  5
61
102
{ACAD_REACTORS
330
47
102
}
330
47
100
AcDbScale
 70
     0
300
3/8" = 1'-0"
140
0.375
141
12.0
290
     0
  0
SCALE
  5
62
102
{ACAD_REACTORS
330
47
102
}
330
47
100
AcDbScale
 70
     0
300
1/2" = 1'-0"
140
0.5
141
12.0
290
     0
  0
SCALE
  5
63
102
{ACAD_REACTORS
330
47
102
}
330
47
100
AcDbScale
 70
     0
300
3/4" = 1'-0"
140
0.75
141
12.0
290
     0
  0
SCALE
  5
64
102
{ACAD_REACTORS
330
47
102
}
330
47
100
AcDbScale
 70
     0
300
1" = 1'-0"
140
1.0
141
12.0
290
     0
  0
SCALE
  5
65
102
{ACAD_REACTORS
330
47
102
}
330
47
100
AcDbScale
 70
     0
300
1-1/2" = 1'-0"
140
1.5
141
12.0
290
     0
  0
SCALE
  5
66
102
{ACAD_REACTORS
330
47
102
}
330
47
100
AcDbScale
 70
     0
300
3" = 1'-0"
140
3.0
141
12.0
290
     0
  0
SCALE
  5
67
102
{ACAD_REACTORS
330
47
102
}
330
47
100
AcDbScale
 70
     0
300
6" = 1'-0"
140
6.0
141
12.0
290
     0
  0
SCALE
  5
68
102
{ACAD_REACTORS
330
47
102
}
330
47
100
AcDbScale
 70
     0
300
1'-0" = 1'-0"
140
12.0
141
12.0
290
     0
  0
ENDSEC
  0
EOF
