  0
SECTION
  2
HEADER
  9
$ACADVER
  1
AC1015
  9
$ACADMAINTVER
 70
     6
  9
$DWGCODEPAGE
  3
ANSI_1252
  9
$INSBASE
 10
0.0
 20
0.0
 30
0.0
  9
$EXTMIN
 10
0.0
 20
0.0
 30
0.0
  9
$EXTMAX
 10
386.1
 20
273.0
 30
0.0
  9
$LIMMIN
 10
0.0
 20
0.0
  9
$LIMMAX
 10
386.1
 20
273.0
  9
$ORTHOMODE
 70
     0
  9
$REGENMODE
 70
     1
  9
$FILLMODE
 70
     1
  9
$QTEXTMODE
 70
     0
  9
$MIRRTEXT
 70
     1
  9
$LTSCALE
 40
1.3
  9
$ATTMODE
 70
     1
  9
$TEXTSIZE
 40
5.0447222222
  9
$TRACEWID
 40
1.0
  9
$TEXTSTYLE
  7
Standard
  9
$CLAYER
  8
0
  9
$CELTYPE
  6
ByLayer
  9
$CECOLOR
 62
   256
  9
$CELTSCALE
 40
1.0
  9
$DISPSILH
 70
     0
  9
$DIMSCALE
 40
1.0
  9
$DIMASZ
 40
4.2926
  9
$DIMEXO
 40
1.3
  9
$DIMDLI
 40
3.75
  9
$DIMRND
 40
0.0
  9
$DIMDLE
 40
0.0
  9
$DIMEXE
 40
1.3
  9
$DIMTP
 40
0.0
  9
$DIMTM
 40
0.0
  9
$DIMTXT
 40
5.0447222222
  9
$DIMCEN
 40
2.5
  9
$DIMTSZ
 40
0.0
  9
$DIMTOL
 70
     0
  9
$DIMLIM
 70
     0
  9
$DIMTIH
 70
     1
  9
$DIMTOH
 70
     1
  9
$DIMSE1
 70
     0
  9
$DIMSE2
 70
     0
  9
$DIMTAD
 70
     1
  9
$DIMZIN
 70
     0
  9
$DIMBLK
  1

  9
$DIMASO
 70
     1
  9
$DIMSHO
 70
     1
  9
$DIMPOST
  1

  9
$DIMAPOST
  1

  9
$DIMALT
 70
     0
  9
$DIMALTD
 70
     3
  9
$DIMALTF
 40
0.0393700787
  9
$DIMLFAC
 40
1.0
  9
$DIMTOFL
 70
     1
  9
$DIMTVP
 40
0.0
  9
$DIMTIX
 70
     0
  9
$DIMSOXD
 70
     0
  9
$DIMSAH
 70
     0
  9
$DIMBLK1
  1

  9
$DIMBLK2
  1

  9
$DIMSTYLE
  2
ISO-25
  9
$DIMCLRD
 70
     0
  9
$DIMCLRE
 70
     0
  9
$DIMCLRT
 70
     0
  9
$DIMTFAC
 40
1.0
  9
$DIMGAP
 40
1.9812
  9
$DIMJUST
 70
     0
  9
$DIMSD1
 70
     0
  9
$DIMSD2
 70
     0
  9
$DIMTOLJ
 70
     0
  9
$DIMTZIN
 70
     0
  9
$DIMALTZ
 70
     0
  9
$DIMALTTZ
 70
     0
  9
$DIMUPT
 70
     0
  9
$DIMDEC
 70
     2
  9
$DIMTDEC
 70
     2
  9
$DIMALTU
 70
     2
  9
$DIMALTTD
 70
     3
  9
$DIMTXSTY
  7
Standard
  9
$DIMAUNIT
 70
     0
  9
$DIMADEC
 70
     2
  9
$DIMALTRND
 40
0.0
  9
$DIMAZIN
 70
     0
  9
$DIMDSEP
 70
    44
  9
$DIMATFIT
 70
     3
  9
$DIMFRAC
 70
     0
  9
$DIMLDRBLK
  1

  9
$DIMLUNIT
 70
     2
  9
$DIMLWD
 70
    -2
  9
$DIMLWE
 70
    -2
  9
$DIMTMOVE
 70
     0
  9
$LUNITS
 70
     2
  9
$LUPREC
 70
     2
  9
$SKETCHINC
 40
1.0
  9
$FILLETRAD
 40
10.0
  9
$AUNITS
 70
     1
  9
$AUPREC
 70
     2
  9
$MENU
  1
.
  9
$ELEVATION
 40
0.0
  9
$PELEVATION
 40
0.0
  9
$THICKNESS
 40
0.0
  9
$LIMCHECK
 70
     0
  9
$CHAMFERA
 40
0.0
  9
$CHAMFERB
 40
0.0
  9
$CHAMFERC
 40
0.0
  9
$CHAMFERD
 40
0.0
  9
$SKPOLY
 70
     0
  9
$TDCREATE
 40
2458606.392354526
  9
$TDUCREATE
 40
2458606.163187859
  9
$TDUPDATE
 40
2458606.392355428
  9
$TDUUPDATE
 40
2458606.163188762
  9
$TDINDWG
 40
0.0000000116
  9
$TDUSRTIMER
 40
0.0000000116
  9
$USRTIMER
 70
     1
  9
$ANGBASE
 50
0.0
  9
$ANGDIR
 70
     0
  9
$PDMODE
 70
     0
  9
$PDSIZE
 40
-1.0
  9
$PLINEWID
 40
0.0
  9
$SPLFRAME
 70
     0
  9
$SPLINETYPE
 70
     6
  9
$SPLINESEGS
 70
     8
  9
$HANDSEED
  5
194
  9
$SURFTAB1
 70
     6
  9
$SURFTAB2
 70
     6
  9
$SURFTYPE
 70
     6
  9
$SURFU
 70
     6
  9
$SURFV
 70
     6
  9
$UCSBASE
  2

  9
$UCSNAME
  2

  9
$UCSORG
 10
0.0
 20
0.0
 30
0.0
  9
$UCSXDIR
 10
1.0
 20
0.0
 30
0.0
  9
$UCSYDIR
 10
0.0
 20
1.0
 30
0.0
  9
$UCSORTHOREF
  2

  9
$UCSORTHOVIEW
 70
     0
  9
$UCSORGTOP
 10
0.0
 20
0.0
 30
0.0
  9
$UCSORGBOTTOM
 10
0.0
 20
0.0
 30
0.0
  9
$UCSORGLEFT
 10
0.0
 20
0.0
 30
0.0
  9
$UCSORGRIGHT
 10
0.0
 20
0.0
 30
0.0
  9
$UCSORGFRONT
 10
0.0
 20
0.0
 30
0.0
  9
$UCSORGBACK
 10
0.0
 20
0.0
 30
0.0
  9
$PUCSBASE
  2

  9
$PUCSNAME
  2

  9
$PUCSORG
 10
0.0
 20
0.0
 30
0.0
  9
$PUCSXDIR
 10
1.0
 20
0.0
 30
0.0
  9
$PUCSYDIR
 10
0.0
 20
1.0
 30
0.0
  9
$PUCSORTHOREF
  2

  9
$PUCSORTHOVIEW
 70
     0
  9
$PUCSORGTOP
 10
0.0
 20
0.0
 30
0.0
  9
$PUCSORGBOTTOM
 10
0.0
 20
0.0
 30
0.0
  9
$PUCSORGLEFT
 10
0.0
 20
0.0
 30
0.0
  9
$PUCSORGRIGHT
 10
0.0
 20
0.0
 30
0.0
  9
$PUCSORGFRONT
 10
0.0
 20
0.0
 30
0.0
  9
$PUCSORGBACK
 10
0.0
 20
0.0
 30
0.0
  9
$USERI1
 70
     0
  9
$USERI2
 70
     0
  9
$USERI3
 70
     0
  9
$USERI4
 70
     0
  9
$USERI5
 70
     0
  9
$USERR1
 40
0.0
  9
$USERR2
 40
0.0
  9
$USERR3
 40
0.0
  9
$USERR4
 40
0.0
  9
$USERR5
 40
0.0
  9
$WORLDVIEW
 70
     1
  9
$SHADEDGE
 70
     3
  9
$SHADEDIF
 70
    70
  9
$TILEMODE
 70
     1
  9
$MAXACTVP
 70
    64
  9
$PINSBASE
 10
0.0
 20
0.0
 30
0.0
  9
$PLIMCHECK
 70
     0
  9
$PEXTMIN
 10
1.0000000000E+20
 20
1.0000000000E+20
 30
1.0000000000E+20
  9
$PEXTMAX
 10
-1.0000000000E+20
 20
-1.0000000000E+20
 30
-1.0000000000E+20
  9
$PLIMMIN
 10
0.0
 20
0.0
  9
$PLIMMAX
 10
420.0
 20
297.0
  9
$UNITMODE
 70
     0
  9
$VISRETAIN
 70
     1
  9
$PLINEGEN
 70
     0
  9
$PSLTSCALE
 70
     1
  9
$TREEDEPTH
 70
  3020
  9
$CMLSTYLE
  2
Standard
  9
$CMLJUST
 70
     0
  9
$CMLSCALE
 40
20.0
  9
$PROXYGRAPHICS
 70
     1
  9
$MEASUREMENT
 70
     1
  9
$CELWEIGHT
370
    -1
  9
$ENDCAPS
280
     0
  9
$JOINSTYLE
280
     0
  9
$LWDISPLAY
290
     1
  9
$INSUNITS
 70
     4
  9
$HYPERLINKBASE
  1

  9
$STYLESHEET
  1

  9
$XEDIT
290
     1
  9
$CEPSNTYPE
380
     0
  9
$PSTYLEMODE
290
     1
  9
$FINGERPRINTGUID
  2
{CF595DBB-A722-425A-A5F2-5FACE906E43A}
  9
$VERSIONGUID
  2
{FAEB1C32-E019-11D5-929B-00C0DF256EC4}
  9
$EXTNAMES
290
     1
  9
$PSVPSCALE
 40
0.0
  9
$OLESTARTUP
290
     0
  0
ENDSEC
  0
SECTION
  2
CLASSES
  0
CLASS
  1
ACDBDICTIONARYWDFLT
  2
AcDbDictionaryWithDefault
  3
ObjectDBX Classes
 90
        0
280
     0
281
     0
  0
CLASS
  1
VISUALSTYLE
  2
AcDbVisualStyle
  3
ObjectDBX Classes
 90
     4095
280
     0
281
     0
  0
CLASS
  1
MATERIAL
  2
AcDbMaterial
  3
ObjectDBX Classes
 90
     1153
280
     0
281
     0
  0
CLASS
  1
SCALE
  2
AcDbScale
  3
ObjectDBX Classes
 90
     1153
280
     0
281
     0
  0
CLASS
  1
SUN
  2
AcDbSun
  3
SCENEOE
 90
     1153
280
     0
281
     0
  0
CLASS
  1
ACDBPLACEHOLDER
  2
AcDbPlaceHolder
  3
ObjectDBX Classes
 90
        0
280
     0
281
     0
  0
CLASS
  1
LAYOUT
  2
AcDbLayout
  3
ObjectDBX Classes
 90
        0
280
     0
281
     0
  0
ENDSEC
  0
SECTION
  2
TABLES
  0
TABLE
  2
VPORT
  5
8
330
0
100
AcDbSymbolTable
 70
     1
  0
VPORT
  5
29
330
8
100
AcDbSymbolTableRecord
100
AcDbViewportTableRecord
  2
*Active
 70
     0
 10
0.0
 20
0.0
 11
1.0
 21
1.0
 12
193.05
 22
136.5
 13
0.0
 23
0.0
 14
10.0
 24
10.0
 15
10.0
 25
10.0
 16
0.0
 26
0.0
 36
1.0
 17
0.0
 27
0.0
 37
0.0
 40
273.0
 41
1.4142857143
 42
50.0
 43
0.0
 44
0.0
 50
0.0
 51
0.0
 71
     0
 72
  2000
 73
     1
 74
     3
 75
     0
 76
     0
 77
     0
 78
     0
281
     0
 65
     1
110
0.0
120
0.0
130
0.0
111
1.0
121
0.0
131
0.0
112
0.0
122
1.0
132
0.0
 79
     0
146
0.0
  0
ENDTAB
  0
TABLE
  2
LTYPE
  5
5
330
0
100
AcDbSymbolTable
 70
     6
  0
LTYPE
  5
14
330
5
100
AcDbSymbolTableRecord
100
AcDbLinetypeTableRecord
  2
ByBlock
 70
     0
  3

 72
    65
 73
     0
 40
0.0
  0
LTYPE
  5
15
330
5
100
AcDbSymbolTableRecord
100
AcDbLinetypeTableRecord
  2
ByLayer
 70
     0
  3

 72
    65
 73
     0
 40
0.0
  0
LTYPE
  5
16
330
5
100
AcDbSymbolTableRecord
100
AcDbLinetypeTableRecord
  2
Continuous
 70
     0
  3
Solid line
 72
    65
 73
     0
 40
0.0
  0
LTYPE
  5
6A
330
5
100
AcDbSymbolTableRecord
100
AcDbLinetypeTableRecord
  2
HIDDEN
 70
     0
  3
Hidden __ __ __ __ __ __ __ __ __ __ __ __ __ __
 72
    65
 73
     2
 40
1.905
 49
1.27
 74
     0
 49
-0.635
 74
     0
  0
LTYPE
  5
6B
330
5
100
AcDbSymbolTableRecord
100
AcDbLinetypeTableRecord
  2
PHANTOM
 70
     0
  3
Phantom ______  __  __  ______  __  __  ______
 72
    65
 73
     6
 40
12.7
 49
6.35
 74
     0
 49
-1.27
 74
     0
 49
1.27
 74
     0
 49
-1.27
 74
     0
 49
1.27
 74
     0
 49
-1.27
 74
     0
  0
LTYPE
  5
6C
330
5
100
AcDbSymbolTableRecord
100
AcDbLinetypeTableRecord
  2
CENTER
 70
     0
  3
Center ____ _ ____ _ ____ _ ____ _ ____ _ ____
 72
    65
 73
     4
 40
10.16
 49
6.35
 74
     0
 49
-1.27
 74
     0
 49
1.27
 74
     0
 49
-1.27
 74
     0
  0
LTYPE
  5
6D
330
5
100
AcDbSymbolTableRecord
100
AcDbLinetypeTableRecord
  2
CENTERX2
 70
     0
  3
Center (2x) ________  __  ________  __  _____
 72
    65
 73
     4
 40
20.32
 49
12.7
 74
     0
 49
-2.54
 74
     0
 49
2.54
 74
     0
 49
-2.54
 74
     0
  0
LTYPE
  5
6E
330
5
100
AcDbSymbolTableRecord
100
AcDbLinetypeTableRecord
  2
DOT2
 70
     0
  3
Dot (.5x) ........................................
 72
    65
 73
     2
 40
0.635
 49
0.0
 74
     0
 49
-0.635
 74
     0
  0
ENDTAB
  0
TABLE
  2
LAYER
  5
2
330
0
100
AcDbSymbolTable
 70
     8
  0
LAYER
  5
10
330
2
100
AcDbSymbolTableRecord
100
AcDbLayerTableRecord
  2
0
 70
     0
 62
     7
  6
Continuous
370
    -3
390
F
  0
LAYER
  5
6F
330
2
100
AcDbSymbolTableRecord
100
AcDbLayerTableRecord
  2
FORMAT
 70
     0
 62
     7
  6
Continuous
370
    -3
390
F
  0
LAYER
  5
70
330
2
100
AcDbSymbolTableRecord
100
AcDbLayerTableRecord
  2
SLD-0
 70
     0
 62
     2
  6
Continuous
370
    -3
390
F
  0
LAYER
  5
71
330
2
100
AcDbSymbolTableRecord
100
AcDbLayerTableRecord
  2
DIM
 70
     0
 62
   179
  6
Continuous
370
    -3
390
F
  0
LAYER
  5
72
330
2
100
AcDbSymbolTableRecord
100
AcDbLayerTableRecord
  2
SLD-DEFPOINTS
 70
     0
 62
   179
  6
Continuous
370
    -3
390
F
  0
LAYER
  5
73
330
2
100
AcDbSymbolTableRecord
100
AcDbLayerTableRecord
  2
HAT
 70
     0
 62
   135
  6
Continuous
370
    -3
390
F
  0
LAYER
  5
74
330
2
100
AcDbSymbolTableRecord
100
AcDbLayerTableRecord
  2
JOB
 70
     0
 62
   201
  6
Continuous
370
    -3
390
F
  0
LAYER
  5
75
330
2
100
AcDbSymbolTableRecord
100
AcDbLayerTableRecord
  2
INSPECTION_REPORT
 70
     0
 62
   255
  6
Continuous
370
    -3
390
F
  0
ENDTAB
  0
TABLE
  2
STYLE
  5
3
330
0
100
AcDbSymbolTable
 70
     4
  0
STYLE
  5
11
330
3
100
AcDbSymbolTableRecord
100
AcDbTextStyleTableRecord
  2
Standard
 70
     0
 40
0.0
 41
1.0
 50
0.0
 71
     0
 42
5.0447222222
  3
txt
  4

  0
STYLE
  5
96
330
3
100
AcDbSymbolTableRecord
100
AcDbTextStyleTableRecord
  2
SLDTEXTSTYLE0
 70
     0
 40
0.0
 41
0.7
 50
0.0
 71
     0
 42
5.0447222222
  3
TXT
  4

  0
STYLE
  5
98
330
3
100
AcDbSymbolTableRecord
100
AcDbTextStyleTableRecord
  2
SLDTEXTSTYLE1
 70
     0
 40
0.0
 41
0.75
 50
0.0
 71
     0
 42
5.0447222222
  3
TXT
  4

  0
STYLE
  5
AB
330
3
100
AcDbSymbolTableRecord
100
AcDbTextStyleTableRecord
  2
SLDTEXTSTYLE2
 70
     0
 40
0.0
 41
0.6875
 50
0.0
 71
     0
 42
5.0447222222
  3
TXT
  4

  0
ENDTAB
  0
TABLE
  2
VIEW
  5
6
330
0
100
AcDbSymbolTable
 70
     0
  0
ENDTAB
  0
TABLE
  2
UCS
  5
7
330
0
100
AcDbSymbolTable
 70
     0
  0
ENDTAB
  0
TABLE
  2
APPID
  5
9
330
0
100
AcDbSymbolTable
 70
     1
  0
APPID
  5
12
330
9
100
AcDbSymbolTableRecord
100
AcDbRegAppTableRecord
  2
ACAD
 70
     0
  0
ENDTAB
  0
TABLE
  2
DIMSTYLE
  5
A
330
0
100
AcDbSymbolTable
 70
     4
100
AcDbDimStyleTable
  0
DIMSTYLE
105
27
330
A
100
AcDbSymbolTableRecord
100
AcDbDimStyleTableRecord
  2
ISO-25
 70
     0
 41
2.5
 42
0.625
 43
3.75
 44
1.25
 73
     0
 74
     0
 77
     1
 78
     8
140
2.5
141
2.5
143
0.0393700787
147
0.625
171
     3
172
     1
178
     0
271
     2
272
     2
274
     3
278
    44
283
     0
284
     8
340
11
  0
DIMSTYLE
105
14E
102
{ACAD_REACTORS
330
14D
330
17B
102
}
330
A
100
AcDbSymbolTableRecord
100
AcDbDimStyleTableRecord
  2
SLDDIMSTYLE0
 70
     0
 41
4.2926
 44
0.0
 45
0.000000001
 73
     0
 74
     0
 77
     1
 78
    12
 79
     3
140
3.7835416667
147
0.9458854167
172
     1
173
     1
178
     0
271
     2
272
     2
276
     2
284
    12
289
     0
340
96
  0
DIMSTYLE
105
15B
102
{ACAD_REACTORS
330
15A
330
188
102
}
330
A
100
AcDbSymbolTableRecord
100
AcDbDimStyleTableRecord
  2
SLDDIMSTYLE1
 70
     0
 41
4.2926
 44
0.0
 45
0.000000001
 73
     0
 74
     0
 77
     1
 78
    12
 79
     3
140
3.7835416667
147
0.9458854167
173
     1
178
     0
271
     2
272
     2
276
     2
284
    12
340
96
  0
DIMSTYLE
105
166
102
{ACAD_REACTORS
330
165
330
171
102
}
330
A
100
AcDbSymbolTableRecord
100
AcDbDimStyleTableRecord
  2
SLDDIMSTYLE2
 70
     0
 41
4.2926
 44
0.0
 45
0.000000001
 73
     0
 74
     0
 77
     1
 78
     4
 79
     1
140
3.7835416667
147
0.9458854167
173
     1
178
     0
271
     2
272
     2
276
     2
284
    12
340
96
  0
ENDTAB
  0
TABLE
  2
BLOCK_RECORD
  5
1
330
0
100
AcDbSymbolTable
 70
     7
  0
BLOCK_RECORD
  5
1F
330
1
100
AcDbSymbolTableRecord
100
AcDbBlockTableRecord
  2
*Model_Space
340
22
  0
BLOCK_RECORD
  5
1B
330
1
100
AcDbSymbolTableRecord
100
AcDbBlockTableRecord
  2
*Paper_Space
340
1E
  0
BLOCK_RECORD
  5
23
330
1
100
AcDbSymbolTableRecord
100
AcDbBlockTableRecord
  2
*Paper_Space0
340
26
  0
BLOCK_RECORD
  5
14F
330
1
100
AcDbSymbolTableRecord
100
AcDbBlockTableRecord
  2
_D
340
0
  0
BLOCK_RECORD
  5
15C
330
1
100
AcDbSymbolTableRecord
100
AcDbBlockTableRecord
  2
_D_1
340
0
  0
BLOCK_RECORD
  5
167
330
1
100
AcDbSymbolTableRecord
100
AcDbBlockTableRecord
  2
_D_2
340
0
  0
BLOCK_RECORD
  5
172
330
1
100
AcDbSymbolTableRecord
100
AcDbBlockTableRecord
  2
_D_3
340
0
  0
BLOCK_RECORD
  5
17C
330
1
100
AcDbSymbolTableRecord
100
AcDbBlockTableRecord
  2
_D_4
340
0
  0
BLOCK_RECORD
  5
189
330
1
100
AcDbSymbolTableRecord
100
AcDbBlockTableRecord
  2
_D_5
340
0
  0
ENDTAB
  0
ENDSEC
  0
SECTION
  2
BLOCKS
  0
BLOCK
  5
20
330
1F
100
AcDbEntity
  8
0
100
AcDbBlockBegin
  2
*Model_Space
 70
     0
 10
0.0
 20
0.0
 30
0.0
  3
*Model_Space
  1
*Model_Space
  0
ENDBLK
  5
21
330
1F
100
AcDbEntity
  8
0
100
AcDbBlockEnd
  0
BLOCK
  5
1C
330
1B
100
AcDbEntity
 67
     1
  8
0
100
AcDbBlockBegin
  2
*Paper_Space
 70
     0
 10
0.0
 20
0.0
 30
0.0
  3
*Paper_Space
  1
*Paper_Space
  0
ENDBLK
  5
1D
330
1B
100
AcDbEntity
 67
     1
  8
0
100
AcDbBlockEnd
  0
BLOCK
  5
24
330
23
100
AcDbEntity
  8
0
100
AcDbBlockBegin
  2
*Paper_Space0
 70
     0
 10
0.0
 20
0.0
 30
0.0
  3
*Paper_Space0
  1
*Paper_Space0
  0
ENDBLK
  5
25
330
23
100
AcDbEntity
  8
0
100
AcDbBlockEnd
  0
BLOCK
  5
150
330
14F
100
AcDbEntity
  8
0
100
AcDbBlockBegin
  2
_D
 70
     0
 10
0.0
 20
0.0
 30
0.0
  3
_D
  1
_D
  0
SOLID
  5
152
330
14F
100
AcDbEntity
  8
DIM
100
AcDbTrace
 10
282.6919225573
 20
104.6254762727
 30
0.0
 11
278.3993225573
 21
105.2858762727
 31
0.0
 12
278.3993225573
 22
103.9650762727
 32
0.0
 13
278.3993225573
 23
103.9650762727
 33
0.0
  0
SOLID
  5
153
330
14F
100
AcDbEntity
  8
DIM
100
AcDbTrace
 10
303.6919225573
 20
104.6254762727
 30
0.0
 11
307.9845225573
 21
103.9650762727
 31
0.0
 12
307.9845225573
 22
105.2858762727
 32
0.0
 13
307.9845225573
 23
105.2858762727
 33
0.0
  0
LINE
  5
154
330
14F
100
AcDbEntity
  8
DIM
100
AcDbLine
 10
282.6919225573
 20
114.4100056066
 30
0.0
 11
282.6919225573
 21
103.3254762727
 31
0.0
  0
LINE
  5
155
330
14F
100
AcDbEntity
  8
DIM
100
AcDbLine
 10
303.6919225573
 20
129.7100056066
 30
0.0
 11
303.6919225573
 21
103.3254762727
 31
0.0
  0
LINE
  5
156
330
14F
100
AcDbEntity
  8
DIM
100
AcDbLine
 10
282.6919225573
 20
104.6254762727
 30
0.0
 11
274.4369225573
 21
104.6254762727
 31
0.0
  0
LINE
  5
157
330
14F
100
AcDbEntity
  8
DIM
100
AcDbLine
 10
282.6919225573
 20
104.6254762727
 30
0.0
 11
303.6919225573
 21
104.6254762727
 31
0.0
  0
LINE
  5
158
330
14F
100
AcDbEntity
  8
DIM
100
AcDbLine
 10
303.6919225573
 20
104.6254762727
 30
0.0
 11
311.9469225573
 21
104.6254762727
 31
0.0
  0
MTEXT
  5
159
330
14F
100
AcDbEntity
  8
DIM
100
AcDbMText
 10
290.6345285556
 20
109.50271808
 30
0.0
 40
3.7835416667
 41
0.0
 71
     1
 72
     1
  1
21
  7
SLDTEXTSTYLE0
 73
     1
 44
1.0
  0
ENDBLK
  5
151
330
14F
100
AcDbEntity
  8
0
100
AcDbBlockEnd
  0
BLOCK
  5
15D
330
15C
100
AcDbEntity
  8
0
100
AcDbBlockBegin
  2
_D_1
 70
     0
 10
0.0
 20
0.0
 30
0.0
  3
_D_1
  1
_D_1
  0
SOLID
  5
15F
330
15C
100
AcDbEntity
  8
DIM
100
AcDbTrace
 10
282.6919225573
 20
104.7436480537
 30
0.0
 11
278.3993225573
 21
105.4040480537
 31
0.0
 12
278.3993225573
 22
104.0832480537
 32
0.0
 13
278.3993225573
 23
104.0832480537
 33
0.0
  0
SOLID
  5
160
330
15C
100
AcDbEntity
  8
DIM
100
AcDbTrace
 10
122.6919225573
 20
104.7436480537
 30
0.0
 11
126.9845225573
 21
104.0832480537
 31
0.0
 12
126.9845225573
 22
105.4040480537
 32
0.0
 13
126.9845225573
 23
105.4040480537
 33
0.0
  0
LINE
  5
161
330
15C
100
AcDbEntity
  8
DIM
100
AcDbLine
 10
282.6919225573
 20
115.9100056066
 30
0.0
 11
282.6919225573
 21
103.4436480537
 31
0.0
  0
LINE
  5
162
330
15C
100
AcDbEntity
  8
DIM
100
AcDbLine
 10
122.6919225573
 20
120.1850056066
 30
0.0
 11
122.6919225573
 21
103.4436480537
 31
0.0
  0
LINE
  5
163
330
15C
100
AcDbEntity
  8
DIM
100
AcDbLine
 10
282.6919225573
 20
104.7436480537
 30
0.0
 11
122.6919225573
 21
104.7436480537
 31
0.0
  0
MTEXT
  5
164
330
15C
100
AcDbEntity
  8
DIM
100
AcDbMText
 10
198.8558315548
 20
109.6208898609
 30
0.0
 40
3.7835416667
 41
0.0
 71
     1
 72
     1
  1
160
  7
SLDTEXTSTYLE0
 73
     1
 44
1.0
  0
ENDBLK
  5
15E
330
15C
100
AcDbEntity
  8
0
100
AcDbBlockEnd
  0
BLOCK
  5
168
330
167
100
AcDbEntity
  8
0
100
AcDbBlockBegin
  2
_D_2
 70
     0
 10
0.0
 20
0.0
 30
0.0
  3
_D_2
  1
_D_2
  0
SOLID
  5
16A
330
167
100
AcDbEntity
  8
DIM
100
AcDbTrace
 10
43.6966649722
 20
111.9600056066
 30
0.0
 11
44.3570649722
 21
116.2526056066
 31
0.0
 12
43.0362649722
 22
116.2526056066
 32
0.0
 13
43.0362649722
 23
116.2526056066
 33
0.0
  0
SOLID
  5
16B
330
167
100
AcDbEntity
  8
DIM
100
AcDbTrace
 10
43.6966649722
 20
175.4600056066
 30
0.0
 11
43.0362649722
 21
171.1674056066
 31
0.0
 12
44.3570649722
 22
171.1674056066
 32
0.0
 13
44.3570649722
 23
171.1674056066
 33
0.0
  0
LINE
  5
16C
330
167
100
AcDbEntity
  8
DIM
100
AcDbLine
 10
125.7576079822
 20
111.9600056066
 30
0.0
 11
42.3966649722
 21
111.9600056066
 31
0.0
  0
LINE
  5
16D
330
167
100
AcDbEntity
  8
DIM
100
AcDbLine
 10
125.7576079822
 20
175.4600056066
 30
0.0
 11
42.3966649722
 21
175.4600056066
 31
0.0
  0
LINE
  5
16E
330
167
100
AcDbEntity
  8
DIM
100
AcDbLine
 10
43.6966649722
 20
111.9600056066
 30
0.0
 11
43.6966649722
 21
175.4600056066
 31
0.0
  0
MTEXT
  5
16F
330
167
100
AcDbEntity
  8
DIM
100
AcDbMText
 10
38.819423165
 20
134.9971746067
 30
0.0
 40
3.7835416667
 41
0.0
 71
     1
 72
     1
  1
%%c
  7
SLDTEXTSTYLE0
 11
6.123233995736766E-17
 21
1.0
 31
0.0
 73
     1
 44
1.0
  0
MTEXT
  5
170
330
167
100
AcDbEntity
  8
DIM
100
AcDbMText
 10
38.819423165
 20
140.8480012762
 30
0.0
 40
3.7835416667
 41
0.0
 71
     1
 72
     1
  1
63.50
  7
SLDTEXTSTYLE0
 11
6.123233995736766E-17
 21
1.0
 31
0.0
 73
     1
 44
1.0
  0
ENDBLK
  5
169
330
167
100
AcDbEntity
  8
0
100
AcDbBlockEnd
  0
BLOCK
  5
173
330
172
100
AcDbEntity
  8
0
100
AcDbBlockBegin
  2
_D_3
 70
     0
 10
0.0
 20
0.0
 30
0.0
  3
_D_3
  1
_D_3
  0
SOLID
  5
175
330
172
100
AcDbEntity
  8
DIM
100
AcDbTrace
 10
54.2919225573
 20
91.1599056066
 30
0.0
 11
58.5845225573
 21
90.4995056066
 31
0.0
 12
58.5845225573
 22
91.8203056066
 32
0.0
 13
58.5845225573
 23
91.8203056066
 33
0.0
  0
SOLID
  5
176
330
172
100
AcDbEntity
  8
DIM
100
AcDbTrace
 10
316.6919225573
 20
91.1599056066
 30
0.0
 11
312.3993225573
 21
91.8203056066
 31
0.0
 12
312.3993225573
 22
90.4995056066
 32
0.0
 13
312.3993225573
 23
90.4995056066
 33
0.0
  0
LINE
  5
177
330
172
100
AcDbEntity
  8
DIM
100
AcDbLine
 10
54.2919225573
 20
142.4100056066
 30
0.0
 11
54.2919225573
 21
89.8599056066
 31
0.0
  0
LINE
  5
178
330
172
100
AcDbEntity
  8
DIM
100
AcDbLine
 10
316.6919225573
 20
125.6100056066
 30
0.0
 11
316.6919225573
 21
89.8599056066
 31
0.0
  0
LINE
  5
179
330
172
100
AcDbEntity
  8
DIM
100
AcDbLine
 10
54.2919225573
 20
91.1599056066
 30
0.0
 11
316.6919225573
 21
91.1599056066
 31
0.0
  0
MTEXT
  5
17A
330
172
100
AcDbEntity
  8
DIM
100
AcDbMText
 10
178.4258078913
 20
96.0371474138
 30
0.0
 40
3.7835416667
 41
0.0
 71
     1
 72
     1
  1
262.40
  7
SLDTEXTSTYLE0
 73
     1
 44
1.0
  0
ENDBLK
  5
174
330
172
100
AcDbEntity
  8
0
100
AcDbBlockEnd
  0
BLOCK
  5
17D
330
17C
100
AcDbEntity
  8
0
100
AcDbBlockBegin
  2
_D_4
 70
     0
 10
0.0
 20
0.0
 30
0.0
  3
_D_4
  1
_D_4
  0
SOLID
  5
17F
330
17C
100
AcDbEntity
  8
DIM
100
AcDbTrace
 10
324.7349828165
 20
157.2100056066
 30
0.0
 11
325.3953828165
 21
161.5026056066
 31
0.0
 12
324.0745828165
 22
161.5026056066
 32
0.0
 13
324.0745828165
 23
161.5026056066
 33
0.0
  0
SOLID
  5
180
330
17C
100
AcDbEntity
  8
DIM
100
AcDbTrace
 10
324.7349828165
 20
130.2100056066
 30
0.0
 11
324.0745828165
 21
125.9174056066
 31
0.0
 12
325.3953828165
 22
125.9174056066
 32
0.0
 13
325.3953828165
 23
125.9174056066
 33
0.0
  0
LINE
  5
181
330
17C
100
AcDbEntity
  8
DIM
100
AcDbLine
 10
303.6062819112
 20
157.2100056066
 30
0.0
 11
326.0349828165
 21
157.2100056066
 31
0.0
  0
LINE
  5
182
330
17C
100
AcDbEntity
  8
DIM
100
AcDbLine
 10
303.6062819112
 20
130.2100056066
 30
0.0
 11
326.0349828165
 21
130.2100056066
 31
0.0
  0
LINE
  5
183
330
17C
100
AcDbEntity
  8
DIM
100
AcDbLine
 10
324.7349828165
 20
157.2100056066
 30
0.0
 11
324.7349828165
 21
165.4650056066
 31
0.0
  0
LINE
  5
184
330
17C
100
AcDbEntity
  8
DIM
100
AcDbLine
 10
324.7349828165
 20
157.2100056066
 30
0.0
 11
324.7349828165
 21
130.2100056066
 31
0.0
  0
LINE
  5
185
330
17C
100
AcDbEntity
  8
DIM
100
AcDbLine
 10
324.7349828165
 20
130.2100056066
 30
0.0
 11
324.7349828165
 21
121.9550056066
 31
0.0
  0
MTEXT
  5
186
330
17C
100
AcDbEntity
  8
DIM
100
AcDbMText
 10
319.8577410092
 20
138.2271982702
 30
0.0
 40
3.7835416667
 41
0.0
 71
     1
 72
     1
  1
%%c
  7
SLDTEXTSTYLE0
 11
-7.044195017643634E-15
 21
1.0
 31
0.0
 73
     1
 44
1.0
  0
MTEXT
  5
187
330
17C
100
AcDbEntity
  8
DIM
100
AcDbMText
 10
319.8577410092
 20
144.0780249397
 30
0.0
 40
3.7835416667
 41
0.0
 71
     1
 72
     1
  1
27
  7
SLDTEXTSTYLE0
 11
-7.044195017643634E-15
 21
1.0
 31
0.0
 73
     1
 44
1.0
  0
ENDBLK
  5
17E
330
17C
100
AcDbEntity
  8
0
100
AcDbBlockEnd
  0
BLOCK
  5
18A
330
189
100
AcDbEntity
  8
0
100
AcDbBlockBegin
  2
_D_5
 70
     0
 10
0.0
 20
0.0
 30
0.0
  3
_D_5
  1
_D_5
  0
SOLID
  5
18C
330
189
100
AcDbEntity
  8
DIM
100
AcDbTrace
 10
333.0948395872
 20
172.7100056066
 30
0.0
 11
332.4344395872
 21
168.4174056066
 31
0.0
 12
333.7552395872
 22
168.4174056066
 32
0.0
 13
333.7552395872
 23
168.4174056066
 33
0.0
  0
SOLID
  5
18D
330
189
100
AcDbEntity
  8
DIM
100
AcDbTrace
 10
333.0948395872
 20
114.7100056066
 30
0.0
 11
333.7552395872
 21
119.0026056066
 31
0.0
 12
332.4344395872
 22
119.0026056066
 32
0.0
 13
332.4344395872
 23
119.0026056066
 33
0.0
  0
LINE
  5
18E
330
189
100
AcDbEntity
  8
DIM
100
AcDbLine
 10
282.9919225573
 20
172.7100056066
 30
0.0
 11
334.3948395872
 21
172.7100056066
 31
0.0
  0
LINE
  5
18F
330
189
100
AcDbEntity
  8
DIM
100
AcDbLine
 10
282.9919225573
 20
114.7100056066
 30
0.0
 11
334.3948395872
 21
114.7100056066
 31
0.0
  0
LINE
  5
190
330
189
100
AcDbEntity
  8
DIM
100
AcDbLine
 10
333.0948395872
 20
172.7100056066
 30
0.0
 11
333.0948395872
 21
114.7100056066
 31
0.0
  0
MTEXT
  5
191
330
189
100
AcDbEntity
  8
DIM
100
AcDbMText
 10
328.21759778
 20
138.2271982702
 30
0.0
 40
3.7835416667
 41
0.0
 71
     1
 72
     1
  1
%%c
  7
SLDTEXTSTYLE0
 11
-7.044195017643634E-15
 21
1.0
 31
0.0
 73
     1
 44
1.0
  0
MTEXT
  5
192
330
189
100
AcDbEntity
  8
DIM
100
AcDbMText
 10
328.21759778
 20
144.0780249397
 30
0.0
 40
3.7835416667
 41
0.0
 71
     1
 72
     1
  1
58
  7
SLDTEXTSTYLE0
 11
-7.044195017643634E-15
 21
1.0
 31
0.0
 73
     1
 44
1.0
  0
ENDBLK
  5
18B
330
189
100
AcDbEntity
  8
0
100
AcDbBlockEnd
  0
ENDSEC
  0
SECTION
  2
ENTITIES
  0
LINE
  5
76
330
1F
100
AcDbEntity
  8
DIM
100
AcDbLine
 10
136.1157520957
 20
12.7282888939
 30
0.0
 11
136.1157520957
 21
6.2282888939
 31
0.0
  0
LINE
  5
77
330
1F
100
AcDbEntity
  8
DIM
100
AcDbLine
 10
330.8104822039
 20
12.7282888939
 30
0.0
 11
330.8104822039
 21
6.2282888939
 31
0.0
  0
LINE
  5
78
330
1F
100
AcDbEntity
  8
DIM
100
AcDbLine
 10
308.6872229111
 20
12.7282888939
 30
0.0
 11
308.6872229111
 21
6.2282888939
 31
0.0
  0
LINE
  5
79
330
1F
100
AcDbEntity
  8
DIM
100
AcDbLine
 10
362.5757520957
 20
6.2282888939
 30
0.0
 11
362.5757520957
 21
12.7282888939
 31
0.0
  0
LINE
  5
7A
330
1F
100
AcDbEntity
  8
DIM
100
AcDbLine
 10
146.2557520957
 20
12.7282888939
 30
0.0
 11
146.2557520957
 21
6.2282888939
 31
0.0
  0
LINE
  5
7B
330
1F
100
AcDbEntity
  8
DIM
100
AcDbLine
 10
171.2039902596
 20
12.7282888939
 30
0.0
 11
171.2039902596
 21
6.2282888939
 31
0.0
  0
LINE
  5
7C
330
1F
100
AcDbEntity
  8
DIM
100
AcDbLine
 10
379.4757520957
 20
6.2282888939
 30
0.0
 11
379.4757520957
 21
100.1532888939
 31
0.0
  0
LINE
  5
7D
330
1F
100
AcDbEntity
  8
DIM
100
AcDbLine
 10
371.5647061031
 20
78.0532888939
 30
0.0
 11
379.4757520957
 21
78.0532888939
 31
0.0
  0
LINE
  5
7E
330
1F
100
AcDbEntity
  8
DIM
100
AcDbLine
 10
193.8343561083
 20
11.7532888939
 30
0.0
 11
193.8343561083
 21
6.2282888939
 31
0.0
  0
LINE
  5
7F
330
1F
100
AcDbEntity
  8
DIM
100
AcDbLine
 10
255.7931339086
 20
12.7282888939
 30
0.0
 11
255.7931339086
 21
6.2282888939
 31
0.0
  0
LINE
  5
80
330
1F
100
AcDbEntity
  8
DIM
100
AcDbLine
 10
193.8343561083
 20
12.7282888939
 30
0.0
 11
193.8343561083
 21
11.7532888939
 31
0.0
  0
LINE
  5
81
330
1F
100
AcDbEntity
  8
DIM
100
AcDbLine
 10
372.9757520957
 20
22.8031952939
 30
0.0
 11
379.4757520957
 21
22.8031952939
 31
0.0
  0
LINE
  5
82
330
1F
100
AcDbEntity
  8
DIM
100
AcDbLine
 10
372.9757520957
 20
259.7282888939
 30
0.0
 11
12.8757520957
 21
259.7282888939
 31
0.0
  0
LINE
  5
83
330
1F
100
AcDbEntity
  8
DIM
100
AcDbLine
 10
379.4757520957
 20
266.2282888939
 30
0.0
 11
6.3757520957
 21
266.2282888939
 31
0.0
  0
LINE
  5
84
330
1F
100
AcDbEntity
  8
DIM
100
AcDbLine
 10
12.8757520957
 20
259.7282888939
 30
0.0
 11
12.8757520957
 21
12.7282888939
 31
0.0
  0
LINE
  5
85
330
1F
100
AcDbEntity
  8
DIM
100
AcDbLine
 10
6.3757520957
 20
266.2282888939
 30
0.0
 11
6.3757520957
 21
6.2282888939
 31
0.0
  0
LINE
  5
86
330
1F
100
AcDbEntity
  8
DIM
100
AcDbLine
 10
12.8757520957
 20
71.2282888939
 30
0.0
 11
6.3757520957
 21
71.2282888939
 31
0.0
  0
LINE
  5
87
330
1F
100
AcDbEntity
  8
DIM
100
AcDbLine
 10
6.3757520957
 20
136.2282888939
 30
0.0
 11
12.8757520957
 21
136.2282888939
 31
0.0
  0
LINE
  5
88
330
1F
100
AcDbEntity
  8
DIM
100
AcDbLine
 10
6.3757520957
 20
6.2282888939
 30
0.0
 11
379.4757520957
 21
6.2282888939
 31
0.0
  0
LINE
  5
89
330
1F
100
AcDbEntity
  8
DIM
100
AcDbLine
 10
12.8757520957
 20
12.7282888939
 30
0.0
 11
379.4757520957
 21
12.7282888939
 31
0.0
  0
LINE
  5
8A
330
1F
100
AcDbEntity
  8
DIM
100
AcDbLine
 10
62.9257520957
 20
6.2282888939
 30
0.0
 11
62.9257520957
 21
12.7282888939
 31
0.0
  0
LINE
  5
8B
330
1F
100
AcDbEntity
  8
DIM
100
AcDbLine
 10
127.9257520957
 20
12.7282888939
 30
0.0
 11
127.9257520957
 21
6.2282888939
 31
0.0
  0
LINE
  5
8C
330
1F
100
AcDbEntity
  8
DIM
100
AcDbLine
 10
12.8757520957
 20
201.2282888939
 30
0.0
 11
6.3757520957
 21
201.2282888939
 31
0.0
  0
LINE
  5
8D
330
1F
100
AcDbEntity
  8
DIM
100
AcDbLine
 10
62.9257520957
 20
259.7282888939
 30
0.0
 11
62.9257520957
 21
266.2282888939
 31
0.0
  0
LINE
  5
8E
330
1F
100
AcDbEntity
  8
DIM
100
AcDbLine
 10
127.9257520957
 20
266.2282888939
 30
0.0
 11
127.9257520957
 21
259.7282888939
 31
0.0
  0
LINE
  5
8F
330
1F
100
AcDbEntity
  8
DIM
100
AcDbLine
 10
192.9257520957
 20
266.2282888939
 30
0.0
 11
192.9257520957
 21
259.7282888939
 31
0.0
  0
LINE
  5
90
330
1F
100
AcDbEntity
  8
DIM
100
AcDbLine
 10
372.9757520957
 20
12.7282888939
 30
0.0
 11
372.9757520957
 21
259.7282888939
 31
0.0
  0
LINE
  5
91
330
1F
100
AcDbEntity
  8
DIM
100
AcDbLine
 10
379.4757520957
 20
100.1532888939
 30
0.0
 11
379.4757520957
 21
266.2282888939
 31
0.0
  0
LINE
  5
92
330
1F
100
AcDbEntity
  8
DIM
100
AcDbLine
 10
379.4757520957
 20
136.2282888939
 30
0.0
 11
372.9757520957
 21
136.2282888939
 31
0.0
  0
LINE
  5
93
330
1F
100
AcDbEntity
  8
DIM
100
AcDbLine
 10
257.9257520957
 20
266.2282888939
 30
0.0
 11
257.9257520957
 21
259.7282888939
 31
0.0
  0
LINE
  5
94
330
1F
100
AcDbEntity
  8
DIM
100
AcDbLine
 10
322.9257520957
 20
259.7282888939
 30
0.0
 11
322.9257520957
 21
266.2282888939
 31
0.0
  0
LINE
  5
95
330
1F
100
AcDbEntity
  8
DIM
100
AcDbLine
 10
372.9757520957
 20
201.2282888939
 30
0.0
 11
379.4757520957
 21
201.2282888939
 31
0.0
  0
MTEXT
  5
97
330
1F
100
AcDbEntity
  8
DIM
100
AcDbMText
 10
20.9685714825
 20
252.0284640891
 30
0.0
 40
5.5033333333
 41
0.0
 71
     1
 72
     1
  1
SK 40 FMH27 160 AD/6.3G15000 SL SP.S
  7
SLDTEXTSTYLE0
 73
     1
 44
1.0
  0
MTEXT
  5
99
330
1F
100
AcDbEntity
  8
DIM
 62
     7
100
AcDbMText
 10
257.0526122406
 20
10.1425369842
 30
0.0
 40
1.94818
 41
0.0
 71
     1
 72
     1
  1
WEIGHT:
  7
SLDTEXTSTYLE1
 73
     1
 44
1.0
  0
MTEXT
  5
9A
330
1F
100
AcDbEntity
  8
DIM
 62
     7
100
AcDbMText
 10
375.1761997812
 20
106.5227975607
 30
0.0
 40
2.4077083333
 41
0.0
 71
     1
 72
     1
  1
C
  7
SLDTEXTSTYLE1
 73
     1
 44
1.0
  0
MTEXT
  5
9B
330
1F
100
AcDbEntity
  8
DIM
 62
     7
100
AcDbMText
 10
367.9566548053
 20
19.3101765787
 30
0.0
 40
3.7835416667
 41
0.0
 71
     1
 72
     1
  1
A4
  7
SLDTEXTSTYLE1
 73
     1
 44
1.0
  0
MTEXT
  5
9C
330
1F
100
AcDbEntity
  8
DIM
 62
     7
100
AcDbMText
 10
354.3424239624
 20
264.4967102185
 30
0.0
 40
2.4077083333
 41
0.0
 71
     1
 72
     1
  1
6
  7
SLDTEXTSTYLE1
 73
     1
 44
1.0
  0
MTEXT
  5
9D
330
1F
100
AcDbEntity
  8
DIM
 62
     7
100
AcDbMText
 10
289.3424239624
 20
264.4967102185
 30
0.0
 40
2.4077083333
 41
0.0
 71
     1
 72
     1
  1
5
  7
SLDTEXTSTYLE1
 73
     1
 44
1.0
  0
MTEXT
  5
9E
330
1F
100
AcDbEntity
  8
DIM
 62
     7
100
AcDbMText
 10
375.1424291624
 20
235.2467102185
 30
0.0
 40
2.4077083333
 41
0.0
 71
     1
 72
     1
  1
A
  7
SLDTEXTSTYLE1
 73
     1
 44
1.0
  0
MTEXT
  5
9F
330
1F
100
AcDbEntity
  8
DIM
 62
     7
100
AcDbMText
 10
375.1424291624
 20
170.2467102185
 30
0.0
 40
2.4077083333
 41
0.0
 71
     1
 72
     1
  1
B
  7
SLDTEXTSTYLE1
 73
     1
 44
1.0
  0
MTEXT
  5
A0
330
1F
100
AcDbEntity
  8
DIM
 62
     7
100
AcDbMText
 10
224.3424239624
 20
264.4967102185
 30
0.0
 40
2.4077083333
 41
0.0
 71
     1
 72
     1
  1
4
  7
SLDTEXTSTYLE1
 73
     1
 44
1.0
  0
MTEXT
  5
A1
330
1F
100
AcDbEntity
  8
DIM
 62
     7
100
AcDbMText
 10
29.884090629
 20
264.4967102185
 30
0.0
 40
2.4077083333
 41
0.0
 71
     1
 72
     1
  1
1
  7
SLDTEXTSTYLE1
 73
     1
 44
1.0
  0
MTEXT
  5
A2
330
1F
100
AcDbEntity
  8
DIM
 62
     7
100
AcDbMText
 10
94.3424239624
 20
264.4967102185
 30
0.0
 40
2.4077083333
 41
0.0
 71
     1
 72
     1
  1
2
  7
SLDTEXTSTYLE1
 73
     1
 44
1.0
  0
MTEXT
  5
A3
330
1F
100
AcDbEntity
  8
DIM
 62
     7
100
AcDbMText
 10
159.3424239624
 20
264.4967102185
 30
0.0
 40
2.4077083333
 41
0.0
 71
     1
 72
     1
  1
3
  7
SLDTEXTSTYLE1
 73
     1
 44
1.0
  0
MTEXT
  5
A4
330
1F
100
AcDbEntity
  8
DIM
 62
     7
100
AcDbMText
 10
8.5424187624
 20
235.2467102185
 30
0.0
 40
2.4077083333
 41
0.0
 71
     1
 72
     1
  1
A
  7
SLDTEXTSTYLE1
 73
     1
 44
1.0
  0
MTEXT
  5
A5
330
1F
100
AcDbEntity
  8
DIM
 62
     7
100
AcDbMText
 10
94.3424239624
 20
10.9967102185
 30
0.0
 40
2.4077083333
 41
0.0
 71
     1
 72
     1
  1
2
  7
SLDTEXTSTYLE1
 73
     1
 44
1.0
  0
MTEXT
  5
A6
330
1F
100
AcDbEntity
  8
DIM
 62
     7
100
AcDbMText
 10
29.884090629
 20
10.9967102185
 30
0.0
 40
2.4077083333
 41
0.0
 71
     1
 72
     1
  1
1
  7
SLDTEXTSTYLE1
 73
     1
 44
1.0
  0
MTEXT
  5
A7
330
1F
100
AcDbEntity
  8
DIM
 62
     7
100
AcDbMText
 10
8.5424187624
 20
40.2467102185
 30
0.0
 40
2.4077083333
 41
0.0
 71
     1
 72
     1
  1
D
  7
SLDTEXTSTYLE1
 73
     1
 44
1.0
  0
MTEXT
  5
A8
330
1F
100
AcDbEntity
  8
DIM
 62
     7
100
AcDbMText
 10
8.5424187624
 20
105.2467102185
 30
0.0
 40
2.4077083333
 41
0.0
 71
     1
 72
     1
  1
C
  7
SLDTEXTSTYLE1
 73
     1
 44
1.0
  0
MTEXT
  5
A9
330
1F
100
AcDbEntity
  8
DIM
 62
     7
100
AcDbMText
 10
8.5424187624
 20
170.2467102185
 30
0.0
 40
2.4077083333
 41
0.0
 71
     1
 72
     1
  1
B
  7
SLDTEXTSTYLE1
 73
     1
 44
1.0
  0
MTEXT
  5
AA
330
1F
100
AcDbEntity
  8
DIM
 62
     7
100
AcDbMText
 10
375.1761997812
 20
106.5227975607
 30
0.0
 40
2.4077083333
 41
0.0
 71
     1
 72
     1
  1
C
  7
SLDTEXTSTYLE1
 73
     1
 44
1.0
  0
MTEXT
  5
AC
330
1F
100
AcDbEntity
  8
DIM
 62
     7
100
AcDbMText
 10
333.4829755563
 20
9.9984023508
 30
0.0
 40
1.95
 41
0.0
 71
     1
 72
     1
  1
SHEET 1 OF 1
  7
SLDTEXTSTYLE2
 73
     1
 44
1.0
  0
MTEXT
  5
AD
330
1F
100
AcDbEntity
  8
DIM
 62
     7
100
AcDbMText
 10
195.4833144985
 20
10.2093777287
 30
0.0
 40
1.95
 41
0.0
 71
     1
 72
     1
  1
MATERIAL:
  7
SLDTEXTSTYLE1
 73
     1
 44
1.0
  0
MTEXT
  5
AE
330
1F
100
AcDbEntity
  8
DIM
 62
     7
100
AcDbMText
 10
354.3424239624
 20
264.4967102185
 30
0.0
 40
2.4077083333
 41
0.0
 71
     1
 72
     1
  1
6
  7
SLDTEXTSTYLE1
 73
     1
 44
1.0
  0
MTEXT
  5
AF
330
1F
100
AcDbEntity
  8
DIM
 62
     7
100
AcDbMText
 10
289.3424239624
 20
264.4967102185
 30
0.0
 40
2.4077083333
 41
0.0
 71
     1
 72
     1
  1
5
  7
SLDTEXTSTYLE1
 73
     1
 44
1.0
  0
MTEXT
  5
B0
330
1F
100
AcDbEntity
  8
DIM
 62
     7
100
AcDbMText
 10
375.1424291624
 20
235.2467102185
 30
0.0
 40
2.4077083333
 41
0.0
 71
     1
 72
     1
  1
A
  7
SLDTEXTSTYLE1
 73
     1
 44
1.0
  0
MTEXT
  5
B1
330
1F
100
AcDbEntity
  8
DIM
 62
     7
100
AcDbMText
 10
375.1424291624
 20
170.2467102185
 30
0.0
 40
2.4077083333
 41
0.0
 71
     1
 72
     1
  1
B
  7
SLDTEXTSTYLE1
 73
     1
 44
1.0
  0
MTEXT
  5
B2
330
1F
100
AcDbEntity
  8
DIM
 62
     7
100
AcDbMText
 10
224.3424239624
 20
264.4967102185
 30
0.0
 40
2.4077083333
 41
0.0
 71
     1
 72
     1
  1
4
  7
SLDTEXTSTYLE1
 73
     1
 44
1.0
  0
MTEXT
  5
B3
330
1F
100
AcDbEntity
  8
DIM
 62
     7
100
AcDbMText
 10
29.884090629
 20
264.4967102185
 30
0.0
 40
2.4077083333
 41
0.0
 71
     1
 72
     1
  1
1
  7
SLDTEXTSTYLE1
 73
     1
 44
1.0
  0
MTEXT
  5
B4
330
1F
100
AcDbEntity
  8
DIM
 62
     7
100
AcDbMText
 10
94.3424239624
 20
264.4967102185
 30
0.0
 40
2.4077083333
 41
0.0
 71
     1
 72
     1
  1
2
  7
SLDTEXTSTYLE1
 73
     1
 44
1.0
  0
MTEXT
  5
B5
330
1F
100
AcDbEntity
  8
DIM
 62
     7
100
AcDbMText
 10
159.3424239624
 20
264.4967102185
 30
0.0
 40
2.4077083333
 41
0.0
 71
     1
 72
     1
  1
3
  7
SLDTEXTSTYLE1
 73
     1
 44
1.0
  0
MTEXT
  5
B6
330
1F
100
AcDbEntity
  8
DIM
 62
     7
100
AcDbMText
 10
8.5424187624
 20
235.2467102185
 30
0.0
 40
2.4077083333
 41
0.0
 71
     1
 72
     1
  1
A
  7
SLDTEXTSTYLE1
 73
     1
 44
1.0
  0
MTEXT
  5
B7
330
1F
100
AcDbEntity
  8
DIM
 62
     7
100
AcDbMText
 10
94.3424239624
 20
10.9967102185
 30
0.0
 40
2.4077083333
 41
0.0
 71
     1
 72
     1
  1
2
  7
SLDTEXTSTYLE1
 73
     1
 44
1.0
  0
MTEXT
  5
B8
330
1F
100
AcDbEntity
  8
DIM
 62
     7
100
AcDbMText
 10
29.884090629
 20
10.9967102185
 30
0.0
 40
2.4077083333
 41
0.0
 71
     1
 72
     1
  1
1
  7
SLDTEXTSTYLE1
 73
     1
 44
1.0
  0
MTEXT
  5
B9
330
1F
100
AcDbEntity
  8
DIM
 62
     7
100
AcDbMText
 10
8.5424187624
 20
40.2467102185
 30
0.0
 40
2.4077083333
 41
0.0
 71
     1
 72
     1
  1
D
  7
SLDTEXTSTYLE1
 73
     1
 44
1.0
  0
MTEXT
  5
BA
330
1F
100
AcDbEntity
  8
DIM
 62
     7
100
AcDbMText
 10
8.5424187624
 20
105.2467102185
 30
0.0
 40
2.4077083333
 41
0.0
 71
     1
 72
     1
  1
C
  7
SLDTEXTSTYLE1
 73
     1
 44
1.0
  0
MTEXT
  5
BB
330
1F
100
AcDbEntity
  8
DIM
 62
     7
100
AcDbMText
 10
8.5424187624
 20
170.2467102185
 30
0.0
 40
2.4077083333
 41
0.0
 71
     1
 72
     1
  1
B
  7
SLDTEXTSTYLE1
 73
     1
 44
1.0
  0
LINE
  5
BC
330
1F
100
AcDbEntity
  8
0
  6
Continuous
 62
     7
370
    15
100
AcDbLine
 10
137.3137591993
 20
111.9600056066
 30
0.0
 11
140.6262371323
 21
111.9600056066
 31
0.0
  0
LINE
  5
BD
330
1F
100
AcDbEntity
  8
0
  6
Continuous
 62
     7
370
    15
100
AcDbLine
 10
140.6262371323
 20
175.4600056066
 30
0.0
 11
137.3137591993
 21
175.4600056066
 31
0.0
  0
LINE
  5
BE
330
1F
100
AcDbEntity
  8
0
  6
Continuous
 62
     7
370
    15
100
AcDbLine
 10
137.3137591993
 20
175.4600056066
 30
0.0
 11
135.6919225573
 21
172.650902141
 31
0.0
  0
LINE
  5
BF
330
1F
100
AcDbEntity
  8
0
  6
Continuous
 62
     7
370
    15
100
AcDbLine
 10
135.6919225573
 20
114.7691090722
 30
0.0
 11
137.3137591993
 21
111.9600056066
 31
0.0
  0
LINE
  5
C0
330
1F
100
AcDbEntity
  8
0
  6
Continuous
 62
     7
370
    15
100
AcDbLine
 10
130.2700859152
 20
111.9600056066
 30
0.0
 11
131.8919225573
 21
114.7691090722
 31
0.0
  0
LINE
  5
C1
330
1F
100
AcDbEntity
  8
0
  6
Continuous
 62
     7
370
    15
100
AcDbLine
 10
131.8919225573
 20
172.650902141
 30
0.0
 11
130.2700859152
 21
175.4600056066
 31
0.0
  0
LINE
  5
C2
330
1F
100
AcDbEntity
  8
0
  6
Continuous
 62
     7
370
    15
100
AcDbLine
 10
127.0576079822
 20
111.9600056066
 30
0.0
 11
130.2700859152
 21
111.9600056066
 31
0.0
  0
LINE
  5
C3
330
1F
100
AcDbEntity
  8
0
  6
Continuous
 62
     7
370
    15
100
AcDbLine
 10
130.2700859152
 20
175.4600056066
 30
0.0
 11
127.0576079822
 21
175.4600056066
 31
0.0
  0
LINE
  5
C4
330
1F
100
AcDbEntity
  8
0
  6
Continuous
 62
     7
370
    15
100
AcDbLine
 10
140.9090798448
 20
112.0771628941
 30
0.0
 11
141.6747652698
 21
112.842848319
 31
0.0
  0
LINE
  5
C5
330
1F
100
AcDbEntity
  8
0
  6
Continuous
 62
     7
370
    15
100
AcDbLine
 10
141.6747652698
 20
174.5771628941
 30
0.0
 11
140.9090798448
 21
175.342848319
 31
0.0
  0
LINE
  5
C6
330
1F
100
AcDbEntity
  8
0
  6
Continuous
 62
     7
370
    15
100
AcDbLine
 10
126.7747652698
 20
175.342848319
 30
0.0
 11
126.0090798448
 21
174.5771628941
 31
0.0
  0
LINE
  5
C7
330
1F
100
AcDbEntity
  8
0
  6
Continuous
 62
     7
370
    15
100
AcDbLine
 10
126.0090798448
 20
112.842848319
 30
0.0
 11
126.7747652698
 21
112.0771628941
 31
0.0
  0
ARC
  5
C8
330
1F
100
AcDbEntity
  8
0
  6
Continuous
 62
     7
370
    15
100
AcDbCircle
 10
140.6262371323
 20
112.3600056066
 30
0.0
 40
0.3999999999999915
100
AcDbArc
 50
270.0
 51
315.0
  0
ARC
  5
C9
330
1F
100
AcDbEntity
  8
0
  6
Continuous
 62
     7
370
    15
100
AcDbCircle
 10
127.0576079822
 20
112.3600056066
 30
0.0
 40
0.3999999999999915
100
AcDbArc
 50
225.0
 51
270.0
  0
ARC
  5
CA
330
1F
100
AcDbEntity
  8
0
  6
Continuous
 62
     7
370
    15
100
AcDbCircle
 10
140.6262371323
 20
175.0600056066
 30
0.0
 40
0.4000000000000057
100
AcDbArc
 50
45.0
 51
90.0
  0
ARC
  5
CB
330
1F
100
AcDbEntity
  8
0
  6
Continuous
 62
     7
370
    15
100
AcDbCircle
 10
127.0576079822
 20
175.0600056066
 30
0.0
 40
0.4000000000000057
100
AcDbArc
 50
90.0
 51
135.0
  0
ARC
  5
CC
330
1F
100
AcDbEntity
  8
0
  6
Continuous
 62
     7
370
    15
100
AcDbCircle
 10
141.3919225573
 20
113.1256910315
 30
0.0
 40
0.4000000000000193
100
AcDbArc
 50
315.0
 51
0.0
  0
ARC
  5
CD
330
1F
100
AcDbEntity
  8
0
  6
Continuous
 62
     7
370
    15
100
AcDbCircle
 10
141.3919225573
 20
174.2943201816
 30
0.0
 40
0.4000000000000193
100
AcDbArc
 50
0.0
 51
45.0
  0
ARC
  5
CE
330
1F
100
AcDbEntity
  8
0
  6
Continuous
 62
     7
370
    15
100
AcDbCircle
 10
126.2919225573
 20
113.1256910315
 30
0.0
 40
0.3999999999999992
100
AcDbArc
 50
180.0
 51
225.0
  0
ARC
  5
CF
330
1F
100
AcDbEntity
  8
0
  6
Continuous
 62
     7
370
    15
100
AcDbCircle
 10
126.2919225573
 20
174.2943201816
 30
0.0
 40
0.4000000000000093
100
AcDbArc
 50
135.0
 51
180.0
  0
LINE
  5
D0
330
1F
100
AcDbEntity
  8
0
  6
Continuous
 62
     7
370
    15
100
AcDbLine
 10
281.6919225573
 20
114.7100056066
 30
0.0
 11
282.6919225573
 21
115.7100056066
 31
0.0
  0
LINE
  5
D1
330
1F
100
AcDbEntity
  8
0
  6
Continuous
 62
     7
370
    15
100
AcDbLine
 10
282.6919225573
 20
171.7100056066
 30
0.0
 11
281.6919225573
 21
172.7100056066
 31
0.0
  0
LINE
  5
D2
330
1F
100
AcDbEntity
  8
0
  6
Continuous
 62
     7
370
    15
100
AcDbLine
 10
168.2919225573
 20
114.7100056066
 30
0.0
 11
281.6919225573
 21
114.7100056066
 31
0.0
  0
LINE
  5
D3
330
1F
100
AcDbEntity
  8
0
  6
Continuous
 62
     7
370
    15
100
AcDbLine
 10
281.6919225573
 20
172.7100056066
 30
0.0
 11
168.2919225573
 21
172.7100056066
 31
0.0
  0
LINE
  5
D4
330
1F
100
AcDbEntity
  8
0
  6
Continuous
 62
     7
370
    15
100
AcDbLine
 10
168.2919225573
 20
172.7100056066
 30
0.0
 11
158.641641415
 21
168.2100056066
 31
0.0
  0
LINE
  5
D5
330
1F
100
AcDbEntity
  8
0
  6
Continuous
 62
     7
370
    15
100
AcDbLine
 10
158.641641415
 20
119.2100056066
 30
0.0
 11
168.2919225573
 21
114.7100056066
 31
0.0
  0
LINE
  5
D6
330
1F
100
AcDbEntity
  8
0
  6
Continuous
 62
     7
370
    15
100
AcDbLine
 10
131.8919225573
 20
115.7100056066
 30
0.0
 11
135.6919225573
 21
115.7100056066
 31
0.0
  0
LINE
  5
D7
330
1F
100
AcDbEntity
  8
0
  6
Continuous
 62
     7
370
    15
100
AcDbLine
 10
135.6919225573
 20
171.7100056066
 30
0.0
 11
131.8919225573
 21
171.7100056066
 31
0.0
  0
LINE
  5
D8
330
1F
100
AcDbEntity
  8
0
  6
Continuous
 62
     7
370
    15
100
AcDbLine
 10
141.7919225573
 20
119.2100056066
 30
0.0
 11
158.641641415
 21
119.2100056066
 31
0.0
  0
LINE
  5
D9
330
1F
100
AcDbEntity
  8
0
  6
Continuous
 62
     7
370
    15
100
AcDbLine
 10
158.641641415
 20
168.2100056066
 30
0.0
 11
141.7919225573
 21
168.2100056066
 31
0.0
  0
ARC
  5
DA
330
1F
100
AcDbEntity
  8
0
  6
Continuous
 62
     7
370
    15
100
AcDbCircle
 10
125.3919225573
 20
121.2100056066
 30
0.0
 40
0.5
100
AcDbArc
 50
0.0
 51
90.0
  0
ARC
  5
DB
330
1F
100
AcDbEntity
  8
0
  6
Continuous
 62
     7
370
    15
100
AcDbCircle
 10
125.3919225573
 20
166.2100056066
 30
0.0
 40
0.5
100
AcDbArc
 50
270.0
 51
0.0
  0
LINE
  5
DC
330
1F
100
AcDbEntity
  8
0
  6
Continuous
 62
     7
370
    15
100
AcDbLine
 10
122.6919225573
 20
165.9350056066
 30
0.0
 11
55.14761433
 21
156.0847009827
 31
0.0
  0
LINE
  5
DD
330
1F
100
AcDbEntity
  8
0
  6
Continuous
 62
     7
370
    15
100
AcDbLine
 10
55.14761433
 20
131.3353102305
 30
0.0
 11
122.6919225573
 21
121.4850056066
 31
0.0
  0
LINE
  5
DE
330
1F
100
AcDbEntity
  8
0
  6
Continuous
 62
     7
370
    15
100
AcDbLine
 10
122.6919225573
 20
121.4850056066
 30
0.0
 11
123.1744366144
 21
121.7100056066
 31
0.0
  0
LINE
  5
DF
330
1F
100
AcDbEntity
  8
0
  6
Continuous
 62
     7
370
    15
100
AcDbLine
 10
123.1744366144
 20
165.7100056066
 30
0.0
 11
122.6919225573
 21
165.9350056066
 31
0.0
  0
LINE
  5
E0
330
1F
100
AcDbEntity
  8
0
  6
Continuous
 62
     7
370
    15
100
AcDbLine
 10
123.1744366144
 20
121.7100056066
 30
0.0
 11
125.3919225573
 21
121.7100056066
 31
0.0
  0
LINE
  5
E1
330
1F
100
AcDbEntity
  8
0
  6
Continuous
 62
     7
370
    15
100
AcDbLine
 10
125.3919225573
 20
165.7100056066
 30
0.0
 11
123.1744366144
 21
165.7100056066
 31
0.0
  0
LINE
  5
E2
330
1F
100
AcDbEntity
  8
0
  6
Continuous
 62
     7
370
    15
100
AcDbLine
 10
308.3919225573
 20
126.2100056066
 30
0.0
 11
315.9919225573
 21
126.2100056066
 31
0.0
  0
LINE
  5
E3
330
1F
100
AcDbEntity
  8
0
  6
Continuous
 62
     7
370
    15
100
AcDbLine
 10
315.9919225573
 20
161.2100056066
 30
0.0
 11
308.3919225573
 21
161.2100056066
 31
0.0
  0
LINE
  5
E4
330
1F
100
AcDbEntity
  8
0
  6
Continuous
 62
     7
370
    15
100
AcDbLine
 10
315.9919225573
 20
126.2100056066
 30
0.0
 11
316.6919225573
 21
126.9100056066
 31
0.0
  0
LINE
  5
E5
330
1F
100
AcDbEntity
  8
0
  6
Continuous
 62
     7
370
    15
100
AcDbLine
 10
316.6919225573
 20
160.5100056066
 30
0.0
 11
315.9919225573
 21
161.2100056066
 31
0.0
  0
LINE
  5
E6
330
1F
100
AcDbEntity
  8
0
  6
Continuous
 62
     7
370
    15
100
AcDbLine
 10
308.3919225573
 20
161.2100056066
 30
0.0
 11
307.6919225573
 21
160.5100056066
 31
0.0
  0
LINE
  5
E7
330
1F
100
AcDbEntity
  8
0
  6
Continuous
 62
     7
370
    15
100
AcDbLine
 10
307.6919225573
 20
126.9100056066
 30
0.0
 11
308.3919225573
 21
126.2100056066
 31
0.0
  0
LINE
  5
E8
330
1F
100
AcDbEntity
  8
0
  6
Continuous
 62
     7
370
    15
100
AcDbLine
 10
302.3062819112
 20
130.2100056066
 30
0.0
 11
303.6919225573
 21
131.0100056066
 31
0.0
  0
LINE
  5
E9
330
1F
100
AcDbEntity
  8
0
  6
Continuous
 62
     7
370
    15
100
AcDbLine
 10
303.6919225573
 20
156.4100056066
 30
0.0
 11
302.3062819112
 21
157.2100056066
 31
0.0
  0
LINE
  5
EA
330
1F
100
AcDbEntity
  8
0
  6
Continuous
 62
     7
370
    15
100
AcDbLine
 10
282.6919225573
 20
130.2100056066
 30
0.0
 11
302.3062819112
 21
130.2100056066
 31
0.0
  0
LINE
  5
EB
330
1F
100
AcDbEntity
  8
0
  6
Continuous
 62
     7
370
    15
100
AcDbLine
 10
302.3062819112
 20
157.2100056066
 30
0.0
 11
282.6919225573
 21
157.2100056066
 31
0.0
  0
ARC
  5
EC
330
1F
100
AcDbEntity
  8
0
  6
Continuous
 62
     7
370
    15
100
AcDbCircle
 10
55.2919225573
 20
132.324843017
 30
0.0
 40
1.0
100
AcDbArc
 50
180.0
 51
261.7027777778
  0
ARC
  5
ED
330
1F
100
AcDbEntity
  8
0
  6
Continuous
 62
     7
370
    15
100
AcDbCircle
 10
55.2919225573
 20
155.0951681962
 30
0.0
 40
1.000000000000018
100
AcDbArc
 50
98.2972222222
 51
180.0
  0
ARC
  5
EE
330
1F
100
AcDbEntity
  8
0
  6
Continuous
 62
     7
370
    15
100
AcDbCircle
 10
307.1919225573
 20
137.2100056066
 30
0.0
 40
0.5
100
AcDbArc
 50
0.0
 51
90.0
  0
ARC
  5
EF
330
1F
100
AcDbEntity
  8
0
  6
Continuous
 62
     7
370
    15
100
AcDbCircle
 10
307.1919225573
 20
150.2100056066
 30
0.0
 40
0.5
100
AcDbArc
 50
270.0
 51
0.0
  0
LINE
  5
F0
330
1F
100
AcDbEntity
  8
0
  6
Continuous
 62
     7
370
    15
100
AcDbLine
 10
303.6919225573
 20
137.7100056066
 30
0.0
 11
307.1919225573
 21
137.7100056066
 31
0.0
  0
LINE
  5
F1
330
1F
100
AcDbEntity
  8
0
  6
Continuous
 62
     7
370
    15
100
AcDbLine
 10
307.1919225573
 20
149.7100056066
 30
0.0
 11
303.6919225573
 21
149.7100056066
 31
0.0
  0
LINE
  5
F2
330
1F
100
AcDbEntity
  8
0
  6
Continuous
 62
     7
370
    15
100
AcDbLine
 10
140.9090798448
 20
135.204610053
 30
0.0
 11
140.9090798448
 21
152.2154011602
 31
0.0
  0
SPLINE
  5
F3
330
1F
100
AcDbEntity
  8
0
  6
Continuous
 62
     7
370
    15
100
AcDbSpline
210
0.0
220
0.0
230
1.0
 70
     8
 71
     3
 72
     8
 73
     4
 74
     0
 42
0.000000001
 43
0.00000001
 40
0.0
 40
0.0
 40
0.0
 40
0.0
 40
1.0
 40
1.0
 40
1.0
 40
1.0
 10
140.9090798448082
 20
135.2046100529683
 30
0.0
 10
140.8378345453325
 20
135.1467835496927
 30
0.0
 10
140.7349261816153
 20
135.109574568686
 30
0.0
 10
140.6262371323336
 20
135.109574568686
 30
0.0
  0
LINE
  5
F4
330
1F
100
AcDbEntity
  8
0
  6
Continuous
 62
     7
370
    15
100
AcDbLine
 10
140.6262371323
 20
135.1095745687
 30
0.0
 11
140.6262371323
 21
152.3104366445
 31
0.0
  0
SPLINE
  5
F5
330
1F
100
AcDbEntity
  8
0
  6
Continuous
 62
     7
370
    15
100
AcDbSpline
210
0.0
220
0.0
230
1.0
 70
     8
 71
     3
 72
     8
 73
     4
 74
     0
 42
0.000000001
 43
0.00000001
 40
0.0
 40
0.0
 40
0.0
 40
0.0
 40
1.0
 40
1.0
 40
1.0
 40
1.0
 10
140.6262371323336
 20
152.3104366444574
 30
0.0
 10
140.7348161245165
 20
152.3104366444574
 30
0.0
 10
140.8378654449899
 20
152.2732025836329
 30
0.0
 10
140.9090798448082
 20
152.2154011601751
 30
0.0
  0
LINE
  5
F6
330
1F
100
AcDbEntity
  8
0
  6
Continuous
 62
     7
370
    15
100
AcDbLine
 10
137.3137591993
 20
111.9600056066
 30
0.0
 11
137.3137591993
 21
175.4600056066
 31
0.0
  0
LINE
  5
F7
330
1F
100
AcDbEntity
  8
0
  6
Continuous
 62
     7
370
    15
100
AcDbLine
 10
135.6919225573
 20
172.650902141
 30
0.0
 11
135.6919225573
 21
114.7691090722
 31
0.0
  0
LINE
  5
F8
330
1F
100
AcDbEntity
  8
0
  6
Continuous
 62
     7
370
    15
100
AcDbLine
 10
131.8919225573
 20
143.7100056066
 30
0.0
 11
131.8919225573
 21
172.650902141
 31
0.0
  0
LINE
  5
F9
330
1F
100
AcDbEntity
  8
0
  6
Continuous
 62
     7
370
    15
100
AcDbLine
 10
131.8919225573
 20
114.7691090722
 30
0.0
 11
131.8919225573
 21
143.7100056066
 31
0.0
  0
LINE
  5
FA
330
1F
100
AcDbEntity
  8
0
  6
Continuous
 62
     7
370
    15
100
AcDbLine
 10
130.2700859152
 20
143.7100056066
 30
0.0
 11
130.2700859152
 21
111.9600056066
 31
0.0
  0
LINE
  5
FB
330
1F
100
AcDbEntity
  8
0
  6
Continuous
 62
     7
370
    15
100
AcDbLine
 10
130.2700859152
 20
175.4600056066
 30
0.0
 11
130.2700859152
 21
143.7100056066
 31
0.0
  0
LINE
  5
FC
330
1F
100
AcDbEntity
  8
0
  6
Continuous
 62
     7
370
    15
100
AcDbLine
 10
127.0576079822
 20
135.1095745687
 30
0.0
 11
127.0576079822
 21
152.3104366445
 31
0.0
  0
SPLINE
  5
FD
330
1F
100
AcDbEntity
  8
0
  6
Continuous
 62
     7
370
    15
100
AcDbSpline
210
0.0
220
0.0
230
1.0
 70
     8
 71
     3
 72
     8
 73
     4
 74
     0
 42
0.000000001
 43
0.00000001
 40
0.0
 40
0.0
 40
0.0
 40
0.0
 40
1.0
 40
1.0
 40
1.0
 40
1.0
 10
127.057607982232
 20
135.109574568686
 30
0.0
 10
126.9490289900491
 20
135.109574568686
 30
0.0
 10
126.8459796695757
 20
135.1468086295106
 30
0.0
 10
126.7747652697574
 20
135.2046100529683
 30
0.0
  0
LINE
  5
FE
330
1F
100
AcDbEntity
  8
0
  6
Continuous
 62
     7
370
    15
100
AcDbLine
 10
126.7747652698
 20
135.204610053
 30
0.0
 11
126.7747652698
 21
152.2154011602
 31
0.0
  0
SPLINE
  5
FF
330
1F
100
AcDbEntity
  8
0
  6
Continuous
 62
     7
370
    15
100
AcDbSpline
210
0.0
220
0.0
230
1.0
 70
     8
 71
     3
 72
     8
 73
     4
 74
     0
 42
0.000000001
 43
0.00000001
 40
0.0
 40
0.0
 40
0.0
 40
0.0
 40
1.0
 40
1.0
 40
1.0
 40
1.0
 10
126.7747652697574
 20
152.2154011601751
 30
0.0
 10
126.8460105692331
 20
152.2732276634508
 30
0.0
 10
126.9489189329503
 20
152.3104366444574
 30
0.0
 10
127.0576079822321
 20
152.3104366444574
 30
0.0
  0
LINE
  5
100
330
1F
100
AcDbEntity
  8
0
  6
Continuous
 62
     7
370
    15
100
AcDbLine
 10
141.6747652698
 20
135.6600056066
 30
0.0
 11
141.6747652698
 21
151.7600056066
 31
0.0
  0
LINE
  5
101
330
1F
100
AcDbEntity
  8
0
  6
Continuous
 62
     7
370
    15
100
AcDbLine
 10
126.0090798448
 20
135.0771628941
 30
0.0
 11
126.0090798448
 21
152.342848319
 31
0.0
  0
LINE
  5
102
330
1F
100
AcDbEntity
  8
0
  6
Continuous
 62
     7
370
    15
100
AcDbLine
 10
141.7919225561
 20
135.6599939662
 30
0.0
 11
141.7919225561
 21
151.760017247
 31
0.0
  0
SPLINE
  5
103
330
1F
100
AcDbEntity
  8
0
  6
Continuous
 62
     7
370
    15
100
AcDbSpline
210
0.0
220
0.0
230
1.0
 70
    24
 71
     3
 72
     8
 73
     4
 74
     0
 42
0.000000001
 43
0.00000001
 40
0.0
 40
0.0
 40
0.0
 40
0.0
 40
1.0
 40
1.0
 40
1.0
 40
1.0
 10
141.7919225572828
 20
135.6600056065717
 30
0.0
 10
141.7919225572829
 20
135.6600056065717
 30
0.0
 10
141.7503320345623
 20
135.6600056065717
 30
0.0
 10
141.6747652697574
 20
135.6600056065717
 30
0.0
  0
SPLINE
  5
104
330
1F
100
AcDbEntity
  8
0
  6
Continuous
 62
     7
370
    15
100
AcDbSpline
210
0.0
220
0.0
230
1.0
 70
    24
 71
     3
 72
     8
 73
     4
 74
     0
 42
0.000000001
 43
0.00000001
 40
0.0
 40
0.0
 40
0.0
 40
0.0
 40
1.0
 40
1.0
 40
1.0
 40
1.0
 10
141.7919225572828
 20
151.7600056065718
 30
0.0
 10
141.7919225572829
 20
151.7600056065718
 30
0.0
 10
141.7503320345623
 20
151.7600056065718
 30
0.0
 10
141.6747652697574
 20
151.7600056065718
 30
0.0
  0
SPLINE
  5
105
330
1F
100
AcDbEntity
  8
0
  6
Continuous
 62
     7
370
    15
100
AcDbSpline
210
0.0
220
0.0
230
1.0
 70
    24
 71
     3
 72
    10
 73
     6
 74
     0
 42
0.000000001
 43
0.00000001
 40
0.0
 40
0.0
 40
0.0
 40
0.0
 40
0.5
 40
0.5
 40
1.0
 40
1.0
 40
1.0
 40
1.0
 10
126.0090798448082
 20
135.0771628940971
 30
0.0
 10
125.976425219879
 20
135.0445082691679
 30
0.0
 10
125.9484441054648
 20
135.0165271547537
 30
0.0
 10
125.9057978995295
 20
134.9738809488184
 30
0.0
 10
125.8919225572828
 20
134.9600056065717
 30
0.0
 10
125.8919225572828
 20
134.9600056065717
 30
0.0
  0
LINE
  5
106
330
1F
100
AcDbEntity
  8
0
  6
Continuous
 62
     7
370
    15
100
AcDbLine
 10
125.8919225573
 20
134.9600056066
 30
0.0
 11
125.8919225573
 21
152.4600056066
 31
0.0
  0
SPLINE
  5
107
330
1F
100
AcDbEntity
  8
0
  6
Continuous
 62
     7
370
    15
100
AcDbSpline
210
0.0
220
0.0
230
1.0
 70
    24
 71
     3
 72
    10
 73
     6
 74
     0
 42
0.000000001
 43
0.00000001
 40
0.0
 40
0.0
 40
0.0
 40
0.0
 40
0.5
 40
0.5
 40
1.0
 40
1.0
 40
1.0
 40
1.0
 10
125.8919225572828
 20
152.4600056065717
 30
0.0
 10
125.8919225572828
 20
152.4600056065717
 30
0.0
 10
125.9057569245803
 20
152.4461712392742
 30
0.0
 10
125.9479109112539
 20
152.4040172526006
 30
0.0
 10
125.9764041827271
 20
152.3755239811275
 30
0.0
 10
126.0090798448082
 20
152.3428483190464
 30
0.0
  0
SPLINE
  5
108
330
1F
100
AcDbEntity
  8
0
  6
Continuous
 62
     7
370
    15
100
AcDbSpline
210
0.0
220
0.0
230
1.0
 70
    24
 71
     3
 72
    31
 73
    27
 74
     0
 42
0.000000001
 43
0.00000001
 40
0.0
 40
0.0
 40
0.0
 40
0.0
 40
0.0132615207442977
 40
0.0265095384681778
 40
0.0397479986757152
 40
0.052980855419985
 40
0.0662120677777281
 40
0.0794455963015391
 40
0.0926853994654406
 40
0.1059354301197711
 40
0.1191996319712225
 40
0.1812172750696335
 40
0.2432482095398756
 40
0.3070054688904406
 40
0.3707758549323026
 40
0.5000016454769403
 40
0.6292274360215779
 40
0.6929846958538618
 40
0.756755082374765
 40
0.8187727243566626
 40
0.8808036579395964
 40
0.9046617584680593
 40
0.9284873637472372
 40
0.9523035459912107
 40
0.9761334047843963
 40
1.0
 40
1.0
 40
1.0
 40
1.0
 10
141.7919225572828
 20
135.6600056065718
 30
0.0
 10
141.7919225572828
 20
135.4901697162748
 30
0.0
 10
141.7919225572828
 20
135.1506708643773
 30
0.0
 10
141.7919225572828
 20
134.6448210589551
 30
0.0
 10
141.7919225572828
 20
134.1418669933316
 30
0.0
 10
141.7919225572828
 20
133.6420262210856
 30
0.0
 10
141.7919225572828
 20
133.1452407894901
 30
0.0
 10
141.7919225572828
 20
132.6515259684751
 30
0.0
 10
141.7919225572828
 20
132.1608794027382
 30
0.0
 10
141.7919225572828
 20
131.6732960149963
 30
0.0
 10
141.7919225572828
 20
130.595478429277
 30
0.0
 10
141.7919225572828
 20
128.9595429758156
 30
0.0
 10
141.7919225572828
 20
126.8203803039184
 30
0.0
 10
141.7919225572828
 20
124.7744042269941
 30
0.0
 10
141.7919225572828
 20
122.1801624757271
 30
0.0
 10
141.7919225572828
 20
119.2877198770821
 30
0.0
 10
141.7919225572828
 20
116.9731933056409
 30
0.0
 10
141.7919225572828
 20
115.5117067525942
 30
0.0
 10
141.7919225572828
 20
114.6263403392285
 30
0.0
 10
141.7919225572828
 20
113.9429802707143
 30
0.0
 10
141.7919225572828
 20
113.5602621769892
 30
0.0
 10
141.7919225572828
 20
113.3568305237249
 30
0.0
 10
141.7919225572828
 20
113.2534306115299
 30
0.0
 10
141.7919225572828
 20
113.1801114268159
 30
0.0
 10
141.7919225572828
 20
113.1341976920872
 30
0.0
 10
141.7919225572828
 20
113.1285280406559
 30
0.0
 10
141.7919225572828
 20
113.125691031521
 30
0.0
  0
SPLINE
  5
109
330
1F
100
AcDbEntity
  8
0
  6
Continuous
 62
     7
370
    15
100
AcDbSpline
210
0.0
220
0.0
230
1.0
 70
    24
 71
     3
 72
    18
 73
    14
 74
     0
 42
0.000000001
 43
0.00000001
 40
0.0
 40
0.0
 40
0.0
 40
0.0
 40
0.066591223594786
 40
0.1598334488045344
 40
0.2510077520776223
 40
0.34218205535071
 40
0.4354242805604582
 40
0.5300979332371611
 40
0.6255038760388113
 40
0.7209098188404615
 40
0.8155834715171641
 40
0.9088256967269122
 40
1.0
 40
1.0
 40
1.0
 40
1.0
 10
141.7919225572828
 20
174.2456802637791
 30
0.0
 10
141.7919225572828
 20
174.2428190399878
 30
0.0
 10
141.7919225572828
 20
174.2359514793443
 30
0.0
 10
141.7919225572828
 20
173.6998592826675
 30
0.0
 10
141.7919225572828
 20
172.7406075752266
 30
0.0
 10
141.7919225572828
 20
171.3519995312309
 30
0.0
 10
141.7919225572828
 20
169.5469138491814
 30
0.0
 10
141.7919225572828
 20
167.3234670743636
 30
0.0
 10
141.7919225572828
 20
164.7201195718192
 30
0.0
 10
141.7919225572828
 20
161.7931211460813
 30
0.0
 10
141.7919225572828
 20
158.6103254597666
 30
0.0
 10
141.7919225572828
 20
155.2624383988762
 30
0.0
 10
141.7919225572828
 20
152.918722925158
 30
0.0
 10
141.7919225572828
 20
151.7600056065718
 30
0.0
  0
SPLINE
  5
10A
330
1F
100
AcDbEntity
  8
0
  6
Continuous
 62
     7
370
    15
100
AcDbSpline
210
0.0
220
0.0
230
1.0
 70
    24
 71
     3
 72
    31
 73
    27
 74
     0
 42
0.000000001
 43
0.00000001
 40
0.0
 40
0.0
 40
0.0
 40
0.0
 40
0.0132831470206863
 40
0.0265535276369074
 40
0.0398149668686543
 40
0.0530712974757198
 40
0.0663263566494436
 40
0.079583982685148
 40
0.0928480116497893
 40
0.1061222740592671
 40
0.1194105915797471
 40
0.1814480340998471
 40
0.243498568473281
 40
0.3072097122489106
 40
0.3709343011151119
 40
0.5000015948939122
 40
0.6290688886727123
 40
0.6927800329052618
 40
0.7565046222254207
 40
0.8185420654268883
 40
0.8805926004833303
 40
0.9044943901584614
 40
0.9283636595453258
 40
0.9522227660580519
 40
0.9760940956658253
 40
1.0
 40
1.0
 40
1.0
 40
1.0
 10
125.8919225572828
 20
113.125691031521
 30
0.0
 10
125.8919225572828
 20
113.1265345981484
 30
0.0
 10
125.8919225572828
 20
113.128220920653
 30
0.0
 10
125.8919225572828
 20
113.1419187902845
 30
0.0
 10
125.8919225572828
 20
113.163795766457
 30
0.0
 10
125.8919225572828
 20
113.1946514193038
 30
0.0
 10
125.8919225572828
 20
113.2342716292389
 30
0.0
 10
125.8919225572828
 20
113.282713961179
 30
0.0
 10
125.8919225572828
 20
113.3399621147358
 30
0.0
 10
125.8919225572828
 20
113.4060236125638
 30
0.0
 10
125.8919225572828
 20
113.5723863062056
 30
0.0
 10
125.8919225572828
 20
113.915587722417
 30
0.0
 10
125.8919225572828
 20
114.5751541078138
 30
0.0
 10
125.8919225572828
 20
115.4295641434136
 30
0.0
 10
125.8919225572828
 20
116.8391602196735
 30
0.0
 10
125.8919225572828
 20
119.0719964101741
 30
0.0
 10
125.8919225572828
 20
121.8652031676344
 30
0.0
 10
125.8919225572828
 20
124.3744198529004
 30
0.0
 10
125.8919225572828
 20
126.3563394775969
 30
0.0
 10
125.8919225572828
 20
128.431960385924
 30
0.0
 10
125.8919225572828
 20
130.1447667939524
 30
0.0
 10
125.8919225572828
 20
131.4489585698118
 30
0.0
 10
125.8919225572828
 20
132.3110801503967
 30
0.0
 10
125.8919225572828
 20
133.1836492059361
 30
0.0
 10
125.8919225572828
 20
134.0659408626105
 30
0.0
 10
125.8919225572828
 20
134.6618402813405
 30
0.0
 10
125.8919225572828
 20
134.9600056065717
 30
0.0
  0
SPLINE
  5
10B
330
1F
100
AcDbEntity
  8
0
  6
Continuous
 62
     7
370
    15
100
AcDbSpline
210
0.0
220
0.0
230
1.0
 70
    24
 71
     3
 72
    18
 73
    14
 74
     0
 42
0.000000001
 43
0.00000001
 40
0.0
 40
0.0
 40
0.0
 40
0.0
 40
0.0928104868967594
 40
0.1856275101837504
 40
0.2808601381357771
 40
0.3768109009075027
 40
0.4727616636792284
 40
0.5679942916312553
 40
0.6608013885727217
 40
0.7536218463518272
 40
0.8464289454082468
 40
0.93924940519228
 40
1.0
 40
1.0
 40
1.0
 40
1.0
 10
125.8919225572828
 20
152.4600056065717
 30
0.0
 10
125.8919225572828
 20
153.609318882824
 30
0.0
 10
125.8919225572828
 20
155.9080263783375
 30
0.0
 10
125.8919225572828
 20
159.1779368884945
 30
0.0
 10
125.8919225572828
 20
162.2693256275539
 30
0.0
 10
125.8919225572828
 20
165.1140446122
 30
0.0
 10
125.8919225572828
 20
167.6375532425171
 30
0.0
 10
125.8919225572828
 20
169.7782397430456
 30
0.0
 10
125.8919225572828
 20
171.5199301390865
 30
0.0
 10
125.8919225572828
 20
172.8554137821703
 30
0.0
 10
125.8919225572828
 20
173.765716144541
 30
0.0
 10
125.8919225572828
 20
174.2518844868253
 30
0.0
 10
125.8919225572828
 20
174.2446579550777
 30
0.0
 10
125.8919225572828
 20
174.2417992386143
 30
0.0
  0
LINE
  5
10C
330
1F
100
AcDbEntity
  8
0
  6
Continuous
 62
     7
370
    15
100
AcDbLine
 10
282.6919225573
 20
143.7100056066
 30
0.0
 11
282.6919225573
 21
171.7100056066
 31
0.0
  0
LINE
  5
10D
330
1F
100
AcDbEntity
  8
0
  6
Continuous
 62
     7
370
    15
100
AcDbLine
 10
282.6919225573
 20
115.7100056066
 30
0.0
 11
282.6919225573
 21
143.7100056066
 31
0.0
  0
LINE
  5
10E
330
1F
100
AcDbEntity
  8
0
  6
Continuous
 62
     7
370
    15
100
AcDbLine
 10
281.6919225573
 20
143.7100056066
 30
0.0
 11
281.6919225573
 21
172.7100056066
 31
0.0
  0
LINE
  5
10F
330
1F
100
AcDbEntity
  8
0
  6
Continuous
 62
     7
370
    15
100
AcDbLine
 10
281.6919225573
 20
114.7100056066
 30
0.0
 11
281.6919225573
 21
143.7100056066
 31
0.0
  0
LINE
  5
110
330
1F
100
AcDbEntity
  8
0
  6
Continuous
 62
     7
370
    15
100
AcDbLine
 10
168.2919225573
 20
143.7100056066
 30
0.0
 11
168.2919225573
 21
114.7100056066
 31
0.0
  0
LINE
  5
111
330
1F
100
AcDbEntity
  8
0
  6
Continuous
 62
     7
370
    15
100
AcDbLine
 10
168.2919225573
 20
172.7100056066
 30
0.0
 11
168.2919225573
 21
143.7100056066
 31
0.0
  0
LINE
  5
112
330
1F
100
AcDbEntity
  8
0
  6
Continuous
 62
     7
370
    15
100
AcDbLine
 10
158.641641415
 20
168.2100056066
 30
0.0
 11
158.641641415
 21
119.2100056066
 31
0.0
  0
LINE
  5
113
330
1F
100
AcDbEntity
  8
0
  6
Continuous
 62
     7
370
    15
100
AcDbLine
 10
122.6919225573
 20
143.7100056066
 30
0.0
 11
122.6919225573
 21
121.4850056066
 31
0.0
  0
LINE
  5
114
330
1F
100
AcDbEntity
  8
0
  6
Continuous
 62
     7
370
    15
100
AcDbLine
 10
122.6919225573
 20
165.9350056066
 30
0.0
 11
122.6919225573
 21
143.7100056066
 31
0.0
  0
LINE
  5
115
330
1F
100
AcDbEntity
  8
0
  6
Continuous
 62
     7
370
    15
100
AcDbLine
 10
123.1744366144
 20
143.7100056066
 30
0.0
 11
123.1744366144
 21
121.7100056066
 31
0.0
  0
LINE
  5
116
330
1F
100
AcDbEntity
  8
0
  6
Continuous
 62
     7
370
    15
100
AcDbLine
 10
123.1744366144
 20
165.7100056066
 30
0.0
 11
123.1744366144
 21
143.7100056066
 31
0.0
  0
LINE
  5
117
330
1F
100
AcDbEntity
  8
0
  6
Continuous
 62
     7
370
    15
100
AcDbLine
 10
315.9919225573
 20
143.7100056066
 30
0.0
 11
315.9919225573
 21
161.2100056066
 31
0.0
  0
LINE
  5
118
330
1F
100
AcDbEntity
  8
0
  6
Continuous
 62
     7
370
    15
100
AcDbLine
 10
315.9919225573
 20
126.2100056066
 30
0.0
 11
315.9919225573
 21
143.7100056066
 31
0.0
  0
LINE
  5
119
330
1F
100
AcDbEntity
  8
0
  6
Continuous
 62
     7
370
    15
100
AcDbLine
 10
308.3919225573
 20
126.2100056066
 30
0.0
 11
308.3919225573
 21
161.2100056066
 31
0.0
  0
LINE
  5
11A
330
1F
100
AcDbEntity
  8
0
  6
Continuous
 62
     7
370
    15
100
AcDbLine
 10
316.6919225573
 20
126.9100056066
 30
0.0
 11
316.6919225573
 21
160.5100056066
 31
0.0
  0
LINE
  5
11B
330
1F
100
AcDbEntity
  8
0
  6
Continuous
 62
     7
370
    15
100
AcDbLine
 10
307.6919225573
 20
126.9100056066
 30
0.0
 11
307.6919225573
 21
160.5100056066
 31
0.0
  0
LINE
  5
11C
330
1F
100
AcDbEntity
  8
0
  6
Continuous
 62
     7
370
    15
100
AcDbLine
 10
303.6919225573
 20
143.7100056066
 30
0.0
 11
303.6919225573
 21
156.4100056066
 31
0.0
  0
LINE
  5
11D
330
1F
100
AcDbEntity
  8
0
  6
Continuous
 62
     7
370
    15
100
AcDbLine
 10
303.6919225573
 20
131.0100056066
 30
0.0
 11
303.6919225573
 21
143.7100056066
 31
0.0
  0
LINE
  5
11E
330
1F
100
AcDbEntity
  8
0
  6
Continuous
 62
     7
370
    15
100
AcDbLine
 10
302.3062819112
 20
143.7100056066
 30
0.0
 11
302.3062819112
 21
157.2100056066
 31
0.0
  0
LINE
  5
11F
330
1F
100
AcDbEntity
  8
0
  6
Continuous
 62
     7
370
    15
100
AcDbLine
 10
302.3062819112
 20
130.2100056066
 30
0.0
 11
302.3062819112
 21
143.7100056066
 31
0.0
  0
SPLINE
  5
120
330
1F
100
AcDbEntity
  8
0
  6
Continuous
 62
     7
370
    15
100
AcDbSpline
210
0.0
220
0.0
230
1.0
 70
    24
 71
     3
 72
    10
 73
     6
 74
     0
 42
0.000000001
 43
0.00000001
 40
0.0
 40
0.0
 40
0.0
 40
0.0
 40
0.4999999999999997
 40
0.4999999999999997
 40
0.9999999999999999
 40
0.9999999999999999
 40
0.9999999999999999
 40
0.9999999999999999
 10
54.29192255728282
 20
155.0951681961907
 30
0.0
 10
54.29192255728282
 20
155.0951681961906
 30
0.0
 10
54.29192255728282
 20
153.8956030127479
 30
0.0
 10
54.29192255728282
 20
149.6254595444573
 30
0.0
 10
54.29192255728282
 20
146.7294530096394
 30
0.0
 10
54.29192255728282
 20
143.7100056065717
 30
0.0
  0
SPLINE
  5
121
330
1F
100
AcDbEntity
  8
0
  6
Continuous
 62
     7
370
    15
100
AcDbSpline
210
0.0
220
0.0
230
1.0
 70
    24
 71
     3
 72
    10
 73
     6
 74
     0
 42
0.000000001
 43
0.00000001
 40
0.0
 40
0.0
 40
0.0
 40
0.0
 40
0.5
 40
0.5
 40
1.0
 40
1.0
 40
1.0
 40
1.0
 10
54.29192255728282
 20
143.7100056065717
 30
0.0
 10
54.29192255728282
 20
140.6905582035041
 30
0.0
 10
54.29192255728282
 20
137.7945516686859
 30
0.0
 10
54.29192255728282
 20
133.5244082003955
 30
0.0
 10
54.29192255728282
 20
132.3248430169527
 30
0.0
 10
54.29192255728282
 20
132.3248430169528
 30
0.0
  0
LINE
  5
122
330
1F
100
AcDbEntity
  8
0
  6
Continuous
 62
     7
370
    15
100
AcDbLine
 10
288.0919225573
 20
158.6100056066
 30
0.0
 11
282.6919225573
 21
158.6100056066
 31
0.0
  0
LINE
  5
123
330
1F
100
AcDbEntity
  8
0
  6
Continuous
 62
     7
370
    15
100
AcDbLine
 10
282.6919225573
 20
169.8100056066
 30
0.0
 11
288.0919225573
 21
169.8100056066
 31
0.0
  0
LINE
  5
124
330
1F
100
AcDbEntity
  8
0
  6
Continuous
 62
     7
370
    15
100
AcDbLine
 10
288.0919225573
 20
169.8100056066
 30
0.0
 11
288.4919225573
 21
169.2443201816
 31
0.0
  0
LINE
  5
125
330
1F
100
AcDbEntity
  8
0
  6
Continuous
 62
     7
370
    15
100
AcDbLine
 10
288.4919225573
 20
169.2443201816
 30
0.0
 11
288.4919225573
 21
159.1756910315
 31
0.0
  0
LINE
  5
126
330
1F
100
AcDbEntity
  8
0
  6
Continuous
 62
     7
370
    15
100
AcDbLine
 10
288.4919225573
 20
159.1756910315
 30
0.0
 11
288.0919225573
 21
158.6100056066
 31
0.0
  0
LINE
  5
127
330
1F
100
AcDbEntity
  8
0
  6
Continuous
 62
     7
370
    15
100
AcDbLine
 10
288.0919225573
 20
170.2100056066
 30
0.0
 11
288.0919225573
 21
169.8100056066
 31
0.0
  0
LINE
  5
128
330
1F
100
AcDbEntity
  8
0
  6
Continuous
 62
     7
370
    15
100
AcDbLine
 10
288.0919225573
 20
170.2100056066
 30
0.0
 11
288.4919225573
 21
170.2100056066
 31
0.0
  0
LINE
  5
129
330
1F
100
AcDbEntity
  8
0
  6
Continuous
 62
     7
370
    15
100
AcDbLine
 10
288.4919225573
 20
169.2443201816
 30
0.0
 11
288.4919225573
 21
170.2100056066
 31
0.0
  0
LINE
  5
12A
330
1F
100
AcDbEntity
  8
0
  6
Continuous
 62
     7
370
    15
100
AcDbLine
 10
282.6919225573
 20
170.2100056066
 30
0.0
 11
288.0919225573
 21
170.2100056066
 31
0.0
  0
LINE
  5
12B
330
1F
100
AcDbEntity
  8
0
  6
Continuous
 62
     7
370
    15
100
AcDbLine
 10
288.0919225573
 20
128.8100056066
 30
0.0
 11
282.6919225573
 21
128.8100056066
 31
0.0
  0
LINE
  5
12C
330
1F
100
AcDbEntity
  8
0
  6
Continuous
 62
     7
370
    15
100
AcDbLine
 10
288.4919225573
 20
128.2443201816
 30
0.0
 11
288.0919225573
 21
128.8100056066
 31
0.0
  0
LINE
  5
12D
330
1F
100
AcDbEntity
  8
0
  6
Continuous
 62
     7
370
    15
100
AcDbLine
 10
288.4919225573
 20
118.1756910315
 30
0.0
 11
288.4919225573
 21
128.2443201816
 31
0.0
  0
LINE
  5
12E
330
1F
100
AcDbEntity
  8
0
  6
Continuous
 62
     7
370
    15
100
AcDbLine
 10
288.0919225573
 20
117.6100056066
 30
0.0
 11
288.4919225573
 21
118.1756910315
 31
0.0
  0
LINE
  5
12F
330
1F
100
AcDbEntity
  8
0
  6
Continuous
 62
     7
370
    15
100
AcDbLine
 10
282.6919225573
 20
117.6100056066
 30
0.0
 11
288.0919225573
 21
117.6100056066
 31
0.0
  0
LINE
  5
130
330
1F
100
AcDbEntity
  8
0
  6
Continuous
 62
     7
370
    15
100
AcDbLine
 10
288.0919225573
 20
158.2100056066
 30
0.0
 11
288.4919225573
 21
158.2100056066
 31
0.0
  0
LINE
  5
131
330
1F
100
AcDbEntity
  8
0
  6
Continuous
 62
     7
370
    15
100
AcDbLine
 10
288.0919225573
 20
158.6100056066
 30
0.0
 11
288.0919225573
 21
158.2100056066
 31
0.0
  0
LINE
  5
132
330
1F
100
AcDbEntity
  8
0
  6
Continuous
 62
     7
370
    15
100
AcDbLine
 10
288.4919225573
 20
159.1756910315
 30
0.0
 11
288.4919225573
 21
158.2100056066
 31
0.0
  0
LINE
  5
133
330
1F
100
AcDbEntity
  8
0
  6
Continuous
 62
     7
370
    15
100
AcDbLine
 10
282.6919225573
 20
158.2100056066
 30
0.0
 11
288.0919225573
 21
158.2100056066
 31
0.0
  0
LINE
  5
134
330
1F
100
AcDbEntity
  8
0
  6
Continuous
 62
     7
370
    15
100
AcDbLine
 10
288.0919225573
 20
128.8100056066
 30
0.0
 11
288.0919225573
 21
129.2100056066
 31
0.0
  0
LINE
  5
135
330
1F
100
AcDbEntity
  8
0
  6
Continuous
 62
     7
370
    15
100
AcDbLine
 10
288.0919225573
 20
129.2100056066
 30
0.0
 11
282.6919225573
 21
129.2100056066
 31
0.0
  0
LINE
  5
136
330
1F
100
AcDbEntity
  8
0
  6
Continuous
 62
     7
370
    15
100
AcDbLine
 10
288.4919225573
 20
129.2100056066
 30
0.0
 11
288.0919225573
 21
129.2100056066
 31
0.0
  0
LINE
  5
137
330
1F
100
AcDbEntity
  8
0
  6
Continuous
 62
     7
370
    15
100
AcDbLine
 10
288.4919225573
 20
128.2443201816
 30
0.0
 11
288.4919225573
 21
129.2100056066
 31
0.0
  0
LINE
  5
138
330
1F
100
AcDbEntity
  8
0
  6
Continuous
 62
     7
370
    15
100
AcDbLine
 10
288.0919225573
 20
117.2100056066
 30
0.0
 11
282.6919225573
 21
117.2100056066
 31
0.0
  0
LINE
  5
139
330
1F
100
AcDbEntity
  8
0
  6
Continuous
 62
     7
370
    15
100
AcDbLine
 10
288.0919225573
 20
117.6100056066
 30
0.0
 11
288.0919225573
 21
117.2100056066
 31
0.0
  0
LINE
  5
13A
330
1F
100
AcDbEntity
  8
0
  6
Continuous
 62
     7
370
    15
100
AcDbLine
 10
288.4919225573
 20
117.2100056066
 30
0.0
 11
288.0919225573
 21
117.2100056066
 31
0.0
  0
LINE
  5
13B
330
1F
100
AcDbEntity
  8
0
  6
Continuous
 62
     7
370
    15
100
AcDbLine
 10
288.4919225573
 20
117.2100056066
 30
0.0
 11
288.4919225573
 21
118.1756910315
 31
0.0
  0
LINE
  5
13C
330
1F
100
AcDbEntity
  8
0
  6
Continuous
 62
     8
370
    15
100
AcDbLine
 10
140.6262371323
 20
111.9600056066
 30
0.0
 11
140.6262371323
 21
135.1095745687
 31
0.0
  0
LINE
  5
13D
330
1F
100
AcDbEntity
  8
0
  6
Continuous
 62
     8
370
    15
100
AcDbLine
 10
140.6262371323
 20
152.3104366445
 30
0.0
 11
140.6262371323
 21
175.4600056066
 31
0.0
  0
LINE
  5
13E
330
1F
100
AcDbEntity
  8
0
  6
Continuous
 62
     8
370
    15
100
AcDbLine
 10
127.0576079822
 20
135.1095745687
 30
0.0
 11
127.0576079822
 21
111.9600056066
 31
0.0
  0
LINE
  5
13F
330
1F
100
AcDbEntity
  8
0
  6
Continuous
 62
     8
370
    15
100
AcDbLine
 10
127.0576079822
 20
175.4600056066
 30
0.0
 11
127.0576079822
 21
152.3104366445
 31
0.0
  0
LINE
  5
140
330
1F
100
AcDbEntity
  8
0
  6
Continuous
 62
     8
370
    15
100
AcDbLine
 10
141.6747652698
 20
174.5771628941
 30
0.0
 11
141.6747652698
 21
151.7600056066
 31
0.0
  0
LINE
  5
141
330
1F
100
AcDbEntity
  8
0
  6
Continuous
 62
     8
370
    15
100
AcDbLine
 10
141.6747652698
 20
135.6600056066
 30
0.0
 11
141.6747652698
 21
112.842848319
 31
0.0
  0
LINE
  5
142
330
1F
100
AcDbEntity
  8
0
  6
Continuous
 62
     8
370
    15
100
AcDbLine
 10
140.9090798448
 20
135.204610053
 30
0.0
 11
140.9090798448
 21
112.0771628941
 31
0.0
  0
LINE
  5
143
330
1F
100
AcDbEntity
  8
0
  6
Continuous
 62
     8
370
    15
100
AcDbLine
 10
140.9090798448
 20
175.342848319
 30
0.0
 11
140.9090798448
 21
152.2154011602
 31
0.0
  0
LINE
  5
144
330
1F
100
AcDbEntity
  8
0
  6
Continuous
 62
     8
370
    15
100
AcDbLine
 10
126.0090798448
 20
152.342848319
 30
0.0
 11
126.0090798448
 21
174.5771628941
 31
0.0
  0
LINE
  5
145
330
1F
100
AcDbEntity
  8
0
  6
Continuous
 62
     8
370
    15
100
AcDbLine
 10
126.0090798448
 20
112.842848319
 30
0.0
 11
126.0090798448
 21
135.0771628941
 31
0.0
  0
LINE
  5
146
330
1F
100
AcDbEntity
  8
0
  6
Continuous
 62
     8
370
    15
100
AcDbLine
 10
126.7747652698
 20
112.0771628941
 30
0.0
 11
126.7747652698
 21
135.204610053
 31
0.0
  0
LINE
  5
147
330
1F
100
AcDbEntity
  8
0
  6
Continuous
 62
     8
370
    15
100
AcDbLine
 10
126.7747652698
 20
175.342848319
 30
0.0
 11
126.7747652698
 21
152.2154011602
 31
0.0
  0
LINE
  5
148
330
1F
100
AcDbEntity
  8
0
  6
Continuous
 62
     8
370
    15
100
AcDbLine
 10
125.3919225573
 20
143.7100056066
 30
0.0
 11
125.3919225573
 21
165.7100056066
 31
0.0
  0
LINE
  5
149
330
1F
100
AcDbEntity
  8
0
  6
Continuous
 62
     8
370
    15
100
AcDbLine
 10
125.3919225573
 20
121.7100056066
 30
0.0
 11
125.3919225573
 21
143.7100056066
 31
0.0
  0
LINE
  5
14A
330
1F
100
AcDbEntity
  8
0
  6
Continuous
 62
     8
370
    15
100
AcDbLine
 10
55.14761433
 20
156.0847009827
 30
0.0
 11
55.14761433
 21
131.3353102305
 31
0.0
  0
LINE
  5
14B
330
1F
100
AcDbEntity
  8
0
  6
Continuous
 62
     8
370
    15
100
AcDbLine
 10
307.1919225573
 20
143.7100056066
 30
0.0
 11
307.1919225573
 21
149.7100056066
 31
0.0
  0
LINE
  5
14C
330
1F
100
AcDbEntity
  8
0
  6
Continuous
 62
     8
370
    15
100
AcDbLine
 10
307.1919225573
 20
137.7100056066
 30
0.0
 11
307.1919225573
 21
143.7100056066
 31
0.0
  0
DIMENSION
  5
14D
330
1F
100
AcDbEntity
  8
DIM
100
AcDbDimension
  2
_D
 10
303.6919225573
 20
104.6254762727
 30
0.0
 11
293.1919225573
 21
104.6254762727
 31
0.0
 70
   160
  1
<>
 71
     2
 42
-1.0
  3
SLDDIMSTYLE0
100
AcDbAlignedDimension
 13
282.6919225573
 23
115.7100056066
 33
0.0
 14
303.6919225573
 24
131.0100056066
 34
0.0
100
AcDbRotatedDimension
  0
DIMENSION
  5
15A
330
1F
100
AcDbEntity
  8
DIM
100
AcDbDimension
  2
_D_1
 10
122.6919225573
 20
104.7436480537
 30
0.0
 11
202.6919225573
 21
104.7436480537
 31
0.0
 70
   160
  1
<>
 71
     2
 42
-1.0
  3
SLDDIMSTYLE1
100
AcDbAlignedDimension
 13
282.6919225573
 23
117.2100056066
 33
0.0
 14
122.6919225573
 24
121.4850056066
 34
0.0
100
AcDbRotatedDimension
  0
DIMENSION
  5
165
330
1F
100
AcDbEntity
  8
DIM
100
AcDbDimension
  2
_D_2
 10
43.6966649722
 20
175.4600056066
 30
0.0
 11
43.6966649722
 21
143.7100056066
 31
0.0
 70
   160
  1
%%c<>
 71
     2
 42
-1.0
  3
SLDDIMSTYLE2
100
AcDbAlignedDimension
 13
127.0576079822
 23
111.9600056066
 33
0.0
 14
127.0576079822
 24
175.4600056066
 34
0.0
 50
90.0
100
AcDbRotatedDimension
  0
DIMENSION
  5
171
330
1F
100
AcDbEntity
  8
DIM
100
AcDbDimension
  2
_D_3
 10
316.6919225573
 20
91.1599056066
 30
0.0
 11
185.4919225573
 21
91.1599056066
 31
0.0
 70
   160
  1
<>
 71
     2
 42
-1.0
  3
SLDDIMSTYLE2
100
AcDbAlignedDimension
 13
54.2919225573
 23
143.7100056066
 33
0.0
 14
316.6919225573
 24
126.9100056066
 34
0.0
 50
0.0
100
AcDbRotatedDimension
  0
DIMENSION
  5
17B
330
1F
100
AcDbEntity
  8
DIM
100
AcDbDimension
  2
_D_4
 10
324.7349828165
 20
130.2100056066
 30
0.0
 11
324.7349828165
 21
143.7100056066
 31
0.0
 70
   160
  1
%%c<>
 71
     2
 42
-1.0
  3
SLDDIMSTYLE0
100
AcDbAlignedDimension
 13
302.3062819112
 23
157.2100056066
 33
0.0
 14
302.3062819112
 24
130.2100056066
 34
0.0
 50
90.0
100
AcDbRotatedDimension
  0
DIMENSION
  5
188
330
1F
100
AcDbEntity
  8
DIM
100
AcDbDimension
  2
_D_5
 10
333.0948395872
 20
114.7100056066
 30
0.0
 11
333.0948395872
 21
143.7100056066
 31
0.0
 70
   160
  1
%%c<>
 71
     2
 42
-1.0
  3
SLDDIMSTYLE1
100
AcDbAlignedDimension
 13
281.6919225573
 23
172.7100056066
 33
0.0
 14
281.6919225573
 24
114.7100056066
 34
0.0
 50
90.0
100
AcDbRotatedDimension
  0
LINE
  5
193
330
1F
100
AcDbEntity
  8
DIM
  6
CENTERX2
 48
1.5384615385
370
     0
100
AcDbLine
 10
51.8088625087
 20
143.7100056066
 30
0.0
 11
317.9033859854
 21
143.7100056066
 31
0.0
  0
ENDSEC
  0
SECTION
  2
OBJECTS
  0
DICTIONARY
  5
C
330
0
100
AcDbDictionary
281
     1
  3
ACAD_GROUP
350
D
  3
ACAD_LAYOUT
350
1A
  3
ACAD_MLINESTYLE
350
17
  3
ACAD_PLOTSETTINGS
350
19
  3
ACAD_PLOTSTYLENAME
350
E
  3
ACAD_SCALELIST
350
47
  0
DICTIONARY
  5
D
102
{ACAD_REACTORS
330
C
102
}
330
C
100
AcDbDictionary
281
     1
  0
DICTIONARY
  5
1A
102
{ACAD_REACTORS
330
C
102
}
330
C
100
AcDbDictionary
281
     1
  3
Layout1
350
1E
  3
Layout2
350
26
  3
Model
350
22
  0
DICTIONARY
  5
17
102
{ACAD_REACTORS
330
C
102
}
330
C
100
AcDbDictionary
281
     1
  3
Standard
350
18
  0
DICTIONARY
  5
19
102
{ACAD_REACTORS
330
C
102
}
330
C
100
AcDbDictionary
281
     1
  0
ACDBDICTIONARYWDFLT
  5
E
102
{ACAD_REACTORS
330
C
102
}
330
C
100
AcDbDictionary
281
     1
  3
Normal
350
F
100
AcDbDictionaryWithDefault
340
F
  0
DICTIONARY
  5
47
102
{ACAD_REACTORS
330
C
102
}
330
C
100
AcDbDictionary
281
     1
  3
A0
350
48
  3
A1
350
49
  3
A2
350
4A
  3
A3
350
4B
  3
A4
350
4C
  3
A5
350
4D
  3
A6
350
4E
  3
A7
350
4F
  3
A8
350
50
  3
A9
350
51
  3
B0
350
52
  3
B1
350
53
  3
B2
350
54
  3
B3
350
55
  3
B4
350
56
  3
B5
350
57
  3
B6
350
58
  3
B7
350
59
  3
B8
350
5A
  3
B9
350
5B
  3
C0
350
5C
  3
C1
350
5D
  3
C2
350
5E
  3
C3
350
5F
  3
C4
350
60
  3
C5
350
61
  3
C6
350
62
  3
C7
350
63
  3
C8
350
64
  3
C9
350
65
  3
D0
350
66
  3
D1
350
67
  3
D2
350
68
  0
LAYOUT
  5
1E
102
{ACAD_REACTORS
330
1A
102
}
330
1A
100
AcDbPlotSettings
  1

  2
none_device
  4

  6

 40
0.0
 41
0.0
 42
0.0
 43
0.0
 44
0.0
 45
0.0
 46
0.0
 47
0.0
 48
0.0
 49
0.0
140
0.0
141
0.0
142
1.0
143
1.0
 70
   688
 72
     1
 73
     0
 74
     5
  7

 75
    16
147
1.0
148
0.0
149
0.0
100
AcDbLayout
  1
Layout1
 70
     1
 71
     1
 10
0.0
 20
0.0
 11
420.0
 21
297.0
 12
0.0
 22
0.0
 32
0.0
 14
1.0000000000E+20
 24
1.0000000000E+20
 34
1.0000000000E+20
 15
-1.0000000000E+20
 25
-1.0000000000E+20
 35
-1.0000000000E+20
146
0.0
 13
0.0
 23
0.0
 33
0.0
 16
1.0
 26
0.0
 36
0.0
 17
0.0
 27
1.0
 37
0.0
 76
     0
330
1B
  0
LAYOUT
  5
26
102
{ACAD_REACTORS
330
1A
102
}
330
1A
100
AcDbPlotSettings
  1

  2
none_device
  4

  6

 40
0.0
 41
0.0
 42
0.0
 43
0.0
 44
0.0
 45
0.0
 46
0.0
 47
0.0
 48
0.0
 49
0.0
140
0.0
141
0.0
142
1.0
143
1.0
 70
   688
 72
     1
 73
     0
 74
     5
  7

 75
    16
147
1.0
148
0.0
149
0.0
100
AcDbLayout
  1
Layout2
 70
     1
 71
     2
 10
0.0
 20
0.0
 11
0.0
 21
0.0
 12
0.0
 22
0.0
 32
0.0
 14
0.0
 24
0.0
 34
0.0
 15
0.0
 25
0.0
 35
0.0
146
0.0
 13
0.0
 23
0.0
 33
0.0
 16
1.0
 26
0.0
 36
0.0
 17
0.0
 27
1.0
 37
0.0
 76
     0
330
23
  0
LAYOUT
  5
22
102
{ACAD_REACTORS
330
1A
102
}
330
1A
100
AcDbPlotSettings
  1

  2
none_device
  4
Letter_(8.50_x_11.00_Inches)
  6

 40
6.35
 41
6.35
 42
6.35000508
 43
6.35000508
 44
215.9
 45
279.4
 46
0.0
 47
0.0
 48
0.0
 49
0.0
140
0.0
141
0.0
142
1.0
143
1.0
 70
  1712
 72
     1
 73
     0
 74
     0
  7

 75
     0
147
1.0
148
0.0
149
0.0
100
AcDbLayout
  1
Model
 70
     1
 71
     0
 10
0.0
 20
0.0
 11
386.1
 21
273.0
 12
0.0
 22
0.0
 32
0.0
 14
0.0
 24
0.0
 34
0.0
 15
386.1
 25
273.0
 35
0.0
146
0.0
 13
0.0
 23
0.0
 33
0.0
 16
1.0
 26
0.0
 36
0.0
 17
0.0
 27
1.0
 37
0.0
 76
     0
330
1F
331
29
  0
MLINESTYLE
  5
18
102
{ACAD_REACTORS
330
17
102
}
330
17
100
AcDbMlineStyle
  2
Standard
 70
     0
  3

 62
   256
 51
90.0
 52
90.0
 71
     2
 49
0.5
 62
   256
  6
BYLAYER
 49
-0.5
 62
   256
  6
BYLAYER
  0
ACDBPLACEHOLDER
  5
F
102
{ACAD_REACTORS
330
E
102
}
330
E
  0
SCALE
  5
48
102
{ACAD_REACTORS
330
47
102
}
330
47
100
AcDbScale
 70
     0
300
1:1
140
1.0
141
1.0
290
     1
  0
SCALE
  5
49
102
{ACAD_REACTORS
330
47
102
}
330
47
100
AcDbScale
 70
     0
300
1:2
140
1.0
141
2.0
290
     0
  0
SCALE
  5
4A
102
{ACAD_REACTORS
330
47
102
}
330
47
100
AcDbScale
 70
     0
300
1:4
140
1.0
141
4.0
290
     0
  0
SCALE
  5
4B
102
{ACAD_REACTORS
330
47
102
}
330
47
100
AcDbScale
 70
     0
300
1:5
140
1.0
141
5.0
290
     0
  0
SCALE
  5
4C
102
{ACAD_REACTORS
330
47
102
}
330
47
100
AcDbScale
 70
     0
300
1:8
140
1.0
141
8.0
290
     0
  0
SCALE
  5
4D
102
{ACAD_REACTORS
330
47
102
}
330
47
100
AcDbScale
 70
     0
300
1:10
140
1.0
141
10.0
290
     0
  0
SCALE
  5
4E
102
{ACAD_REACTORS
330
47
102
}
330
47
100
AcDbScale
 70
     0
300
1:16
140
1.0
141
16.0
290
     0
  0
SCALE
  5
4F
102
{ACAD_REACTORS
330
47
102
}
330
47
100
AcDbScale
 70
     0
300
1:20
140
1.0
141
20.0
290
     0
  0
SCALE
  5
50
102
{ACAD_REACTORS
330
47
102
}
330
47
100
AcDbScale
 70
     0
300
1:30
140
1.0
141
30.0
290
     0
  0
SCALE
  5
51
102
{ACAD_REACTORS
330
47
102
}
330
47
100
AcDbScale
 70
     0
300
1:40
140
1.0
141
40.0
290
     0
  0
SCALE
  5
52
102
{ACAD_REACTORS
330
47
102
}
330
47
100
AcDbScale
 70
     0
300
1:50
140
1.0
141
50.0
290
     0
  0
SCALE
  5
53
102
{ACAD_REACTORS
330
47
102
}
330
47
100
AcDbScale
 70
     0
300
1:100
140
1.0
141
100.0
290
     0
  0
SCALE
  5
54
102
{ACAD_REACTORS
330
47
102
}
330
47
100
AcDbScale
 70
     0
300
2:1
140
2.0
141
1.0
290
     0
  0
SCALE
  5
55
102
{ACAD_REACTORS
330
47
102
}
330
47
100
AcDbScale
 70
     0
300
4:1
140
4.0
141
1.0
290
     0
  0
SCALE
  5
56
102
{ACAD_REACTORS
330
47
102
}
330
47
100
AcDbScale
 70
     0
300
8:1
140
8.0
141
1.0
290
     0
  0
SCALE
  5
57
102
{ACAD_REACTORS
330
47
102
}
330
47
100
AcDbScale
 70
     0
300
10:1
140
10.0
141
1.0
290
     0
  0
SCALE
  5
58
102
{ACAD_REACTORS
330
47
102
}
330
47
100
AcDbScale
 70
     0
300
100:1
140
100.0
141
1.0
290
     0
  0
SCALE
  5
59
102
{ACAD_REACTORS
330
47
102
}
330
47
100
AcDbScale
 70
     0
300
1/128" = 1'-0"
140
0.0078125
141
12.0
290
     0
  0
SCALE
  5
5A
102
{ACAD_REACTORS
330
47
102
}
330
47
100
AcDbScale
 70
     0
300
1/64" = 1'-0"
140
0.015625
141
12.0
290
     0
  0
SCALE
  5
5B
102
{ACAD_REACTORS
330
47
102
}
330
47
100
AcDbScale
 70
     0
300
1/32" = 1'-0"
140
0.03125
141
12.0
290
     0
  0
SCALE
  5
5C
102
{ACAD_REACTORS
330
47
102
}
330
47
100
AcDbScale
 70
     0
300
1/16" = 1'-0"
140
0.0625
141
12.0
290
     0
  0
SCALE
  5
5D
102
{ACAD_REACTORS
330
47
102
}
330
47
100
AcDbScale
 70
     0
300
3/32" = 1'-0"
140
0.09375
141
12.0
290
     0
  0
SCALE
  5
5E
102
{ACAD_REACTORS
330
47
102
}
330
47
100
AcDbScale
 70
     0
300
1/8" = 1'-0"
140
0.125
141
12.0
290
     0
  0
SCALE
  5
5F
102
{ACAD_REACTORS
330
47
102
}
330
47
100
AcDbScale
 70
     0
300
3/16" = 1'-0"
140
0.1875
141
12.0
290
     0
  0
SCALE
  5
60
102
{ACAD_REACTORS
330
47
102
}
330
47
100
AcDbScale
 70
     0
300
1/4" = 1'-0"
140
0.25
141
12.0
290
     0
  0
SCALE
  5
61
102
{ACAD_REACTORS
330
47
102
}
330
47
100
AcDbScale
 70
     0
300
3/8" = 1'-0"
140
0.375
141
12.0
290
     0
  0
SCALE
  5
62
102
{ACAD_REACTORS
330
47
102
}
330
47
100
AcDbScale
 70
     0
300
1/2" = 1'-0"
140
0.5
141
12.0
290
     0
  0
SCALE
  5
63
102
{ACAD_REACTORS
330
47
102
}
330
47
100
AcDbScale
 70
     0
300
3/4" = 1'-0"
140
0.75
141
12.0
290
     0
  0
SCALE
  5
64
102
{ACAD_REACTORS
330
47
102
}
330
47
100
AcDbScale
 70
     0
300
1" = 1'-0"
140
1.0
141
12.0
290
     0
  0
SCALE
  5
65
102
{ACAD_REACTORS
330
47
102
}
330
47
100
AcDbScale
 70
     0
300
1-1/2" = 1'-0"
140
1.5
141
12.0
290
     0
  0
SCALE
  5
66
102
{ACAD_REACTORS
330
47
102
}
330
47
100
AcDbScale
 70
     0
300
3" = 1'-0"
140
3.0
141
12.0
290
     0
  0
SCALE
  5
67
102
{ACAD_REACTORS
330
47
102
}
330
47
100
AcDbScale
 70
     0
300
6" = 1'-0"
140
6.0
141
12.0
290
     0
  0
SCALE
  5
68
102
{ACAD_REACTORS
330
47
102
}
330
47
100
AcDbScale
 70
     0
300
1'-0" = 1'-0"
140
12.0
141
12.0
290
     0
  0
ENDSEC
  0
EOF
