  0
SECTION
  2
HEADER
  9
$ACADVER
  1
AC1015
  9
$ACADMAINTVER
 70
     6
  9
$DWGCODEPAGE
  3
ANSI_1252
  9
$INSBASE
 10
0.0
 20
0.0
 30
0.0
  9
$EXTMIN
 10
0.0
 20
0.0
 30
0.0
  9
$EXTMAX
 10
371.25
 20
262.5
 30
0.0
  9
$LIMMIN
 10
0.0
 20
0.0
  9
$LIMMAX
 10
371.25
 20
262.5
  9
$ORTHOMODE
 70
     0
  9
$REGENMODE
 70
     1
  9
$FILLMODE
 70
     1
  9
$QTEXTMODE
 70
     0
  9
$MIRRTEXT
 70
     1
  9
$LTSCALE
 40
1.25
  9
$ATTMODE
 70
     1
  9
$TEXTSIZE
 40
4.8506944444
  9
$TRACEWID
 40
1.0
  9
$TEXTSTYLE
  7
Standard
  9
$CLAYER
  8
0
  9
$CELTYPE
  6
ByLayer
  9
$CECOLOR
 62
   256
  9
$CELTSCALE
 40
1.0
  9
$DISPSILH
 70
     0
  9
$DIMSCALE
 40
1.0
  9
$DIMASZ
 40
4.1275
  9
$DIMEXO
 40
1.25
  9
$DIMDLI
 40
3.75
  9
$DIMRND
 40
0.0
  9
$DIMDLE
 40
0.0
  9
$DIMEXE
 40
1.25
  9
$DIMTP
 40
0.0
  9
$DIMTM
 40
0.0
  9
$DIMTXT
 40
4.8506944444
  9
$DIMCEN
 40
2.5
  9
$DIMTSZ
 40
0.0
  9
$DIMTOL
 70
     0
  9
$DIMLIM
 70
     0
  9
$DIMTIH
 70
     1
  9
$DIMTOH
 70
     1
  9
$DIMSE1
 70
     0
  9
$DIMSE2
 70
     0
  9
$DIMTAD
 70
     1
  9
$DIMZIN
 70
     0
  9
$DIMBLK
  1

  9
$DIMASO
 70
     1
  9
$DIMSHO
 70
     1
  9
$DIMPOST
  1

  9
$DIMAPOST
  1

  9
$DIMALT
 70
     0
  9
$DIMALTD
 70
     3
  9
$DIMALTF
 40
0.0393700787
  9
$DIMLFAC
 40
1.0
  9
$DIMTOFL
 70
     1
  9
$DIMTVP
 40
0.0
  9
$DIMTIX
 70
     0
  9
$DIMSOXD
 70
     0
  9
$DIMSAH
 70
     0
  9
$DIMBLK1
  1

  9
$DIMBLK2
  1

  9
$DIMSTYLE
  2
ISO-25
  9
$DIMCLRD
 70
     0
  9
$DIMCLRE
 70
     0
  9
$DIMCLRT
 70
     0
  9
$DIMTFAC
 40
1.0
  9
$DIMGAP
 40
1.905
  9
$DIMJUST
 70
     0
  9
$DIMSD1
 70
     0
  9
$DIMSD2
 70
     0
  9
$DIMTOLJ
 70
     0
  9
$DIMTZIN
 70
     0
  9
$DIMALTZ
 70
     0
  9
$DIMALTTZ
 70
     0
  9
$DIMUPT
 70
     0
  9
$DIMDEC
 70
     2
  9
$DIMTDEC
 70
     2
  9
$DIMALTU
 70
     2
  9
$DIMALTTD
 70
     3
  9
$DIMTXSTY
  7
Standard
  9
$DIMAUNIT
 70
     0
  9
$DIMADEC
 70
     2
  9
$DIMALTRND
 40
0.0
  9
$DIMAZIN
 70
     0
  9
$DIMDSEP
 70
    44
  9
$DIMATFIT
 70
     3
  9
$DIMFRAC
 70
     0
  9
$DIMLDRBLK
  1

  9
$DIMLUNIT
 70
     2
  9
$DIMLWD
 70
    -2
  9
$DIMLWE
 70
    -2
  9
$DIMTMOVE
 70
     0
  9
$LUNITS
 70
     2
  9
$LUPREC
 70
     2
  9
$SKETCHINC
 40
1.0
  9
$FILLETRAD
 40
10.0
  9
$AUNITS
 70
     1
  9
$AUPREC
 70
     2
  9
$MENU
  1
.
  9
$ELEVATION
 40
0.0
  9
$PELEVATION
 40
0.0
  9
$THICKNESS
 40
0.0
  9
$LIMCHECK
 70
     0
  9
$CHAMFERA
 40
0.0
  9
$CHAMFERB
 40
0.0
  9
$CHAMFERC
 40
0.0
  9
$CHAMFERD
 40
0.0
  9
$SKPOLY
 70
     0
  9
$TDCREATE
 40
2458600.665476493
  9
$TDUCREATE
 40
2458600.436309827
  9
$TDUPDATE
 40
2458600.66547765
  9
$TDUUPDATE
 40
2458600.436310984
  9
$TDINDWG
 40
0.0000000116
  9
$TDUSRTIMER
 40
0.0000000116
  9
$USRTIMER
 70
     1
  9
$ANGBASE
 50
0.0
  9
$ANGDIR
 70
     0
  9
$PDMODE
 70
     0
  9
$PDSIZE
 40
-1.0
  9
$PLINEWID
 40
0.0
  9
$SPLFRAME
 70
     0
  9
$SPLINETYPE
 70
     6
  9
$SPLINESEGS
 70
     8
  9
$HANDSEED
  5
1C6
  9
$SURFTAB1
 70
     6
  9
$SURFTAB2
 70
     6
  9
$SURFTYPE
 70
     6
  9
$SURFU
 70
     6
  9
$SURFV
 70
     6
  9
$UCSBASE
  2

  9
$UCSNAME
  2

  9
$UCSORG
 10
0.0
 20
0.0
 30
0.0
  9
$UCSXDIR
 10
1.0
 20
0.0
 30
0.0
  9
$UCSYDIR
 10
0.0
 20
1.0
 30
0.0
  9
$UCSORTHOREF
  2

  9
$UCSORTHOVIEW
 70
     0
  9
$UCSORGTOP
 10
0.0
 20
0.0
 30
0.0
  9
$UCSORGBOTTOM
 10
0.0
 20
0.0
 30
0.0
  9
$UCSORGLEFT
 10
0.0
 20
0.0
 30
0.0
  9
$UCSORGRIGHT
 10
0.0
 20
0.0
 30
0.0
  9
$UCSORGFRONT
 10
0.0
 20
0.0
 30
0.0
  9
$UCSORGBACK
 10
0.0
 20
0.0
 30
0.0
  9
$PUCSBASE
  2

  9
$PUCSNAME
  2

  9
$PUCSORG
 10
0.0
 20
0.0
 30
0.0
  9
$PUCSXDIR
 10
1.0
 20
0.0
 30
0.0
  9
$PUCSYDIR
 10
0.0
 20
1.0
 30
0.0
  9
$PUCSORTHOREF
  2

  9
$PUCSORTHOVIEW
 70
     0
  9
$PUCSORGTOP
 10
0.0
 20
0.0
 30
0.0
  9
$PUCSORGBOTTOM
 10
0.0
 20
0.0
 30
0.0
  9
$PUCSORGLEFT
 10
0.0
 20
0.0
 30
0.0
  9
$PUCSORGRIGHT
 10
0.0
 20
0.0
 30
0.0
  9
$PUCSORGFRONT
 10
0.0
 20
0.0
 30
0.0
  9
$PUCSORGBACK
 10
0.0
 20
0.0
 30
0.0
  9
$USERI1
 70
     0
  9
$USERI2
 70
     0
  9
$USERI3
 70
     0
  9
$USERI4
 70
     0
  9
$USERI5
 70
     0
  9
$USERR1
 40
0.0
  9
$USERR2
 40
0.0
  9
$USERR3
 40
0.0
  9
$USERR4
 40
0.0
  9
$USERR5
 40
0.0
  9
$WORLDVIEW
 70
     1
  9
$SHADEDGE
 70
     3
  9
$SHADEDIF
 70
    70
  9
$TILEMODE
 70
     1
  9
$MAXACTVP
 70
    64
  9
$PINSBASE
 10
0.0
 20
0.0
 30
0.0
  9
$PLIMCHECK
 70
     0
  9
$PEXTMIN
 10
1.0000000000E+20
 20
1.0000000000E+20
 30
1.0000000000E+20
  9
$PEXTMAX
 10
-1.0000000000E+20
 20
-1.0000000000E+20
 30
-1.0000000000E+20
  9
$PLIMMIN
 10
0.0
 20
0.0
  9
$PLIMMAX
 10
420.0
 20
297.0
  9
$UNITMODE
 70
     0
  9
$VISRETAIN
 70
     1
  9
$PLINEGEN
 70
     0
  9
$PSLTSCALE
 70
     1
  9
$TREEDEPTH
 70
  3020
  9
$CMLSTYLE
  2
Standard
  9
$CMLJUST
 70
     0
  9
$CMLSCALE
 40
20.0
  9
$PROXYGRAPHICS
 70
     1
  9
$MEASUREMENT
 70
     1
  9
$CELWEIGHT
370
    -1
  9
$ENDCAPS
280
     0
  9
$JOINSTYLE
280
     0
  9
$LWDISPLAY
290
     1
  9
$INSUNITS
 70
     4
  9
$HYPERLINKBASE
  1

  9
$STYLESHEET
  1

  9
$XEDIT
290
     1
  9
$CEPSNTYPE
380
     0
  9
$PSTYLEMODE
290
     1
  9
$FINGERPRINTGUID
  2
{6AA31D56-09EA-422A-8F70-1EE2231A980F}
  9
$VERSIONGUID
  2
{FAEB1C32-E019-11D5-929B-00C0DF256EC4}
  9
$EXTNAMES
290
     1
  9
$PSVPSCALE
 40
0.0
  9
$OLESTARTUP
290
     0
  0
ENDSEC
  0
SECTION
  2
CLASSES
  0
CLASS
  1
ACDBDICTIONARYWDFLT
  2
AcDbDictionaryWithDefault
  3
ObjectDBX Classes
 90
        0
280
     0
281
     0
  0
CLASS
  1
VISUALSTYLE
  2
AcDbVisualStyle
  3
ObjectDBX Classes
 90
     4095
280
     0
281
     0
  0
CLASS
  1
MATERIAL
  2
AcDbMaterial
  3
ObjectDBX Classes
 90
     1153
280
     0
281
     0
  0
CLASS
  1
SCALE
  2
AcDbScale
  3
ObjectDBX Classes
 90
     1153
280
     0
281
     0
  0
CLASS
  1
SUN
  2
AcDbSun
  3
SCENEOE
 90
     1153
280
     0
281
     0
  0
CLASS
  1
ACDBPLACEHOLDER
  2
AcDbPlaceHolder
  3
ObjectDBX Classes
 90
        0
280
     0
281
     0
  0
CLASS
  1
LAYOUT
  2
AcDbLayout
  3
ObjectDBX Classes
 90
        0
280
     0
281
     0
  0
ENDSEC
  0
SECTION
  2
TABLES
  0
TABLE
  2
VPORT
  5
8
330
0
100
AcDbSymbolTable
 70
     1
  0
VPORT
  5
29
330
8
100
AcDbSymbolTableRecord
100
AcDbViewportTableRecord
  2
*Active
 70
     0
 10
0.0
 20
0.0
 11
1.0
 21
1.0
 12
185.625
 22
131.25
 13
0.0
 23
0.0
 14
10.0
 24
10.0
 15
10.0
 25
10.0
 16
0.0
 26
0.0
 36
1.0
 17
0.0
 27
0.0
 37
0.0
 40
262.5
 41
1.4142857143
 42
50.0
 43
0.0
 44
0.0
 50
0.0
 51
0.0
 71
     0
 72
  2000
 73
     1
 74
     3
 75
     0
 76
     0
 77
     0
 78
     0
281
     0
 65
     1
110
0.0
120
0.0
130
0.0
111
1.0
121
0.0
131
0.0
112
0.0
122
1.0
132
0.0
 79
     0
146
0.0
  0
ENDTAB
  0
TABLE
  2
LTYPE
  5
5
330
0
100
AcDbSymbolTable
 70
     6
  0
LTYPE
  5
14
330
5
100
AcDbSymbolTableRecord
100
AcDbLinetypeTableRecord
  2
ByBlock
 70
     0
  3

 72
    65
 73
     0
 40
0.0
  0
LTYPE
  5
15
330
5
100
AcDbSymbolTableRecord
100
AcDbLinetypeTableRecord
  2
ByLayer
 70
     0
  3

 72
    65
 73
     0
 40
0.0
  0
LTYPE
  5
16
330
5
100
AcDbSymbolTableRecord
100
AcDbLinetypeTableRecord
  2
Continuous
 70
     0
  3
Solid line
 72
    65
 73
     0
 40
0.0
  0
LTYPE
  5
6A
330
5
100
AcDbSymbolTableRecord
100
AcDbLinetypeTableRecord
  2
HIDDEN
 70
     0
  3
Hidden __ __ __ __ __ __ __ __ __ __ __ __ __ __
 72
    65
 73
     2
 40
1.905
 49
1.27
 74
     0
 49
-0.635
 74
     0
  0
LTYPE
  5
6B
330
5
100
AcDbSymbolTableRecord
100
AcDbLinetypeTableRecord
  2
PHANTOM
 70
     0
  3
Phantom ______  __  __  ______  __  __  ______
 72
    65
 73
     6
 40
12.7
 49
6.35
 74
     0
 49
-1.27
 74
     0
 49
1.27
 74
     0
 49
-1.27
 74
     0
 49
1.27
 74
     0
 49
-1.27
 74
     0
  0
LTYPE
  5
6C
330
5
100
AcDbSymbolTableRecord
100
AcDbLinetypeTableRecord
  2
CENTER
 70
     0
  3
Center ____ _ ____ _ ____ _ ____ _ ____ _ ____
 72
    65
 73
     4
 40
10.16
 49
6.35
 74
     0
 49
-1.27
 74
     0
 49
1.27
 74
     0
 49
-1.27
 74
     0
  0
LTYPE
  5
6D
330
5
100
AcDbSymbolTableRecord
100
AcDbLinetypeTableRecord
  2
CENTERX2
 70
     0
  3
Center (2x) ________  __  ________  __  _____
 72
    65
 73
     4
 40
20.32
 49
12.7
 74
     0
 49
-2.54
 74
     0
 49
2.54
 74
     0
 49
-2.54
 74
     0
  0
LTYPE
  5
6E
330
5
100
AcDbSymbolTableRecord
100
AcDbLinetypeTableRecord
  2
DOT2
 70
     0
  3
Dot (.5x) ........................................
 72
    65
 73
     2
 40
0.635
 49
0.0
 74
     0
 49
-0.635
 74
     0
  0
ENDTAB
  0
TABLE
  2
LAYER
  5
2
330
0
100
AcDbSymbolTable
 70
     8
  0
LAYER
  5
10
330
2
100
AcDbSymbolTableRecord
100
AcDbLayerTableRecord
  2
0
 70
     0
 62
     7
  6
Continuous
370
    -3
390
F
  0
LAYER
  5
6F
330
2
100
AcDbSymbolTableRecord
100
AcDbLayerTableRecord
  2
FORMAT
 70
     0
 62
     7
  6
Continuous
370
    -3
390
F
  0
LAYER
  5
70
330
2
100
AcDbSymbolTableRecord
100
AcDbLayerTableRecord
  2
SLD-0
 70
     0
 62
     2
  6
Continuous
370
    -3
390
F
  0
LAYER
  5
71
330
2
100
AcDbSymbolTableRecord
100
AcDbLayerTableRecord
  2
DIM
 70
     0
 62
   179
  6
Continuous
370
    -3
390
F
  0
LAYER
  5
72
330
2
100
AcDbSymbolTableRecord
100
AcDbLayerTableRecord
  2
SLD-DEFPOINTS
 70
     0
 62
   179
  6
Continuous
370
    -3
390
F
  0
LAYER
  5
73
330
2
100
AcDbSymbolTableRecord
100
AcDbLayerTableRecord
  2
HAT
 70
     0
 62
   135
  6
Continuous
370
    -3
390
F
  0
LAYER
  5
74
330
2
100
AcDbSymbolTableRecord
100
AcDbLayerTableRecord
  2
JOB
 70
     0
 62
   201
  6
Continuous
370
    -3
390
F
  0
LAYER
  5
75
330
2
100
AcDbSymbolTableRecord
100
AcDbLayerTableRecord
  2
INSPECTION_REPORT
 70
     0
 62
   255
  6
Continuous
370
    -3
390
F
  0
ENDTAB
  0
TABLE
  2
STYLE
  5
3
330
0
100
AcDbSymbolTable
 70
     4
  0
STYLE
  5
11
330
3
100
AcDbSymbolTableRecord
100
AcDbTextStyleTableRecord
  2
Standard
 70
     0
 40
0.0
 41
1.0
 50
0.0
 71
     0
 42
4.8506944444
  3
txt
  4

  0
STYLE
  5
96
330
3
100
AcDbSymbolTableRecord
100
AcDbTextStyleTableRecord
  2
SLDTEXTSTYLE0
 70
     0
 40
0.0
 41
0.7
 50
0.0
 71
     0
 42
4.8506944444
  3
TXT
  4

  0
STYLE
  5
98
330
3
100
AcDbSymbolTableRecord
100
AcDbTextStyleTableRecord
  2
SLDTEXTSTYLE1
 70
     0
 40
0.0
 41
0.75
 50
0.0
 71
     0
 42
4.8506944444
  3
TXT
  4

  0
STYLE
  5
AB
330
3
100
AcDbSymbolTableRecord
100
AcDbTextStyleTableRecord
  2
SLDTEXTSTYLE2
 70
     0
 40
0.0
 41
0.6875
 50
0.0
 71
     0
 42
4.8506944444
  3
TXT
  4

  0
ENDTAB
  0
TABLE
  2
VIEW
  5
6
330
0
100
AcDbSymbolTable
 70
     0
  0
ENDTAB
  0
TABLE
  2
UCS
  5
7
330
0
100
AcDbSymbolTable
 70
     0
  0
ENDTAB
  0
TABLE
  2
APPID
  5
9
330
0
100
AcDbSymbolTable
 70
     1
  0
APPID
  5
12
330
9
100
AcDbSymbolTableRecord
100
AcDbRegAppTableRecord
  2
ACAD
 70
     0
  0
ENDTAB
  0
TABLE
  2
DIMSTYLE
  5
A
330
0
100
AcDbSymbolTable
 70
     3
100
AcDbDimStyleTable
  0
DIMSTYLE
105
27
330
A
100
AcDbSymbolTableRecord
100
AcDbDimStyleTableRecord
  2
ISO-25
 70
     0
 41
2.5
 42
0.625
 43
3.75
 44
1.25
 73
     0
 74
     0
 77
     1
 78
     8
140
2.5
141
2.5
143
0.0393700787
147
0.625
171
     3
172
     1
178
     0
271
     2
272
     2
274
     3
278
    44
283
     0
284
     8
340
11
  0
DIMSTYLE
105
18F
102
{ACAD_REACTORS
330
18E
330
1AF
330
1BA
102
}
330
A
100
AcDbSymbolTableRecord
100
AcDbDimStyleTableRecord
  2
SLDDIMSTYLE0
 70
     0
 41
4.1275
 44
0.0
 45
0.000000001
 73
     0
 74
     0
 77
     1
 78
     4
 79
     1
140
3.6380208333
147
0.9095052083
173
     1
178
     0
271
     2
272
     2
276
     2
284
    12
340
96
  0
DIMSTYLE
105
19A
102
{ACAD_REACTORS
330
199
330
1A4
102
}
330
A
100
AcDbSymbolTableRecord
100
AcDbDimStyleTableRecord
  2
SLDDIMSTYLE1
 70
     0
 41
4.1275
 44
0.0
 45
0.000000001
 73
     0
 74
     0
 77
     1
 78
    12
 79
     3
140
3.6380208333
147
0.9095052083
173
     1
178
     0
271
     2
272
     2
276
     2
284
    12
340
96
  0
ENDTAB
  0
TABLE
  2
BLOCK_RECORD
  5
1
330
0
100
AcDbSymbolTable
 70
     7
  0
BLOCK_RECORD
  5
1F
330
1
100
AcDbSymbolTableRecord
100
AcDbBlockTableRecord
  2
*Model_Space
340
22
  0
BLOCK_RECORD
  5
1B
330
1
100
AcDbSymbolTableRecord
100
AcDbBlockTableRecord
  2
*Paper_Space
340
1E
  0
BLOCK_RECORD
  5
23
330
1
100
AcDbSymbolTableRecord
100
AcDbBlockTableRecord
  2
*Paper_Space0
340
26
  0
BLOCK_RECORD
  5
FC
330
1
100
AcDbSymbolTableRecord
100
AcDbBlockTableRecord
  2
SW_CENTERMARKSYMBOL_0
340
0
102
{BLKREFS
331
107
102
}
  0
BLOCK_RECORD
  5
190
330
1
100
AcDbSymbolTableRecord
100
AcDbBlockTableRecord
  2
_D
340
0
  0
BLOCK_RECORD
  5
19B
330
1
100
AcDbSymbolTableRecord
100
AcDbBlockTableRecord
  2
_D_1
340
0
  0
BLOCK_RECORD
  5
1A5
330
1
100
AcDbSymbolTableRecord
100
AcDbBlockTableRecord
  2
_D_2
340
0
  0
BLOCK_RECORD
  5
1B0
330
1
100
AcDbSymbolTableRecord
100
AcDbBlockTableRecord
  2
_D_3
340
0
  0
BLOCK_RECORD
  5
1BB
330
1
100
AcDbSymbolTableRecord
100
AcDbBlockTableRecord
  2
_D_4
340
0
  0
ENDTAB
  0
ENDSEC
  0
SECTION
  2
BLOCKS
  0
BLOCK
  5
20
330
1F
100
AcDbEntity
  8
0
100
AcDbBlockBegin
  2
*Model_Space
 70
     0
 10
0.0
 20
0.0
 30
0.0
  3
*Model_Space
  1
*Model_Space
  0
ENDBLK
  5
21
330
1F
100
AcDbEntity
  8
0
100
AcDbBlockEnd
  0
BLOCK
  5
1C
330
1B
100
AcDbEntity
 67
     1
  8
0
100
AcDbBlockBegin
  2
*Paper_Space
 70
     0
 10
0.0
 20
0.0
 30
0.0
  3
*Paper_Space
  1
*Paper_Space
  0
ENDBLK
  5
1D
330
1B
100
AcDbEntity
 67
     1
  8
0
100
AcDbBlockEnd
  0
BLOCK
  5
24
330
23
100
AcDbEntity
  8
0
100
AcDbBlockBegin
  2
*Paper_Space0
 70
     0
 10
0.0
 20
0.0
 30
0.0
  3
*Paper_Space0
  1
*Paper_Space0
  0
ENDBLK
  5
25
330
23
100
AcDbEntity
  8
0
100
AcDbBlockEnd
  0
BLOCK
  5
FD
330
FC
100
AcDbEntity
  8
0
100
AcDbBlockBegin
  2
SW_CENTERMARKSYMBOL_0
 70
     0
 10
0.0
 20
0.0
 30
0.0
  3
SW_CENTERMARKSYMBOL_0
  1
SW_CENTERMARKSYMBOL_0
  0
LINE
  5
FF
330
FC
100
AcDbEntity
  8
DIM
 62
     0
100
AcDbLine
 10
0.0
 20
0.0
 30
0.0
 11
0.0
 21
2.5
 31
0.0
  0
LINE
  5
100
330
FC
100
AcDbEntity
  8
DIM
 62
     0
100
AcDbLine
 10
0.0
 20
0.0
 30
0.0
 11
-2.5
 21
0.0
 31
0.0
  0
LINE
  5
101
330
FC
100
AcDbEntity
  8
DIM
 62
     0
100
AcDbLine
 10
0.0
 20
0.0
 30
0.0
 11
0.0
 21
-2.5
 31
0.0
  0
LINE
  5
102
330
FC
100
AcDbEntity
  8
DIM
 62
     0
100
AcDbLine
 10
0.0
 20
0.0
 30
0.0
 11
2.5
 21
0.0
 31
0.0
  0
LINE
  5
103
330
FC
100
AcDbEntity
  8
DIM
 62
     0
100
AcDbLine
 10
0.0
 20
5.0
 30
0.0
 11
0.0
 21
33.3671572867
 31
0.0
  0
LINE
  5
104
330
FC
100
AcDbEntity
  8
DIM
 62
     0
100
AcDbLine
 10
-5.0
 20
0.0
 30
0.0
 11
-33.3671572867
 21
0.0
 31
0.0
  0
LINE
  5
105
330
FC
100
AcDbEntity
  8
DIM
 62
     0
100
AcDbLine
 10
0.0
 20
-5.0
 30
0.0
 11
0.0
 21
-33.3671572867
 31
0.0
  0
LINE
  5
106
330
FC
100
AcDbEntity
  8
DIM
 62
     0
100
AcDbLine
 10
5.0
 20
0.0
 30
0.0
 11
33.3671572867
 21
0.0
 31
0.0
  0
ENDBLK
  5
FE
330
FC
100
AcDbEntity
  8
0
100
AcDbBlockEnd
  0
BLOCK
  5
191
330
190
100
AcDbEntity
  8
0
100
AcDbBlockBegin
  2
_D
 70
     0
 10
0.0
 20
0.0
 30
0.0
  3
_D
  1
_D
  0
SOLID
  5
193
330
190
100
AcDbEntity
  8
DIM
100
AcDbTrace
 10
138.3654159595
 20
84.1984551885
 30
0.0
 11
142.4929159595
 21
83.5634551885
 31
0.0
 12
142.4929159595
 22
84.8334551885
 32
0.0
 13
142.4929159595
 23
84.8334551885
 33
0.0
  0
SOLID
  5
194
330
190
100
AcDbEntity
  8
DIM
100
AcDbTrace
 10
306.7654159595
 20
84.1984551885
 30
0.0
 11
302.6379159595
 21
84.8334551885
 31
0.0
 12
302.6379159595
 22
83.5634551885
 32
0.0
 13
302.6379159595
 23
83.5634551885
 33
0.0
  0
LINE
  5
195
330
190
100
AcDbEntity
  8
DIM
100
AcDbLine
 10
138.3654159595
 20
134.6984551891
 30
0.0
 11
138.3654159595
 21
82.9484551885
 31
0.0
  0
LINE
  5
196
330
190
100
AcDbEntity
  8
DIM
100
AcDbLine
 10
306.7654159595
 20
114.6984551891
 30
0.0
 11
306.7654159595
 21
82.9484551885
 31
0.0
  0
LINE
  5
197
330
190
100
AcDbEntity
  8
DIM
100
AcDbLine
 10
138.3654159595
 20
84.1984551885
 30
0.0
 11
306.7654159595
 21
84.1984551885
 31
0.0
  0
MTEXT
  5
198
330
190
100
AcDbEntity
  8
DIM
100
AcDbMText
 10
215.7710749345
 20
88.8881107725
 30
0.0
 40
3.6380208333
 41
0.0
 71
     1
 72
     1
  1
168.40
  7
SLDTEXTSTYLE0
 73
     1
 44
1.0
  0
ENDBLK
  5
192
330
190
100
AcDbEntity
  8
0
100
AcDbBlockEnd
  0
BLOCK
  5
19C
330
19B
100
AcDbEntity
  8
0
100
AcDbBlockBegin
  2
_D_1
 70
     0
 10
0.0
 20
0.0
 30
0.0
  3
_D_1
  1
_D_1
  0
SOLID
  5
19E
330
19B
100
AcDbEntity
  8
DIM
100
AcDbTrace
 10
206.7654159595
 20
96.5980733515
 30
0.0
 11
210.8929159595
 21
95.9630733515
 31
0.0
 12
210.8929159595
 22
97.2330733515
 32
0.0
 13
210.8929159595
 23
97.2330733515
 33
0.0
  0
SOLID
  5
19F
330
19B
100
AcDbEntity
  8
DIM
100
AcDbTrace
 10
306.7654159595
 20
96.5980733515
 30
0.0
 11
302.6379159595
 21
97.2330733515
 31
0.0
 12
302.6379159595
 22
95.9630733515
 32
0.0
 13
302.6379159595
 23
95.9630733515
 33
0.0
  0
LINE
  5
1A0
330
19B
100
AcDbEntity
  8
DIM
100
AcDbLine
 10
206.7654159595
 20
112.4734551891
 30
0.0
 11
206.7654159595
 21
95.3480733515
 31
0.0
  0
LINE
  5
1A1
330
19B
100
AcDbEntity
  8
DIM
100
AcDbLine
 10
306.7654159595
 20
114.6984551891
 30
0.0
 11
306.7654159595
 21
95.3480733515
 31
0.0
  0
LINE
  5
1A2
330
19B
100
AcDbEntity
  8
DIM
100
AcDbLine
 10
206.7654159595
 20
96.5980733515
 30
0.0
 11
306.7654159595
 21
96.5980733515
 31
0.0
  0
MTEXT
  5
1A3
330
19B
100
AcDbEntity
  8
DIM
100
AcDbMText
 10
253.0768669187
 20
101.2877289354
 30
0.0
 40
3.6380208333
 41
0.0
 71
     1
 72
     1
  1
100
  7
SLDTEXTSTYLE0
 73
     1
 44
1.0
  0
ENDBLK
  5
19D
330
19B
100
AcDbEntity
  8
0
100
AcDbBlockEnd
  0
BLOCK
  5
1A6
330
1A5
100
AcDbEntity
  8
0
100
AcDbBlockBegin
  2
_D_2
 70
     0
 10
0.0
 20
0.0
 30
0.0
  3
_D_2
  1
_D_2
  0
SOLID
  5
1A8
330
1A5
100
AcDbEntity
  8
DIM
100
AcDbTrace
 10
320.7728924775
 20
160.9484551891
 30
0.0
 11
320.1378924775
 21
156.8209551891
 31
0.0
 12
321.4078924775
 22
156.8209551891
 32
0.0
 13
321.4078924775
 23
156.8209551891
 33
0.0
  0
SOLID
  5
1A9
330
1A5
100
AcDbEntity
  8
DIM
100
AcDbTrace
 10
320.7728924775
 20
110.9484551891
 30
0.0
 11
321.4078924775
 21
115.0759551891
 31
0.0
 12
320.1378924775
 22
115.0759551891
 32
0.0
 13
320.1378924775
 23
115.0759551891
 33
0.0
  0
LINE
  5
1AA
330
1A5
100
AcDbEntity
  8
DIM
100
AcDbLine
 10
305.1286646135
 20
160.9484551891
 30
0.0
 11
322.0228924775
 21
160.9484551891
 31
0.0
  0
LINE
  5
1AB
330
1A5
100
AcDbEntity
  8
DIM
100
AcDbLine
 10
305.1286646135
 20
110.9484551891
 30
0.0
 11
322.0228924775
 21
110.9484551891
 31
0.0
  0
LINE
  5
1AC
330
1A5
100
AcDbEntity
  8
DIM
100
AcDbLine
 10
320.7728924775
 20
160.9484551891
 30
0.0
 11
320.7728924775
 21
110.9484551891
 31
0.0
  0
MTEXT
  5
1AD
330
1A5
100
AcDbEntity
  8
DIM
100
AcDbMText
 10
316.0832368935
 20
130.676525058
 30
0.0
 40
3.6380208333
 41
0.0
 71
     1
 72
     1
  1
%%c
  7
SLDTEXTSTYLE0
 11
-7.044195017643634E-15
 21
1.0
 31
0.0
 73
     1
 44
1.0
  0
MTEXT
  5
1AE
330
1A5
100
AcDbEntity
  8
DIM
100
AcDbMText
 10
316.0832368935
 20
136.3023199325
 30
0.0
 40
3.6380208333
 41
0.0
 71
     1
 72
     1
  1
50
  7
SLDTEXTSTYLE0
 11
-7.044195017643634E-15
 21
1.0
 31
0.0
 73
     1
 44
1.0
  0
ENDBLK
  5
1A7
330
1A5
100
AcDbEntity
  8
0
100
AcDbBlockEnd
  0
BLOCK
  5
1B1
330
1B0
100
AcDbEntity
  8
0
100
AcDbBlockBegin
  2
_D_3
 70
     0
 10
0.0
 20
0.0
 30
0.0
  3
_D_3
  1
_D_3
  0
SOLID
  5
1B3
330
1B0
100
AcDbEntity
  8
DIM
100
AcDbTrace
 10
132.8571777085
 20
167.6984551891
 30
0.0
 11
132.2221777085
 21
163.5709551891
 31
0.0
 12
133.4921777085
 22
163.5709551891
 32
0.0
 13
133.4921777085
 23
163.5709551891
 33
0.0
  0
SOLID
  5
1B4
330
1B0
100
AcDbEntity
  8
DIM
100
AcDbTrace
 10
132.8571777085
 20
104.1984551891
 30
0.0
 11
133.4921777085
 21
108.3259551891
 31
0.0
 12
132.2221777085
 22
108.3259551891
 32
0.0
 13
132.2221777085
 23
108.3259551891
 33
0.0
  0
LINE
  5
1B5
330
1B0
100
AcDbEntity
  8
DIM
100
AcDbLine
 10
209.8811013846
 20
167.6984551891
 30
0.0
 11
131.6071777085
 21
167.6984551891
 31
0.0
  0
LINE
  5
1B6
330
1B0
100
AcDbEntity
  8
DIM
100
AcDbLine
 10
209.8811013846
 20
104.1984551891
 30
0.0
 11
131.6071777085
 21
104.1984551891
 31
0.0
  0
LINE
  5
1B7
330
1B0
100
AcDbEntity
  8
DIM
100
AcDbLine
 10
132.8571777085
 20
167.6984551891
 30
0.0
 11
132.8571777085
 21
104.1984551891
 31
0.0
  0
MTEXT
  5
1B8
330
1B0
100
AcDbEntity
  8
DIM
100
AcDbMText
 10
128.1675221245
 20
127.5707330738
 30
0.0
 40
3.6380208333
 41
0.0
 71
     1
 72
     1
  1
%%c
  7
SLDTEXTSTYLE0
 11
-7.044195017643634E-15
 21
1.0
 31
0.0
 73
     1
 44
1.0
  0
MTEXT
  5
1B9
330
1B0
100
AcDbEntity
  8
DIM
100
AcDbMText
 10
128.1675221245
 20
133.1965279483
 30
0.0
 40
3.6380208333
 41
0.0
 71
     1
 72
     1
  1
63.50
  7
SLDTEXTSTYLE0
 11
-7.044195017643634E-15
 21
1.0
 31
0.0
 73
     1
 44
1.0
  0
ENDBLK
  5
1B2
330
1B0
100
AcDbEntity
  8
0
100
AcDbBlockEnd
  0
BLOCK
  5
1BC
330
1BB
100
AcDbEntity
  8
0
100
AcDbBlockBegin
  2
_D_4
 70
     0
 10
0.0
 20
0.0
 30
0.0
  3
_D_4
  1
_D_4
  0
SOLID
  5
1BE
330
1BB
100
AcDbEntity
  8
DIM
100
AcDbTrace
 10
314.8060497163
 20
155.6984551891
 30
0.0
 11
314.1710497163
 21
151.5709551891
 31
0.0
 12
315.4410497163
 22
151.5709551891
 32
0.0
 13
315.4410497163
 23
151.5709551891
 33
0.0
  0
SOLID
  5
1BF
330
1BB
100
AcDbEntity
  8
DIM
100
AcDbTrace
 10
314.8060497163
 20
116.1984551891
 30
0.0
 11
315.4410497163
 21
120.3259551891
 31
0.0
 12
314.1710497163
 22
120.3259551891
 32
0.0
 13
314.1710497163
 23
120.3259551891
 33
0.0
  0
LINE
  5
1C0
330
1BB
100
AcDbEntity
  8
DIM
100
AcDbLine
 10
270.5865145755
 20
155.6984551891
 30
0.0
 11
316.0560497163
 21
155.6984551891
 31
0.0
  0
LINE
  5
1C1
330
1BB
100
AcDbEntity
  8
DIM
100
AcDbLine
 10
270.5865145755
 20
116.1984551891
 30
0.0
 11
316.0560497163
 21
116.1984551891
 31
0.0
  0
LINE
  5
1C2
330
1BB
100
AcDbEntity
  8
DIM
100
AcDbLine
 10
314.8060497163
 20
155.6984551891
 30
0.0
 11
314.8060497163
 21
116.1984551891
 31
0.0
  0
MTEXT
  5
1C3
330
1BB
100
AcDbEntity
  8
DIM
100
AcDbMText
 10
310.1163941324
 20
127.5707330738
 30
0.0
 40
3.6380208333
 41
0.0
 71
     1
 72
     1
  1
%%c
  7
SLDTEXTSTYLE0
 11
-7.044195017643634E-15
 21
1.0
 31
0.0
 73
     1
 44
1.0
  0
MTEXT
  5
1C4
330
1BB
100
AcDbEntity
  8
DIM
100
AcDbMText
 10
310.1163941324
 20
133.1965279483
 30
0.0
 40
3.6380208333
 41
0.0
 71
     1
 72
     1
  1
39.50
  7
SLDTEXTSTYLE0
 11
-7.044195017643634E-15
 21
1.0
 31
0.0
 73
     1
 44
1.0
  0
ENDBLK
  5
1BD
330
1BB
100
AcDbEntity
  8
0
100
AcDbBlockEnd
  0
ENDSEC
  0
SECTION
  2
ENTITIES
  0
LINE
  5
76
330
1F
100
AcDbEntity
  8
DIM
100
AcDbLine
 10
130.8805308612
 20
12.2387393211
 30
0.0
 11
130.8805308612
 21
5.9887393211
 31
0.0
  0
LINE
  5
77
330
1F
100
AcDbEntity
  8
DIM
100
AcDbLine
 10
318.0870021191
 20
12.2387393211
 30
0.0
 11
318.0870021191
 21
5.9887393211
 31
0.0
  0
LINE
  5
78
330
1F
100
AcDbEntity
  8
DIM
100
AcDbLine
 10
296.8146374145
 20
12.2387393211
 30
0.0
 11
296.8146374145
 21
5.9887393211
 31
0.0
  0
LINE
  5
79
330
1F
100
AcDbEntity
  8
DIM
100
AcDbLine
 10
348.6305308612
 20
5.9887393211
 30
0.0
 11
348.6305308612
 21
12.2387393211
 31
0.0
  0
LINE
  5
7A
330
1F
100
AcDbEntity
  8
DIM
100
AcDbLine
 10
140.6305308612
 20
12.2387393211
 30
0.0
 11
140.6305308612
 21
5.9887393211
 31
0.0
  0
LINE
  5
7B
330
1F
100
AcDbEntity
  8
DIM
100
AcDbLine
 10
164.6192214035
 20
12.2387393211
 30
0.0
 11
164.6192214035
 21
5.9887393211
 31
0.0
  0
LINE
  5
7C
330
1F
100
AcDbEntity
  8
DIM
100
AcDbLine
 10
364.8805308612
 20
5.9887393211
 30
0.0
 11
364.8805308612
 21
96.3012393211
 31
0.0
  0
LINE
  5
7D
330
1F
100
AcDbEntity
  8
DIM
100
AcDbLine
 10
357.2737558684
 20
75.0512393211
 30
0.0
 11
364.8805308612
 21
75.0512393211
 31
0.0
  0
LINE
  5
7E
330
1F
100
AcDbEntity
  8
DIM
100
AcDbLine
 10
186.3791885657
 20
11.3012393211
 30
0.0
 11
186.3791885657
 21
5.9887393211
 31
0.0
  0
LINE
  5
7F
330
1F
100
AcDbEntity
  8
DIM
100
AcDbLine
 10
245.9549364505
 20
12.2387393211
 30
0.0
 11
245.9549364505
 21
5.9887393211
 31
0.0
  0
LINE
  5
80
330
1F
100
AcDbEntity
  8
DIM
100
AcDbLine
 10
186.3791885657
 20
12.2387393211
 30
0.0
 11
186.3791885657
 21
11.3012393211
 31
0.0
  0
LINE
  5
81
330
1F
100
AcDbEntity
  8
DIM
100
AcDbLine
 10
358.6305308612
 20
21.9261493211
 30
0.0
 11
364.8805308612
 21
21.9261493211
 31
0.0
  0
LINE
  5
82
330
1F
100
AcDbEntity
  8
DIM
100
AcDbLine
 10
358.6305308612
 20
249.7387393211
 30
0.0
 11
12.3805308612
 21
249.7387393211
 31
0.0
  0
LINE
  5
83
330
1F
100
AcDbEntity
  8
DIM
100
AcDbLine
 10
364.8805308612
 20
255.9887393211
 30
0.0
 11
6.1305308612
 21
255.9887393211
 31
0.0
  0
LINE
  5
84
330
1F
100
AcDbEntity
  8
DIM
100
AcDbLine
 10
12.3805308612
 20
249.7387393211
 30
0.0
 11
12.3805308612
 21
12.2387393211
 31
0.0
  0
LINE
  5
85
330
1F
100
AcDbEntity
  8
DIM
100
AcDbLine
 10
6.1305308612
 20
255.9887393211
 30
0.0
 11
6.1305308612
 21
5.9887393211
 31
0.0
  0
LINE
  5
86
330
1F
100
AcDbEntity
  8
DIM
100
AcDbLine
 10
12.3805308612
 20
68.4887393211
 30
0.0
 11
6.1305308612
 21
68.4887393211
 31
0.0
  0
LINE
  5
87
330
1F
100
AcDbEntity
  8
DIM
100
AcDbLine
 10
6.1305308612
 20
130.9887393211
 30
0.0
 11
12.3805308612
 21
130.9887393211
 31
0.0
  0
LINE
  5
88
330
1F
100
AcDbEntity
  8
DIM
100
AcDbLine
 10
6.1305308612
 20
5.9887393211
 30
0.0
 11
364.8805308612
 21
5.9887393211
 31
0.0
  0
LINE
  5
89
330
1F
100
AcDbEntity
  8
DIM
100
AcDbLine
 10
12.3805308612
 20
12.2387393211
 30
0.0
 11
364.8805308612
 21
12.2387393211
 31
0.0
  0
LINE
  5
8A
330
1F
100
AcDbEntity
  8
DIM
100
AcDbLine
 10
60.5055308612
 20
5.9887393211
 30
0.0
 11
60.5055308612
 21
12.2387393211
 31
0.0
  0
LINE
  5
8B
330
1F
100
AcDbEntity
  8
DIM
100
AcDbLine
 10
123.0055308612
 20
12.2387393211
 30
0.0
 11
123.0055308612
 21
5.9887393211
 31
0.0
  0
LINE
  5
8C
330
1F
100
AcDbEntity
  8
DIM
100
AcDbLine
 10
12.3805308612
 20
193.4887393211
 30
0.0
 11
6.1305308612
 21
193.4887393211
 31
0.0
  0
LINE
  5
8D
330
1F
100
AcDbEntity
  8
DIM
100
AcDbLine
 10
60.5055308612
 20
249.7387393211
 30
0.0
 11
60.5055308612
 21
255.9887393211
 31
0.0
  0
LINE
  5
8E
330
1F
100
AcDbEntity
  8
DIM
100
AcDbLine
 10
123.0055308612
 20
255.9887393211
 30
0.0
 11
123.0055308612
 21
249.7387393211
 31
0.0
  0
LINE
  5
8F
330
1F
100
AcDbEntity
  8
DIM
100
AcDbLine
 10
185.5055308612
 20
255.9887393211
 30
0.0
 11
185.5055308612
 21
249.7387393211
 31
0.0
  0
LINE
  5
90
330
1F
100
AcDbEntity
  8
DIM
100
AcDbLine
 10
358.6305308612
 20
12.2387393211
 30
0.0
 11
358.6305308612
 21
249.7387393211
 31
0.0
  0
LINE
  5
91
330
1F
100
AcDbEntity
  8
DIM
100
AcDbLine
 10
364.8805308612
 20
96.3012393211
 30
0.0
 11
364.8805308612
 21
255.9887393211
 31
0.0
  0
LINE
  5
92
330
1F
100
AcDbEntity
  8
DIM
100
AcDbLine
 10
364.8805308612
 20
130.9887393211
 30
0.0
 11
358.6305308612
 21
130.9887393211
 31
0.0
  0
LINE
  5
93
330
1F
100
AcDbEntity
  8
DIM
100
AcDbLine
 10
248.0055308612
 20
255.9887393211
 30
0.0
 11
248.0055308612
 21
249.7387393211
 31
0.0
  0
LINE
  5
94
330
1F
100
AcDbEntity
  8
DIM
100
AcDbLine
 10
310.5055308612
 20
249.7387393211
 30
0.0
 11
310.5055308612
 21
255.9887393211
 31
0.0
  0
LINE
  5
95
330
1F
100
AcDbEntity
  8
DIM
100
AcDbLine
 10
358.6305308612
 20
193.4887393211
 30
0.0
 11
364.8805308612
 21
193.4887393211
 31
0.0
  0
MTEXT
  5
97
330
1F
100
AcDbEntity
  8
DIM
100
AcDbMText
 10
17.989628311
 20
242.6535727172
 30
0.0
 40
5.2916666667
 41
0.0
 71
     1
 72
     1
  1
SK 40 ER 32 100 AD+B/6.3G15000 SL
  7
SLDTEXTSTYLE0
 73
     1
 44
1.0
  0
MTEXT
  5
99
330
1F
100
AcDbEntity
  8
DIM
 62
     7
100
AcDbMText
 10
247.1659733083
 20
9.7524394079
 30
0.0
 40
1.87325
 41
0.0
 71
     1
 72
     1
  1
WEIGHT:
  7
SLDTEXTSTYLE1
 73
     1
 44
1.0
  0
MTEXT
  5
9A
330
1F
100
AcDbEntity
  8
DIM
 62
     7
100
AcDbMText
 10
360.7463459435
 20
102.4257668853
 30
0.0
 40
2.3151041667
 41
0.0
 71
     1
 72
     1
  1
C
  7
SLDTEXTSTYLE1
 73
     1
 44
1.0
  0
MTEXT
  5
9B
330
1F
100
AcDbEntity
  8
DIM
 62
     7
100
AcDbMText
 10
353.8044757743
 20
18.5674774795
 30
0.0
 40
3.6380208333
 41
0.0
 71
     1
 72
     1
  1
A4
  7
SLDTEXTSTYLE1
 73
     1
 44
1.0
  0
MTEXT
  5
9C
330
1F
100
AcDbEntity
  8
DIM
 62
     7
100
AcDbMText
 10
340.7138691946
 20
254.3237598255
 30
0.0
 40
2.3151041667
 41
0.0
 71
     1
 72
     1
  1
6
  7
SLDTEXTSTYLE1
 73
     1
 44
1.0
  0
MTEXT
  5
9D
330
1F
100
AcDbEntity
  8
DIM
 62
     7
100
AcDbMText
 10
278.2138691946
 20
254.3237598255
 30
0.0
 40
2.3151041667
 41
0.0
 71
     1
 72
     1
  1
5
  7
SLDTEXTSTYLE1
 73
     1
 44
1.0
  0
MTEXT
  5
9E
330
1F
100
AcDbEntity
  8
DIM
 62
     7
100
AcDbMText
 10
360.7138741946
 20
226.1987598255
 30
0.0
 40
2.3151041667
 41
0.0
 71
     1
 72
     1
  1
A
  7
SLDTEXTSTYLE1
 73
     1
 44
1.0
  0
MTEXT
  5
9F
330
1F
100
AcDbEntity
  8
DIM
 62
     7
100
AcDbMText
 10
360.7138741946
 20
163.6987598255
 30
0.0
 40
2.3151041667
 41
0.0
 71
     1
 72
     1
  1
B
  7
SLDTEXTSTYLE1
 73
     1
 44
1.0
  0
MTEXT
  5
A0
330
1F
100
AcDbEntity
  8
DIM
 62
     7
100
AcDbMText
 10
215.7138691946
 20
254.3237598255
 30
0.0
 40
2.3151041667
 41
0.0
 71
     1
 72
     1
  1
4
  7
SLDTEXTSTYLE1
 73
     1
 44
1.0
  0
MTEXT
  5
A1
330
1F
100
AcDbEntity
  8
DIM
 62
     7
100
AcDbMText
 10
28.7347025279
 20
254.3237598255
 30
0.0
 40
2.3151041667
 41
0.0
 71
     1
 72
     1
  1
1
  7
SLDTEXTSTYLE1
 73
     1
 44
1.0
  0
MTEXT
  5
A2
330
1F
100
AcDbEntity
  8
DIM
 62
     7
100
AcDbMText
 10
90.7138691946
 20
254.3237598255
 30
0.0
 40
2.3151041667
 41
0.0
 71
     1
 72
     1
  1
2
  7
SLDTEXTSTYLE1
 73
     1
 44
1.0
  0
MTEXT
  5
A3
330
1F
100
AcDbEntity
  8
DIM
 62
     7
100
AcDbMText
 10
153.2138691946
 20
254.3237598255
 30
0.0
 40
2.3151041667
 41
0.0
 71
     1
 72
     1
  1
3
  7
SLDTEXTSTYLE1
 73
     1
 44
1.0
  0
MTEXT
  5
A4
330
1F
100
AcDbEntity
  8
DIM
 62
     7
100
AcDbMText
 10
8.2138641946
 20
226.1987598255
 30
0.0
 40
2.3151041667
 41
0.0
 71
     1
 72
     1
  1
A
  7
SLDTEXTSTYLE1
 73
     1
 44
1.0
  0
MTEXT
  5
A5
330
1F
100
AcDbEntity
  8
DIM
 62
     7
100
AcDbMText
 10
90.7138691946
 20
10.5737598255
 30
0.0
 40
2.3151041667
 41
0.0
 71
     1
 72
     1
  1
2
  7
SLDTEXTSTYLE1
 73
     1
 44
1.0
  0
MTEXT
  5
A6
330
1F
100
AcDbEntity
  8
DIM
 62
     7
100
AcDbMText
 10
28.7347025279
 20
10.5737598255
 30
0.0
 40
2.3151041667
 41
0.0
 71
     1
 72
     1
  1
1
  7
SLDTEXTSTYLE1
 73
     1
 44
1.0
  0
MTEXT
  5
A7
330
1F
100
AcDbEntity
  8
DIM
 62
     7
100
AcDbMText
 10
8.2138641946
 20
38.6987598255
 30
0.0
 40
2.3151041667
 41
0.0
 71
     1
 72
     1
  1
D
  7
SLDTEXTSTYLE1
 73
     1
 44
1.0
  0
MTEXT
  5
A8
330
1F
100
AcDbEntity
  8
DIM
 62
     7
100
AcDbMText
 10
8.2138641946
 20
101.1987598255
 30
0.0
 40
2.3151041667
 41
0.0
 71
     1
 72
     1
  1
C
  7
SLDTEXTSTYLE1
 73
     1
 44
1.0
  0
MTEXT
  5
A9
330
1F
100
AcDbEntity
  8
DIM
 62
     7
100
AcDbMText
 10
8.2138641946
 20
163.6987598255
 30
0.0
 40
2.3151041667
 41
0.0
 71
     1
 72
     1
  1
B
  7
SLDTEXTSTYLE1
 73
     1
 44
1.0
  0
MTEXT
  5
AA
330
1F
100
AcDbEntity
  8
DIM
 62
     7
100
AcDbMText
 10
360.7463459435
 20
102.4257668853
 30
0.0
 40
2.3151041667
 41
0.0
 71
     1
 72
     1
  1
C
  7
SLDTEXTSTYLE1
 73
     1
 44
1.0
  0
MTEXT
  5
AC
330
1F
100
AcDbEntity
  8
DIM
 62
     7
100
AcDbMText
 10
320.6567072656
 20
9.6138484142
 30
0.0
 40
1.875
 41
0.0
 71
     1
 72
     1
  1
SHEET 1 OF 1
  7
SLDTEXTSTYLE2
 73
     1
 44
1.0
  0
MTEXT
  5
AD
330
1F
100
AcDbEntity
  8
DIM
 62
     7
100
AcDbMText
 10
187.9647254793
 20
9.8167093546
 30
0.0
 40
1.875
 41
0.0
 71
     1
 72
     1
  1
MATERIAL:
  7
SLDTEXTSTYLE1
 73
     1
 44
1.0
  0
MTEXT
  5
AE
330
1F
100
AcDbEntity
  8
DIM
 62
     7
100
AcDbMText
 10
340.7138691946
 20
254.3237598255
 30
0.0
 40
2.3151041667
 41
0.0
 71
     1
 72
     1
  1
6
  7
SLDTEXTSTYLE1
 73
     1
 44
1.0
  0
MTEXT
  5
AF
330
1F
100
AcDbEntity
  8
DIM
 62
     7
100
AcDbMText
 10
278.2138691946
 20
254.3237598255
 30
0.0
 40
2.3151041667
 41
0.0
 71
     1
 72
     1
  1
5
  7
SLDTEXTSTYLE1
 73
     1
 44
1.0
  0
MTEXT
  5
B0
330
1F
100
AcDbEntity
  8
DIM
 62
     7
100
AcDbMText
 10
360.7138741946
 20
226.1987598255
 30
0.0
 40
2.3151041667
 41
0.0
 71
     1
 72
     1
  1
A
  7
SLDTEXTSTYLE1
 73
     1
 44
1.0
  0
MTEXT
  5
B1
330
1F
100
AcDbEntity
  8
DIM
 62
     7
100
AcDbMText
 10
360.7138741946
 20
163.6987598255
 30
0.0
 40
2.3151041667
 41
0.0
 71
     1
 72
     1
  1
B
  7
SLDTEXTSTYLE1
 73
     1
 44
1.0
  0
MTEXT
  5
B2
330
1F
100
AcDbEntity
  8
DIM
 62
     7
100
AcDbMText
 10
215.7138691946
 20
254.3237598255
 30
0.0
 40
2.3151041667
 41
0.0
 71
     1
 72
     1
  1
4
  7
SLDTEXTSTYLE1
 73
     1
 44
1.0
  0
MTEXT
  5
B3
330
1F
100
AcDbEntity
  8
DIM
 62
     7
100
AcDbMText
 10
28.7347025279
 20
254.3237598255
 30
0.0
 40
2.3151041667
 41
0.0
 71
     1
 72
     1
  1
1
  7
SLDTEXTSTYLE1
 73
     1
 44
1.0
  0
MTEXT
  5
B4
330
1F
100
AcDbEntity
  8
DIM
 62
     7
100
AcDbMText
 10
90.7138691946
 20
254.3237598255
 30
0.0
 40
2.3151041667
 41
0.0
 71
     1
 72
     1
  1
2
  7
SLDTEXTSTYLE1
 73
     1
 44
1.0
  0
MTEXT
  5
B5
330
1F
100
AcDbEntity
  8
DIM
 62
     7
100
AcDbMText
 10
153.2138691946
 20
254.3237598255
 30
0.0
 40
2.3151041667
 41
0.0
 71
     1
 72
     1
  1
3
  7
SLDTEXTSTYLE1
 73
     1
 44
1.0
  0
MTEXT
  5
B6
330
1F
100
AcDbEntity
  8
DIM
 62
     7
100
AcDbMText
 10
8.2138641946
 20
226.1987598255
 30
0.0
 40
2.3151041667
 41
0.0
 71
     1
 72
     1
  1
A
  7
SLDTEXTSTYLE1
 73
     1
 44
1.0
  0
MTEXT
  5
B7
330
1F
100
AcDbEntity
  8
DIM
 62
     7
100
AcDbMText
 10
90.7138691946
 20
10.5737598255
 30
0.0
 40
2.3151041667
 41
0.0
 71
     1
 72
     1
  1
2
  7
SLDTEXTSTYLE1
 73
     1
 44
1.0
  0
MTEXT
  5
B8
330
1F
100
AcDbEntity
  8
DIM
 62
     7
100
AcDbMText
 10
28.7347025279
 20
10.5737598255
 30
0.0
 40
2.3151041667
 41
0.0
 71
     1
 72
     1
  1
1
  7
SLDTEXTSTYLE1
 73
     1
 44
1.0
  0
MTEXT
  5
B9
330
1F
100
AcDbEntity
  8
DIM
 62
     7
100
AcDbMText
 10
8.2138641946
 20
38.6987598255
 30
0.0
 40
2.3151041667
 41
0.0
 71
     1
 72
     1
  1
D
  7
SLDTEXTSTYLE1
 73
     1
 44
1.0
  0
MTEXT
  5
BA
330
1F
100
AcDbEntity
  8
DIM
 62
     7
100
AcDbMText
 10
8.2138641946
 20
101.1987598255
 30
0.0
 40
2.3151041667
 41
0.0
 71
     1
 72
     1
  1
C
  7
SLDTEXTSTYLE1
 73
     1
 44
1.0
  0
MTEXT
  5
BB
330
1F
100
AcDbEntity
  8
DIM
 62
     7
100
AcDbMText
 10
8.2138641946
 20
163.6987598255
 30
0.0
 40
2.3151041667
 41
0.0
 71
     1
 72
     1
  1
B
  7
SLDTEXTSTYLE1
 73
     1
 44
1.0
  0
SPLINE
  5
BC
330
1F
100
AcDbEntity
  8
0
  6
Continuous
 62
     7
370
    15
100
AcDbSpline
210
0.0
220
0.0
230
1.0
 70
     8
 71
     3
 72
    38
 73
    34
 74
     0
 42
0.000000001
 43
0.00000001
 40
0.0
 40
0.0
 40
0.0
 40
0.0
 40
0.0624999999999999
 40
0.0624999999999999
 40
0.1249999999999999
 40
0.1249999999999999
 40
0.1874999999999999
 40
0.1874999999999999
 40
0.2499999999999999
 40
0.2499999999999999
 40
0.3124999999999999
 40
0.3124999999999999
 40
0.3749999999999999
 40
0.3749999999999999
 40
0.4374999999999999
 40
0.4374999999999999
 40
0.4999999999999999
 40
0.4999999999999999
 40
0.5624999999999999
 40
0.5624999999999999
 40
0.6249999999999999
 40
0.6249999999999999
 40
0.6874999999999999
 40
0.6874999999999999
 40
0.7499999999999999
 40
0.7499999999999999
 40
0.8125
 40
0.8125
 40
0.875
 40
0.875
 40
0.9375
 40
0.9375
 40
1.0
 40
1.0
 40
1.0
 40
1.0
 10
84.73582987794305
 20
135.9484551890971
 30
0.0
 10
84.73582987794305
 20
135.4740734145346
 30
0.0
 10
84.70640624528295
 20
134.9697478925919
 30
0.0
 10
84.563746208143
 20
133.9045529485668
 30
0.0
 10
84.45044180237879
 20
133.3435299886195
 30
0.0
 10
84.11040494638732
 20
132.1776893394547
 30
0.0
 10
83.88348782324327
 20
131.5727160177002
 30
0.0
 10
83.28555477981139
 20
130.3461866977861
 30
0.0
 10
82.91420386370307
 20
129.7245663068371
 30
0.0
 10
82.00339085658307
 20
128.5101489639571
 30
0.0
 10
81.46349472460253
 20
127.917525150829
 30
0.0
 10
80.21010846347535
 20
126.8236607774336
 30
0.0
 10
79.49629138542748
 20
126.3229371059327
 30
0.0
 10
77.92049033504686
 20
125.4825098790261
 30
0.0
 10
77.05859243035465
 20
125.1435541406477
 30
0.0
 10
75.24774526826992
 20
124.6836564486695
 30
0.0
 10
74.2994308380264
 20
124.5632925995971
 30
0.0
 10
72.40190373985972
 20
124.5632925995971
 30
0.0
 10
71.45358930961619
 20
124.6836564486695
 30
0.0
 10
69.64274214753145
 20
125.1435541406477
 30
0.0
 10
68.78084424283925
 20
125.4825098790261
 30
0.0
 10
67.20504319245862
 20
126.3229371059327
 30
0.0
 10
66.49122611441075
 20
126.8236607774336
 30
0.0
 10
65.23783985328357
 20
127.917525150829
 30
0.0
 10
64.69794372130305
 20
128.5101489639571
 30
0.0
 10
63.78713071418306
 20
129.7245663068371
 30
0.0
 10
63.41577979807473
 20
130.3461866977861
 30
0.0
 10
62.81784675464284
 20
131.5727160177002
 30
0.0
 10
62.59092963149878
 20
132.1776893394547
 30
0.0
 10
62.25089277550732
 20
133.3435299886195
 30
0.0
 10
62.13758836974311
 20
133.9045529485668
 30
0.0
 10
61.99492833260317
 20
134.9697478925919
 30
0.0
 10
61.96550469994305
 20
135.4740734145346
 30
0.0
 10
61.96550469994305
 20
135.9484551890971
 30
0.0
  0
SPLINE
  5
BD
330
1F
100
AcDbEntity
  8
0
  6
Continuous
 62
     7
370
    15
100
AcDbSpline
210
0.0
220
0.0
230
1.0
 70
     8
 71
     3
 72
    38
 73
    34
 74
     0
 42
0.000000001
 43
0.00000001
 40
0.0
 40
0.0
 40
0.0
 40
0.0
 40
0.0625
 40
0.0625
 40
0.125
 40
0.125
 40
0.1874999999999999
 40
0.1874999999999999
 40
0.2499999999999999
 40
0.2499999999999999
 40
0.3124999999999999
 40
0.3124999999999999
 40
0.3749999999999999
 40
0.3749999999999999
 40
0.4374999999999999
 40
0.4374999999999999
 40
0.5
 40
0.5
 40
0.5625
 40
0.5625
 40
0.625
 40
0.625
 40
0.6875000000000001
 40
0.6875000000000001
 40
0.7500000000000001
 40
0.7500000000000001
 40
0.8125000000000001
 40
0.8125000000000001
 40
0.875
 40
0.875
 40
0.9375
 40
0.9375
 40
1.0
 40
1.0
 40
1.0
 40
1.0
 10
61.96550469994305
 20
135.9484551890971
 30
0.0
 10
61.96550469994305
 20
136.4228369636596
 30
0.0
 10
61.99492833260317
 20
136.9271624856023
 30
0.0
 10
62.13758836974311
 20
137.9923574296273
 30
0.0
 10
62.25089277550732
 20
138.5533803895747
 30
0.0
 10
62.5909296314988
 20
139.7192210387395
 30
0.0
 10
62.81784675464284
 20
140.3241943604939
 30
0.0
 10
63.41577979807472
 20
141.5507236804081
 30
0.0
 10
63.78713071418305
 20
142.1723440713571
 30
0.0
 10
64.69794372130305
 20
143.3867614142371
 30
0.0
 10
65.23783985328357
 20
143.9793852273652
 30
0.0
 10
66.49122611441075
 20
145.0732496007605
 30
0.0
 10
67.20504319245863
 20
145.5739732722614
 30
0.0
 10
68.78084424283925
 20
146.414400499168
 30
0.0
 10
69.64274214753145
 20
146.7533562375464
 30
0.0
 10
71.45358930961619
 20
147.2132539295247
 30
0.0
 10
72.40190373985972
 20
147.3336177785971
 30
0.0
 10
74.2994308380264
 20
147.3336177785971
 30
0.0
 10
75.24774526826991
 20
147.2132539295247
 30
0.0
 10
77.05859243035465
 20
146.7533562375464
 30
0.0
 10
77.92049033504685
 20
146.414400499168
 30
0.0
 10
79.49629138542748
 20
145.5739732722614
 30
0.0
 10
80.21010846347535
 20
145.0732496007605
 30
0.0
 10
81.46349472460253
 20
143.9793852273652
 30
0.0
 10
82.00339085658307
 20
143.3867614142371
 30
0.0
 10
82.91420386370307
 20
142.1723440713571
 30
0.0
 10
83.28555477981139
 20
141.5507236804081
 30
0.0
 10
83.88348782324327
 20
140.3241943604939
 30
0.0
 10
84.11040494638732
 20
139.7192210387395
 30
0.0
 10
84.45044180237879
 20
138.5533803895747
 30
0.0
 10
84.56374620814299
 20
137.9923574296273
 30
0.0
 10
84.70640624528293
 20
136.9271624856023
 30
0.0
 10
84.73582987794305
 20
136.4228369636596
 30
0.0
 10
84.73582987794305
 20
135.9484551890971
 30
0.0
  0
SPLINE
  5
BE
330
1F
100
AcDbEntity
  8
0
  6
Continuous
 62
     7
370
    15
100
AcDbSpline
210
0.0
220
0.0
230
1.0
 70
    24
 71
     3
 72
    14
 73
    10
 74
     0
 42
0.000000001
 43
0.00000001
 40
0.0
 40
0.0
 40
0.0
 40
0.0
 40
0.25
 40
0.25
 40
0.5
 40
0.5
 40
0.75
 40
0.75
 40
1.0
 40
1.0
 40
1.0
 40
1.0
 10
60.97597191294305
 20
135.9484551890971
 30
0.0
 10
60.99170389788458
 20
135.9484551890971
 30
0.0
 10
61.02656749521073
 20
135.9484551890971
 30
0.0
 10
61.13941345479351
 20
135.9484551890971
 30
0.0
 10
61.2175080505496
 20
135.9484551890971
 30
0.0
 10
61.40530276108679
 20
135.9484551890971
 30
0.0
 10
61.51458112055268
 20
135.9484551890971
 30
0.0
 10
61.74041015953799
 20
135.9484551890971
 30
0.0
 10
61.85648815099593
 20
135.9484551890971
 30
0.0
 10
61.96550469994305
 20
135.9484551890971
 30
0.0
  0
ARC
  5
BF
330
1F
100
AcDbEntity
  8
0
  6
Continuous
 62
     7
370
    15
100
AcDbCircle
 10
73.3506672889
 20
135.9484551891
 30
0.0
 40
12.37469537600001
100
AcDbArc
 50
359.9999999965
 51
180.0
  0
SPLINE
  5
C0
330
1F
100
AcDbEntity
  8
0
  6
Continuous
 62
     7
370
    15
100
AcDbSpline
210
0.0
220
0.0
230
1.0
 70
    24
 71
     3
 72
    14
 73
    10
 74
     0
 42
0.000000001
 43
0.00000001
 40
0.0
 40
0.0
 40
0.0
 40
0.0
 40
0.25
 40
0.25
 40
0.5
 40
0.5
 40
0.75
 40
0.75
 40
1.0
 40
1.0
 40
1.0
 40
1.0
 10
84.73582987794305
 20
135.9484551890971
 30
0.0
 10
84.84484642689017
 20
135.9484551890971
 30
0.0
 10
84.96092441834811
 20
135.9484551890971
 30
0.0
 10
85.18675345733342
 20
135.9484551890971
 30
0.0
 10
85.29603181679931
 20
135.9484551890971
 30
0.0
 10
85.48382652733652
 20
135.9484551890971
 30
0.0
 10
85.5619211230926
 20
135.9484551890971
 30
0.0
 10
85.67476708267537
 20
135.9484551890971
 30
0.0
 10
85.70963068000154
 20
135.9484551890971
 30
0.0
 10
85.72536266494306
 20
135.9484551890971
 30
0.0
  0
ARC
  5
C1
330
1F
100
AcDbEntity
  8
0
  6
Continuous
 62
     7
370
    15
100
AcDbCircle
 10
73.3506672889
 20
135.9484551891
 30
0.0
 40
12.37469537600001
100
AcDbArc
 50
180.0
 51
359.9999999965
  0
CIRCLE
  5
C2
330
1F
100
AcDbEntity
  8
0
  6
Continuous
 62
     7
370
    15
100
AcDbCircle
 10
73.3506672889
 20
135.9484551891
 30
0.0
 40
22.225
  0
SPLINE
  5
C3
330
1F
100
AcDbEntity
  8
0
  6
Continuous
 62
     7
370
    15
100
AcDbSpline
210
0.0
220
0.0
230
1.0
 70
     8
 71
     3
 72
    46
 73
    42
 74
     0
 42
0.000000001
 43
0.00000001
 40
0.0
 40
0.0
 40
0.0
 40
0.0
 40
0.006060509738736
 40
0.012116063002841
 40
0.0181688504487787
 40
0.0242210657363553
 40
0.0302749031473563
 40
0.0363325552008075
 40
0.0423962102777983
 40
0.0663723762752013
 40
0.0903614245259086
 40
0.1173835313961692
 40
0.1444187375184246
 40
0.1746377134611347
 40
0.2048704270524354
 40
0.2382459271759561
 40
0.2716357371868479
 40
0.307846057408608
 40
0.3440707643473241
 40
0.3824528172843601
 40
0.4208496145247257
 40
0.4604174444221711
 40
0.5000006351371646
 40
0.5395683786452921
 40
0.5791516575954981
 40
0.6175334667211793
 40
0.6559305126791313
 40
0.692140447212708
 40
0.728365538217382
 40
0.7617405441714814
 40
0.7951308492353167
 40
0.8253489820918097
 40
0.8555825399621454
 40
0.8826032238187791
 40
0.9096398523464996
 40
0.9336143211338713
 40
0.9576050666785983
 40
0.9682066401032497
 40
0.9787984729660737
 40
0.9893923377067513
 40
1.0
 40
1.0
 40
1.0
 40
1.0
 10
50.85066728012436
 20
135.9484551882971
 30
0.0
 10
50.85144853492076
 20
136.0911934282339
 30
0.0
 10
50.85301040557891
 20
136.3765531723056
 30
0.0
 10
50.86566001528767
 20
136.8043149971099
 30
0.0
 10
50.88585743358307
 20
137.2315721223032
 30
0.0
 10
50.91434103449841
 20
137.6583248199917
 30
0.0
 10
50.95091227828178
 20
138.0845713274248
 30
0.0
 10
50.9956272478977
 20
138.5103174206529
 30
0.0
 10
51.1004539746638
 20
139.3540135110866
 30
0.0
 10
51.31677426083366
 20
140.6093737284224
 30
0.0
 10
51.74773394582689
 20
142.3236869781983
 30
0.0
 10
52.33716044483751
 20
144.0671728765006
 30
0.0
 10
53.13176508557569
 20
145.8885571662381
 30
0.0
 10
54.12249782497793
 20
147.6988485982812
 30
0.0
 10
55.36537984133458
 20
149.5299003009366
 30
0.0
 10
56.8319709018532
 20
151.287061827784
 30
0.0
 10
58.57697269779503
 20
152.9776153624551
 30
0.0
 10
60.54843163108779
 20
154.5114584312063
 30
0.0
 10
62.78323131810317
 20
155.8702959029536
 30
0.0
 10
65.20801254061966
 20
156.983235055567
 30
0.0
 10
67.82520808437533
 20
157.8169120658304
 30
0.0
 10
70.5523454029077
 20
158.3336331875169
 30
0.0
 10
73.35030385510007
 20
158.5058541633293
 30
0.0
 10
76.14862265971269
 20
158.3336810277205
 30
0.0
 10
78.87543202801054
 20
157.8170866345781
 30
0.0
 10
81.49298950127474
 20
156.9833690714131
 30
0.0
 10
83.91748473561286
 20
155.8706239012286
 30
0.0
 10
86.15261186721789
 20
154.5116575559026
 30
0.0
 10
88.12383653791025
 20
152.9780717819804
 30
0.0
 10
89.86912449890018
 20
151.2873209585948
 30
0.0
 10
91.33553807278729
 20
149.5304523057256
 30
0.0
 10
92.57865750761263
 20
147.6991451241981
 30
0.0
 10
93.56926690380799
 20
145.8891723662394
 30
0.0
 10
94.36405205944264
 20
144.0674931650918
 30
0.0
 10
94.95339719210457
 20
142.3243473311772
 30
0.0
 10
95.38452209453648
 20
140.6097013574527
 30
0.0
 10
95.61891447819532
 20
139.2489453879455
 30
0.0
 10
95.74286088741073
 20
138.1918551075863
 30
0.0
 10
95.80474813556458
 20
137.4456515136683
 30
0.0
 10
95.84349809757356
 20
136.6976550797417
 30
0.0
 10
95.848276519119
 20
136.1982968097493
 30
0.0
 10
95.85066728474487
 20
135.9484551882971
 30
0.0
  0
SPLINE
  5
C4
330
1F
100
AcDbEntity
  8
0
  6
Continuous
 62
     7
370
    15
100
AcDbSpline
210
0.0
220
0.0
230
1.0
 70
     8
 71
     3
 72
    46
 73
    42
 74
     0
 42
0.000000001
 43
0.00000001
 40
0.0
 40
0.0
 40
0.0
 40
0.0
 40
0.0060605090578789
 40
0.0121160618652316
 40
0.0181688490798695
 40
0.0242210643627036
 40
0.0302749019963787
 40
0.0363325545005319
 40
0.0423962102566156
 40
0.0663723762557772
 40
0.0903614245065992
 40
0.1173835313789998
 40
0.1444187375012122
 40
0.1746377134462246
 40
0.20487042703758
 40
0.2382459271647412
 40
0.2716357371745998
 40
0.3078460573984574
 40
0.3440707643378661
 40
0.3824528172762049
 40
0.4208496145182827
 40
0.4604174444176503
 40
0.5000006351337953
 40
0.5395683786438665
 40
0.5791516575952307
 40
0.6175334667239435
 40
0.6559305126818602
 40
0.6921404472187197
 40
0.7283655382229329
 40
0.7617405441792563
 40
0.795130849243458
 40
0.8253489821014625
 40
0.8555825399726453
 40
0.8826032238318968
 40
0.9096398523591116
 40
0.9336143211498046
 40
0.9576050666930713
 40
0.9682066398587207
 40
0.9787984726342449
 40
0.9893923374572966
 40
1.0
 40
1.0
 40
1.0
 40
1.0
 10
95.85066728474487
 20
135.9484551882971
 30
0.0
 10
95.84988603338006
 20
135.8057169643797
 30
0.0
 10
95.84832416955342
 20
135.5203572470687
 30
0.0
 10
95.8356745666756
 20
135.0925954543069
 30
0.0
 10
95.81547715280212
 20
134.6653383452476
 30
0.0
 10
95.78699355356966
 20
134.2385856477674
 30
0.0
 10
95.75042230885948
 20
133.8123391246178
 30
0.0
 10
95.70570733556337
 20
133.3865929997613
 30
0.0
 10
95.60088060536364
 20
132.5428968829347
 30
0.0
 10
95.3845603172785
 20
131.2875366497225
 30
0.0
 10
94.95360063197714
 20
129.5732233999613
 30
0.0
 10
94.36417413305519
 20
127.8297375016681
 30
0.0
 10
93.56956949228152
 20
126.0083532119101
 30
0.0
 10
92.57883675290056
 20
124.1980617798872
 30
0.0
 10
91.33595473650054
 20
122.3670100771938
 30
0.0
 10
89.86936367600167
 20
120.6098485503643
 30
0.0
 10
88.12436188003883
 20
118.9192950156901
 30
0.0
 10
86.15290294676691
 20
117.3854519470043
 30
0.0
 10
83.91810325977457
 20
116.026614475233
 30
0.0
 10
81.49332203727764
 20
114.9136753226115
 30
0.0
 10
78.87612649350635
 20
114.079998312364
 30
0.0
 10
76.14898917496787
 20
113.5632771906872
 30
0.0
 10
73.35103072276775
 20
113.3910562148652
 30
0.0
 10
70.55271191816183
 20
113.5632293504618
 30
0.0
 10
67.82590254983171
 20
114.0798237436298
 30
0.0
 10
65.20834507657513
 20
114.9135413067903
 30
0.0
 10
62.78384984220205
 20
116.0262864770042
 30
0.0
 10
60.54872271063069
 20
117.3852528223166
 30
0.0
 10
58.57749803992402
 20
118.9188385962559
 30
0.0
 10
56.83221007897976
 20
120.6095894196249
 30
0.0
 10
55.36579650507999
 20
122.3664580724923
 30
0.0
 10
54.12267707026452
 20
124.197765254001
 30
0.0
 10
53.13206767406003
 20
126.0077380119964
 30
0.0
 10
52.33728251842233
 20
127.8294172131345
 30
0.0
 10
51.74793738575486
 20
129.5725630471079
 30
0.0
 10
51.31681248334162
 20
131.2872090207954
 30
0.0
 10
51.08242010070881
 20
132.6479649842827
 30
0.0
 10
50.95847369205984
 20
133.7050552563976
 30
0.0
 10
50.89658644241237
 20
134.4512588439102
 30
0.0
 10
50.85783647595661
 20
135.1992552832919
 30
0.0
 10
50.853058048651
 20
135.6986135610129
 30
0.0
 10
50.85066728012436
 20
135.9484551882971
 30
0.0
  0
ARC
  5
C5
330
1F
100
AcDbEntity
  8
0
  6
Continuous
 62
     7
370
    15
100
AcDbCircle
 10
73.3506672889
 20
135.9484551891
 30
0.0
 40
30.86715728670555
100
AcDbArc
 50
73.7590550431
 51
106.2409449546
  0
SPLINE
  5
C6
330
1F
100
AcDbEntity
  8
0
  6
Continuous
 62
     7
370
    15
100
AcDbSpline
210
0.0
220
0.0
230
1.0
 70
     8
 71
     3
 72
    10
 73
     6
 74
     0
 42
0.000000001
 43
0.00000001
 40
0.0
 40
0.0
 40
0.0
 40
0.0
 40
0.5
 40
0.5
 40
1.0
 40
1.0
 40
1.0
 40
1.0
 10
81.98351000149931
 20
165.5838297562563
 30
0.0
 10
82.01613784602968
 20
165.5403411924045
 30
0.0
 10
82.0442798747582
 20
165.4915035669689
 30
0.0
 10
82.08693230319561
 20
165.3797866759853
 30
0.0
 10
82.10066729075139
 20
165.3181376535815
 30
0.0
 10
82.10066728877001
 20
165.2543896959574
 30
0.0
  0
ARC
  5
C7
330
1F
100
AcDbEntity
  8
0
  6
Continuous
 62
     7
370
    15
100
AcDbCircle
 10
73.3506672889
 20
135.9484551891
 30
0.0
 40
30.5843145696248
100
AcDbArc
 50
73.3757249371
 51
106.6242750308
  0
SPLINE
  5
C8
330
1F
100
AcDbEntity
  8
0
  6
Continuous
 62
     7
370
    15
100
AcDbSpline
210
0.0
220
0.0
230
1.0
 70
     8
 71
     3
 72
    10
 73
     6
 74
     0
 42
0.000000001
 43
0.00000001
 40
0.0
 40
0.0
 40
0.0
 40
0.0
 40
0.5
 40
0.5
 40
1.0
 40
1.0
 40
1.0
 40
1.0
 10
64.7178245756078
 20
165.5838297547919
 30
0.0
 10
64.68537103063608
 20
165.5405735095593
 30
0.0
 10
64.65753441619239
 20
165.4923334584453
 30
0.0
 10
64.61497352618858
 20
165.3816990709728
 30
0.0
 10
64.60104286016548
 20
165.3196318706524
 30
0.0
 10
64.60067482572072
 20
165.2569545144727
 30
0.0
  0
ARC
  5
C9
330
1F
100
AcDbEntity
  8
0
  6
Continuous
 62
     7
370
    15
100
AcDbCircle
 10
73.3506672889
 20
135.9484551891
 30
0.0
 40
30.58431456962477
100
AcDbArc
 50
253.3757249638
 51
286.6242750534
  0
SPLINE
  5
CA
330
1F
100
AcDbEntity
  8
0
  6
Continuous
 62
     7
370
    15
100
AcDbSpline
210
0.0
220
0.0
230
1.0
 70
     8
 71
     3
 72
    10
 73
     6
 74
     0
 42
0.000000001
 43
0.00000001
 40
0.0
 40
0.0
 40
0.0
 40
0.0
 40
0.5
 40
0.5
 40
1.0
 40
1.0
 40
1.0
 40
1.0
 10
82.10066728877001
 20
106.642520681066
 30
0.0
 10
82.10066729047605
 20
106.578775134035
 30
0.0
 10
82.08683594796288
 20
106.5169796268435
 30
0.0
 10
82.04464424433758
 20
106.4062535659432
 30
0.0
 10
82.01613551062057
 20
106.3565660739231
 30
0.0
 10
81.9835100045612
 20
106.3130806267276
 30
0.0
  0
ARC
  5
CB
330
1F
100
AcDbEntity
  8
0
  6
Continuous
 62
     7
370
    15
100
AcDbCircle
 10
73.3506672889
 20
135.9484551891
 30
0.0
 40
30.86715728670554
100
AcDbArc
 50
253.7590550431
 51
286.24094496
  0
SPLINE
  5
CC
330
1F
100
AcDbEntity
  8
0
  6
Continuous
 62
     7
370
    15
100
AcDbSpline
210
0.0
220
0.0
230
1.0
 70
     8
 71
     3
 72
     8
 73
     4
 74
     0
 42
0.000000001
 43
0.00000001
 40
0.0
 40
0.0
 40
0.0
 40
0.0
 40
1.0
 40
1.0
 40
1.0
 40
1.0
 10
64.71782458137785
 20
106.3130806158246
 30
0.0
 10
64.672820269122
 20
106.373065357656
 30
0.0
 10
64.63548797613744
 20
106.4444908019527
 30
0.0
 10
64.61525454787373
 20
106.5264964799333
 30
0.0
  0
SPLINE
  5
CD
330
1F
100
AcDbEntity
  8
0
  6
Continuous
 62
     7
370
    15
100
AcDbSpline
210
0.0
220
0.0
230
1.0
 70
     8
 71
     3
 72
     8
 73
     4
 74
     0
 42
0.000000001
 43
0.00000001
 40
0.0
 40
0.0
 40
0.0
 40
0.0
 40
1.0
 40
1.0
 40
1.0
 40
1.0
 10
64.61525456142222
 20
106.5264964242262
 30
0.0
 10
64.606097042056
 20
106.5636116491847
 30
0.0
 10
64.60066728848838
 20
106.6032098695626
 30
0.0
 10
64.60066728908724
 20
106.6425206758278
 30
0.0
  0
SPLINE
  5
CE
330
1F
100
AcDbEntity
  8
0
  6
Continuous
 62
     7
370
    15
100
AcDbSpline
210
0.0
220
0.0
230
1.0
 70
    24
 71
     3
 72
     8
 73
     4
 74
     0
 42
0.000000001
 43
0.00000001
 40
0.0
 40
0.0
 40
0.0
 40
0.0
 40
1.0
 40
1.0
 40
1.0
 40
1.0
 10
54.85066728894306
 20
111.5937780624048
 30
0.0
 10
54.85066728894306
 20
111.4663886430498
 30
0.0
 10
54.85066728894307
 20
111.3392101617861
 30
0.0
 10
54.85066728894307
 20
111.2395216009062
 30
0.0
  0
ARC
  5
CF
330
1F
100
AcDbEntity
  8
0
  6
Continuous
 62
     7
370
    15
100
AcDbCircle
 10
73.3506672889
 20
135.9484551891
 30
0.0
 40
30.86715728670555
100
AcDbArc
 50
216.8228239938
 51
233.1771760094
  0
SPLINE
  5
D0
330
1F
100
AcDbEntity
  8
0
  6
Continuous
 62
     7
370
    15
100
AcDbSpline
210
0.0
220
0.0
230
1.0
 70
    24
 71
     3
 72
     8
 73
     4
 74
     0
 42
0.000000001
 43
0.00000001
 40
0.0
 40
0.0
 40
0.0
 40
0.0
 40
1.0
 40
1.0
 40
1.0
 40
1.0
 10
48.64173369895245
 20
117.4484551890971
 30
0.0
 10
48.74061585153059
 20
117.4484551890971
 30
0.0
 10
48.86682932497244
 20
117.4484551890971
 30
0.0
 10
48.99321115240549
 20
117.4484551890971
 30
0.0
  0
ARC
  5
D1
330
1F
100
AcDbEntity
  8
0
  6
Continuous
 62
     7
370
    15
100
AcDbCircle
 10
73.3506672889
 20
135.9484551891
 30
0.0
 40
30.58431456962478
100
AcDbArc
 50
217.2205831722
 51
232.7794168425
  0
ARC
  5
D2
330
1F
100
AcDbEntity
  8
0
  6
Continuous
 62
     7
370
    15
100
AcDbCircle
 10
73.350667282
 20
135.948455187
 30
0.0
 40
30.86715728315901
100
AcDbArc
 50
233.1771760173
 51
253.7590550635
  0
SPLINE
  5
D3
330
1F
100
AcDbEntity
  8
0
  6
Continuous
 62
     7
370
    15
100
AcDbSpline
210
0.0
220
0.0
230
1.0
 70
     8
 71
     3
 72
    22
 73
    18
 74
     0
 42
0.000000001
 43
0.00000001
 40
0.0
 40
0.0
 40
0.0
 40
0.0
 40
0.0500818598004039
 40
0.1001009742748402
 40
0.1500734574845633
 40
0.2000154686283413
 40
0.2499431964919678
 40
0.2998728437545237
 40
0.3498206112271755
 40
0.3998026821010479
 40
0.4498352062806183
 40
0.4999342848781113
 40
0.600061787066295
 40
0.7000024557113077
 40
0.7998858839391753
 40
0.899841887513062
 40
0.9999999999999999
 40
0.9999999999999999
 40
0.9999999999999999
 40
0.9999999999999999
 10
54.85066729166763
 20
111.5937780624048
 30
0.0
 10
54.99739070118186
 20
111.4835144523588
 30
0.0
 10
55.2906536970018
 20
111.2631253766206
 30
0.0
 10
55.73773611932282
 20
110.9427684683657
 30
0.0
 10
56.18966298341614
 20
110.6302210336557
 30
0.0
 10
56.64697464311175
 20
110.3261946817404
 30
0.0
 10
57.10952633440917
 20
110.0304991185523
 30
0.0
 10
57.57735658115025
 20
109.7431853926574
 30
0.0
 10
58.05045508142896
 20
109.4642400414301
 30
0.0
 10
58.5288236261004
 20
109.1936663950453
 30
0.0
 10
59.01246442282647
 20
108.9314650467032
 30
0.0
 10
59.66381718281757
 20
108.5932870112571
 30
0.0
 10
60.48869561421473
 20
108.1927491169763
 30
0.0
 10
61.49428617984908
 20
107.7482080923799
 30
0.0
 10
62.51488554020283
 20
107.3411708111586
 30
0.0
 10
63.5494601394744
 20
106.9682233763856
 30
0.0
 10
64.25002905515227
 20
106.7511613199599
 30
0.0
 10
64.60066728918864
 20
106.6425206788493
 30
0.0
  0
SPLINE
  5
D4
330
1F
100
AcDbEntity
  8
0
  6
Continuous
 62
     7
370
    15
100
AcDbSpline
210
0.0
220
0.0
230
1.0
 70
     8
 71
     3
 72
    31
 73
    27
 74
     0
 42
0.000000001
 43
0.00000001
 40
0.0
 40
0.0
 40
0.0
 40
0.0
 40
0.0132547820123591
 40
0.0264968712764316
 40
0.0397300667029705
 40
0.0529581748652544
 40
0.0661850067287817
 40
0.079414374362035
 40
0.0926500876424864
 40
0.1058959509720582
 40
0.1191557600161537
 40
0.1810884463809925
 40
0.2430471624419542
 40
0.3066892812087729
 40
0.3703583835969362
 40
0.49938299356959
 40
0.6284926043660557
 40
0.6922587072395494
 40
0.756052656237941
 40
0.8181812942486995
 40
0.8803373241552115
 40
0.9042880502402492
 40
0.9282071646265636
 40
0.9521171770684623
 40
0.9760406230125365
 40
1.0
 40
1.0
 40
1.0
 40
1.0
 10
103.9349818589602
 20
135.9484551884304
 30
0.0
 10
103.9341391246634
 20
136.121435353065
 30
0.0
 10
103.93245446307
 20
136.4672300369325
 30
0.0
 10
103.9188090891703
 20
136.9855749986363
 30
0.0
 10
103.8970212490575
 20
137.5032747988657
 30
0.0
 10
103.8662949407035
 20
138.0203293601498
 30
0.0
 10
103.8268433390939
 20
138.5367384155607
 30
0.0
 10
103.7786090942914
 20
139.0525023372923
 30
0.0
 10
103.7216085898533
 20
139.5676191317154
 30
0.0
 10
103.6558337531049
 20
140.0820956439717
 30
0.0
 10
103.4901461931148
 20
141.2242990256224
 30
0.0
 10
103.1481814229264
 20
142.9833893227452
 30
0.0
 10
102.4907843072296
 20
145.3433170697901
 30
0.0
 10
101.638792035923
 20
147.6648264753251
 30
0.0
 10
100.2322527081936
 20
150.703392410779
 30
0.0
 10
98.00255137301201
 20
154.2863051377068
 30
0.0
 10
95.2112832348754
 20
157.453108261994
 30
0.0
 10
92.70199537044537
 20
159.6766211054843
 30
0.0
 10
90.7187410295457
 20
161.1629339306167
 30
0.0
 10
88.64085896441345
 20
162.4740213300159
 30
0.0
 10
86.92555049562921
 20
163.3734169113682
 30
0.0
 10
85.61911870815638
 20
163.9695453223171
 30
0.0
 10
84.75527897815894
 20
164.3323019500283
 30
0.0
 10
83.88090093871367
 20
164.6677032118546
 30
0.0
 10
82.99671139777793
 20
164.9782432239674
 30
0.0
 10
82.3994980506803
 20
165.1622948348084
 30
0.0
 10
82.10066730409889
 20
165.2543896959573
 30
0.0
  0
SPLINE
  5
D5
330
1F
100
AcDbEntity
  8
0
  6
Continuous
 62
     7
370
    15
100
AcDbSpline
210
0.0
220
0.0
230
1.0
 70
     8
 71
     3
 72
    31
 73
    27
 74
     0
 42
0.000000001
 43
0.00000001
 40
0.0
 40
0.0
 40
0.0
 40
0.0
 40
0.0133116724883039
 40
0.0266104829800141
 40
0.0399002793452951
 40
0.0531849172870879
 40
0.066468257000281
 40
0.079754159811356
 40
0.09304648481311
 40
0.1063490855090961
 40
0.1196658064823355
 40
0.1817950735702446
 40
0.2439504667220478
 40
0.3077169628212479
 40
0.3715105117133549
 40
0.500620117330448
 40
0.6296447221270358
 40
0.6932864260162216
 40
0.756955940040424
 40
0.8188879793465256
 40
0.8808473402560892
 40
0.9046957897988834
 40
0.9285130513077766
 40
0.9523213476995956
 40
0.9761429269815893
 40
1.0
 40
1.0
 40
1.0
 40
1.0
 10
82.10066730392266
 20
106.6425206812098
 30
0.0
 10
82.26688541865686
 20
106.6930361625711
 30
0.0
 10
82.59916104495328
 20
106.7940183162541
 30
0.0
 10
83.09402939325962
 20
106.9561358270668
 30
0.0
 10
83.58592190042896
 20
107.1259352856206
 30
0.0
 10
84.07460881421177
 20
107.304185911588
 30
0.0
 10
84.56015138318637
 20
107.4906816200271
 30
0.0
 10
85.04253341872369
 20
107.685477941004
 30
0.0
 10
85.52175771765667
 20
107.888558458231
 30
0.0
 10
85.99782857285075
 20
108.0999329758238
 30
0.0
 10
87.04825961766839
 20
108.5878243843449
 30
0.0
 10
88.64056356734812
 20
109.4227325139146
 30
0.0
 10
90.71815615574104
 20
110.7335702487813
 30
0.0
 10
92.7017156615423
 20
112.2200638379225
 30
0.0
 10
95.21104596410562
 20
114.443531123834
 30
0.0
 10
98.00255152049876
 20
117.6106054064145
 30
0.0
 10
100.2320617064505
 20
121.1932134061807
 30
0.0
 10
101.6386568325552
 20
124.2317518132297
 30
0.0
 10
102.4905637248301
 20
126.5529181537573
 30
0.0
 10
103.1481164591063
 20
128.9131940611315
 30
0.0
 10
103.5164632020205
 20
130.8080353846457
 30
0.0
 10
103.7123582096378
 20
132.2253420184209
 30
0.0
 10
103.8119590412492
 20
133.1529324207857
 30
0.0
 10
103.8825813714835
 20
134.0827662553189
 30
0.0
 10
103.9268009629422
 20
135.0148604904849
 30
0.0
 10
103.932253540588
 20
135.6371025491831
 30
0.0
 10
103.9349818589602
 20
135.9484551884304
 30
0.0
  0
SPLINE
  5
D6
330
1F
100
AcDbEntity
  8
0
  6
Continuous
 62
     7
370
    15
100
AcDbSpline
210
0.0
220
0.0
230
1.0
 70
     8
 71
     3
 72
    39
 73
    35
 74
     0
 42
0.000000001
 43
0.00000001
 40
0.0
 40
0.0
 40
0.0
 40
0.0
 40
0.0093873620978629
 40
0.0187596701111277
 40
0.0281199648213955
 40
0.0374712987294032
 40
0.0468167331164975
 40
0.0561593350632972
 40
0.0655021744399345
 40
0.0748483208825801
 40
0.0842008407711207
 40
0.0935627942228398
 40
0.1029372321167724
 40
0.1123271931630534
 40
0.1736200408823091
 40
0.2349299482880478
 40
0.2671836518293358
 40
0.2994546245564944
 40
0.3655428527619528
 40
0.4327326147454438
 40
0.5004775807824501
 40
0.5682037171870316
 40
0.635337940875514
 40
0.701336656506823
 40
0.7335302740257507
 40
0.7657418651793108
 40
0.8268808735565418
 40
0.8880378864401934
 40
0.9067361963478907
 40
0.9253869598269888
 40
0.9440144096439534
 40
0.9626428695479577
 40
0.9812966593368435
 40
1.0
 40
1.0
 40
1.0
 40
1.0
 10
64.60066728317713
 20
165.2543896940315
 30
0.0
 10
64.42400764878916
 20
165.2006475896668
 30
0.0
 10
64.07097168101447
 20
165.0932495647
 30
0.0
 10
63.54556173834512
 20
164.9202398718716
 30
0.0
 10
63.02381447455847
 20
164.7386911987842
 30
0.0
 10
62.50598762979221
 20
164.5477408272575
 30
0.0
 10
61.99201248175562
 20
164.3476195571055
 30
0.0
 10
61.48190765034207
 20
164.1382656992803
 30
0.0
 10
60.97566831742731
 20
163.919695801373
 30
0.0
 10
60.47329614903931
 20
163.6919056984494
 30
0.0
 10
59.97479026586429
 20
163.4548959620004
 30
0.0
 10
59.48015345418919
 20
163.2086689980839
 30
0.0
 10
58.98937632112966
 20
162.9532151806252
 30
0.0
 10
57.60583387596304
 20
162.201192761476
 30
0.0
 10
55.40779562620556
 20
160.8065096479108
 30
0.0
 10
53.04309558347219
 20
158.8747451491301
 30
0.0
 10
51.27300148124957
 20
157.1426333161158
 30
0.0
 10
49.55149931903902
 20
155.2336551402485
 30
0.0
 10
47.60375760987174
 20
152.6120956527784
 30
0.0
 10
45.66732566786014
 20
149.1521370888449
 30
0.0
 10
44.18444957644243
 20
145.4395772562293
 30
0.0
 10
43.19875817203705
 20
141.5663843902277
 30
0.0
 10
42.72825193558643
 20
137.6326908556959
 30
0.0
 10
42.75945398290879
 20
134.371328822064
 30
0.0
 10
43.0264496585848
 20
131.8188153072319
 30
0.0
 10
43.43606416019372
 20
129.3821515970229
 30
0.0
 10
44.20725468872244
 20
126.43478848471
 30
0.0
 10
45.22624523724976
 20
123.8477558559984
 30
0.0
 10
46.07159137026097
 20
122.104011904493
 30
0.0
 10
46.58739536776372
 20
121.1309598071015
 30
0.0
 10
47.13715140728238
 20
120.1782713342581
 30
0.0
 10
47.72163117370275
 20
119.246488263358
 30
0.0
 10
48.33798608683549
 20
118.3334670390409
 30
0.0
 10
48.77646159730735
 20
117.7437198967063
 30
0.0
 10
48.99599015171103
 20
117.4484552022629
 30
0.0
  0
ARC
  5
D7
330
1F
100
AcDbEntity
  8
0
  6
Continuous
 62
     7
370
    15
100
AcDbCircle
 10
73.3506672896
 20
135.9484551887
 30
0.0
 40
30.86715728926741
100
AcDbArc
 50
106.2409449555
 51
216.822823989
  0
SPLINE
  5
D8
330
1F
100
AcDbEntity
  8
0
  6
Continuous
 62
     7
370
    15
100
AcDbSpline
210
0.0
220
0.0
230
1.0
 70
    24
 71
     3
 72
    10
 73
     6
 74
     0
 42
0.000000001
 43
0.00000001
 40
0.0
 40
0.0
 40
0.0
 40
0.0
 40
0.5
 40
0.5
 40
1.0
 40
1.0
 40
1.0
 40
1.0
 10
103.93498185897
 20
135.9484551890971
 30
0.0
 10
103.9860063176071
 20
135.9484551890971
 30
0.0
 10
104.0390496166616
 20
135.9484551890971
 30
0.0
 10
104.1370608530236
 20
135.9484551890971
 30
0.0
 10
104.1817448358049
 20
135.9484551890971
 30
0.0
 10
104.2178245759431
 20
135.9484551890971
 30
0.0
  0
ARC
  5
D9
330
1F
100
AcDbEntity
  8
0
  6
Continuous
 62
     7
370
    15
100
AcDbCircle
 10
73.3506672889
 20
135.9484551891
 30
0.0
 40
30.86715728709903
100
AcDbArc
 50
286.24094496
 51
359.9999999961
  0
ARC
  5
DA
330
1F
100
AcDbEntity
  8
0
  6
Continuous
 62
     7
370
    15
100
AcDbCircle
 10
73.3506672889
 20
135.9484551891
 30
0.0
 40
30.86715728757235
100
AcDbArc
 50
359.9999999961
 51
73.7590550456
  0
SPLINE
  5
DB
330
1F
100
AcDbEntity
  8
0
  6
Continuous
 62
     7
370
    15
100
AcDbSpline
210
0.0
220
0.0
230
1.0
 70
    24
 71
     3
 72
     8
 73
     4
 74
     0
 42
0.000000001
 43
0.00000001
 40
0.0
 40
0.0
 40
0.0
 40
0.0
 40
0.0005364352012432
 40
0.0005364352012432
 40
0.0005364352012432
 40
0.0005364352012432
 10
81.85606284241226
 20
166.4163888985663
 30
0.0
 10
81.76072815545609
 20
166.3210542116101
 30
0.0
 10
81.66532068251145
 20
166.2256467386655
 30
0.0
 10
81.56983781940127
 20
166.1301638755553
 30
0.0
  0
ARC
  5
DC
330
1F
100
AcDbEntity
  8
0
  6
Continuous
 62
     7
370
    15
100
AcDbCircle
 10
73.3506672889
 20
135.9484551891
 30
0.0
 40
31.63284271208674
100
AcDbArc
 50
359.9999999956
 51
74.4024500298
  0
ARC
  5
DD
330
1F
100
AcDbEntity
  8
0
  6
Continuous
 62
     7
370
    15
100
AcDbCircle
 10
73.3506672889
 20
135.9484551891
 30
0.0
 40
31.63284271391235
100
AcDbArc
 50
285.7334817396
 51
359.9999999956
  0
SPLINE
  5
DE
330
1F
100
AcDbEntity
  8
0
  6
Continuous
 62
     7
370
    15
100
AcDbSpline
210
0.0
220
0.0
230
1.0
 70
     8
 71
     3
 72
     8
 73
     4
 74
     0
 42
0.000000001
 43
0.00000001
 40
0.0
 40
0.0
 40
0.0
 40
0.0
 40
0.0005532767344487
 40
0.0005532767344487
 40
0.0005532767344487
 40
0.0005532767344487
 10
81.54005126962545
 20
105.7277889804554
 30
0.0
 10
81.66968928143366
 20
105.6519960493417
 30
0.0
 10
81.79911089149344
 20
105.5763296393733
 30
0.0
 10
81.9283226991734
 20
105.5007858887251
 30
0.0
  0
SPLINE
  5
DF
330
1F
100
AcDbEntity
  8
0
  6
Continuous
 62
     7
370
    15
100
AcDbSpline
210
0.0
220
0.0
230
1.0
 70
     8
 71
     3
 72
     9
 73
     5
 74
     0
 42
0.000000001
 43
0.00000001
 40
0.0
 40
0.0
 40
0.0
 40
0.0
 40
0.501306738790161
 40
1.0
 40
1.0
 40
1.0
 40
1.0
 10
81.54005126969895
 20
105.7277889795639
 30
0.0
 10
81.61440699125113
 20
105.8252094990818
 30
0.0
 10
81.76273079342388
 20
106.0195426527771
 30
0.0
 10
81.91004526926505
 20
106.2154052623012
 30
0.0
 10
81.98351000564571
 20
106.3130806257938
 30
0.0
  0
ARC
  5
E0
330
1F
100
AcDbEntity
  8
0
  6
Continuous
 62
     7
370
    15
100
AcDbCircle
 10
73.3506672889
 20
135.9484551891
 30
0.0
 40
31.63284271251189
100
AcDbArc
 50
74.4024500298
 51
105.7334817355
  0
SPLINE
  5
E1
330
1F
100
AcDbEntity
  8
0
  6
Continuous
 62
     7
370
    15
100
AcDbSpline
210
0.0
220
0.0
230
1.0
 70
     8
 71
     3
 72
     9
 73
     5
 74
     0
 42
0.000000001
 43
0.00000001
 40
0.0
 40
0.0
 40
0.0
 40
0.0
 40
0.5013065652865825
 40
1.0
 40
1.0
 40
1.0
 40
1.0
 10
65.16128331143508
 20
166.1691213940663
 30
0.0
 10
65.08692761548608
 20
166.0717009101292
 30
0.0
 10
64.93860381305095
 20
165.8773677601507
 30
0.0
 10
64.79128933781938
 20
165.6815051529988
 30
0.0
 10
64.71782457618313
 20
165.5838297567063
 30
0.0
  0
SPLINE
  5
E2
330
1F
100
AcDbEntity
  8
0
  6
Continuous
 62
     7
370
    15
100
AcDbSpline
210
0.0
220
0.0
230
1.0
 70
    24
 71
     3
 72
     8
 73
     4
 74
     0
 42
0.000000001
 43
0.00000001
 40
0.0
 40
0.0
 40
0.0
 40
0.0
 40
0.0005532767357167
 40
0.0005532767357167
 40
0.0005532767357167
 40
0.0005532767357167
 10
65.16128331151704
 20
166.169121393879
 30
0.0
 10
65.03164529941897
 20
166.2449143251771
 30
0.0
 10
64.90222368935459
 20
166.3205807367196
 30
0.0
 10
64.77301188138584
 20
166.3961244875515
 30
0.0
  0
SPLINE
  5
E3
330
1F
100
AcDbEntity
  8
0
  6
Continuous
 62
     7
370
    15
100
AcDbSpline
210
0.0
220
0.0
230
1.0
 70
     8
 71
     3
 72
     9
 73
     5
 74
     0
 42
0.000000001
 43
0.00000001
 40
0.0
 40
0.0
 40
0.0
 40
0.0
 40
0.5013664800997716
 40
1.0
 40
1.0
 40
1.0
 40
1.0
 10
65.13149684279453
 20
105.7667465780125
 30
0.0
 10
65.0621426224259
 20
105.857717321642
 30
0.0
 10
64.92381223313694
 20
106.0391629252879
 30
0.0
 10
64.78636191698627
 20
106.2219412277051
 30
0.0
 10
64.71782458203265
 20
106.3130806160007
 30
0.0
  0
SPLINE
  5
E4
330
1F
100
AcDbEntity
  8
0
  6
Continuous
 62
     7
370
    15
100
AcDbSpline
210
0.0
220
0.0
230
1.0
 70
    24
 71
     3
 72
     8
 73
     4
 74
     0
 42
0.000000001
 43
0.00000001
 40
0.0
 40
0.0
 40
0.0
 40
0.0
 40
0.0005364351986017
 40
0.0005364351986017
 40
0.0005364351986017
 40
0.0005364351986017
 10
64.8452717352466
 20
105.4805214794006
 30
0.0
 10
64.94060642173318
 20
105.5758561658872
 30
0.0
 10
65.03601389420753
 20
105.6712636383616
 30
0.0
 10
65.13149675684669
 20
105.7667465010007
 30
0.0
  0
ARC
  5
E5
330
1F
100
AcDbEntity
  8
0
  6
Continuous
 62
     7
370
    15
100
AcDbCircle
 10
73.3506672889
 20
135.9484551891
 30
0.0
 40
31.63284270956344
100
AcDbArc
 50
234.2086512586
 51
254.4024500297
  0
SPLINE
  5
E6
330
1F
100
AcDbEntity
  8
0
  6
Continuous
 62
     7
370
    15
100
AcDbSpline
210
0.0
220
0.0
230
1.0
 70
     8
 71
     3
 72
     9
 73
     5
 74
     0
 42
0.000000001
 43
0.00000001
 40
0.0
 40
0.0
 40
0.0
 40
0.0
 40
0.4967202194678044
 40
1.0
 40
1.0
 40
1.0
 40
1.0
 10
54.85066728944111
 20
111.2395216008535
 30
0.0
 10
54.85066721035562
 20
111.0819000802139
 30
0.0
 10
54.85066705114029
 20
110.764575529165
 30
0.0
 10
54.85066720904339
 20
110.4484878509954
 30
0.0
 10
54.85066728851283
 20
110.2894073136972
 30
0.0
  0
SPLINE
  5
E7
330
1F
100
AcDbEntity
  8
0
  6
Continuous
 62
     7
370
    15
100
AcDbSpline
210
0.0
220
0.0
230
1.0
 70
     8
 71
     3
 72
     9
 73
     5
 74
     0
 42
0.000000001
 43
0.00000001
 40
0.0
 40
0.0
 40
0.0
 40
0.0
 40
0.503279781138185
 40
1.0
 40
1.0
 40
1.0
 40
1.0
 10
47.69161941076345
 20
117.4484551887311
 30
0.0
 10
47.85069994834116
 20
117.4484551090423
 30
0.0
 10
48.16678762668565
 20
117.4484549507032
 30
0.0
 10
48.48411217772299
 20
117.448455110132
 30
0.0
 10
48.64173369816449
 20
117.4484551893235
 30
0.0
  0
ARC
  5
E8
330
1F
100
AcDbEntity
  8
0
  6
Continuous
 62
     7
370
    15
100
AcDbCircle
 10
73.3506672889
 20
135.9484551891
 30
0.0
 40
31.63284271185186
100
AcDbArc
 50
105.7334817355
 51
215.7913487382
  0
ARC
  5
E9
330
1F
100
AcDbEntity
  8
0
  6
Continuous
 62
     7
370
    15
100
AcDbCircle
 10
73.3506672889
 20
135.9484551891
 30
0.0
 40
31.6328427125119
100
AcDbArc
 50
215.7913487369
 51
234.2086512631
  0
ARC
  5
EA
330
1F
100
AcDbEntity
  8
0
  6
Continuous
 62
     7
370
    15
100
AcDbCircle
 10
73.3506672889
 20
135.9484551891
 30
0.0
 40
31.63284271251188
100
AcDbArc
 50
254.4024500297
 51
285.7334817362
  0
SPLINE
  5
EB
330
1F
100
AcDbEntity
  8
0
  6
Continuous
 62
     7
370
    15
100
AcDbSpline
210
0.0
220
0.0
230
1.0
 70
    24
 71
     3
 72
     8
 73
     4
 74
     0
 42
0.000000001
 43
0.00000001
 40
0.0
 40
0.0
 40
0.0
 40
0.0
 40
1.0
 40
1.0
 40
1.0
 40
1.0
 10
81.92832269923596
 20
105.5007858886885
 30
0.0
 10
81.93109178806543
 20
105.4991669394624
 30
0.0
 10
81.93383262577991
 20
105.4975645072653
 30
0.0
 10
81.93654482839999
 20
105.495978816591
 30
0.0
  0
SPLINE
  5
EC
330
1F
100
AcDbEntity
  8
0
  6
Continuous
 62
     7
370
    15
100
AcDbSpline
210
0.0
220
0.0
230
1.0
 70
    24
 71
     3
 72
    10
 73
     6
 74
     0
 42
0.000000001
 43
0.00000001
 40
0.0
 40
0.0
 40
0.0
 40
0.0
 40
0.5
 40
0.5
 40
1.0
 40
1.0
 40
1.0
 40
1.0
 10
81.93654482831447
 20
105.4959788166411
 30
0.0
 10
81.97416826947388
 20
105.4739822521745
 30
0.0
 10
82.00713029358423
 20
105.4547109876131
 30
0.0
 10
82.05454401891046
 20
105.4269905284101
 30
0.0
 10
82.0685743264054
 20
105.4187877018268
 30
0.0
 10
82.06857432649338
 20
105.4187877017753
 30
0.0
  0
ARC
  5
ED
330
1F
100
AcDbEntity
  8
0
  6
Continuous
 62
     7
370
    15
100
AcDbCircle
 10
73.3506672889
 20
135.9484551891
 30
0.0
 40
31.74999999999999
100
AcDbArc
 50
254.2833781166
 51
285.9369715325
  0
SPLINE
  5
EE
330
1F
100
AcDbEntity
  8
0
  6
Continuous
 62
     7
370
    15
100
AcDbSpline
210
0.0
220
0.0
230
1.0
 70
    24
 71
     3
 72
     8
 73
     4
 74
     0
 42
0.000000001
 43
0.00000001
 40
0.0
 40
0.0
 40
0.0
 40
0.0
 40
1.0
 40
1.0
 40
1.0
 40
1.0
 10
64.75023625085628
 20
105.3854859950103
 30
0.0
 10
64.75023625068049
 20
105.3854859948345
 30
0.0
 10
64.78751584713335
 20
105.4227655912914
 30
0.0
 10
64.8452717354336
 20
105.4805214795916
 30
0.0
  0
SPLINE
  5
EF
330
1F
100
AcDbEntity
  8
0
  6
Continuous
 62
     7
370
    15
100
AcDbSpline
210
0.0
220
0.0
230
1.0
 70
    24
 71
     3
 72
     8
 73
     4
 74
     0
 42
0.000000001
 43
0.00000001
 40
0.0
 40
0.0
 40
0.0
 40
0.0
 40
1.0
 40
1.0
 40
1.0
 40
1.0
 10
54.85066728894307
 20
110.2894073135487
 30
0.0
 10
54.85066728894307
 20
110.2037480613944
 30
0.0
 10
54.85066728894338
 20
110.1451123825273
 30
0.0
 10
54.85066728894338
 20
110.1451123824874
 30
0.0
  0
ARC
  5
F0
330
1F
100
AcDbEntity
  8
0
  6
Continuous
 62
     7
370
    15
100
AcDbCircle
 10
73.3506672889
 20
135.9484551891
 30
0.0
 40
31.75000000000001
100
AcDbArc
 50
215.6390613326
 51
234.3609386674
  0
SPLINE
  5
F1
330
1F
100
AcDbEntity
  8
0
  6
Continuous
 62
     7
370
    15
100
AcDbSpline
210
0.0
220
0.0
230
1.0
 70
    24
 71
     3
 72
     8
 73
     4
 74
     0
 42
0.000000001
 43
0.00000001
 40
0.0
 40
0.0
 40
0.0
 40
0.0
 40
1.0
 40
1.0
 40
1.0
 40
1.0
 10
47.54732448248014
 20
117.4484551890971
 30
0.0
 10
47.54732448246883
 20
117.4484551890971
 30
0.0
 10
47.60609827201628
 20
117.4484551890971
 30
0.0
 10
47.69161941032402
 20
117.4484551890971
 30
0.0
  0
ARC
  5
F2
330
1F
100
AcDbEntity
  8
0
  6
Continuous
 62
     7
370
    15
100
AcDbCircle
 10
73.3506672889
 20
135.9484551891
 30
0.0
 40
31.75000000000001
100
AcDbArc
 50
74.2833781209
 51
105.9369715333
  0
SPLINE
  5
F3
330
1F
100
AcDbEntity
  8
0
  6
Continuous
 62
     7
370
    15
100
AcDbSpline
210
0.0
220
0.0
230
1.0
 70
    24
 71
     3
 72
     8
 73
     4
 74
     0
 42
0.000000001
 43
0.00000001
 40
0.0
 40
0.0
 40
0.0
 40
0.0
 40
1.0
 40
1.0
 40
1.0
 40
1.0
 10
81.95109832716813
 20
166.5114243833222
 30
0.0
 10
81.95109832717111
 20
166.5114243833251
 30
0.0
 10
81.91381606898666
 20
166.4741421251389
 30
0.0
 10
81.8560628424125
 20
166.4163888985647
 30
0.0
  0
SPLINE
  5
F4
330
1F
100
AcDbEntity
  8
0
  6
Continuous
 62
     7
370
    15
100
AcDbSpline
210
0.0
220
0.0
230
1.0
 70
    24
 71
     3
 72
    10
 73
     6
 74
     0
 42
0.000000001
 43
0.00000001
 40
0.0
 40
0.0
 40
0.0
 40
0.0
 40
0.5
 40
0.5
 40
1.0
 40
1.0
 40
1.0
 40
1.0
 10
64.77301188151957
 20
166.3961244874733
 30
0.0
 10
64.73315829782692
 20
166.4194249059379
 30
0.0
 10
64.69811062977323
 20
166.4399155433208
 30
0.0
 10
64.64779720286171
 20
166.4693313145715
 30
0.0
 10
64.63276025111746
 20
166.4781226762412
 30
0.0
 10
64.63276025108605
 20
166.4781226762595
 30
0.0
  0
ARC
  5
F5
330
1F
100
AcDbEntity
  8
0
  6
Continuous
 62
     7
370
    15
100
AcDbCircle
 10
73.3506672889
 20
135.9484551891
 30
0.0
 40
31.75
100
AcDbArc
 50
0.0
 51
74.2833781209
  0
SPLINE
  5
F6
330
1F
100
AcDbEntity
  8
0
  6
Continuous
 62
     7
370
    15
100
AcDbSpline
210
0.0
220
0.0
230
1.0
 70
    24
 71
     3
 72
    10
 73
     6
 74
     0
 42
0.000000001
 43
0.00000001
 40
0.0
 40
0.0
 40
0.0
 40
0.0
 40
0.5
 40
0.5
 40
1.0
 40
1.0
 40
1.0
 40
1.0
 10
104.9835100009431
 20
135.9484551890971
 30
0.0
 10
105.0195897408869
 20
135.9484551890971
 30
0.0
 10
105.0499203102005
 20
135.9484551890971
 30
0.0
 10
105.0905178931388
 20
135.9484551890971
 30
0.0
 10
105.1006672889429
 20
135.9484551890971
 30
0.0
 10
105.100667288943
 20
135.9484551890971
 30
0.0
  0
ARC
  5
F7
330
1F
100
AcDbEntity
  8
0
  6
Continuous
 62
     7
370
    15
100
AcDbCircle
 10
73.3506672889
 20
135.9484551891
 30
0.0
 40
31.75
100
AcDbArc
 50
285.9369715325
 51
0.0
  0
ARC
  5
F8
330
1F
100
AcDbEntity
  8
0
  6
Continuous
 62
     7
370
    15
100
AcDbCircle
 10
73.3506672889
 20
135.9484551891
 30
0.0
 40
31.75
100
AcDbArc
 50
234.3609386674
 51
254.2833781166
  0
ARC
  5
F9
330
1F
100
AcDbEntity
  8
0
  6
Continuous
 62
     7
370
    15
100
AcDbCircle
 10
73.3506672889
 20
135.9484551891
 30
0.0
 40
31.75000000000001
100
AcDbArc
 50
105.9369715333
 51
215.6390613326
  0
SPLINE
  5
FA
330
1F
100
AcDbEntity
  8
0
  6
Continuous
 62
     8
370
    15
100
AcDbSpline
210
0.0
220
0.0
230
1.0
 70
    24
 71
     3
 72
     9
 73
     5
 74
     0
 42
0.000000001
 43
0.00000001
 40
0.0
 40
0.0
 40
0.0
 40
0.0
 40
0.5634001873711906
 40
1.0
 40
1.0
 40
1.0
 40
1.0
 10
95.85066818301274
 20
135.9484551890971
 30
0.0
 10
95.77832118986699
 20
135.9484551890971
 30
0.0
 10
95.649909814139
 20
135.9484551890971
 30
0.0
 10
95.55599095556455
 20
135.9484551890971
 30
0.0
 10
95.51498599950862
 20
135.9484551890971
 30
0.0
  0
SPLINE
  5
FB
330
1F
100
AcDbEntity
  8
0
  6
Continuous
 62
     8
370
    15
100
AcDbSpline
210
0.0
220
0.0
230
1.0
 70
    24
 71
     3
 72
     9
 73
     5
 74
     0
 42
0.000000001
 43
0.00000001
 40
0.0
 40
0.0
 40
0.0
 40
0.0
 40
0.4412697676001843
 40
1.0
 40
1.0
 40
1.0
 40
1.0
 10
51.12566732470584
 20
135.9484551890971
 30
0.0
 10
51.08900826040198
 20
135.9484551890971
 30
0.0
 10
51.00593194972872
 20
135.9484551890971
 30
0.0
 10
50.9063216697534
 20
135.9484551890971
 30
0.0
 10
50.85066639487338
 20
135.9484551890971
 30
0.0
  0
INSERT
  5
107
330
1F
100
AcDbEntity
  8
DIM
100
AcDbBlockReference
  2
SW_CENTERMARKSYMBOL_0
 10
73.3506672889
 20
135.9484551891
 30
0.0
  0
LINE
  5
108
330
1F
100
AcDbEntity
  8
0
  6
Continuous
 62
     7
370
    15
100
AcDbLine
 10
221.3872530241
 20
104.1984541758
 30
0.0
 11
224.6997308661
 21
104.1984541758
 31
0.0
  0
LINE
  5
109
330
1F
100
AcDbEntity
  8
0
  6
Continuous
 62
     7
370
    15
100
AcDbLine
 10
224.6997308661
 20
167.6984562024
 30
0.0
 11
221.3872530241
 21
167.6984562024
 31
0.0
  0
LINE
  5
10A
330
1F
100
AcDbEntity
  8
0
  6
Continuous
 62
     7
370
    15
100
AcDbLine
 10
211.1311013554
 20
104.1984541758
 30
0.0
 11
214.3435793673
 21
104.1984541758
 31
0.0
  0
LINE
  5
10B
330
1F
100
AcDbEntity
  8
0
  6
Continuous
 62
     7
370
    15
100
AcDbLine
 10
214.3435793673
 20
167.6984562024
 30
0.0
 11
211.1311013554
 21
167.6984562024
 31
0.0
  0
LINE
  5
10C
330
1F
100
AcDbEntity
  8
0
  6
Continuous
 62
     7
370
    15
100
AcDbLine
 10
221.3872530241
 20
167.6984562024
 30
0.0
 11
219.7654162277
 21
164.889352624
 31
0.0
  0
LINE
  5
10D
330
1F
100
AcDbEntity
  8
0
  6
Continuous
 62
     7
370
    15
100
AcDbLine
 10
219.7654162277
 20
107.0075577541
 30
0.0
 11
221.3872530241
 21
104.1984541758
 31
0.0
  0
LINE
  5
10E
330
1F
100
AcDbEntity
  8
0
  6
Continuous
 62
     7
370
    15
100
AcDbLine
 10
215.9654161637
 20
107.9484543248
 30
0.0
 11
219.7654162277
 21
107.9484543248
 31
0.0
  0
LINE
  5
10F
330
1F
100
AcDbEntity
  8
0
  6
Continuous
 62
     7
370
    15
100
AcDbLine
 10
219.7654162277
 20
163.9484560534
 30
0.0
 11
215.9654161637
 21
163.9484560534
 31
0.0
  0
LINE
  5
110
330
1F
100
AcDbEntity
  8
0
  6
Continuous
 62
     7
370
    15
100
AcDbLine
 10
303.8786676456
 20
110.9484548166
 30
0.0
 11
306.7654174496
 21
115.9484556361
 31
0.0
  0
LINE
  5
111
330
1F
100
AcDbEntity
  8
0
  6
Continuous
 62
     7
370
    15
100
AcDbLine
 10
306.7654174496
 20
155.9484547421
 30
0.0
 11
303.8786676456
 21
160.9484555616
 31
0.0
  0
LINE
  5
112
330
1F
100
AcDbEntity
  8
0
  6
Continuous
 62
     7
370
    15
100
AcDbLine
 10
303.8786676456
 20
160.9484555616
 30
0.0
 11
285.7654195954
 21
160.9484555616
 31
0.0
  0
LINE
  5
113
330
1F
100
AcDbEntity
  8
0
  6
Continuous
 62
     7
370
    15
100
AcDbLine
 10
285.7654195954
 20
110.9484548166
 30
0.0
 11
303.8786676456
 21
110.9484548166
 31
0.0
  0
LINE
  5
114
330
1F
100
AcDbEntity
  8
0
  6
Continuous
 62
     7
370
    15
100
AcDbLine
 10
285.7654195954
 20
160.9484555616
 30
0.0
 11
284.2654165556
 21
159.4484543844
 31
0.0
  0
LINE
  5
115
330
1F
100
AcDbEntity
  8
0
  6
Continuous
 62
     7
370
    15
100
AcDbLine
 10
284.2654165556
 20
112.4484559938
 30
0.0
 11
285.7654195954
 21
110.9484548166
 31
0.0
  0
SPLINE
  5
116
330
1F
100
AcDbEntity
  8
0
  6
Continuous
 62
     7
370
    15
100
AcDbSpline
210
0.0
220
0.0
230
1.0
 70
     8
 71
     3
 72
    13
 73
     9
 74
     0
 42
0.000000001
 43
0.00000001
 40
0.0
 40
0.0
 40
0.0
 40
0.0
 40
0.2394562675100168
 40
0.3683601406657668
 40
0.4999996297598138
 40
0.6316387436204166
 40
0.7605427441093002
 40
1.0
 40
1.0
 40
1.0
 40
1.0
 10
209.4654160295457
 20
113.9484553083064
 30
0.0
 10
209.5283141715001
 20
113.9417765739525
 30
0.0
 10
209.6250715821908
 20
113.9315025495903
 30
0.0
 10
209.7414796654147
 20
113.869153482112
 30
0.0
 10
209.8215827016557
 20
113.8046220319175
 30
0.0
 10
209.8861139171991
 20
113.7245187434185
 30
0.0
 10
209.94846255822
 20
113.6081102647922
 30
0.0
 10
209.9587369185681
 20
113.5113526431933
 30
0.0
 10
209.9654158786715
 20
113.4484542950274
 30
0.0
  0
SPLINE
  5
117
330
1F
100
AcDbEntity
  8
0
  6
Continuous
 62
     7
370
    15
100
AcDbSpline
210
0.0
220
0.0
230
1.0
 70
     8
 71
     3
 72
    13
 73
     9
 74
     0
 42
0.000000001
 43
0.00000001
 40
0.0
 40
0.0
 40
0.0
 40
0.0
 40
0.2394572558906999
 40
0.3683612563795835
 40
0.5000003702401864
 40
0.6316398593342333
 40
0.7605437324899833
 40
1.0
 40
1.0
 40
1.0
 40
1.0
 10
209.9654158786715
 20
158.4484560831667
 30
0.0
 10
209.9587369185681
 20
158.3855577350009
 30
0.0
 10
209.94846255822
 20
158.288800113402
 30
0.0
 10
209.8861139171991
 20
158.1723916347756
 30
0.0
 10
209.8215827016557
 20
158.0922883462767
 30
0.0
 10
209.7414796654147
 20
158.0277568960822
 30
0.0
 10
209.6250715821908
 20
157.9654078286038
 30
0.0
 10
209.5283141715001
 20
157.9551338042417
 30
0.0
 10
209.4654160295457
 20
157.9484550698878
 30
0.0
  0
LINE
  5
118
330
1F
100
AcDbEntity
  8
0
  6
Continuous
 62
     7
370
    15
100
AcDbLine
 10
206.7654159595
 20
113.7234552249
 30
0.0
 11
207.2479300236
 21
113.9484553083
 31
0.0
  0
LINE
  5
119
330
1F
100
AcDbEntity
  8
0
  6
Continuous
 62
     7
370
    15
100
AcDbLine
 10
207.2479300236
 20
157.9484550699
 30
0.0
 11
206.7654159595
 21
158.1734551533
 31
0.0
  0
LINE
  5
11A
330
1F
100
AcDbEntity
  8
0
  6
Continuous
 62
     7
370
    15
100
AcDbLine
 10
206.7654159595
 20
158.1734551533
 30
0.0
 11
139.2211046745
 21
148.3231505796
 31
0.0
  0
LINE
  5
11B
330
1F
100
AcDbEntity
  8
0
  6
Continuous
 62
     7
370
    15
100
AcDbLine
 10
139.2211046745
 20
123.5737597986
 30
0.0
 11
206.7654159595
 21
113.7234552249
 31
0.0
  0
LINE
  5
11C
330
1F
100
AcDbEntity
  8
0
  6
Continuous
 62
     7
370
    15
100
AcDbLine
 10
207.2479300236
 20
113.9484553083
 30
0.0
 11
209.4654160295
 21
113.9484553083
 31
0.0
  0
LINE
  5
11D
330
1F
100
AcDbEntity
  8
0
  6
Continuous
 62
     7
370
    15
100
AcDbLine
 10
209.4654160295
 20
157.9484550699
 30
0.0
 11
207.2479300236
 21
157.9484550699
 31
0.0
  0
SPLINE
  5
11E
330
1F
100
AcDbEntity
  8
0
  6
Continuous
 62
     7
370
    15
100
AcDbSpline
210
0.0
220
0.0
230
1.0
 70
     8
 71
     3
 72
    11
 73
     7
 74
     0
 42
0.000000001
 43
0.00000001
 40
0.0
 40
0.0
 40
0.0
 40
0.0
 40
0.2695103129284175
 40
0.5617366403973562
 40
0.7894227163044216
 40
1.0
 40
1.0
 40
1.0
 40
1.0
 10
225.8654151786894
 20
114.1701715483548
 30
0.0
 10
225.8971678433465
 20
114.4557955965837
 30
0.0
 10
225.9633494858014
 20
115.0511178739596
 30
0.0
 10
226.5029617930369
 20
115.7333046570042
 30
0.0
 10
227.180699320227
 20
116.1315487758208
 30
0.0
 10
227.6431950335835
 20
116.1767405057096
 30
0.0
 10
227.865415506515
 20
116.1984542801263
 30
0.0
  0
SPLINE
  5
11F
330
1F
100
AcDbEntity
  8
0
  6
Continuous
 62
     7
370
    15
100
AcDbSpline
210
0.0
220
0.0
230
1.0
 70
     8
 71
     3
 72
    11
 73
     7
 74
     0
 42
0.000000001
 43
0.00000001
 40
0.0
 40
0.0
 40
0.0
 40
0.0
 40
0.2706713183203621
 40
0.5632119464523062
 40
0.7903895278937901
 40
1.0
 40
1.0
 40
1.0
 40
1.0
 10
227.865415506515
 20
155.6984560980679
 30
0.0
 10
227.5790092305282
 20
155.7344759620496
 30
0.0
 10
226.9830560383849
 20
155.8094259709015
 30
0.0
 10
226.3088177635679
 20
156.3609439412616
 30
0.0
 10
225.9223563610601
 20
157.0438073450489
 30
0.0
 10
225.8838797445034
 20
157.5052816555701
 30
0.0
 10
225.8654151786894
 20
157.7267388298394
 30
0.0
  0
LINE
  5
120
330
1F
100
AcDbEntity
  8
0
  6
Continuous
 62
     7
370
    15
100
AcDbLine
 10
284.2654165556
 20
155.8984557583
 30
0.0
 11
269.7654169728
 21
155.8984557583
 31
0.0
  0
LINE
  5
121
330
1F
100
AcDbEntity
  8
0
  6
Continuous
 62
     7
370
    15
100
AcDbLine
 10
269.7654169728
 20
115.9984546199
 30
0.0
 11
284.2654165556
 21
115.9984546199
 31
0.0
  0
LINE
  5
122
330
1F
100
AcDbEntity
  8
0
  6
Continuous
 62
     7
370
    15
100
AcDbLine
 10
269.7654169728
 20
155.8984557583
 30
0.0
 11
269.3365168501
 21
155.6984560981
 31
0.0
  0
LINE
  5
123
330
1F
100
AcDbEntity
  8
0
  6
Continuous
 62
     7
370
    15
100
AcDbLine
 10
269.3365168501
 20
116.1984542801
 30
0.0
 11
269.7654169728
 21
115.9984546199
 31
0.0
  0
LINE
  5
124
330
1F
100
AcDbEntity
  8
0
  6
Continuous
 62
     7
370
    15
100
AcDbLine
 10
227.8654155065
 20
116.1984542801
 30
0.0
 11
269.3365168501
 21
116.1984542801
 31
0.0
  0
LINE
  5
125
330
1F
100
AcDbEntity
  8
0
  6
Continuous
 62
     7
370
    15
100
AcDbLine
 10
269.3365168501
 20
155.6984560981
 30
0.0
 11
227.8654155065
 21
155.6984560981
 31
0.0
  0
SPLINE
  5
126
330
1F
100
AcDbEntity
  8
0
  6
Continuous
 62
     7
370
    15
100
AcDbSpline
210
0.0
220
0.0
230
1.0
 70
     8
 71
     3
 72
    11
 73
     7
 74
     0
 42
0.000000001
 43
0.00000001
 40
0.0
 40
0.0
 40
0.0
 40
0.0
 40
0.2418860895924856
 40
0.4999977846006939
 40
0.7581134239561622
 40
1.0
 40
1.0
 40
1.0
 40
1.0
 10
139.2211046744914
 20
148.32315057956
 30
0.0
 10
139.1089520442469
 20
148.295095813101
 30
0.0
 10
138.8771236379346
 20
148.2371043796101
 30
0.0
 10
138.593513820379
 20
148.0011142761108
 30
0.0
 10
138.4009232912734
 20
147.6864168169096
 30
0.0
 10
138.3769907925574
 20
147.4486447720304
 30
0.0
 10
138.3654129435153
 20
147.3336175500633
 30
0.0
  0
SPLINE
  5
127
330
1F
100
AcDbEntity
  8
0
  6
Continuous
 62
     7
370
    15
100
AcDbSpline
210
0.0
220
0.0
230
1.0
 70
     8
 71
     3
 72
    11
 73
     7
 74
     0
 42
0.000000001
 43
0.00000001
 40
0.0
 40
0.0
 40
0.0
 40
0.0
 40
0.2418865760438377
 40
0.5000022153993059
 40
0.7581139104075142
 40
1.0
 40
1.0
 40
1.0
 40
1.0
 10
138.3654129435153
 20
124.5632928281309
 30
0.0
 10
138.3769907925574
 20
124.4482656061638
 30
0.0
 10
138.4009232912734
 20
124.2104935612846
 30
0.0
 10
138.5935138203789
 20
123.8957961020834
 30
0.0
 10
138.8771236379346
 20
123.659805998584
 30
0.0
 10
139.1089520442469
 20
123.6018145650932
 30
0.0
 10
139.2211046744913
 20
123.5737597986342
 30
0.0
  0
ARC
  5
128
330
1F
100
AcDbEntity
  8
0
  6
Continuous
 62
     7
370
    15
100
AcDbCircle
 10
210.3654159579
 20
166.5327697651
 30
0.0
 40
0.3999999982177656
100
AcDbArc
 50
135.0000000969
 51
180.0000004552
  0
ARC
  5
129
330
1F
100
AcDbEntity
  8
0
  6
Continuous
 62
     7
370
    15
100
AcDbCircle
 10
210.3654159579
 20
105.3641406131
 30
0.0
 40
0.3999999982177656
100
AcDbArc
 50
179.9999995448
 51
224.9999999031
  0
LINE
  5
12A
330
1F
100
AcDbEntity
  8
0
  6
Continuous
 62
     7
370
    15
100
AcDbLine
 10
210.8482586895
 20
167.5812995478
 30
0.0
 11
210.0825732318
 21
166.8156126931
 31
0.0
  0
ARC
  5
12B
330
1F
100
AcDbEntity
  8
0
  6
Continuous
 62
     7
370
    15
100
AcDbCircle
 10
224.6997305356
 20
104.5984551842
 30
0.0
 40
0.3999999953549171
100
AcDbArc
 50
269.9999998446
 51
315.0000005595
  0
ARC
  5
12C
330
1F
100
AcDbEntity
  8
0
  6
Continuous
 62
     7
370
    15
100
AcDbCircle
 10
211.1311013852
 20
104.5984551908
 30
0.0
 40
0.4000000016911827
100
AcDbArc
 50
225.0000001079
 51
269.9999999152
  0
LINE
  5
12D
330
1F
100
AcDbEntity
  8
0
  6
Continuous
 62
     7
370
    15
100
AcDbLine
 10
214.3435793673
 20
104.1984541758
 30
0.0
 11
215.9654161637
 21
107.0075577541
 31
0.0
  0
LINE
  5
12E
330
1F
100
AcDbEntity
  8
0
  6
Continuous
 62
     7
370
    15
100
AcDbLine
 10
210.0825732318
 20
105.0812976851
 30
0.0
 11
210.8482586895
 21
104.3156108304
 31
0.0
  0
ARC
  5
12F
330
1F
100
AcDbEntity
  8
0
  6
Continuous
 62
     7
370
    15
100
AcDbCircle
 10
224.6997305356
 20
167.298455194
 30
0.0
 40
0.3999999953549171
100
AcDbArc
 50
44.9999994405
 51
90.0000001554
  0
ARC
  5
130
330
1F
100
AcDbEntity
  8
0
  6
Continuous
 62
     7
370
    15
100
AcDbCircle
 10
211.1311013852
 20
167.2984551874
 30
0.0
 40
0.4000000016911571
100
AcDbArc
 50
90.0000000848
 51
134.9999998921
  0
LINE
  5
131
330
1F
100
AcDbEntity
  8
0
  6
Continuous
 62
     7
370
    15
100
AcDbLine
 10
215.9654161637
 20
164.889352624
 30
0.0
 11
214.3435793673
 21
167.6984562024
 31
0.0
  0
LINE
  5
132
330
1F
100
AcDbEntity
  8
0
  6
Continuous
 62
     7
370
    15
100
AcDbLine
 10
224.982573532
 20
104.3156108304
 30
0.0
 11
225.7482585241
 21
105.0812976851
 31
0.0
  0
LINE
  5
133
330
1F
100
AcDbEntity
  8
0
  6
Continuous
 62
     7
370
    15
100
AcDbLine
 10
225.7482585241
 20
166.8156126931
 30
0.0
 11
224.982573532
 21
167.5812995478
 31
0.0
  0
ARC
  5
134
330
1F
100
AcDbEntity
  8
0
  6
Continuous
 62
     7
370
    15
100
AcDbCircle
 10
225.4654159612
 20
166.5327697651
 30
0.0
 40
0.3999999982049474
100
AcDbArc
 50
359.9999995081
 51
44.9999999822
  0
ARC
  5
135
330
1F
100
AcDbEntity
  8
0
  6
Continuous
 62
     7
370
    15
100
AcDbCircle
 10
225.4654159612
 20
105.3641406131
 30
0.0
 40
0.3999999982049474
100
AcDbArc
 50
315.0000000178
 51
0.0000004919
  0
LINE
  5
136
330
1F
100
AcDbEntity
  8
0
  6
Continuous
 62
     7
370
    15
100
AcDbLine
 10
221.3872530241
 20
104.1984541758
 30
0.0
 11
221.3872530241
 21
167.6984562024
 31
0.0
  0
LINE
  5
137
330
1F
100
AcDbEntity
  8
0
  6
Continuous
 62
     7
370
    15
100
AcDbLine
 10
224.6997308661
 20
135.9484551891
 30
0.0
 11
224.6997308661
 21
166.5114241137
 31
0.0
  0
LINE
  5
138
330
1F
100
AcDbEntity
  8
0
  6
Continuous
 62
     7
370
    15
100
AcDbLine
 10
224.6997308661
 20
105.4187884971
 30
0.0
 11
224.6997308661
 21
135.9484551891
 31
0.0
  0
LINE
  5
139
330
1F
100
AcDbEntity
  8
0
  6
Continuous
 62
     7
370
    15
100
AcDbLine
 10
211.1311013554
 20
105.4187884971
 30
0.0
 11
211.1311013554
 21
135.9484551891
 31
0.0
  0
LINE
  5
13A
330
1F
100
AcDbEntity
  8
0
  6
Continuous
 62
     7
370
    15
100
AcDbLine
 10
211.1311013554
 20
135.9484551891
 30
0.0
 11
211.1311013554
 21
166.5114241137
 31
0.0
  0
LINE
  5
13B
330
1F
100
AcDbEntity
  8
0
  6
Continuous
 62
     7
370
    15
100
AcDbLine
 10
214.3435793673
 20
166.5114241137
 30
0.0
 11
214.3435793673
 21
135.9484551891
 31
0.0
  0
LINE
  5
13C
330
1F
100
AcDbEntity
  8
0
  6
Continuous
 62
     7
370
    15
100
AcDbLine
 10
214.3435793673
 20
135.9484551891
 30
0.0
 11
214.3435793673
 21
105.4187884971
 31
0.0
  0
LINE
  5
13D
330
1F
100
AcDbEntity
  8
0
  6
Continuous
 62
     7
370
    15
100
AcDbLine
 10
214.3435793673
 20
104.1984541758
 30
0.0
 11
214.3435793673
 21
105.4187884971
 31
0.0
  0
LINE
  5
13E
330
1F
100
AcDbEntity
  8
0
  6
Continuous
 62
     7
370
    15
100
AcDbLine
 10
214.3435793673
 20
166.5114241137
 30
0.0
 11
214.3435793673
 21
167.6984562024
 31
0.0
  0
SPLINE
  5
13F
330
1F
100
AcDbEntity
  8
0
  6
Continuous
 62
     7
370
    15
100
AcDbSpline
210
0.0
220
0.0
230
1.0
 70
    24
 71
     3
 72
    10
 73
     6
 74
     0
 42
0.000000001
 43
0.00000001
 40
0.0
 40
0.0
 40
0.0
 40
0.0
 40
0.5
 40
0.5
 40
1.0
 40
1.0
 40
1.0
 40
1.0
 10
224.6997305345103
 20
135.9484551890971
 30
0.0
 10
224.750754992591
 20
135.9484551890971
 30
0.0
 10
224.8037982908904
 20
135.9484551890971
 30
0.0
 10
224.9018095256527
 20
135.9484551890971
 30
0.0
 10
224.9464935076059
 20
135.9484551890971
 30
0.0
 10
224.9825732470491
 20
135.9484551890971
 30
0.0
  0
LINE
  5
140
330
1F
100
AcDbEntity
  8
0
  6
Continuous
 62
     7
370
    15
100
AcDbLine
 10
224.982573532
 20
135.9484551857
 30
0.0
 11
224.982573532
 21
105.5007858618
 31
0.0
  0
SPLINE
  5
141
330
1F
100
AcDbEntity
  8
0
  6
Continuous
 62
     7
370
    15
100
AcDbSpline
210
0.0
220
0.0
230
1.0
 70
     8
 71
     3
 72
    10
 73
     6
 74
     0
 42
0.000000001
 43
0.00000001
 40
0.0
 40
0.0
 40
0.0
 40
0.0
 40
0.5
 40
0.5
 40
1.0
 40
1.0
 40
1.0
 40
1.0
 10
224.6997305343587
 20
105.4187877018621
 30
0.0
 10
224.756810098337
 20
105.4187877017626
 30
0.0
 10
224.8123772895281
 20
105.427586610966
 30
0.0
 10
224.9087571233858
 20
105.4571889534854
 30
0.0
 10
224.9493895900061
 20
105.4775209405602
 30
0.0
 10
224.9825732500907
 20
105.500785891965
 30
0.0
  0
LINE
  5
142
330
1F
100
AcDbEntity
  8
0
  6
Continuous
 62
     7
370
    15
100
AcDbLine
 10
224.982573532
 20
166.4163882329
 30
0.0
 11
224.982573532
 21
135.9484551857
 31
0.0
  0
SPLINE
  5
143
330
1F
100
AcDbEntity
  8
0
  6
Continuous
 62
     7
370
    15
100
AcDbSpline
210
0.0
220
0.0
230
1.0
 70
     8
 71
     3
 72
     8
 73
     4
 74
     0
 42
0.000000001
 43
0.00000001
 40
0.0
 40
0.0
 40
0.0
 40
0.0
 40
1.0
 40
1.0
 40
1.0
 40
1.0
 10
224.9825732487874
 20
166.4163888974792
 30
0.0
 10
224.9113843426522
 20
166.4741696294502
 30
0.0
 10
224.8082770232707
 20
166.5114243833243
 30
0.0
 10
224.6997305343582
 20
166.5114243831069
 30
0.0
  0
SPLINE
  5
144
330
1F
100
AcDbEntity
  8
0
  6
Continuous
 62
     7
370
    15
100
AcDbSpline
210
0.0
220
0.0
230
1.0
 70
     8
 71
     3
 72
    10
 73
     6
 74
     0
 42
0.000000001
 43
0.00000001
 40
0.0
 40
0.0
 40
0.0
 40
0.0
 40
0.5
 40
0.5
 40
1.0
 40
1.0
 40
1.0
 40
1.0
 10
210.8552862966365
 20
105.4959788166411
 30
0.0
 10
210.8882468731476
 20
105.4739822521745
 30
0.0
 10
210.9284781187729
 20
105.4547109876131
 30
0.0
 10
211.0222519351774
 20
105.4269905284101
 30
0.0
 10
211.076017504182
 20
105.4187877018268
 30
0.0
 10
211.1311013846253
 20
105.4187877017753
 30
0.0
  0
SPLINE
  5
145
330
1F
100
AcDbEntity
  8
0
  6
Continuous
 62
     7
370
    15
100
AcDbSpline
210
0.0
220
0.0
230
1.0
 70
     8
 71
     3
 72
     8
 73
     4
 74
     0
 42
0.000000001
 43
0.00000001
 40
0.0
 40
0.0
 40
0.0
 40
0.0
 40
1.0
 40
1.0
 40
1.0
 40
1.0
 10
210.8482586732959
 20
105.5007858886885
 30
0.0
 10
210.8505678404439
 20
105.4991669394624
 30
0.0
 10
210.8529102310031
 20
105.4975645072653
 30
0.0
 10
210.8552862965346
 20
105.495978816591
 30
0.0
  0
LINE
  5
146
330
1F
100
AcDbEntity
  8
0
  6
Continuous
 62
     7
370
    15
100
AcDbLine
 10
210.8482586895
 20
105.5007858618
 30
0.0
 11
210.8482586895
 21
135.9484551867
 31
0.0
  0
SPLINE
  5
147
330
1F
100
AcDbEntity
  8
0
  6
Continuous
 62
     7
370
    15
100
AcDbSpline
210
0.0
220
0.0
230
1.0
 70
    24
 71
     3
 72
    10
 73
     6
 74
     0
 42
0.000000001
 43
0.00000001
 40
0.0
 40
0.0
 40
0.0
 40
0.0
 40
0.5
 40
0.5
 40
1.0
 40
1.0
 40
1.0
 40
1.0
 10
210.8482586715103
 20
135.9484551890971
 30
0.0
 10
210.8843384114541
 20
135.9484551890971
 30
0.0
 10
210.9290223937366
 20
135.9484551890971
 30
0.0
 10
211.0270336286767
 20
135.9484551890971
 30
0.0
 10
211.0800769268231
 20
135.9484551890971
 30
0.0
 10
211.1311013845476
 20
135.9484551890971
 30
0.0
  0
LINE
  5
148
330
1F
100
AcDbEntity
  8
0
  6
Continuous
 62
     7
370
    15
100
AcDbLine
 10
210.8482586895
 20
135.9484551867
 30
0.0
 11
210.8482586895
 21
166.4163882329
 31
0.0
  0
SPLINE
  5
149
330
1F
100
AcDbEntity
  8
0
  6
Continuous
 62
     7
370
    15
100
AcDbSpline
210
0.0
220
0.0
230
1.0
 70
     8
 71
     3
 72
     8
 73
     4
 74
     0
 42
0.000000001
 43
0.00000001
 40
0.0
 40
0.0
 40
0.0
 40
0.0
 40
1.0
 40
1.0
 40
1.0
 40
1.0
 10
211.1311013845041
 20
166.5114243833222
 30
0.0
 10
211.0226009685097
 20
166.5114243833251
 30
0.0
 10
210.9194136905733
 20
166.4741421251389
 30
0.0
 10
210.8482586715672
 20
166.4163888985647
 30
0.0
  0
LINE
  5
14A
330
1F
100
AcDbEntity
  8
0
  6
Continuous
 62
     7
370
    15
100
AcDbLine
 10
219.7654162277
 20
164.889352624
 30
0.0
 11
219.7654162277
 21
107.0075577541
 31
0.0
  0
SPLINE
  5
14B
330
1F
100
AcDbEntity
  8
0
  6
Continuous
 62
     7
370
    15
100
AcDbSpline
210
0.0
220
0.0
230
1.0
 70
     8
 71
     3
 72
     8
 73
     4
 74
     0
 42
0.000000001
 43
0.00000001
 40
0.0
 40
0.0
 40
0.0
 40
0.0
 40
0.000837255004582
 40
0.000837255004582
 40
0.000837255004582
 40
0.000837255004582
 10
214.3435793194537
 20
105.4187877035449
 30
0.0
 10
214.4510048927491
 20
105.5487939864991
 30
0.0
 10
214.5576940261356
 20
105.6789559907594
 30
0.0
 10
214.663598175994
 20
105.8092798708823
 30
0.0
  0
LINE
  5
14C
330
1F
100
AcDbEntity
  8
0
  6
Continuous
 62
     7
370
    15
100
AcDbLine
 10
214.3435793673
 20
135.9484551891
 30
0.0
 11
215.9654161637
 21
135.9484551891
 31
0.0
  0
LINE
  5
14D
330
1F
100
AcDbEntity
  8
0
  6
Continuous
 62
     7
370
    15
100
AcDbLine
 10
215.9654161637
 20
108.1496609791
 30
0.0
 11
215.9654161637
 21
135.9484551891
 31
0.0
  0
SPLINE
  5
14E
330
1F
100
AcDbEntity
  8
0
  6
Continuous
 62
     7
370
    15
100
AcDbSpline
210
0.0
220
0.0
230
1.0
 70
     8
 71
     3
 72
     8
 73
     4
 74
     0
 42
0.000000001
 43
0.00000001
 40
0.0000000000192562
 40
0.0000000000192562
 40
0.0000000000192562
 40
0.0000000000192562
 40
0.0026780796350986
 40
0.0026780796350986
 40
0.0026780796350986
 40
0.0026780796350986
 10
214.6635981986078
 20
105.8092798564756
 30
0.0
 10
215.098462782463
 20
106.5888912750188
 30
0.0
 10
215.5324761723681
 20
107.3689784391526
 30
0.0
 10
215.9654159595103
 20
108.1496603916298
 30
0.0
  0
SPLINE
  5
14F
330
1F
100
AcDbEntity
  8
0
  6
Continuous
 62
     7
370
    15
100
AcDbSpline
210
0.0
220
0.0
230
1.0
 70
     8
 71
     3
 72
     8
 73
     4
 74
     0
 42
0.000000001
 43
0.00000001
 40
0.0000000000565945
 40
0.0000000000565945
 40
0.0000000000565945
 40
0.0000000000565945
 40
0.0008709498345046
 40
0.0008709498345046
 40
0.0008709498345046
 40
0.0008709498345046
 10
214.7342260638574
 20
165.9609933092997
 30
0.0
 10
214.6043773124916
 20
166.1446002763322
 30
0.0
 10
214.4741531585471
 20
166.3280747075933
 30
0.0
 10
214.3435793176097
 20
166.5114243830496
 30
0.0
  0
SPLINE
  5
150
330
1F
100
AcDbEntity
  8
0
  6
Continuous
 62
     7
370
    15
100
AcDbSpline
210
0.0
220
0.0
230
1.0
 70
     8
 71
     3
 72
     8
 73
     4
 74
     0
 42
0.000000001
 43
0.00000001
 40
0.0
 40
0.0
 40
0.0
 40
0.0
 40
0.0025330787421051
 40
0.0025330787421051
 40
0.0025330787421051
 40
0.0025330787421051
 10
214.7342260738512
 20
165.9609932817764
 30
0.0
 10
215.1454572202756
 20
165.223543588515
 30
0.0
 10
215.555917097018
 20
164.4856629968355
 30
0.0
 10
215.9654159634305
 20
163.7472499794207
 30
0.0
  0
LINE
  5
151
330
1F
100
AcDbEntity
  8
0
  6
Continuous
 62
     7
370
    15
100
AcDbLine
 10
215.9654161637
 20
135.9484551891
 30
0.0
 11
215.9654161637
 21
163.7472493991
 31
0.0
  0
LINE
  5
152
330
1F
100
AcDbEntity
  8
0
  6
Continuous
 62
     7
370
    15
100
AcDbLine
 10
210.0825732318
 20
106.3130798235
 30
0.0
 11
210.0825732318
 21
135.948455187
 31
0.0
  0
LINE
  5
153
330
1F
100
AcDbEntity
  8
0
  6
Continuous
 62
     7
370
    15
100
AcDbLine
 10
210.0825732318
 20
135.948455187
 30
0.0
 11
210.0825732318
 21
165.5838305547
 31
0.0
  0
SPLINE
  5
154
330
1F
100
AcDbEntity
  8
0
  6
Continuous
 62
     7
370
    15
100
AcDbSpline
210
0.0
220
0.0
230
1.0
 70
     8
 71
     3
 72
     9
 73
     5
 74
     0
 42
0.000000001
 43
0.00000001
 40
0.0
 40
0.0
 40
0.0
 40
0.0
 40
0.5013664788243524
 40
1.0
 40
1.0
 40
1.0
 40
1.0
 10
210.4962455080157
 20
166.1301637943657
 30
0.0
 10
210.426891297468
 20
166.0391930509367
 30
0.0
 10
210.2885609274154
 20
165.8577474472293
 30
0.0
 10
210.1511105918783
 20
165.6749691446477
 30
0.0
 10
210.0825732470826
 20
165.5838297560369
 30
0.0
  0
SPLINE
  5
155
330
1F
100
AcDbEntity
  8
0
  6
Continuous
 62
     7
370
    15
100
AcDbSpline
210
0.0
220
0.0
230
1.0
 70
     8
 71
     3
 72
     8
 73
     4
 74
     0
 42
0.000000001
 43
0.00000001
 40
0.0
 40
0.0
 40
0.0
 40
0.0
 40
0.0005364352012432
 40
0.0005364352012432
 40
0.0005364352012432
 40
0.0005364352012432
 10
210.8482586715648
 20
166.4163888985663
 30
0.0
 10
210.7308013131243
 20
166.3210542116101
 30
0.0
 10
210.6134619960389
 20
166.2256467386655
 30
0.0
 10
210.4962456071232
 20
166.1301638755553
 30
0.0
  0
SPLINE
  5
156
330
1F
100
AcDbEntity
  8
0
  6
Continuous
 62
     7
370
    15
100
AcDbSpline
210
0.0
220
0.0
230
1.0
 70
     8
 71
     3
 72
     8
 73
     4
 74
     0
 42
0.000000001
 43
0.00000001
 40
0.0
 40
0.0
 40
0.0
 40
0.0
 40
0.0005532767344487
 40
0.0005532767344487
 40
0.0005532767344487
 40
0.0005532767344487
 10
210.526031985762
 20
105.7277889804554
 30
0.0
 10
210.6330937033057
 20
105.6519960493417
 30
0.0
 10
210.7405078294561
 20
105.5763296393733
 30
0.0
 10
210.8482586733966
 20
105.5007858887251
 30
0.0
  0
SPLINE
  5
157
330
1F
100
AcDbEntity
  8
0
  6
Continuous
 62
     7
370
    15
100
AcDbSpline
210
0.0
220
0.0
230
1.0
 70
     8
 71
     3
 72
     9
 73
     5
 74
     0
 42
0.000000001
 43
0.00000001
 40
0.0
 40
0.0
 40
0.0
 40
0.0
 40
0.501306738790161
 40
1.0
 40
1.0
 40
1.0
 40
1.0
 10
210.5260319787544
 20
105.7277889795639
 30
0.0
 10
210.4516762572022
 20
105.8252094990818
 30
0.0
 10
210.3033524550295
 20
106.0195426527771
 30
0.0
 10
210.1560379791883
 20
106.2154052623012
 30
0.0
 10
210.0825732428077
 20
106.3130806257938
 30
0.0
  0
SPLINE
  5
158
330
1F
100
AcDbEntity
  8
0
  6
Continuous
 62
     7
370
    15
100
AcDbSpline
210
0.0
220
0.0
230
1.0
 70
     8
 71
     3
 72
     8
 73
     4
 74
     0
 42
0.000000001
 43
0.00000001
 40
0.0
 40
0.0
 40
0.0
 40
0.0
 40
0.0008530937296102
 40
0.0008530937296102
 40
0.0008530937296102
 40
0.0008530937296102
 10
225.5420360063661
 20
165.9609932813482
 30
0.0
 10
225.3558601098493
 20
166.1129829980152
 30
0.0
 10
225.1693658674514
 20
166.2647779974726
 30
0.0
 10
224.9825732487918
 20
166.4163888974819
 30
0.0
  0
LINE
  5
159
330
1F
100
AcDbEntity
  8
0
  6
Continuous
 62
     7
370
    15
100
AcDbLine
 10
225.7482585241
 20
165.7474304035
 30
0.0
 11
225.5420357664
 21
165.9609938457
 31
0.0
  0
LINE
  5
15A
330
1F
100
AcDbEntity
  8
0
  6
Continuous
 62
     7
370
    15
100
AcDbLine
 10
225.7482585241
 20
165.7474304035
 30
0.0
 11
225.7482585241
 21
135.9484551875
 31
0.0
  0
LINE
  5
15B
330
1F
100
AcDbEntity
  8
0
  6
Continuous
 62
     7
370
    15
100
AcDbLine
 10
225.7482585241
 20
135.9484551875
 30
0.0
 11
225.7482585241
 21
106.1494799747
 31
0.0
  0
SPLINE
  5
15C
330
1F
100
AcDbEntity
  8
0
  6
Continuous
 62
     7
370
    15
100
AcDbSpline
210
0.0
220
0.0
230
1.0
 70
     8
 71
     3
 72
     8
 73
     4
 74
     0
 42
0.000000001
 43
0.00000001
 40
0.0
 40
0.0
 40
0.0
 40
0.0
 40
0.0004729524062039
 40
0.0004729524062039
 40
0.0004729524062039
 40
0.0004729524062039
 10
225.4197049059971
 20
105.8092798605219
 30
0.0
 10
225.5292443566906
 20
105.9226592419563
 30
0.0
 10
225.6387625124631
 20
106.0360592012157
 30
0.0
 10
225.7482586722764
 20
106.1494803913824
 30
0.0
  0
SPLINE
  5
15D
330
1F
100
AcDbEntity
  8
0
  6
Continuous
 62
     7
370
    15
100
AcDbSpline
210
0.0
220
0.0
230
1.0
 70
     8
 71
     3
 72
     8
 73
     4
 74
     0
 42
0.000000001
 43
0.00000001
 40
0.0
 40
0.0
 40
0.0
 40
0.0
 40
0.000751447134276
 40
0.000751447134276
 40
0.000751447134276
 40
0.000751447134276
 10
224.9825732506544
 20
105.5007858907706
 30
0.0
 10
225.1289178515144
 20
105.6033875932743
 30
0.0
 10
225.2746416345446
 20
105.7062156816496
 30
0.0
 10
225.4197048901324
 20
105.8092798767463
 30
0.0
  0
SPLINE
  5
15E
330
1F
100
AcDbEntity
  8
0
  6
Continuous
 62
     7
370
    15
100
AcDbSpline
210
0.0
220
0.0
230
1.0
 70
    24
 71
     3
 72
    10
 73
     6
 74
     0
 42
0.000000001
 43
0.00000001
 40
0.0
 40
0.0
 40
0.0
 40
0.0
 40
0.5
 40
0.5
 40
1.0
 40
1.0
 40
1.0
 40
1.0
 10
209.9654159596833
 20
135.9484551890971
 30
0.0
 10
209.9654159588905
 20
135.9484551890971
 30
0.0
 10
209.9755653542491
 20
135.9484551890971
 30
0.0
 10
210.0161629369022
 20
135.9484551890971
 30
0.0
 10
210.0464935063721
 20
135.9484551890971
 30
0.0
 10
210.0825732465103
 20
135.9484551890971
 30
0.0
  0
SPLINE
  5
15F
330
1F
100
AcDbEntity
  8
0
  6
Continuous
 62
     7
370
    15
100
AcDbSpline
210
0.0
220
0.0
230
1.0
 70
     8
 71
     3
 72
    10
 73
     6
 74
     0
 42
0.000000001
 43
0.00000001
 40
0.0
 40
0.0
 40
0.0
 40
0.0
 40
0.5
 40
0.5
 40
1.0
 40
1.0
 40
1.0
 40
1.0
 10
209.9654159596833
 20
106.642520681066
 30
0.0
 10
209.9654159579773
 20
106.578775134035
 30
0.0
 10
209.9792473004908
 20
106.5169796268435
 30
0.0
 10
210.0214390041162
 20
106.4062535659432
 30
0.0
 10
210.0499477378329
 20
106.3565660739231
 30
0.0
 10
210.0825732438923
 20
106.3130806267276
 30
0.0
  0
SPLINE
  5
160
330
1F
100
AcDbEntity
  8
0
  6
Continuous
 62
     7
370
    15
100
AcDbSpline
210
0.0
220
0.0
230
1.0
 70
    24
 71
     3
 72
    31
 73
    27
 74
     0
 42
0.000000001
 43
0.00000001
 40
0.0
 40
0.0
 40
0.0
 40
0.0
 40
0.0133116724883039
 40
0.0266104829800141
 40
0.0399002793452951
 40
0.0531849172870879
 40
0.066468257000281
 40
0.079754159811356
 40
0.09304648481311
 40
0.1063490855090961
 40
0.1196658064823355
 40
0.1817950735702446
 40
0.2439504667220478
 40
0.3077169628212479
 40
0.3715105117133549
 40
0.500620117330448
 40
0.6296447221270358
 40
0.6932864260162216
 40
0.756955940040424
 40
0.8188879793465256
 40
0.8808473402560892
 40
0.9046957897988834
 40
0.9285130513077766
 40
0.9523213476995956
 40
0.9761429269815893
 40
1.0
 40
1.0
 40
1.0
 40
1.0
 10
209.9654159595103
 20
106.6425206812098
 30
0.0
 10
209.9654159595103
 20
106.6930361625711
 30
0.0
 10
209.9654159595103
 20
106.7940183162541
 30
0.0
 10
209.9654159595103
 20
106.9561358270668
 30
0.0
 10
209.9654159595103
 20
107.1259352856206
 30
0.0
 10
209.9654159595103
 20
107.304185911588
 30
0.0
 10
209.9654159595103
 20
107.4906816200271
 30
0.0
 10
209.9654159595103
 20
107.685477941004
 30
0.0
 10
209.9654159595103
 20
107.888558458231
 30
0.0
 10
209.9654159595103
 20
108.0999329758238
 30
0.0
 10
209.9654159595103
 20
108.5878243843449
 30
0.0
 10
209.9654159595103
 20
109.4227325139146
 30
0.0
 10
209.9654159595103
 20
110.7335702487813
 30
0.0
 10
209.9654159595103
 20
112.2200638379225
 30
0.0
 10
209.9654159595103
 20
114.443531123834
 30
0.0
 10
209.9654159595103
 20
117.6106054064145
 30
0.0
 10
209.9654159595103
 20
121.1932134061807
 30
0.0
 10
209.9654159595103
 20
124.2317518132297
 30
0.0
 10
209.9654159595103
 20
126.5529181537573
 30
0.0
 10
209.9654159595103
 20
128.9131940611315
 30
0.0
 10
209.9654159595103
 20
130.8080353846457
 30
0.0
 10
209.9654159595103
 20
132.2253420184209
 30
0.0
 10
209.9654159595103
 20
133.1529324207857
 30
0.0
 10
209.9654159595103
 20
134.0827662553189
 30
0.0
 10
209.9654159595103
 20
135.0148604904849
 30
0.0
 10
209.9654159595103
 20
135.6371025491831
 30
0.0
 10
209.9654159595103
 20
135.9484551884304
 30
0.0
  0
SPLINE
  5
161
330
1F
100
AcDbEntity
  8
0
  6
Continuous
 62
     7
370
    15
100
AcDbSpline
210
0.0
220
0.0
230
1.0
 70
    24
 71
     3
 72
    31
 73
    27
 74
     0
 42
0.000000001
 43
0.00000001
 40
0.0
 40
0.0
 40
0.0
 40
0.0
 40
0.0132547820123591
 40
0.0264968712764316
 40
0.0397300667029705
 40
0.0529581748652544
 40
0.0661850067287817
 40
0.079414374362035
 40
0.0926500876424864
 40
0.1058959509720582
 40
0.1191557600161537
 40
0.1810884463809925
 40
0.2430471624419542
 40
0.3066892812087729
 40
0.3703583835969362
 40
0.49938299356959
 40
0.6284926043660557
 40
0.6922587072395494
 40
0.756052656237941
 40
0.8181812942486995
 40
0.8803373241552115
 40
0.9042880502402492
 40
0.9282071646265636
 40
0.9521171770684623
 40
0.9760406230125365
 40
1.0
 40
1.0
 40
1.0
 40
1.0
 10
209.9654159595103
 20
135.9484551884304
 30
0.0
 10
209.9654159595103
 20
136.121435353065
 30
0.0
 10
209.9654159595103
 20
136.4672300369325
 30
0.0
 10
209.9654159595103
 20
136.9855749986363
 30
0.0
 10
209.9654159595103
 20
137.5032747988657
 30
0.0
 10
209.9654159595103
 20
138.0203293601498
 30
0.0
 10
209.9654159595103
 20
138.5367384155607
 30
0.0
 10
209.9654159595103
 20
139.0525023372923
 30
0.0
 10
209.9654159595103
 20
139.5676191317154
 30
0.0
 10
209.9654159595103
 20
140.0820956439717
 30
0.0
 10
209.9654159595103
 20
141.2242990256224
 30
0.0
 10
209.9654159595103
 20
142.9833893227452
 30
0.0
 10
209.9654159595103
 20
145.3433170697901
 30
0.0
 10
209.9654159595103
 20
147.6648264753251
 30
0.0
 10
209.9654159595103
 20
150.703392410779
 30
0.0
 10
209.9654159595103
 20
154.2863051377068
 30
0.0
 10
209.9654159595103
 20
157.453108261994
 30
0.0
 10
209.9654159595103
 20
159.6766211054843
 30
0.0
 10
209.9654159595103
 20
161.1629339306167
 30
0.0
 10
209.9654159595103
 20
162.4740213300159
 30
0.0
 10
209.9654159595103
 20
163.3734169113682
 30
0.0
 10
209.9654159595103
 20
163.9695453223171
 30
0.0
 10
209.9654159595103
 20
164.3323019500283
 30
0.0
 10
209.9654159595103
 20
164.6677032118546
 30
0.0
 10
209.9654159595103
 20
164.9782432239674
 30
0.0
 10
209.9654159595103
 20
165.1622948348084
 30
0.0
 10
209.9654159595103
 20
165.2543896959573
 30
0.0
  0
SPLINE
  5
162
330
1F
100
AcDbEntity
  8
0
  6
Continuous
 62
     7
370
    15
100
AcDbSpline
210
0.0
220
0.0
230
1.0
 70
     8
 71
     3
 72
    10
 73
     6
 74
     0
 42
0.000000001
 43
0.00000001
 40
0.0
 40
0.0
 40
0.0
 40
0.0
 40
0.5
 40
0.5
 40
1.0
 40
1.0
 40
1.0
 40
1.0
 10
210.082573246954
 20
165.5838297562563
 30
0.0
 10
210.0499454024237
 20
165.5403411924045
 30
0.0
 10
210.0218033736951
 20
165.4915035669689
 30
0.0
 10
209.9791509452577
 20
165.3797866759853
 30
0.0
 10
209.9654159577019
 20
165.3181376535815
 30
0.0
 10
209.9654159596833
 20
165.2543896959574
 30
0.0
  0
SPLINE
  5
163
330
1F
100
AcDbEntity
  8
0
  6
Continuous
 62
     7
370
    15
100
AcDbSpline
210
0.0
220
0.0
230
1.0
 70
    24
 71
     3
 72
    31
 73
    27
 74
     0
 42
0.000000001
 43
0.00000001
 40
0.0
 40
0.0
 40
0.0
 40
0.0
 40
0.0132812016276926
 40
0.0265491186919267
 40
0.0398077152385838
 40
0.053060963676847
 40
0.0663128412253784
 40
0.0795673263369126
 40
0.0928283951172993
 40
0.106100017755096
 40
0.1193861549776922
 40
0.1814697477025651
 40
0.2435789043856598
 40
0.3073751402709176
 40
0.3711978865606937
 40
0.5004548220512559
 40
0.6296492533733385
 40
0.6933536988963068
 40
0.7570854423686716
 40
0.8190239570172848
 40
0.8809898899669507
 40
0.9048104694842793
 40
0.9285987886313996
 40
0.9523778222354777
 40
0.9761705720226982
 40
1.0
 40
1.0
 40
1.0
 40
1.0
 10
225.8654159595103
 20
165.4543494743953
 30
0.0
 10
225.8654159595103
 20
165.4070353517431
 30
0.0
 10
225.8654159595103
 20
165.3124544325377
 30
0.0
 10
225.8654159595103
 20
165.1595097139594
 30
0.0
 10
225.8654159595103
 20
164.9985650149286
 30
0.0
 10
225.8654159595103
 20
164.8288207165646
 30
0.0
 10
225.8654159595103
 20
164.6504910374786
 30
0.0
 10
225.8654159595103
 20
164.4635182620335
 30
0.0
 10
225.8654159595103
 20
164.2679194285518
 30
0.0
 10
225.8654159595103
 20
164.0636844411813
 30
0.0
 10
225.8654159595103
 20
163.5903788262971
 30
0.0
 10
225.8654159595103
 20
162.7742880673161
 30
0.0
 10
225.8654159595103
 20
161.4803346546344
 30
0.0
 10
225.8654159595103
 20
160.002107028688
 30
0.0
 10
225.8654159595103
 20
157.7770500110892
 30
0.0
 10
225.8654159595103
 20
154.5865182020209
 30
0.0
 10
225.8654159595103
 20
150.9563028026175
 30
0.0
 10
225.8654159595103
 20
147.8692598221335
 30
0.0
 10
225.8654159595103
 20
145.5088438936675
 30
0.0
 10
225.8654159595103
 20
143.1069827151875
 30
0.0
 10
225.8654159595103
 20
141.1783409225465
 30
0.0
 10
225.8654159595103
 20
139.7358524966396
 30
0.0
 10
225.8654159595103
 20
138.7923590388301
 30
0.0
 10
225.8654159595103
 20
137.846503905409
 30
0.0
 10
225.8654159595103
 20
136.8982692562089
 30
0.0
 10
225.8654159595103
 20
136.2652224005416
 30
0.0
 10
225.8654159595103
 20
135.9484551890971
 30
0.0
  0
SPLINE
  5
164
330
1F
100
AcDbEntity
  8
0
  6
Continuous
 62
     7
370
    15
100
AcDbSpline
210
0.0
220
0.0
230
1.0
 70
    24
 71
     3
 72
    10
 73
     6
 74
     0
 42
0.000000001
 43
0.00000001
 40
0.0
 40
0.0
 40
0.0
 40
0.0
 40
0.5
 40
0.5
 40
1.0
 40
1.0
 40
1.0
 40
1.0
 10
225.8654159593372
 20
135.9484551890971
 30
0.0
 10
225.8654159601734
 20
135.9484551890971
 30
0.0
 10
225.8552665648381
 20
135.9484551890971
 30
0.0
 10
225.8146689821846
 20
135.9484551890971
 30
0.0
 10
225.7843384126908
 20
135.9484551890971
 30
0.0
 10
225.7482586725103
 20
135.9484551890971
 30
0.0
  0
SPLINE
  5
165
330
1F
100
AcDbEntity
  8
0
  6
Continuous
 62
     7
370
    15
100
AcDbSpline
210
0.0
220
0.0
230
1.0
 70
     8
 71
     3
 72
     8
 73
     4
 74
     0
 42
0.000000001
 43
0.00000001
 40
0.0
 40
0.0
 40
0.0
 40
0.0
 40
1.0
 40
1.0
 40
1.0
 40
1.0
 10
225.8654159593372
 20
165.4543494751162
 30
0.0
 10
225.8654159616521
 20
165.5628582171285
 30
0.0
 10
225.8236504685778
 20
165.6693356736414
 30
0.0
 10
225.7482586726195
 20
165.7474299863996
 30
0.0
  0
SPLINE
  5
166
330
1F
100
AcDbEntity
  8
0
  6
Continuous
 62
     7
370
    15
100
AcDbSpline
210
0.0
220
0.0
230
1.0
 70
    24
 71
     3
 72
    31
 73
    27
 74
     0
 42
0.000000001
 43
0.00000001
 40
0.0
 40
0.0
 40
0.0
 40
0.0
 40
0.0132396092829651
 40
0.0264660619749989
 40
0.0396832851243741
 40
0.0528952140093957
 40
0.0661057886396717
 40
0.0793189502362784
 40
0.0925386377065146
 40
0.1057687841289894
 40
0.1190133132646836
 40
0.1809527911301388
 40
0.2429177637800338
 40
0.3066226289496453
 40
0.3703539547299943
 40
0.4995483900206427
 40
0.628805329481684
 40
0.6926011615669297
 40
0.7564243174596635
 40
0.8185072677955773
 40
0.8806170735308714
 40
0.9045126188426981
 40
0.9283754862329857
 40
0.9522288665536466
 40
0.9760959783113874
 40
1.0
 40
1.0
 40
1.0
 40
1.0
 10
225.8654159595103
 20
135.9484551890971
 30
0.0
 10
225.8654159595103
 20
135.7724645005391
 30
0.0
 10
225.8654159595103
 20
135.4206580105703
 30
0.0
 10
225.8654159595103
 20
134.8933143984474
 30
0.0
 10
225.8654159595103
 20
134.3666514971112
 30
0.0
 10
225.8654159595103
 20
133.8406693922051
 30
0.0
 10
225.8654159595103
 20
133.3153683700815
 30
0.0
 10
225.8654159595103
 20
132.7907480422732
 30
0.0
 10
225.8654159595103
 20
132.2668105175059
 30
0.0
 10
225.8654159595103
 20
131.7435485744287
 30
0.0
 10
225.8654159595103
 20
130.580878823255
 30
0.0
 10
225.8654159595103
 20
128.7902566941435
 30
0.0
 10
225.8654159595103
 20
126.3887438407315
 30
0.0
 10
225.8654159595103
 20
124.027981457205
 30
0.0
 10
225.8654159595103
 20
120.9409099963212
 30
0.0
 10
225.8654159595103
 20
117.3103919872806
 30
0.0
 10
225.8654159595103
 20
114.1201278611802
 30
0.0
 10
225.8654159595103
 20
111.8950236926866
 30
0.0
 10
225.8654159595103
 20
110.4169705258281
 30
0.0
 10
225.8654159595103
 20
109.1227720185475
 30
0.0
 10
225.8654159595103
 20
108.2437380874827
 30
0.0
 10
225.8654159595103
 20
107.6662075637838
 30
0.0
 10
225.8654159595103
 20
107.3170327134001
 30
0.0
 10
225.8654159595103
 20
106.9963474328176
 30
0.0
 10
225.8654159595103
 20
106.7015592020292
 30
0.0
 10
225.8654159595103
 20
106.5289381276625
 30
0.0
 10
225.8654159595103
 20
106.4425609034292
 30
0.0
  0
SPLINE
  5
167
330
1F
100
AcDbEntity
  8
0
  6
Continuous
 62
     7
370
    15
100
AcDbSpline
210
0.0
220
0.0
230
1.0
 70
     8
 71
     3
 72
     8
 73
     4
 74
     0
 42
0.000000001
 43
0.00000001
 40
0.0
 40
0.0
 40
0.0
 40
0.0
 40
1.0
 40
1.0
 40
1.0
 40
1.0
 10
225.7482586722476
 20
106.1494803914101
 30
0.0
 10
225.8236447962651
 20
106.2275688288489
 30
0.0
 10
225.8654159617401
 20
106.3340598303236
 30
0.0
 10
225.8654159593372
 20
106.4425609034274
 30
0.0
  0
LINE
  5
168
330
1F
100
AcDbEntity
  8
0
  6
Continuous
 62
     7
370
    15
100
AcDbLine
 10
306.7654174496
 20
155.9484547421
 30
0.0
 11
306.7654174496
 21
115.9484556361
 31
0.0
  0
LINE
  5
169
330
1F
100
AcDbEntity
  8
0
  6
Continuous
 62
     7
370
    15
100
AcDbLine
 10
303.8786676456
 20
160.9484555616
 30
0.0
 11
303.8786676456
 21
110.9484548166
 31
0.0
  0
LINE
  5
16A
330
1F
100
AcDbEntity
  8
0
  6
Continuous
 62
     7
370
    15
100
AcDbLine
 10
285.7654195954
 20
160.9484555616
 30
0.0
 11
285.7654195954
 21
110.9484548166
 31
0.0
  0
LINE
  5
16B
330
1F
100
AcDbEntity
  8
0
  6
Continuous
 62
     7
370
    15
100
AcDbLine
 10
284.2654165556
 20
159.4484543844
 30
0.0
 11
284.2654165556
 21
112.4484559938
 31
0.0
  0
SPLINE
  5
16C
330
1F
100
AcDbEntity
  8
0
  6
Continuous
 62
     7
370
    15
100
AcDbSpline
210
0.0
220
0.0
230
1.0
 70
    24
 71
     3
 72
    14
 73
    10
 74
     0
 42
0.000000001
 43
0.00000001
 40
0.0
 40
0.0
 40
0.0
 40
0.0
 40
0.25
 40
0.25
 40
0.5
 40
0.5
 40
0.75
 40
0.75
 40
1.0
 40
1.0
 40
1.0
 40
1.0
 10
209.9654159595103
 20
135.9484551890971
 30
0.0
 10
209.9654159593091
 20
135.9484551890971
 30
0.0
 10
209.9546765920602
 20
135.9484551890971
 30
0.0
 10
209.9059436334177
 20
135.9484551890971
 30
0.0
 10
209.8677848904656
 20
135.9484551890971
 30
0.0
 10
209.7701538175973
 20
135.9484551890971
 30
0.0
 10
209.7110117930679
 20
135.9484551890971
 30
0.0
 10
209.5879148415274
 20
135.9484551890971
 30
0.0
 10
209.5243415262847
 20
135.9484551890971
 30
0.0
 10
209.4654159605103
 20
135.9484551890971
 30
0.0
  0
LINE
  5
16D
330
1F
100
AcDbEntity
  8
0
  6
Continuous
 62
     7
370
    15
100
AcDbLine
 10
207.2479300236
 20
135.9484551891
 30
0.0
 11
207.2479300236
 21
157.9484550699
 31
0.0
  0
LINE
  5
16E
330
1F
100
AcDbEntity
  8
0
  6
Continuous
 62
     7
370
    15
100
AcDbLine
 10
207.2479300236
 20
113.9484553083
 30
0.0
 11
207.2479300236
 21
135.9484551891
 31
0.0
  0
LINE
  5
16F
330
1F
100
AcDbEntity
  8
0
  6
Continuous
 62
     7
370
    15
100
AcDbLine
 10
206.7654159595
 20
113.7234552249
 30
0.0
 11
206.7654159595
 21
158.1734551533
 31
0.0
  0
SPLINE
  5
170
330
1F
100
AcDbEntity
  8
0
  6
Continuous
 62
     7
370
    15
100
AcDbSpline
210
0.0
220
0.0
230
1.0
 70
    24
 71
     3
 72
    14
 73
    10
 74
     0
 42
0.000000001
 43
0.00000001
 40
0.0
 40
0.0
 40
0.0
 40
0.0
 40
0.25
 40
0.25
 40
0.5
 40
0.5
 40
0.75
 40
0.75
 40
1.0
 40
1.0
 40
1.0
 40
1.0
 10
225.8654159595103
 20
135.9484551890971
 30
0.0
 10
225.8654159597989
 20
135.9484551890971
 30
0.0
 10
225.9083734377189
 20
135.9484551890971
 30
0.0
 10
226.1033052786453
 20
135.9484551890971
 30
0.0
 10
226.2559402524039
 20
135.9484551890971
 30
0.0
 10
226.6464645441576
 20
135.9484551890971
 30
0.0
 10
226.883032640636
 20
135.9484551890971
 30
0.0
 10
227.3754204417466
 20
135.9484551890971
 30
0.0
 10
227.6297136994157
 20
135.9484551890971
 30
0.0
 10
227.8654159595103
 20
135.9484551890971
 30
0.0
  0
LINE
  5
171
330
1F
100
AcDbEntity
  8
0
  6
Continuous
 62
     7
370
    15
100
AcDbLine
 10
269.7654169728
 20
155.8984557583
 30
0.0
 11
269.7654169728
 21
115.9984546199
 31
0.0
  0
LINE
  5
172
330
1F
100
AcDbEntity
  8
0
  6
Continuous
 62
     7
370
    15
100
AcDbLine
 10
269.3365168501
 20
155.6984560981
 30
0.0
 11
269.3365168501
 21
116.1984542801
 31
0.0
  0
SPLINE
  5
173
330
1F
100
AcDbEntity
  8
0
  6
Continuous
 62
     7
370
    15
100
AcDbSpline
210
0.0
220
0.0
230
1.0
 70
    24
 71
     3
 72
    14
 73
    10
 74
     0
 42
0.000000001
 43
0.00000001
 40
0.0
 40
0.0
 40
0.0
 40
0.0
 40
0.25
 40
0.25
 40
0.5
 40
0.5
 40
0.75
 40
0.75
 40
1.0
 40
1.0
 40
1.0
 40
1.0
 10
138.3654159595102
 20
135.9484551890971
 30
0.0
 10
138.3654159595102
 20
135.9484551890971
 30
0.0
 10
138.3837201413655
 20
135.9484551890971
 30
0.0
 10
138.464826065494
 20
135.9484551890971
 30
0.0
 10
138.5278101627937
 20
135.9484551890971
 30
0.0
 10
138.6902043662051
 20
135.9484551890971
 30
0.0
 10
138.7892497622679
 20
135.9484551890971
 30
0.0
 10
139.0010107484169
 20
135.9484551890971
 30
0.0
 10
139.1132322828385
 20
135.9484551890971
 30
0.0
 10
139.2211077325103
 20
135.9484551890971
 30
0.0
  0
SPLINE
  5
174
330
1F
100
AcDbEntity
  8
0
  6
Continuous
 62
     7
370
    15
100
AcDbSpline
210
0.0
220
0.0
230
1.0
 70
    24
 71
     3
 72
    22
 73
    18
 74
     0
 42
0.000000001
 43
0.00000001
 40
0.0
 40
0.0
 40
0.0
 40
0.0
 40
0.125
 40
0.125
 40
0.2500000000000001
 40
0.2500000000000001
 40
0.3750000000000001
 40
0.3750000000000001
 40
0.5
 40
0.5
 40
0.625
 40
0.625
 40
0.75
 40
0.75
 40
0.875
 40
0.875
 40
1.0
 40
1.0
 40
1.0
 40
1.0
 10
138.3654159595102
 20
147.3336177785971
 30
0.0
 10
138.3654159595102
 20
147.3336177785869
 30
0.0
 10
138.3654159595102
 20
147.2132539295056
 30
0.0
 10
138.3654159595103
 20
146.7533562375137
 30
0.0
 10
138.3654159595103
 20
146.4144004991304
 30
0.0
 10
138.3654159595103
 20
145.573973272218
 30
0.0
 10
138.3654159595102
 20
145.0732496007161
 30
0.0
 10
138.3654159595103
 20
143.9793852273216
 30
0.0
 10
138.3654159595103
 20
143.3867614141954
 30
0.0
 10
138.3654159595103
 20
142.1723440713206
 30
0.0
 10
138.3654159595102
 20
141.5507236803749
 30
0.0
 10
138.3654159595103
 20
140.3241943604679
 30
0.0
 10
138.3654159595103
 20
139.7192210387171
 30
0.0
 10
138.3654159595103
 20
138.5533803895595
 30
0.0
 10
138.3654159595103
 20
137.9923574296156
 30
0.0
 10
138.3654159595103
 20
136.9271624855969
 30
0.0
 10
138.3654159595103
 20
136.422836963657
 30
0.0
 10
138.3654159595102
 20
135.9484551890971
 30
0.0
  0
SPLINE
  5
175
330
1F
100
AcDbEntity
  8
0
  6
Continuous
 62
     7
370
    15
100
AcDbSpline
210
0.0
220
0.0
230
1.0
 70
    24
 71
     3
 72
    22
 73
    18
 74
     0
 42
0.000000001
 43
0.00000001
 40
0.0
 40
0.0
 40
0.0
 40
0.0
 40
0.125
 40
0.125
 40
0.25
 40
0.25
 40
0.375
 40
0.375
 40
0.5
 40
0.5
 40
0.625
 40
0.625
 40
0.75
 40
0.75
 40
0.875
 40
0.875
 40
1.0
 40
1.0
 40
1.0
 40
1.0
 10
138.3654159595103
 20
135.9484551890971
 30
0.0
 10
138.3654159595102
 20
135.474073414532
 30
0.0
 10
138.3654159595102
 20
134.9697478925865
 30
0.0
 10
138.3654159595103
 20
133.9045529485551
 30
0.0
 10
138.3654159595103
 20
133.3435299886043
 30
0.0
 10
138.3654159595103
 20
132.1776893394323
 30
0.0
 10
138.3654159595102
 20
131.5727160176741
 30
0.0
 10
138.3654159595103
 20
130.3461866977529
 30
0.0
 10
138.3654159595103
 20
129.7245663068006
 30
0.0
 10
138.3654159595102
 20
128.5101489639154
 30
0.0
 10
138.3654159595102
 20
127.9175251507855
 30
0.0
 10
138.3654159595102
 20
126.8236607773892
 30
0.0
 10
138.3654159595102
 20
126.3229371058892
 30
0.0
 10
138.3654159595102
 20
125.4825098789885
 30
0.0
 10
138.3654159595103
 20
125.143554140615
 30
0.0
 10
138.3654159595103
 20
124.6836564486505
 30
0.0
 10
138.3654159595103
 20
124.5632925995869
 30
0.0
 10
138.3654159595103
 20
124.5632925995971
 30
0.0
  0
LINE
  5
176
330
1F
100
AcDbEntity
  8
0
  6
Continuous
 62
     7
370
    15
100
AcDbLine
 10
209.9654158787
 20
165.2543900951
 30
0.0
 11
209.9654158787
 21
166.5327700271
 31
0.0
  0
LINE
  5
177
330
1F
100
AcDbEntity
  8
0
  6
Continuous
 62
     7
370
    15
100
AcDbLine
 10
209.9654158787
 20
105.364140351
 30
0.0
 11
209.9654158787
 21
106.6425202831
 31
0.0
  0
LINE
  5
178
330
1F
100
AcDbEntity
  8
0
  6
Continuous
 62
     7
370
    15
100
AcDbLine
 10
215.9654161637
 20
107.0075577541
 30
0.0
 11
215.9654161637
 21
108.1496609791
 31
0.0
  0
LINE
  5
179
330
1F
100
AcDbEntity
  8
0
  6
Continuous
 62
     7
370
    15
100
AcDbLine
 10
215.9654161637
 20
163.7472493991
 30
0.0
 11
215.9654161637
 21
164.889352624
 31
0.0
  0
LINE
  5
17A
330
1F
100
AcDbEntity
  8
0
  6
Continuous
 62
     7
370
    15
100
AcDbLine
 10
225.8654151787
 20
165.4543487772
 30
0.0
 11
225.8654151787
 21
166.5327700271
 31
0.0
  0
LINE
  5
17B
330
1F
100
AcDbEntity
  8
0
  6
Continuous
 62
     7
370
    15
100
AcDbLine
 10
225.8654151787
 20
105.364140351
 30
0.0
 11
225.8654151787
 21
106.442561601
 31
0.0
  0
LINE
  5
17C
330
1F
100
AcDbEntity
  8
0
  6
Continuous
 62
     8
370
    15
100
AcDbLine
 10
224.6997308661
 20
104.1984541758
 30
0.0
 11
224.6997308661
 21
105.4187884971
 31
0.0
  0
LINE
  5
17D
330
1F
100
AcDbEntity
  8
0
  6
Continuous
 62
     8
370
    15
100
AcDbLine
 10
224.6997308661
 20
166.5114241137
 30
0.0
 11
224.6997308661
 21
167.6984562024
 31
0.0
  0
LINE
  5
17E
330
1F
100
AcDbEntity
  8
0
  6
Continuous
 62
     8
370
    15
100
AcDbLine
 10
211.1311013554
 20
104.1984541758
 30
0.0
 11
211.1311013554
 21
105.4187884971
 31
0.0
  0
LINE
  5
17F
330
1F
100
AcDbEntity
  8
0
  6
Continuous
 62
     8
370
    15
100
AcDbLine
 10
211.1311013554
 20
166.5114241137
 30
0.0
 11
211.1311013554
 21
167.6984562024
 31
0.0
  0
LINE
  5
180
330
1F
100
AcDbEntity
  8
0
  6
Continuous
 62
     8
370
    15
100
AcDbLine
 10
209.4654160295
 20
135.9484551891
 30
0.0
 11
209.4654160295
 21
113.9484553083
 31
0.0
  0
LINE
  5
181
330
1F
100
AcDbEntity
  8
0
  6
Continuous
 62
     8
370
    15
100
AcDbLine
 10
209.4654160295
 20
135.9484551891
 30
0.0
 11
209.4654160295
 21
157.9484550699
 31
0.0
  0
LINE
  5
182
330
1F
100
AcDbEntity
  8
0
  6
Continuous
 62
     8
370
    15
100
AcDbLine
 10
139.2211046745
 20
135.9484551883
 30
0.0
 11
139.2211046745
 21
123.5737597986
 31
0.0
  0
LINE
  5
183
330
1F
100
AcDbEntity
  8
0
  6
Continuous
 62
     8
370
    15
100
AcDbLine
 10
139.2211046745
 20
148.3231505796
 30
0.0
 11
139.2211046745
 21
135.9484551883
 31
0.0
  0
LINE
  5
184
330
1F
100
AcDbEntity
  8
0
  6
Continuous
 62
     8
370
    15
100
AcDbLine
 10
227.8654155065
 20
135.9484551891
 30
0.0
 11
227.8654155065
 21
116.1984542801
 31
0.0
  0
LINE
  5
185
330
1F
100
AcDbEntity
  8
0
  6
Continuous
 62
     8
370
    15
100
AcDbLine
 10
227.8654155065
 20
155.6984560981
 30
0.0
 11
227.8654155065
 21
135.9484551891
 31
0.0
  0
LINE
  5
186
330
1F
100
AcDbEntity
  8
0
  6
Continuous
 62
     8
370
    15
100
AcDbLine
 10
210.0825732318
 20
165.5838305547
 30
0.0
 11
210.0825732318
 21
166.8156126931
 31
0.0
  0
LINE
  5
187
330
1F
100
AcDbEntity
  8
0
  6
Continuous
 62
     8
370
    15
100
AcDbLine
 10
210.0825732318
 20
105.0812976851
 30
0.0
 11
210.0825732318
 21
106.3130798235
 31
0.0
  0
LINE
  5
188
330
1F
100
AcDbEntity
  8
0
  6
Continuous
 62
     8
370
    15
100
AcDbLine
 10
210.8482586895
 20
166.4163882329
 30
0.0
 11
210.8482586895
 21
167.5812995478
 31
0.0
  0
LINE
  5
189
330
1F
100
AcDbEntity
  8
0
  6
Continuous
 62
     8
370
    15
100
AcDbLine
 10
224.982573532
 20
104.3156108304
 30
0.0
 11
224.982573532
 21
105.5007858618
 31
0.0
  0
LINE
  5
18A
330
1F
100
AcDbEntity
  8
0
  6
Continuous
 62
     8
370
    15
100
AcDbLine
 10
210.8482586895
 20
104.3156108304
 30
0.0
 11
210.8482586895
 21
105.5007858618
 31
0.0
  0
LINE
  5
18B
330
1F
100
AcDbEntity
  8
0
  6
Continuous
 62
     8
370
    15
100
AcDbLine
 10
224.982573532
 20
166.4163882329
 30
0.0
 11
224.982573532
 21
167.5812995478
 31
0.0
  0
LINE
  5
18C
330
1F
100
AcDbEntity
  8
0
  6
Continuous
 62
     8
370
    15
100
AcDbLine
 10
225.7482585241
 20
105.0812976851
 30
0.0
 11
225.7482585241
 21
106.1494799747
 31
0.0
  0
LINE
  5
18D
330
1F
100
AcDbEntity
  8
0
  6
Continuous
 62
     8
370
    15
100
AcDbLine
 10
225.7482585241
 20
165.7474304035
 30
0.0
 11
225.7482585241
 21
166.8156126931
 31
0.0
  0
DIMENSION
  5
18E
330
1F
100
AcDbEntity
  8
DIM
100
AcDbDimension
  2
_D
 10
306.7654159595
 20
84.1984551885
 30
0.0
 11
222.5654159595
 21
84.1984551885
 31
0.0
 70
   160
  1
<>
 71
     2
 42
-1.0
  3
SLDDIMSTYLE0
100
AcDbAlignedDimension
 13
138.3654159595
 23
135.9484551891
 33
0.0
 14
306.7654159595
 24
115.9484551891
 34
0.0
 50
0.0
100
AcDbRotatedDimension
  0
DIMENSION
  5
199
330
1F
100
AcDbEntity
  8
DIM
100
AcDbDimension
  2
_D_1
 10
306.7654159595
 20
96.5980733515
 30
0.0
 11
256.7654159595
 21
96.5980733515
 31
0.0
 70
   160
  1
<>
 71
     2
 42
-1.0
  3
SLDDIMSTYLE1
100
AcDbAlignedDimension
 13
206.7654159595
 23
113.7234551891
 33
0.0
 14
306.7654159595
 24
115.9484551891
 34
0.0
100
AcDbRotatedDimension
  0
DIMENSION
  5
1A4
330
1F
100
AcDbEntity
  8
DIM
100
AcDbDimension
  2
_D_2
 10
320.7728924775
 20
110.9484551891
 30
0.0
 11
320.7728924775
 21
135.9484551891
 31
0.0
 70
   160
  1
%%c<>
 71
     2
 42
-1.0
  3
SLDDIMSTYLE1
100
AcDbAlignedDimension
 13
303.8786646135
 23
160.9484551891
 33
0.0
 14
303.8786646135
 24
110.9484551891
 34
0.0
 50
90.0
100
AcDbRotatedDimension
  0
DIMENSION
  5
1AF
330
1F
100
AcDbEntity
  8
DIM
100
AcDbDimension
  2
_D_3
 10
132.8571777085
 20
104.1984551891
 30
0.0
 11
132.8571777085
 21
135.9484551891
 31
0.0
 70
   160
  1
%%c<>
 71
     2
 42
-1.0
  3
SLDDIMSTYLE0
100
AcDbAlignedDimension
 13
211.1311013846
 23
167.6984551891
 33
0.0
 14
211.1311013846
 24
104.1984551891
 34
0.0
 50
90.0
100
AcDbRotatedDimension
  0
DIMENSION
  5
1BA
330
1F
100
AcDbEntity
  8
DIM
100
AcDbDimension
  2
_D_4
 10
314.8060497163
 20
116.1984551891
 30
0.0
 11
314.8060497163
 21
135.9484551891
 31
0.0
 70
   160
  1
%%c<>
 71
     2
 42
-1.0
  3
SLDDIMSTYLE0
100
AcDbAlignedDimension
 13
269.3365145755
 23
155.6984551891
 33
0.0
 14
269.3365145755
 24
116.1984551891
 34
0.0
 50
90.0
100
AcDbRotatedDimension
  0
LINE
  5
1C5
330
1F
100
AcDbEntity
  8
DIM
  6
CENTERX2
 48
1.6
370
     0
100
AcDbLine
 10
136.5744912083
 20
135.9484551891
 30
0.0
 11
308.8014814638
 21
135.9484551891
 31
0.0
  0
ENDSEC
  0
SECTION
  2
OBJECTS
  0
DICTIONARY
  5
C
330
0
100
AcDbDictionary
281
     1
  3
ACAD_GROUP
350
D
  3
ACAD_LAYOUT
350
1A
  3
ACAD_MLINESTYLE
350
17
  3
ACAD_PLOTSETTINGS
350
19
  3
ACAD_PLOTSTYLENAME
350
E
  3
ACAD_SCALELIST
350
47
  0
DICTIONARY
  5
D
102
{ACAD_REACTORS
330
C
102
}
330
C
100
AcDbDictionary
281
     1
  0
DICTIONARY
  5
1A
102
{ACAD_REACTORS
330
C
102
}
330
C
100
AcDbDictionary
281
     1
  3
Layout1
350
1E
  3
Layout2
350
26
  3
Model
350
22
  0
DICTIONARY
  5
17
102
{ACAD_REACTORS
330
C
102
}
330
C
100
AcDbDictionary
281
     1
  3
Standard
350
18
  0
DICTIONARY
  5
19
102
{ACAD_REACTORS
330
C
102
}
330
C
100
AcDbDictionary
281
     1
  0
ACDBDICTIONARYWDFLT
  5
E
102
{ACAD_REACTORS
330
C
102
}
330
C
100
AcDbDictionary
281
     1
  3
Normal
350
F
100
AcDbDictionaryWithDefault
340
F
  0
DICTIONARY
  5
47
102
{ACAD_REACTORS
330
C
102
}
330
C
100
AcDbDictionary
281
     1
  3
A0
350
48
  3
A1
350
49
  3
A2
350
4A
  3
A3
350
4B
  3
A4
350
4C
  3
A5
350
4D
  3
A6
350
4E
  3
A7
350
4F
  3
A8
350
50
  3
A9
350
51
  3
B0
350
52
  3
B1
350
53
  3
B2
350
54
  3
B3
350
55
  3
B4
350
56
  3
B5
350
57
  3
B6
350
58
  3
B7
350
59
  3
B8
350
5A
  3
B9
350
5B
  3
C0
350
5C
  3
C1
350
5D
  3
C2
350
5E
  3
C3
350
5F
  3
C4
350
60
  3
C5
350
61
  3
C6
350
62
  3
C7
350
63
  3
C8
350
64
  3
C9
350
65
  3
D0
350
66
  3
D1
350
67
  3
D2
350
68
  0
LAYOUT
  5
1E
102
{ACAD_REACTORS
330
1A
102
}
330
1A
100
AcDbPlotSettings
  1

  2
none_device
  4

  6

 40
0.0
 41
0.0
 42
0.0
 43
0.0
 44
0.0
 45
0.0
 46
0.0
 47
0.0
 48
0.0
 49
0.0
140
0.0
141
0.0
142
1.0
143
1.0
 70
   688
 72
     1
 73
     0
 74
     5
  7

 75
    16
147
1.0
148
0.0
149
0.0
100
AcDbLayout
  1
Layout1
 70
     1
 71
     1
 10
0.0
 20
0.0
 11
420.0
 21
297.0
 12
0.0
 22
0.0
 32
0.0
 14
1.0000000000E+20
 24
1.0000000000E+20
 34
1.0000000000E+20
 15
-1.0000000000E+20
 25
-1.0000000000E+20
 35
-1.0000000000E+20
146
0.0
 13
0.0
 23
0.0
 33
0.0
 16
1.0
 26
0.0
 36
0.0
 17
0.0
 27
1.0
 37
0.0
 76
     0
330
1B
  0
LAYOUT
  5
26
102
{ACAD_REACTORS
330
1A
102
}
330
1A
100
AcDbPlotSettings
  1

  2
none_device
  4

  6

 40
0.0
 41
0.0
 42
0.0
 43
0.0
 44
0.0
 45
0.0
 46
0.0
 47
0.0
 48
0.0
 49
0.0
140
0.0
141
0.0
142
1.0
143
1.0
 70
   688
 72
     1
 73
     0
 74
     5
  7

 75
    16
147
1.0
148
0.0
149
0.0
100
AcDbLayout
  1
Layout2
 70
     1
 71
     2
 10
0.0
 20
0.0
 11
0.0
 21
0.0
 12
0.0
 22
0.0
 32
0.0
 14
0.0
 24
0.0
 34
0.0
 15
0.0
 25
0.0
 35
0.0
146
0.0
 13
0.0
 23
0.0
 33
0.0
 16
1.0
 26
0.0
 36
0.0
 17
0.0
 27
1.0
 37
0.0
 76
     0
330
23
  0
LAYOUT
  5
22
102
{ACAD_REACTORS
330
1A
102
}
330
1A
100
AcDbPlotSettings
  1

  2
none_device
  4
Letter_(8.50_x_11.00_Inches)
  6

 40
6.35
 41
6.35
 42
6.35000508
 43
6.35000508
 44
215.9
 45
279.4
 46
0.0
 47
0.0
 48
0.0
 49
0.0
140
0.0
141
0.0
142
1.0
143
1.0
 70
  1712
 72
     1
 73
     0
 74
     0
  7

 75
     0
147
1.0
148
0.0
149
0.0
100
AcDbLayout
  1
Model
 70
     1
 71
     0
 10
0.0
 20
0.0
 11
371.25
 21
262.5
 12
0.0
 22
0.0
 32
0.0
 14
0.0
 24
0.0
 34
0.0
 15
371.25
 25
262.5
 35
0.0
146
0.0
 13
0.0
 23
0.0
 33
0.0
 16
1.0
 26
0.0
 36
0.0
 17
0.0
 27
1.0
 37
0.0
 76
     0
330
1F
331
29
  0
MLINESTYLE
  5
18
102
{ACAD_REACTORS
330
17
102
}
330
17
100
AcDbMlineStyle
  2
Standard
 70
     0
  3

 62
   256
 51
90.0
 52
90.0
 71
     2
 49
0.5
 62
   256
  6
BYLAYER
 49
-0.5
 62
   256
  6
BYLAYER
  0
ACDBPLACEHOLDER
  5
F
102
{ACAD_REACTORS
330
E
102
}
330
E
  0
SCALE
  5
48
102
{ACAD_REACTORS
330
47
102
}
330
47
100
AcDbScale
 70
     0
300
1:1
140
1.0
141
1.0
290
     1
  0
SCALE
  5
49
102
{ACAD_REACTORS
330
47
102
}
330
47
100
AcDbScale
 70
     0
300
1:2
140
1.0
141
2.0
290
     0
  0
SCALE
  5
4A
102
{ACAD_REACTORS
330
47
102
}
330
47
100
AcDbScale
 70
     0
300
1:4
140
1.0
141
4.0
290
     0
  0
SCALE
  5
4B
102
{ACAD_REACTORS
330
47
102
}
330
47
100
AcDbScale
 70
     0
300
1:5
140
1.0
141
5.0
290
     0
  0
SCALE
  5
4C
102
{ACAD_REACTORS
330
47
102
}
330
47
100
AcDbScale
 70
     0
300
1:8
140
1.0
141
8.0
290
     0
  0
SCALE
  5
4D
102
{ACAD_REACTORS
330
47
102
}
330
47
100
AcDbScale
 70
     0
300
1:10
140
1.0
141
10.0
290
     0
  0
SCALE
  5
4E
102
{ACAD_REACTORS
330
47
102
}
330
47
100
AcDbScale
 70
     0
300
1:16
140
1.0
141
16.0
290
     0
  0
SCALE
  5
4F
102
{ACAD_REACTORS
330
47
102
}
330
47
100
AcDbScale
 70
     0
300
1:20
140
1.0
141
20.0
290
     0
  0
SCALE
  5
50
102
{ACAD_REACTORS
330
47
102
}
330
47
100
AcDbScale
 70
     0
300
1:30
140
1.0
141
30.0
290
     0
  0
SCALE
  5
51
102
{ACAD_REACTORS
330
47
102
}
330
47
100
AcDbScale
 70
     0
300
1:40
140
1.0
141
40.0
290
     0
  0
SCALE
  5
52
102
{ACAD_REACTORS
330
47
102
}
330
47
100
AcDbScale
 70
     0
300
1:50
140
1.0
141
50.0
290
     0
  0
SCALE
  5
53
102
{ACAD_REACTORS
330
47
102
}
330
47
100
AcDbScale
 70
     0
300
1:100
140
1.0
141
100.0
290
     0
  0
SCALE
  5
54
102
{ACAD_REACTORS
330
47
102
}
330
47
100
AcDbScale
 70
     0
300
2:1
140
2.0
141
1.0
290
     0
  0
SCALE
  5
55
102
{ACAD_REACTORS
330
47
102
}
330
47
100
AcDbScale
 70
     0
300
4:1
140
4.0
141
1.0
290
     0
  0
SCALE
  5
56
102
{ACAD_REACTORS
330
47
102
}
330
47
100
AcDbScale
 70
     0
300
8:1
140
8.0
141
1.0
290
     0
  0
SCALE
  5
57
102
{ACAD_REACTORS
330
47
102
}
330
47
100
AcDbScale
 70
     0
300
10:1
140
10.0
141
1.0
290
     0
  0
SCALE
  5
58
102
{ACAD_REACTORS
330
47
102
}
330
47
100
AcDbScale
 70
     0
300
100:1
140
100.0
141
1.0
290
     0
  0
SCALE
  5
59
102
{ACAD_REACTORS
330
47
102
}
330
47
100
AcDbScale
 70
     0
300
1/128" = 1'-0"
140
0.0078125
141
12.0
290
     0
  0
SCALE
  5
5A
102
{ACAD_REACTORS
330
47
102
}
330
47
100
AcDbScale
 70
     0
300
1/64" = 1'-0"
140
0.015625
141
12.0
290
     0
  0
SCALE
  5
5B
102
{ACAD_REACTORS
330
47
102
}
330
47
100
AcDbScale
 70
     0
300
1/32" = 1'-0"
140
0.03125
141
12.0
290
     0
  0
SCALE
  5
5C
102
{ACAD_REACTORS
330
47
102
}
330
47
100
AcDbScale
 70
     0
300
1/16" = 1'-0"
140
0.0625
141
12.0
290
     0
  0
SCALE
  5
5D
102
{ACAD_REACTORS
330
47
102
}
330
47
100
AcDbScale
 70
     0
300
3/32" = 1'-0"
140
0.09375
141
12.0
290
     0
  0
SCALE
  5
5E
102
{ACAD_REACTORS
330
47
102
}
330
47
100
AcDbScale
 70
     0
300
1/8" = 1'-0"
140
0.125
141
12.0
290
     0
  0
SCALE
  5
5F
102
{ACAD_REACTORS
330
47
102
}
330
47
100
AcDbScale
 70
     0
300
3/16" = 1'-0"
140
0.1875
141
12.0
290
     0
  0
SCALE
  5
60
102
{ACAD_REACTORS
330
47
102
}
330
47
100
AcDbScale
 70
     0
300
1/4" = 1'-0"
140
0.25
141
12.0
290
     0
  0
SCALE
  5
61
102
{ACAD_REACTORS
330
47
102
}
330
47
100
AcDbScale
 70
     0
300
3/8" = 1'-0"
140
0.375
141
12.0
290
     0
  0
SCALE
  5
62
102
{ACAD_REACTORS
330
47
102
}
330
47
100
AcDbScale
 70
     0
300
1/2" = 1'-0"
140
0.5
141
12.0
290
     0
  0
SCALE
  5
63
102
{ACAD_REACTORS
330
47
102
}
330
47
100
AcDbScale
 70
     0
300
3/4" = 1'-0"
140
0.75
141
12.0
290
     0
  0
SCALE
  5
64
102
{ACAD_REACTORS
330
47
102
}
330
47
100
AcDbScale
 70
     0
300
1" = 1'-0"
140
1.0
141
12.0
290
     0
  0
SCALE
  5
65
102
{ACAD_REACTORS
330
47
102
}
330
47
100
AcDbScale
 70
     0
300
1-1/2" = 1'-0"
140
1.5
141
12.0
290
     0
  0
SCALE
  5
66
102
{ACAD_REACTORS
330
47
102
}
330
47
100
AcDbScale
 70
     0
300
3" = 1'-0"
140
3.0
141
12.0
290
     0
  0
SCALE
  5
67
102
{ACAD_REACTORS
330
47
102
}
330
47
100
AcDbScale
 70
     0
300
6" = 1'-0"
140
6.0
141
12.0
290
     0
  0
SCALE
  5
68
102
{ACAD_REACTORS
330
47
102
}
330
47
100
AcDbScale
 70
     0
300
1'-0" = 1'-0"
140
12.0
141
12.0
290
     0
  0
ENDSEC
  0
EOF
