  0
SECTION
  2
HEADER
  9
$ACADVER
  1
AC1015
  9
$ACADMAINTVER
 70
     6
  9
$DWGCODEPAGE
  3
ANSI_1252
  9
$INSBASE
 10
0.0
 20
0.0
 30
0.0
  9
$EXTMIN
 10
0.0
 20
0.0
 30
0.0
  9
$EXTMAX
 10
424.2857142857
 20
300.0
 30
0.0
  9
$LIMMIN
 10
0.0
 20
0.0
  9
$LIMMAX
 10
424.2857142857
 20
300.0
  9
$ORTHOMODE
 70
     0
  9
$REGENMODE
 70
     1
  9
$FILLMODE
 70
     1
  9
$QTEXTMODE
 70
     0
  9
$MIRRTEXT
 70
     1
  9
$LTSCALE
 40
1.4285714286
  9
$ATTMODE
 70
     1
  9
$TEXTSIZE
 40
5.5436507937
  9
$TRACEWID
 40
1.0
  9
$TEXTSTYLE
  7
Standard
  9
$CLAYER
  8
0
  9
$CELTYPE
  6
ByLayer
  9
$CECOLOR
 62
   256
  9
$CELTSCALE
 40
1.0
  9
$DISPSILH
 70
     0
  9
$DIMSCALE
 40
1.0
  9
$DIMASZ
 40
4.7171428571
  9
$DIMEXO
 40
1.4285714286
  9
$DIMDLI
 40
3.75
  9
$DIMRND
 40
0.0
  9
$DIMDLE
 40
0.0
  9
$DIMEXE
 40
1.4285714286
  9
$DIMTP
 40
0.0
  9
$DIMTM
 40
0.0
  9
$DIMTXT
 40
5.5436507937
  9
$DIMCEN
 40
2.5
  9
$DIMTSZ
 40
0.0
  9
$DIMTOL
 70
     0
  9
$DIMLIM
 70
     0
  9
$DIMTIH
 70
     1
  9
$DIMTOH
 70
     1
  9
$DIMSE1
 70
     0
  9
$DIMSE2
 70
     0
  9
$DIMTAD
 70
     1
  9
$DIMZIN
 70
     0
  9
$DIMBLK
  1

  9
$DIMASO
 70
     1
  9
$DIMSHO
 70
     1
  9
$DIMPOST
  1

  9
$DIMAPOST
  1

  9
$DIMALT
 70
     0
  9
$DIMALTD
 70
     3
  9
$DIMALTF
 40
0.0393700787
  9
$DIMLFAC
 40
1.0
  9
$DIMTOFL
 70
     1
  9
$DIMTVP
 40
0.0
  9
$DIMTIX
 70
     0
  9
$DIMSOXD
 70
     0
  9
$DIMSAH
 70
     0
  9
$DIMBLK1
  1

  9
$DIMBLK2
  1

  9
$DIMSTYLE
  2
ISO-25
  9
$DIMCLRD
 70
     0
  9
$DIMCLRE
 70
     0
  9
$DIMCLRT
 70
     0
  9
$DIMTFAC
 40
1.0
  9
$DIMGAP
 40
2.1771428571
  9
$DIMJUST
 70
     0
  9
$DIMSD1
 70
     0
  9
$DIMSD2
 70
     0
  9
$DIMTOLJ
 70
     0
  9
$DIMTZIN
 70
     0
  9
$DIMALTZ
 70
     0
  9
$DIMALTTZ
 70
     0
  9
$DIMUPT
 70
     0
  9
$DIMDEC
 70
     2
  9
$DIMTDEC
 70
     2
  9
$DIMALTU
 70
     2
  9
$DIMALTTD
 70
     3
  9
$DIMTXSTY
  7
Standard
  9
$DIMAUNIT
 70
     0
  9
$DIMADEC
 70
     2
  9
$DIMALTRND
 40
0.0
  9
$DIMAZIN
 70
     0
  9
$DIMDSEP
 70
    44
  9
$DIMATFIT
 70
     3
  9
$DIMFRAC
 70
     0
  9
$DIMLDRBLK
  1

  9
$DIMLUNIT
 70
     2
  9
$DIMLWD
 70
    -2
  9
$DIMLWE
 70
    -2
  9
$DIMTMOVE
 70
     0
  9
$LUNITS
 70
     2
  9
$LUPREC
 70
     2
  9
$SKETCHINC
 40
1.0
  9
$FILLETRAD
 40
10.0
  9
$AUNITS
 70
     1
  9
$AUPREC
 70
     2
  9
$MENU
  1
.
  9
$ELEVATION
 40
0.0
  9
$PELEVATION
 40
0.0
  9
$THICKNESS
 40
0.0
  9
$LIMCHECK
 70
     0
  9
$CHAMFERA
 40
0.0
  9
$CHAMFERB
 40
0.0
  9
$CHAMFERC
 40
0.0
  9
$CHAMFERD
 40
0.0
  9
$SKPOLY
 70
     0
  9
$TDCREATE
 40
2458600.665963715
  9
$TDUCREATE
 40
2458600.436797048
  9
$TDUPDATE
 40
2458600.665964989
  9
$TDUUPDATE
 40
2458600.436798322
  9
$TDINDWG
 40
0.0000000116
  9
$TDUSRTIMER
 40
0.0000000116
  9
$USRTIMER
 70
     1
  9
$ANGBASE
 50
0.0
  9
$ANGDIR
 70
     0
  9
$PDMODE
 70
     0
  9
$PDSIZE
 40
-1.0
  9
$PLINEWID
 40
0.0
  9
$SPLFRAME
 70
     0
  9
$SPLINETYPE
 70
     6
  9
$SPLINESEGS
 70
     8
  9
$HANDSEED
  5
1BE
  9
$SURFTAB1
 70
     6
  9
$SURFTAB2
 70
     6
  9
$SURFTYPE
 70
     6
  9
$SURFU
 70
     6
  9
$SURFV
 70
     6
  9
$UCSBASE
  2

  9
$UCSNAME
  2

  9
$UCSORG
 10
0.0
 20
0.0
 30
0.0
  9
$UCSXDIR
 10
1.0
 20
0.0
 30
0.0
  9
$UCSYDIR
 10
0.0
 20
1.0
 30
0.0
  9
$UCSORTHOREF
  2

  9
$UCSORTHOVIEW
 70
     0
  9
$UCSORGTOP
 10
0.0
 20
0.0
 30
0.0
  9
$UCSORGBOTTOM
 10
0.0
 20
0.0
 30
0.0
  9
$UCSORGLEFT
 10
0.0
 20
0.0
 30
0.0
  9
$UCSORGRIGHT
 10
0.0
 20
0.0
 30
0.0
  9
$UCSORGFRONT
 10
0.0
 20
0.0
 30
0.0
  9
$UCSORGBACK
 10
0.0
 20
0.0
 30
0.0
  9
$PUCSBASE
  2

  9
$PUCSNAME
  2

  9
$PUCSORG
 10
0.0
 20
0.0
 30
0.0
  9
$PUCSXDIR
 10
1.0
 20
0.0
 30
0.0
  9
$PUCSYDIR
 10
0.0
 20
1.0
 30
0.0
  9
$PUCSORTHOREF
  2

  9
$PUCSORTHOVIEW
 70
     0
  9
$PUCSORGTOP
 10
0.0
 20
0.0
 30
0.0
  9
$PUCSORGBOTTOM
 10
0.0
 20
0.0
 30
0.0
  9
$PUCSORGLEFT
 10
0.0
 20
0.0
 30
0.0
  9
$PUCSORGRIGHT
 10
0.0
 20
0.0
 30
0.0
  9
$PUCSORGFRONT
 10
0.0
 20
0.0
 30
0.0
  9
$PUCSORGBACK
 10
0.0
 20
0.0
 30
0.0
  9
$USERI1
 70
     0
  9
$USERI2
 70
     0
  9
$USERI3
 70
     0
  9
$USERI4
 70
     0
  9
$USERI5
 70
     0
  9
$USERR1
 40
0.0
  9
$USERR2
 40
0.0
  9
$USERR3
 40
0.0
  9
$USERR4
 40
0.0
  9
$USERR5
 40
0.0
  9
$WORLDVIEW
 70
     1
  9
$SHADEDGE
 70
     3
  9
$SHADEDIF
 70
    70
  9
$TILEMODE
 70
     1
  9
$MAXACTVP
 70
    64
  9
$PINSBASE
 10
0.0
 20
0.0
 30
0.0
  9
$PLIMCHECK
 70
     0
  9
$PEXTMIN
 10
1.0000000000E+20
 20
1.0000000000E+20
 30
1.0000000000E+20
  9
$PEXTMAX
 10
-1.0000000000E+20
 20
-1.0000000000E+20
 30
-1.0000000000E+20
  9
$PLIMMIN
 10
0.0
 20
0.0
  9
$PLIMMAX
 10
420.0
 20
297.0
  9
$UNITMODE
 70
     0
  9
$VISRETAIN
 70
     1
  9
$PLINEGEN
 70
     0
  9
$PSLTSCALE
 70
     1
  9
$TREEDEPTH
 70
  3020
  9
$CMLSTYLE
  2
Standard
  9
$CMLJUST
 70
     0
  9
$CMLSCALE
 40
20.0
  9
$PROXYGRAPHICS
 70
     1
  9
$MEASUREMENT
 70
     1
  9
$CELWEIGHT
370
    -1
  9
$ENDCAPS
280
     0
  9
$JOINSTYLE
280
     0
  9
$LWDISPLAY
290
     1
  9
$INSUNITS
 70
     4
  9
$HYPERLINKBASE
  1

  9
$STYLESHEET
  1

  9
$XEDIT
290
     1
  9
$CEPSNTYPE
380
     0
  9
$PSTYLEMODE
290
     1
  9
$FINGERPRINTGUID
  2
{7E7F0307-FD87-42BD-B7C4-839225CE89DC}
  9
$VERSIONGUID
  2
{FAEB1C32-E019-11D5-929B-00C0DF256EC4}
  9
$EXTNAMES
290
     1
  9
$PSVPSCALE
 40
0.0
  9
$OLESTARTUP
290
     0
  0
ENDSEC
  0
SECTION
  2
CLASSES
  0
CLASS
  1
ACDBDICTIONARYWDFLT
  2
AcDbDictionaryWithDefault
  3
ObjectDBX Classes
 90
        0
280
     0
281
     0
  0
CLASS
  1
VISUALSTYLE
  2
AcDbVisualStyle
  3
ObjectDBX Classes
 90
     4095
280
     0
281
     0
  0
CLASS
  1
MATERIAL
  2
AcDbMaterial
  3
ObjectDBX Classes
 90
     1153
280
     0
281
     0
  0
CLASS
  1
SCALE
  2
AcDbScale
  3
ObjectDBX Classes
 90
     1153
280
     0
281
     0
  0
CLASS
  1
SUN
  2
AcDbSun
  3
SCENEOE
 90
     1153
280
     0
281
     0
  0
CLASS
  1
ACDBPLACEHOLDER
  2
AcDbPlaceHolder
  3
ObjectDBX Classes
 90
        0
280
     0
281
     0
  0
CLASS
  1
LAYOUT
  2
AcDbLayout
  3
ObjectDBX Classes
 90
        0
280
     0
281
     0
  0
ENDSEC
  0
SECTION
  2
TABLES
  0
TABLE
  2
VPORT
  5
8
330
0
100
AcDbSymbolTable
 70
     1
  0
VPORT
  5
29
330
8
100
AcDbSymbolTableRecord
100
AcDbViewportTableRecord
  2
*Active
 70
     0
 10
0.0
 20
0.0
 11
1.0
 21
1.0
 12
212.1428571429
 22
150.0
 13
0.0
 23
0.0
 14
10.0
 24
10.0
 15
10.0
 25
10.0
 16
0.0
 26
0.0
 36
1.0
 17
0.0
 27
0.0
 37
0.0
 40
300.0
 41
1.4142857143
 42
50.0
 43
0.0
 44
0.0
 50
0.0
 51
0.0
 71
     0
 72
  2000
 73
     1
 74
     3
 75
     0
 76
     0
 77
     0
 78
     0
281
     0
 65
     1
110
0.0
120
0.0
130
0.0
111
1.0
121
0.0
131
0.0
112
0.0
122
1.0
132
0.0
 79
     0
146
0.0
  0
ENDTAB
  0
TABLE
  2
LTYPE
  5
5
330
0
100
AcDbSymbolTable
 70
     6
  0
LTYPE
  5
14
330
5
100
AcDbSymbolTableRecord
100
AcDbLinetypeTableRecord
  2
ByBlock
 70
     0
  3

 72
    65
 73
     0
 40
0.0
  0
LTYPE
  5
15
330
5
100
AcDbSymbolTableRecord
100
AcDbLinetypeTableRecord
  2
ByLayer
 70
     0
  3

 72
    65
 73
     0
 40
0.0
  0
LTYPE
  5
16
330
5
100
AcDbSymbolTableRecord
100
AcDbLinetypeTableRecord
  2
Continuous
 70
     0
  3
Solid line
 72
    65
 73
     0
 40
0.0
  0
LTYPE
  5
6A
330
5
100
AcDbSymbolTableRecord
100
AcDbLinetypeTableRecord
  2
HIDDEN
 70
     0
  3
Hidden __ __ __ __ __ __ __ __ __ __ __ __ __ __
 72
    65
 73
     2
 40
1.905
 49
1.27
 74
     0
 49
-0.635
 74
     0
  0
LTYPE
  5
6B
330
5
100
AcDbSymbolTableRecord
100
AcDbLinetypeTableRecord
  2
PHANTOM
 70
     0
  3
Phantom ______  __  __  ______  __  __  ______
 72
    65
 73
     6
 40
12.7
 49
6.35
 74
     0
 49
-1.27
 74
     0
 49
1.27
 74
     0
 49
-1.27
 74
     0
 49
1.27
 74
     0
 49
-1.27
 74
     0
  0
LTYPE
  5
6C
330
5
100
AcDbSymbolTableRecord
100
AcDbLinetypeTableRecord
  2
CENTER
 70
     0
  3
Center ____ _ ____ _ ____ _ ____ _ ____ _ ____
 72
    65
 73
     4
 40
10.16
 49
6.35
 74
     0
 49
-1.27
 74
     0
 49
1.27
 74
     0
 49
-1.27
 74
     0
  0
LTYPE
  5
6D
330
5
100
AcDbSymbolTableRecord
100
AcDbLinetypeTableRecord
  2
CENTERX2
 70
     0
  3
Center (2x) ________  __  ________  __  _____
 72
    65
 73
     4
 40
20.32
 49
12.7
 74
     0
 49
-2.54
 74
     0
 49
2.54
 74
     0
 49
-2.54
 74
     0
  0
LTYPE
  5
6E
330
5
100
AcDbSymbolTableRecord
100
AcDbLinetypeTableRecord
  2
DOT2
 70
     0
  3
Dot (.5x) ........................................
 72
    65
 73
     2
 40
0.635
 49
0.0
 74
     0
 49
-0.635
 74
     0
  0
ENDTAB
  0
TABLE
  2
LAYER
  5
2
330
0
100
AcDbSymbolTable
 70
     8
  0
LAYER
  5
10
330
2
100
AcDbSymbolTableRecord
100
AcDbLayerTableRecord
  2
0
 70
     0
 62
     7
  6
Continuous
370
    -3
390
F
  0
LAYER
  5
6F
330
2
100
AcDbSymbolTableRecord
100
AcDbLayerTableRecord
  2
FORMAT
 70
     0
 62
     7
  6
Continuous
370
    -3
390
F
  0
LAYER
  5
70
330
2
100
AcDbSymbolTableRecord
100
AcDbLayerTableRecord
  2
SLD-0
 70
     0
 62
     2
  6
Continuous
370
    -3
390
F
  0
LAYER
  5
71
330
2
100
AcDbSymbolTableRecord
100
AcDbLayerTableRecord
  2
DIM
 70
     0
 62
   179
  6
Continuous
370
    -3
390
F
  0
LAYER
  5
72
330
2
100
AcDbSymbolTableRecord
100
AcDbLayerTableRecord
  2
SLD-DEFPOINTS
 70
     0
 62
   179
  6
Continuous
370
    -3
390
F
  0
LAYER
  5
73
330
2
100
AcDbSymbolTableRecord
100
AcDbLayerTableRecord
  2
HAT
 70
     0
 62
   135
  6
Continuous
370
    -3
390
F
  0
LAYER
  5
74
330
2
100
AcDbSymbolTableRecord
100
AcDbLayerTableRecord
  2
JOB
 70
     0
 62
   201
  6
Continuous
370
    -3
390
F
  0
LAYER
  5
75
330
2
100
AcDbSymbolTableRecord
100
AcDbLayerTableRecord
  2
INSPECTION_REPORT
 70
     0
 62
   255
  6
Continuous
370
    -3
390
F
  0
ENDTAB
  0
TABLE
  2
STYLE
  5
3
330
0
100
AcDbSymbolTable
 70
     4
  0
STYLE
  5
11
330
3
100
AcDbSymbolTableRecord
100
AcDbTextStyleTableRecord
  2
Standard
 70
     0
 40
0.0
 41
1.0
 50
0.0
 71
     0
 42
5.5436507937
  3
txt
  4

  0
STYLE
  5
96
330
3
100
AcDbSymbolTableRecord
100
AcDbTextStyleTableRecord
  2
SLDTEXTSTYLE0
 70
     0
 40
0.0
 41
0.7
 50
0.0
 71
     0
 42
5.5436507937
  3
TXT
  4

  0
STYLE
  5
98
330
3
100
AcDbSymbolTableRecord
100
AcDbTextStyleTableRecord
  2
SLDTEXTSTYLE1
 70
     0
 40
0.0
 41
0.75
 50
0.0
 71
     0
 42
5.5436507937
  3
TXT
  4

  0
STYLE
  5
AB
330
3
100
AcDbSymbolTableRecord
100
AcDbTextStyleTableRecord
  2
SLDTEXTSTYLE2
 70
     0
 40
0.0
 41
0.6875
 50
0.0
 71
     0
 42
5.5436507937
  3
TXT
  4

  0
ENDTAB
  0
TABLE
  2
VIEW
  5
6
330
0
100
AcDbSymbolTable
 70
     0
  0
ENDTAB
  0
TABLE
  2
UCS
  5
7
330
0
100
AcDbSymbolTable
 70
     0
  0
ENDTAB
  0
TABLE
  2
APPID
  5
9
330
0
100
AcDbSymbolTable
 70
     1
  0
APPID
  5
12
330
9
100
AcDbSymbolTableRecord
100
AcDbRegAppTableRecord
  2
ACAD
 70
     0
  0
ENDTAB
  0
TABLE
  2
DIMSTYLE
  5
A
330
0
100
AcDbSymbolTable
 70
     3
100
AcDbDimStyleTable
  0
DIMSTYLE
105
27
330
A
100
AcDbSymbolTableRecord
100
AcDbDimStyleTableRecord
  2
ISO-25
 70
     0
 41
2.5
 42
0.625
 43
3.75
 44
1.25
 73
     0
 74
     0
 77
     1
 78
     8
140
2.5
141
2.5
143
0.0393700787
147
0.625
171
     3
172
     1
178
     0
271
     2
272
     2
274
     3
278
    44
283
     0
284
     8
340
11
  0
DIMSTYLE
105
187
102
{ACAD_REACTORS
330
186
330
19C
102
}
330
A
100
AcDbSymbolTableRecord
100
AcDbDimStyleTableRecord
  2
SLDDIMSTYLE0
 70
     0
 41
4.7171428571
 44
0.0
 45
0.000000001
 73
     0
 74
     0
 77
     1
 78
     4
 79
     1
140
4.1577380952
147
1.0394345238
173
     1
178
     0
271
     2
272
     2
276
     2
284
    12
340
96
  0
DIMSTYLE
105
192
102
{ACAD_REACTORS
330
191
330
1A7
330
1B2
102
}
330
A
100
AcDbSymbolTableRecord
100
AcDbDimStyleTableRecord
  2
SLDDIMSTYLE1
 70
     0
 41
4.7171428571
 44
0.0
 45
0.000000001
 73
     0
 74
     0
 77
     1
 78
    12
 79
     3
140
4.1577380952
147
1.0394345238
173
     1
178
     0
271
     2
272
     2
276
     2
284
    12
340
96
  0
ENDTAB
  0
TABLE
  2
BLOCK_RECORD
  5
1
330
0
100
AcDbSymbolTable
 70
     7
  0
BLOCK_RECORD
  5
1F
330
1
100
AcDbSymbolTableRecord
100
AcDbBlockTableRecord
  2
*Model_Space
340
22
  0
BLOCK_RECORD
  5
1B
330
1
100
AcDbSymbolTableRecord
100
AcDbBlockTableRecord
  2
*Paper_Space
340
1E
  0
BLOCK_RECORD
  5
23
330
1
100
AcDbSymbolTableRecord
100
AcDbBlockTableRecord
  2
*Paper_Space0
340
26
  0
BLOCK_RECORD
  5
FB
330
1
100
AcDbSymbolTableRecord
100
AcDbBlockTableRecord
  2
SW_CENTERMARKSYMBOL_0
340
0
102
{BLKREFS
331
106
102
}
  0
BLOCK_RECORD
  5
188
330
1
100
AcDbSymbolTableRecord
100
AcDbBlockTableRecord
  2
_D
340
0
  0
BLOCK_RECORD
  5
193
330
1
100
AcDbSymbolTableRecord
100
AcDbBlockTableRecord
  2
_D_1
340
0
  0
BLOCK_RECORD
  5
19D
330
1
100
AcDbSymbolTableRecord
100
AcDbBlockTableRecord
  2
_D_2
340
0
  0
BLOCK_RECORD
  5
1A8
330
1
100
AcDbSymbolTableRecord
100
AcDbBlockTableRecord
  2
_D_3
340
0
  0
BLOCK_RECORD
  5
1B3
330
1
100
AcDbSymbolTableRecord
100
AcDbBlockTableRecord
  2
_D_4
340
0
  0
ENDTAB
  0
ENDSEC
  0
SECTION
  2
BLOCKS
  0
BLOCK
  5
20
330
1F
100
AcDbEntity
  8
0
100
AcDbBlockBegin
  2
*Model_Space
 70
     0
 10
0.0
 20
0.0
 30
0.0
  3
*Model_Space
  1
*Model_Space
  0
ENDBLK
  5
21
330
1F
100
AcDbEntity
  8
0
100
AcDbBlockEnd
  0
BLOCK
  5
1C
330
1B
100
AcDbEntity
 67
     1
  8
0
100
AcDbBlockBegin
  2
*Paper_Space
 70
     0
 10
0.0
 20
0.0
 30
0.0
  3
*Paper_Space
  1
*Paper_Space
  0
ENDBLK
  5
1D
330
1B
100
AcDbEntity
 67
     1
  8
0
100
AcDbBlockEnd
  0
BLOCK
  5
24
330
23
100
AcDbEntity
  8
0
100
AcDbBlockBegin
  2
*Paper_Space0
 70
     0
 10
0.0
 20
0.0
 30
0.0
  3
*Paper_Space0
  1
*Paper_Space0
  0
ENDBLK
  5
25
330
23
100
AcDbEntity
  8
0
100
AcDbBlockEnd
  0
BLOCK
  5
FC
330
FB
100
AcDbEntity
  8
0
100
AcDbBlockBegin
  2
SW_CENTERMARKSYMBOL_0
 70
     0
 10
0.0
 20
0.0
 30
0.0
  3
SW_CENTERMARKSYMBOL_0
  1
SW_CENTERMARKSYMBOL_0
  0
LINE
  5
FE
330
FB
100
AcDbEntity
  8
DIM
 62
     0
100
AcDbLine
 10
0.0
 20
0.0
 30
0.0
 11
0.0
 21
2.5
 31
0.0
  0
LINE
  5
FF
330
FB
100
AcDbEntity
  8
DIM
 62
     0
100
AcDbLine
 10
0.0
 20
0.0
 30
0.0
 11
-2.5
 21
0.0
 31
0.0
  0
LINE
  5
100
330
FB
100
AcDbEntity
  8
DIM
 62
     0
100
AcDbLine
 10
0.0
 20
0.0
 30
0.0
 11
0.0
 21
-2.5
 31
0.0
  0
LINE
  5
101
330
FB
100
AcDbEntity
  8
DIM
 62
     0
100
AcDbLine
 10
0.0
 20
0.0
 30
0.0
 11
2.5
 21
0.0
 31
0.0
  0
LINE
  5
102
330
FB
100
AcDbEntity
  8
DIM
 62
     0
100
AcDbLine
 10
0.0
 20
5.0
 30
0.0
 11
0.0
 21
34.2499999998
 31
0.0
  0
LINE
  5
103
330
FB
100
AcDbEntity
  8
DIM
 62
     0
100
AcDbLine
 10
-5.0
 20
0.0
 30
0.0
 11
-34.2499999998
 21
0.0
 31
0.0
  0
LINE
  5
104
330
FB
100
AcDbEntity
  8
DIM
 62
     0
100
AcDbLine
 10
0.0
 20
-5.0
 30
0.0
 11
0.0
 21
-34.2499999998
 31
0.0
  0
LINE
  5
105
330
FB
100
AcDbEntity
  8
DIM
 62
     0
100
AcDbLine
 10
5.0
 20
0.0
 30
0.0
 11
34.2499999998
 21
0.0
 31
0.0
  0
ENDBLK
  5
FD
330
FB
100
AcDbEntity
  8
0
100
AcDbBlockEnd
  0
BLOCK
  5
189
330
188
100
AcDbEntity
  8
0
100
AcDbBlockBegin
  2
_D
 70
     0
 10
0.0
 20
0.0
 30
0.0
  3
_D
  1
_D
  0
SOLID
  5
18B
330
188
100
AcDbEntity
  8
DIM
100
AcDbTrace
 10
142.8051869246
 20
111.9202139787
 30
0.0
 11
147.5223297818
 21
111.194499693
 31
0.0
 12
147.5223297818
 22
112.6459282644
 32
0.0
 13
147.5223297818
 23
112.6459282644
 33
0.0
  0
SOLID
  5
18C
330
188
100
AcDbEntity
  8
DIM
100
AcDbTrace
 10
371.2051869245
 20
111.9202139787
 30
0.0
 11
366.4880440673
 21
112.6459282644
 31
0.0
 12
366.4880440673
 22
111.194499693
 32
0.0
 13
366.4880440673
 23
111.194499693
 33
0.0
  0
LINE
  5
18D
330
188
100
AcDbEntity
  8
DIM
100
AcDbLine
 10
142.8051869246
 20
160.5151985146
 30
0.0
 11
142.8051869246
 21
110.4916425502
 31
0.0
  0
LINE
  5
18E
330
188
100
AcDbEntity
  8
DIM
100
AcDbLine
 10
371.2051869245
 20
140.5151985146
 30
0.0
 11
371.2051869245
 21
110.4916425502
 31
0.0
  0
LINE
  5
18F
330
188
100
AcDbEntity
  8
DIM
100
AcDbLine
 10
142.8051869246
 20
111.9202139787
 30
0.0
 11
371.2051869245
 21
111.9202139787
 31
0.0
  0
MTEXT
  5
190
330
188
100
AcDbEntity
  8
DIM
100
AcDbMText
 10
238.9573244858
 20
117.2798203603
 30
0.0
 40
4.1577380952
 41
0.0
 71
     1
 72
     1
  1
228.40
  7
SLDTEXTSTYLE0
 73
     1
 44
1.0
  0
ENDBLK
  5
18A
330
188
100
AcDbEntity
  8
0
100
AcDbBlockEnd
  0
BLOCK
  5
194
330
193
100
AcDbEntity
  8
0
100
AcDbBlockBegin
  2
_D_1
 70
     0
 10
0.0
 20
0.0
 30
0.0
  3
_D_1
  1
_D_1
  0
SOLID
  5
196
330
193
100
AcDbEntity
  8
DIM
100
AcDbTrace
 10
211.2051869245
 20
122.1144432166
 30
0.0
 11
215.9223297816
 21
121.3887289309
 31
0.0
 12
215.9223297816
 22
122.8401575023
 32
0.0
 13
215.9223297816
 23
122.8401575023
 33
0.0
  0
SOLID
  5
197
330
193
100
AcDbEntity
  8
DIM
100
AcDbTrace
 10
371.2051869245
 20
122.1144432166
 30
0.0
 11
366.4880440673
 21
122.8401575023
 31
0.0
 12
366.4880440673
 22
121.3887289309
 32
0.0
 13
366.4880440673
 23
121.3887289309
 33
0.0
  0
LINE
  5
198
330
193
100
AcDbEntity
  8
DIM
100
AcDbLine
 10
211.2051869245
 20
138.2901985146
 30
0.0
 11
211.2051869245
 21
120.685871788
 31
0.0
  0
LINE
  5
199
330
193
100
AcDbEntity
  8
DIM
100
AcDbLine
 10
371.2051869245
 20
140.5151985146
 30
0.0
 11
371.2051869245
 21
120.685871788
 31
0.0
  0
LINE
  5
19A
330
193
100
AcDbEntity
  8
DIM
100
AcDbLine
 10
211.2051869245
 20
122.1144432166
 30
0.0
 11
371.2051869245
 21
122.1144432166
 31
0.0
  0
MTEXT
  5
19B
330
193
100
AcDbEntity
  8
DIM
100
AcDbMText
 10
276.6722742332
 20
127.4740495982
 30
0.0
 40
4.1577380952
 41
0.0
 71
     1
 72
     1
  1
160
  7
SLDTEXTSTYLE0
 73
     1
 44
1.0
  0
ENDBLK
  5
195
330
193
100
AcDbEntity
  8
0
100
AcDbBlockEnd
  0
BLOCK
  5
19E
330
19D
100
AcDbEntity
  8
0
100
AcDbBlockBegin
  2
_D_2
 70
     0
 10
0.0
 20
0.0
 30
0.0
  3
_D_2
  1
_D_2
  0
SOLID
  5
1A0
330
19D
100
AcDbEntity
  8
DIM
100
AcDbTrace
 10
128.518063512
 20
193.6937699431
 30
0.0
 11
127.7923492263
 21
188.976627086
 31
0.0
 12
129.2437777977
 22
188.976627086
 32
0.0
 13
129.2437777977
 23
188.976627086
 33
0.0
  0
SOLID
  5
1A1
330
19D
100
AcDbEntity
  8
DIM
100
AcDbTrace
 10
128.518063512
 20
130.1937699431
 30
0.0
 11
129.2437777977
 21
134.9109128003
 31
0.0
 12
127.7923492263
 22
134.9109128003
 32
0.0
 13
127.7923492263
 23
134.9109128003
 33
0.0
  0
LINE
  5
1A2
330
19D
100
AcDbEntity
  8
DIM
100
AcDbLine
 10
214.142300921
 20
193.6937699431
 30
0.0
 11
127.0894920834
 21
193.6937699431
 31
0.0
  0
LINE
  5
1A3
330
19D
100
AcDbEntity
  8
DIM
100
AcDbLine
 10
214.142300921
 20
130.1937699431
 30
0.0
 11
127.0894920834
 21
130.1937699431
 31
0.0
  0
LINE
  5
1A4
330
19D
100
AcDbEntity
  8
DIM
100
AcDbLine
 10
128.518063512
 20
193.6937699431
 30
0.0
 11
128.518063512
 21
130.1937699431
 31
0.0
  0
MTEXT
  5
1A5
330
19D
100
AcDbEntity
  8
DIM
100
AcDbMText
 10
123.1584571304
 20
155.3061552641
 30
0.0
 40
4.1577380952
 41
0.0
 71
     1
 72
     1
  1
%%c
  7
SLDTEXTSTYLE0
 11
-7.044195017643634E-15
 21
1.0
 31
0.0
 73
     1
 44
1.0
  0
MTEXT
  5
1A6
330
19D
100
AcDbEntity
  8
DIM
100
AcDbMText
 10
123.1584571304
 20
161.7356351207
 30
0.0
 40
4.1577380952
 41
0.0
 71
     1
 72
     1
  1
63.50
  7
SLDTEXTSTYLE0
 11
-7.044195017643634E-15
 21
1.0
 31
0.0
 73
     1
 44
1.0
  0
ENDBLK
  5
19F
330
19D
100
AcDbEntity
  8
0
100
AcDbBlockEnd
  0
BLOCK
  5
1A9
330
1A8
100
AcDbEntity
  8
0
100
AcDbBlockBegin
  2
_D_3
 70
     0
 10
0.0
 20
0.0
 30
0.0
  3
_D_3
  1
_D_3
  0
SOLID
  5
1AB
330
1A8
100
AcDbEntity
  8
DIM
100
AcDbTrace
 10
388.1109886457
 20
186.9437699431
 30
0.0
 11
387.38527436
 21
182.226627086
 31
0.0
 12
388.8367029314
 22
182.226627086
 32
0.0
 13
388.8367029314
 23
182.226627086
 33
0.0
  0
SOLID
  5
1AC
330
1A8
100
AcDbEntity
  8
DIM
100
AcDbTrace
 10
388.1109886457
 20
136.9437699431
 30
0.0
 11
388.8367029314
 21
141.6609128003
 31
0.0
 12
387.38527436
 22
141.6609128003
 32
0.0
 13
387.38527436
 23
141.6609128003
 33
0.0
  0
LINE
  5
1AD
330
1A8
100
AcDbEntity
  8
DIM
100
AcDbLine
 10
369.747007007
 20
186.9437699431
 30
0.0
 11
389.5395600743
 21
186.9437699431
 31
0.0
  0
LINE
  5
1AE
330
1A8
100
AcDbEntity
  8
DIM
100
AcDbLine
 10
369.747007007
 20
136.9437699431
 30
0.0
 11
389.5395600743
 21
136.9437699431
 31
0.0
  0
LINE
  5
1AF
330
1A8
100
AcDbEntity
  8
DIM
100
AcDbLine
 10
388.1109886457
 20
186.9437699431
 30
0.0
 11
388.1109886457
 21
136.9437699431
 31
0.0
  0
MTEXT
  5
1B0
330
1A8
100
AcDbEntity
  8
DIM
100
AcDbMText
 10
382.7513822641
 20
155.9187069361
 30
0.0
 40
4.1577380952
 41
0.0
 71
     1
 72
     1
  1
%%c
  7
SLDTEXTSTYLE0
 11
-7.044195017643634E-15
 21
1.0
 31
0.0
 73
     1
 44
1.0
  0
MTEXT
  5
1B1
330
1A8
100
AcDbEntity
  8
DIM
100
AcDbMText
 10
382.7513822641
 20
162.3481867927
 30
0.0
 40
4.1577380952
 41
0.0
 71
     1
 72
     1
  1
50
  7
SLDTEXTSTYLE0
 11
-7.044195017643634E-15
 21
1.0
 31
0.0
 73
     1
 44
1.0
  0
ENDBLK
  5
1AA
330
1A8
100
AcDbEntity
  8
0
100
AcDbBlockEnd
  0
BLOCK
  5
1B4
330
1B3
100
AcDbEntity
  8
0
100
AcDbBlockBegin
  2
_D_4
 70
     0
 10
0.0
 20
0.0
 30
0.0
  3
_D_4
  1
_D_4
  0
SOLID
  5
1B6
330
1B3
100
AcDbEntity
  8
DIM
100
AcDbTrace
 10
380.1869561622
 20
184.4437699431
 30
0.0
 11
379.4612418765
 21
179.726627086
 31
0.0
 12
380.9126704479
 22
179.726627086
 32
0.0
 13
380.9126704479
 23
179.726627086
 33
0.0
  0
SOLID
  5
1B7
330
1B3
100
AcDbEntity
  8
DIM
100
AcDbTrace
 10
380.1869561622
 20
139.4437699431
 30
0.0
 11
380.9126704479
 21
144.1609128003
 31
0.0
 12
379.4612418765
 22
144.1609128003
 32
0.0
 13
379.4612418765
 23
144.1609128003
 33
0.0
  0
LINE
  5
1B8
330
1B3
100
AcDbEntity
  8
DIM
100
AcDbLine
 10
331.883758353
 20
184.4437699431
 30
0.0
 11
381.6155275908
 21
184.4437699431
 31
0.0
  0
LINE
  5
1B9
330
1B3
100
AcDbEntity
  8
DIM
100
AcDbLine
 10
331.883758353
 20
139.4437699431
 30
0.0
 11
381.6155275908
 21
139.4437699431
 31
0.0
  0
LINE
  5
1BA
330
1B3
100
AcDbEntity
  8
DIM
100
AcDbLine
 10
380.1869561622
 20
184.4437699431
 30
0.0
 11
380.1869561622
 21
139.4437699431
 31
0.0
  0
MTEXT
  5
1BB
330
1B3
100
AcDbEntity
  8
DIM
100
AcDbMText
 10
374.8273497806
 20
155.9187069361
 30
0.0
 40
4.1577380952
 41
0.0
 71
     1
 72
     1
  1
%%c
  7
SLDTEXTSTYLE0
 11
-7.044195017643634E-15
 21
1.0
 31
0.0
 73
     1
 44
1.0
  0
MTEXT
  5
1BC
330
1B3
100
AcDbEntity
  8
DIM
100
AcDbMText
 10
374.8273497806
 20
162.3481867927
 30
0.0
 40
4.1577380952
 41
0.0
 71
     1
 72
     1
  1
45
  7
SLDTEXTSTYLE0
 11
-7.044195017643634E-15
 21
1.0
 31
0.0
 73
     1
 44
1.0
  0
ENDBLK
  5
1B5
330
1B3
100
AcDbEntity
  8
0
100
AcDbBlockEnd
  0
ENDSEC
  0
SECTION
  2
ENTITIES
  0
LINE
  5
76
330
1F
100
AcDbEntity
  8
DIM
100
AcDbLine
 10
149.5777495557
 20
13.9871306526
 30
0.0
 11
149.5777495557
 21
6.8442735098
 31
0.0
  0
LINE
  5
77
330
1F
100
AcDbEntity
  8
DIM
100
AcDbLine
 10
363.5280024219
 20
13.9871306526
 30
0.0
 11
363.5280024219
 21
6.8442735098
 31
0.0
  0
LINE
  5
78
330
1F
100
AcDbEntity
  8
DIM
100
AcDbLine
 10
339.2167284737
 20
13.9871306526
 30
0.0
 11
339.2167284737
 21
6.8442735098
 31
0.0
  0
LINE
  5
79
330
1F
100
AcDbEntity
  8
DIM
100
AcDbLine
 10
398.4348924129
 20
6.8442735098
 30
0.0
 11
398.4348924129
 21
13.9871306526
 31
0.0
  0
LINE
  5
7A
330
1F
100
AcDbEntity
  8
DIM
100
AcDbLine
 10
160.7206066986
 20
13.9871306526
 30
0.0
 11
160.7206066986
 21
6.8442735098
 31
0.0
  0
LINE
  5
7B
330
1F
100
AcDbEntity
  8
DIM
100
AcDbLine
 10
188.1362530326
 20
13.9871306526
 30
0.0
 11
188.1362530326
 21
6.8442735098
 31
0.0
  0
LINE
  5
7C
330
1F
100
AcDbEntity
  8
DIM
100
AcDbLine
 10
417.0063209843
 20
6.8442735098
 30
0.0
 11
417.0063209843
 21
110.0585592241
 31
0.0
  0
LINE
  5
7D
330
1F
100
AcDbEntity
  8
DIM
100
AcDbLine
 10
408.3128638495
 20
85.7728449384
 30
0.0
 11
417.0063209843
 21
85.7728449384
 31
0.0
  0
LINE
  5
7E
330
1F
100
AcDbEntity
  8
DIM
100
AcDbLine
 10
213.0047869322
 20
12.9157020812
 30
0.0
 11
213.0047869322
 21
6.8442735098
 31
0.0
  0
LINE
  5
7F
330
1F
100
AcDbEntity
  8
DIM
100
AcDbLine
 10
281.0913559435
 20
13.9871306526
 30
0.0
 11
281.0913559435
 21
6.8442735098
 31
0.0
  0
LINE
  5
80
330
1F
100
AcDbEntity
  8
DIM
100
AcDbLine
 10
213.0047869322
 20
13.9871306526
 30
0.0
 11
213.0047869322
 21
12.9157020812
 31
0.0
  0
LINE
  5
81
330
1F
100
AcDbEntity
  8
DIM
100
AcDbLine
 10
409.8634638414
 20
25.0584563669
 30
0.0
 11
417.0063209843
 21
25.0584563669
 31
0.0
  0
LINE
  5
82
330
1F
100
AcDbEntity
  8
DIM
100
AcDbLine
 10
409.8634638414
 20
285.4157020812
 30
0.0
 11
14.1491781271
 21
285.4157020812
 31
0.0
  0
LINE
  5
83
330
1F
100
AcDbEntity
  8
DIM
100
AcDbLine
 10
417.0063209843
 20
292.5585592241
 30
0.0
 11
7.0063209843
 21
292.5585592241
 31
0.0
  0
LINE
  5
84
330
1F
100
AcDbEntity
  8
DIM
100
AcDbLine
 10
14.1491781271
 20
285.4157020812
 30
0.0
 11
14.1491781271
 21
13.9871306526
 31
0.0
  0
LINE
  5
85
330
1F
100
AcDbEntity
  8
DIM
100
AcDbLine
 10
7.0063209843
 20
292.5585592241
 30
0.0
 11
7.0063209843
 21
6.8442735098
 31
0.0
  0
LINE
  5
86
330
1F
100
AcDbEntity
  8
DIM
100
AcDbLine
 10
14.1491781271
 20
78.2728449384
 30
0.0
 11
7.0063209843
 21
78.2728449384
 31
0.0
  0
LINE
  5
87
330
1F
100
AcDbEntity
  8
DIM
100
AcDbLine
 10
7.0063209843
 20
149.7014163669
 30
0.0
 11
14.1491781271
 21
149.7014163669
 31
0.0
  0
LINE
  5
88
330
1F
100
AcDbEntity
  8
DIM
100
AcDbLine
 10
7.0063209843
 20
6.8442735098
 30
0.0
 11
417.0063209843
 21
6.8442735098
 31
0.0
  0
LINE
  5
89
330
1F
100
AcDbEntity
  8
DIM
100
AcDbLine
 10
14.1491781271
 20
13.9871306526
 30
0.0
 11
417.0063209843
 21
13.9871306526
 31
0.0
  0
LINE
  5
8A
330
1F
100
AcDbEntity
  8
DIM
100
AcDbLine
 10
69.1491781271
 20
6.8442735098
 30
0.0
 11
69.1491781271
 21
13.9871306526
 31
0.0
  0
LINE
  5
8B
330
1F
100
AcDbEntity
  8
DIM
100
AcDbLine
 10
140.5777495557
 20
13.9871306526
 30
0.0
 11
140.5777495557
 21
6.8442735098
 31
0.0
  0
LINE
  5
8C
330
1F
100
AcDbEntity
  8
DIM
100
AcDbLine
 10
14.1491781271
 20
221.1299877955
 30
0.0
 11
7.0063209843
 21
221.1299877955
 31
0.0
  0
LINE
  5
8D
330
1F
100
AcDbEntity
  8
DIM
100
AcDbLine
 10
69.1491781271
 20
285.4157020812
 30
0.0
 11
69.1491781271
 21
292.5585592241
 31
0.0
  0
LINE
  5
8E
330
1F
100
AcDbEntity
  8
DIM
100
AcDbLine
 10
140.5777495557
 20
292.5585592241
 30
0.0
 11
140.5777495557
 21
285.4157020812
 31
0.0
  0
LINE
  5
8F
330
1F
100
AcDbEntity
  8
DIM
100
AcDbLine
 10
212.0063209843
 20
292.5585592241
 30
0.0
 11
212.0063209843
 21
285.4157020812
 31
0.0
  0
LINE
  5
90
330
1F
100
AcDbEntity
  8
DIM
100
AcDbLine
 10
409.8634638414
 20
13.9871306526
 30
0.0
 11
409.8634638414
 21
285.4157020812
 31
0.0
  0
LINE
  5
91
330
1F
100
AcDbEntity
  8
DIM
100
AcDbLine
 10
417.0063209843
 20
110.0585592241
 30
0.0
 11
417.0063209843
 21
292.5585592241
 31
0.0
  0
LINE
  5
92
330
1F
100
AcDbEntity
  8
DIM
100
AcDbLine
 10
417.0063209843
 20
149.7014163669
 30
0.0
 11
409.8634638414
 21
149.7014163669
 31
0.0
  0
LINE
  5
93
330
1F
100
AcDbEntity
  8
DIM
100
AcDbLine
 10
283.4348924129
 20
292.5585592241
 30
0.0
 11
283.4348924129
 21
285.4157020812
 31
0.0
  0
LINE
  5
94
330
1F
100
AcDbEntity
  8
DIM
100
AcDbLine
 10
354.8634638414
 20
285.4157020812
 30
0.0
 11
354.8634638414
 21
292.5585592241
 31
0.0
  0
LINE
  5
95
330
1F
100
AcDbEntity
  8
DIM
100
AcDbLine
 10
409.8634638414
 20
221.1299877955
 30
0.0
 11
417.0063209843
 21
221.1299877955
 31
0.0
  0
MTEXT
  5
97
330
1F
100
AcDbEntity
  8
DIM
100
AcDbMText
 10
20.5595752126
 20
277.3183688196
 30
0.0
 40
6.0476190476
 41
0.0
 71
     1
 72
     1
  1
SK 40 ER 32 160 AD+B/6.3G15000 SL
  7
SLDTEXTSTYLE0
 73
     1
 44
1.0
  0
MTEXT
  5
99
330
1F
100
AcDbEntity
  8
DIM
 62
     7
100
AcDbMText
 10
282.4753980666
 20
11.1456450376
 30
0.0
 40
2.1408571429
 41
0.0
 71
     1
 72
     1
  1
WEIGHT:
  7
SLDTEXTSTYLE1
 73
     1
 44
1.0
  0
MTEXT
  5
9A
330
1F
100
AcDbEntity
  8
DIM
 62
     7
100
AcDbMText
 10
412.2815382211
 20
117.0580192975
 30
0.0
 40
2.6458333333
 41
0.0
 71
     1
 72
     1
  1
C
  7
SLDTEXTSTYLE1
 73
     1
 44
1.0
  0
MTEXT
  5
9B
330
1F
100
AcDbEntity
  8
DIM
 62
     7
100
AcDbMText
 10
404.3479723135
 20
21.2199742623
 30
0.0
 40
4.1577380952
 41
0.0
 71
     1
 72
     1
  1
A4
  7
SLDTEXTSTYLE1
 73
     1
 44
1.0
  0
MTEXT
  5
9C
330
1F
100
AcDbEntity
  8
DIM
 62
     7
100
AcDbMText
 10
389.3872790795
 20
290.6557255149
 30
0.0
 40
2.6458333333
 41
0.0
 71
     1
 72
     1
  1
6
  7
SLDTEXTSTYLE1
 73
     1
 44
1.0
  0
MTEXT
  5
9D
330
1F
100
AcDbEntity
  8
DIM
 62
     7
100
AcDbMText
 10
317.958707651
 20
290.6557255149
 30
0.0
 40
2.6458333333
 41
0.0
 71
     1
 72
     1
  1
5
  7
SLDTEXTSTYLE1
 73
     1
 44
1.0
  0
MTEXT
  5
9E
330
1F
100
AcDbEntity
  8
DIM
 62
     7
100
AcDbMText
 10
412.244427651
 20
258.512868372
 30
0.0
 40
2.6458333333
 41
0.0
 71
     1
 72
     1
  1
A
  7
SLDTEXTSTYLE1
 73
     1
 44
1.0
  0
MTEXT
  5
9F
330
1F
100
AcDbEntity
  8
DIM
 62
     7
100
AcDbMText
 10
412.244427651
 20
187.0842969434
 30
0.0
 40
2.6458333333
 41
0.0
 71
     1
 72
     1
  1
B
  7
SLDTEXTSTYLE1
 73
     1
 44
1.0
  0
MTEXT
  5
A0
330
1F
100
AcDbEntity
  8
DIM
 62
     7
100
AcDbMText
 10
246.5301362224
 20
290.6557255149
 30
0.0
 40
2.6458333333
 41
0.0
 71
     1
 72
     1
  1
4
  7
SLDTEXTSTYLE1
 73
     1
 44
1.0
  0
MTEXT
  5
A1
330
1F
100
AcDbEntity
  8
DIM
 62
     7
100
AcDbMText
 10
32.8396600319
 20
290.6557255149
 30
0.0
 40
2.6458333333
 41
0.0
 71
     1
 72
     1
  1
1
  7
SLDTEXTSTYLE1
 73
     1
 44
1.0
  0
MTEXT
  5
A2
330
1F
100
AcDbEntity
  8
DIM
 62
     7
100
AcDbMText
 10
103.6729933652
 20
290.6557255149
 30
0.0
 40
2.6458333333
 41
0.0
 71
     1
 72
     1
  1
2
  7
SLDTEXTSTYLE1
 73
     1
 44
1.0
  0
MTEXT
  5
A3
330
1F
100
AcDbEntity
  8
DIM
 62
     7
100
AcDbMText
 10
175.1015647938
 20
290.6557255149
 30
0.0
 40
2.6458333333
 41
0.0
 71
     1
 72
     1
  1
3
  7
SLDTEXTSTYLE1
 73
     1
 44
1.0
  0
MTEXT
  5
A4
330
1F
100
AcDbEntity
  8
DIM
 62
     7
100
AcDbMText
 10
9.3872733652
 20
258.512868372
 30
0.0
 40
2.6458333333
 41
0.0
 71
     1
 72
     1
  1
A
  7
SLDTEXTSTYLE1
 73
     1
 44
1.0
  0
MTEXT
  5
A5
330
1F
100
AcDbEntity
  8
DIM
 62
     7
100
AcDbMText
 10
103.6729933652
 20
12.0842969434
 30
0.0
 40
2.6458333333
 41
0.0
 71
     1
 72
     1
  1
2
  7
SLDTEXTSTYLE1
 73
     1
 44
1.0
  0
MTEXT
  5
A6
330
1F
100
AcDbEntity
  8
DIM
 62
     7
100
AcDbMText
 10
32.8396600319
 20
12.0842969434
 30
0.0
 40
2.6458333333
 41
0.0
 71
     1
 72
     1
  1
1
  7
SLDTEXTSTYLE1
 73
     1
 44
1.0
  0
MTEXT
  5
A7
330
1F
100
AcDbEntity
  8
DIM
 62
     7
100
AcDbMText
 10
9.3872733652
 20
44.2271540863
 30
0.0
 40
2.6458333333
 41
0.0
 71
     1
 72
     1
  1
D
  7
SLDTEXTSTYLE1
 73
     1
 44
1.0
  0
MTEXT
  5
A8
330
1F
100
AcDbEntity
  8
DIM
 62
     7
100
AcDbMText
 10
9.3872733652
 20
115.6557255149
 30
0.0
 40
2.6458333333
 41
0.0
 71
     1
 72
     1
  1
C
  7
SLDTEXTSTYLE1
 73
     1
 44
1.0
  0
MTEXT
  5
A9
330
1F
100
AcDbEntity
  8
DIM
 62
     7
100
AcDbMText
 10
9.3872733652
 20
187.0842969434
 30
0.0
 40
2.6458333333
 41
0.0
 71
     1
 72
     1
  1
B
  7
SLDTEXTSTYLE1
 73
     1
 44
1.0
  0
MTEXT
  5
AA
330
1F
100
AcDbEntity
  8
DIM
 62
     7
100
AcDbMText
 10
412.2815382211
 20
117.0580192975
 30
0.0
 40
2.6458333333
 41
0.0
 71
     1
 72
     1
  1
C
  7
SLDTEXTSTYLE1
 73
     1
 44
1.0
  0
MTEXT
  5
AC
330
1F
100
AcDbEntity
  8
DIM
 62
     7
100
AcDbMText
 10
366.4648083036
 20
10.9872553306
 30
0.0
 40
2.1428571429
 41
0.0
 71
     1
 72
     1
  1
SHEET 1 OF 1
  7
SLDTEXTSTYLE2
 73
     1
 44
1.0
  0
MTEXT
  5
AD
330
1F
100
AcDbEntity
  8
DIM
 62
     7
100
AcDbMText
 10
214.8168291192
 20
11.2190964052
 30
0.0
 40
2.1428571429
 41
0.0
 71
     1
 72
     1
  1
MATERIAL:
  7
SLDTEXTSTYLE1
 73
     1
 44
1.0
  0
MTEXT
  5
AE
330
1F
100
AcDbEntity
  8
DIM
 62
     7
100
AcDbMText
 10
389.3872790795
 20
290.6557255149
 30
0.0
 40
2.6458333333
 41
0.0
 71
     1
 72
     1
  1
6
  7
SLDTEXTSTYLE1
 73
     1
 44
1.0
  0
MTEXT
  5
AF
330
1F
100
AcDbEntity
  8
DIM
 62
     7
100
AcDbMText
 10
317.958707651
 20
290.6557255149
 30
0.0
 40
2.6458333333
 41
0.0
 71
     1
 72
     1
  1
5
  7
SLDTEXTSTYLE1
 73
     1
 44
1.0
  0
MTEXT
  5
B0
330
1F
100
AcDbEntity
  8
DIM
 62
     7
100
AcDbMText
 10
412.244427651
 20
258.512868372
 30
0.0
 40
2.6458333333
 41
0.0
 71
     1
 72
     1
  1
A
  7
SLDTEXTSTYLE1
 73
     1
 44
1.0
  0
MTEXT
  5
B1
330
1F
100
AcDbEntity
  8
DIM
 62
     7
100
AcDbMText
 10
412.244427651
 20
187.0842969434
 30
0.0
 40
2.6458333333
 41
0.0
 71
     1
 72
     1
  1
B
  7
SLDTEXTSTYLE1
 73
     1
 44
1.0
  0
MTEXT
  5
B2
330
1F
100
AcDbEntity
  8
DIM
 62
     7
100
AcDbMText
 10
246.5301362224
 20
290.6557255149
 30
0.0
 40
2.6458333333
 41
0.0
 71
     1
 72
     1
  1
4
  7
SLDTEXTSTYLE1
 73
     1
 44
1.0
  0
MTEXT
  5
B3
330
1F
100
AcDbEntity
  8
DIM
 62
     7
100
AcDbMText
 10
32.8396600319
 20
290.6557255149
 30
0.0
 40
2.6458333333
 41
0.0
 71
     1
 72
     1
  1
1
  7
SLDTEXTSTYLE1
 73
     1
 44
1.0
  0
MTEXT
  5
B4
330
1F
100
AcDbEntity
  8
DIM
 62
     7
100
AcDbMText
 10
103.6729933652
 20
290.6557255149
 30
0.0
 40
2.6458333333
 41
0.0
 71
     1
 72
     1
  1
2
  7
SLDTEXTSTYLE1
 73
     1
 44
1.0
  0
MTEXT
  5
B5
330
1F
100
AcDbEntity
  8
DIM
 62
     7
100
AcDbMText
 10
175.1015647938
 20
290.6557255149
 30
0.0
 40
2.6458333333
 41
0.0
 71
     1
 72
     1
  1
3
  7
SLDTEXTSTYLE1
 73
     1
 44
1.0
  0
MTEXT
  5
B6
330
1F
100
AcDbEntity
  8
DIM
 62
     7
100
AcDbMText
 10
9.3872733652
 20
258.512868372
 30
0.0
 40
2.6458333333
 41
0.0
 71
     1
 72
     1
  1
A
  7
SLDTEXTSTYLE1
 73
     1
 44
1.0
  0
MTEXT
  5
B7
330
1F
100
AcDbEntity
  8
DIM
 62
     7
100
AcDbMText
 10
103.6729933652
 20
12.0842969434
 30
0.0
 40
2.6458333333
 41
0.0
 71
     1
 72
     1
  1
2
  7
SLDTEXTSTYLE1
 73
     1
 44
1.0
  0
MTEXT
  5
B8
330
1F
100
AcDbEntity
  8
DIM
 62
     7
100
AcDbMText
 10
32.8396600319
 20
12.0842969434
 30
0.0
 40
2.6458333333
 41
0.0
 71
     1
 72
     1
  1
1
  7
SLDTEXTSTYLE1
 73
     1
 44
1.0
  0
MTEXT
  5
B9
330
1F
100
AcDbEntity
  8
DIM
 62
     7
100
AcDbMText
 10
9.3872733652
 20
44.2271540863
 30
0.0
 40
2.6458333333
 41
0.0
 71
     1
 72
     1
  1
D
  7
SLDTEXTSTYLE1
 73
     1
 44
1.0
  0
MTEXT
  5
BA
330
1F
100
AcDbEntity
  8
DIM
 62
     7
100
AcDbMText
 10
9.3872733652
 20
115.6557255149
 30
0.0
 40
2.6458333333
 41
0.0
 71
     1
 72
     1
  1
C
  7
SLDTEXTSTYLE1
 73
     1
 44
1.0
  0
MTEXT
  5
BB
330
1F
100
AcDbEntity
  8
DIM
 62
     7
100
AcDbMText
 10
9.3872733652
 20
187.0842969434
 30
0.0
 40
2.6458333333
 41
0.0
 71
     1
 72
     1
  1
B
  7
SLDTEXTSTYLE1
 73
     1
 44
1.0
  0
SPLINE
  5
BC
330
1F
100
AcDbEntity
  8
0
  6
Continuous
 62
     7
370
    15
100
AcDbSpline
210
0.0
220
0.0
230
1.0
 70
     8
 71
     3
 72
    38
 73
    34
 74
     0
 42
0.000000001
 43
0.00000001
 40
0.0
 40
0.0
 40
0.0
 40
0.0
 40
0.0625
 40
0.0625
 40
0.125
 40
0.125
 40
0.1875
 40
0.1875
 40
0.25
 40
0.25
 40
0.3125
 40
0.3125
 40
0.375
 40
0.375
 40
0.4375
 40
0.4375
 40
0.5
 40
0.5
 40
0.5625
 40
0.5625
 40
0.625
 40
0.625
 40
0.6875
 40
0.6875
 40
0.75
 40
0.75
 40
0.8125
 40
0.8125
 40
0.875
 40
0.875
 40
0.9375
 40
0.9375
 40
1.0
 40
1.0
 40
1.0
 40
1.0
 10
84.90635013494581
 20
161.9437699431451
 30
0.0
 10
84.90635013494581
 20
161.4693881686684
 30
0.0
 10
84.87692650228992
 20
160.9650626468168
 30
0.0
 10
84.73426646517046
 20
159.8998677029843
 30
0.0
 10
84.62096205942254
 20
159.3388447431383
 30
0.0
 10
84.28092520347991
 20
158.1730040941843
 30
0.0
 10
84.05400808036846
 20
157.5680307725392
 30
0.0
 10
83.45607503702246
 20
156.3415014528467
 30
0.0
 10
83.08472412096748
 20
155.7198810620101
 30
0.0
 10
82.17391111397833
 20
154.5054637193496
 30
0.0
 10
81.63401498207536
 20
153.9128399063286
 30
0.0
 10
80.38062872112826
 20
152.8189755331309
 30
0.0
 10
79.66681164318291
 20
152.3182518617205
 30
0.0
 10
78.09101059302867
 20
151.4778246349659
 30
0.0
 10
77.22911268846028
 20
151.1388688966487
 30
0.0
 10
75.41826552663568
 20
150.6789712047536
 30
0.0
 10
74.46995109652836
 20
150.5586073557029
 30
0.0
 10
72.57242399863429
 20
150.5586073557029
 30
0.0
 10
71.62410956852699
 20
150.6789712047536
 30
0.0
 10
69.81326240670239
 20
151.1388688966487
 30
0.0
 10
68.951364502134
 20
151.4778246349659
 30
0.0
 10
67.37556345197974
 20
152.3182518617205
 30
0.0
 10
66.66174637403441
 20
152.8189755331309
 30
0.0
 10
65.4083601130873
 20
153.9128399063286
 30
0.0
 10
64.86846398118433
 20
154.5054637193496
 30
0.0
 10
63.95765097419518
 20
155.7198810620101
 30
0.0
 10
63.5863000581402
 20
156.3415014528467
 30
0.0
 10
62.98836701479421
 20
157.5680307725392
 30
0.0
 10
62.76144989168275
 20
158.1730040941843
 30
0.0
 10
62.42141303574013
 20
159.3388447431384
 30
0.0
 10
62.3081086299922
 20
159.8998677029843
 30
0.0
 10
62.16544859287275
 20
160.9650626468168
 30
0.0
 10
62.13602496021686
 20
161.4693881686684
 30
0.0
 10
62.13602496021686
 20
161.9437699431451
 30
0.0
  0
SPLINE
  5
BD
330
1F
100
AcDbEntity
  8
0
  6
Continuous
 62
     7
370
    15
100
AcDbSpline
210
0.0
220
0.0
230
1.0
 70
     8
 71
     3
 72
    38
 73
    34
 74
     0
 42
0.000000001
 43
0.00000001
 40
0.0
 40
0.0
 40
0.0
 40
0.0
 40
0.0624999999999999
 40
0.0624999999999999
 40
0.1249999999999999
 40
0.1249999999999999
 40
0.1874999999999999
 40
0.1874999999999999
 40
0.2499999999999999
 40
0.2499999999999999
 40
0.3124999999999999
 40
0.3124999999999999
 40
0.3749999999999999
 40
0.3749999999999999
 40
0.4374999999999999
 40
0.4374999999999999
 40
0.4999999999999999
 40
0.4999999999999999
 40
0.5624999999999999
 40
0.5624999999999999
 40
0.625
 40
0.625
 40
0.6875
 40
0.6875
 40
0.75
 40
0.75
 40
0.8125
 40
0.8125
 40
0.875
 40
0.875
 40
0.9375
 40
0.9375
 40
1.0
 40
1.0
 40
1.0
 40
1.0
 10
62.13602496021686
 20
161.9437699431451
 30
0.0
 10
62.13602496021686
 20
162.4181517176219
 30
0.0
 10
62.16544859287275
 20
162.9224772394734
 30
0.0
 10
62.3081086299922
 20
163.9876721833059
 30
0.0
 10
62.42141303574013
 20
164.5486951431519
 30
0.0
 10
62.76144989168275
 20
165.714535792106
 30
0.0
 10
62.98836701479421
 20
166.3195091137511
 30
0.0
 10
63.5863000581402
 20
167.5460384334436
 30
0.0
 10
63.95765097419518
 20
168.1676588242802
 30
0.0
 10
64.86846398118433
 20
169.3820761669407
 30
0.0
 10
65.4083601130873
 20
169.9746999799617
 30
0.0
 10
66.66174637403441
 20
171.0685643531593
 30
0.0
 10
67.37556345197976
 20
171.5692880245697
 30
0.0
 10
68.951364502134
 20
172.4097152513244
 30
0.0
 10
69.81326240670239
 20
172.7486709896415
 30
0.0
 10
71.62410956852699
 20
173.2085686815367
 30
0.0
 10
72.57242399863429
 20
173.3289325305873
 30
0.0
 10
74.46995109652836
 20
173.3289325305873
 30
0.0
 10
75.41826552663568
 20
173.2085686815367
 30
0.0
 10
77.22911268846028
 20
172.7486709896416
 30
0.0
 10
78.09101059302867
 20
172.4097152513244
 30
0.0
 10
79.66681164318292
 20
171.5692880245697
 30
0.0
 10
80.38062872112826
 20
171.0685643531593
 30
0.0
 10
81.63401498207536
 20
169.9746999799617
 30
0.0
 10
82.17391111397833
 20
169.3820761669407
 30
0.0
 10
83.08472412096748
 20
168.1676588242802
 30
0.0
 10
83.45607503702246
 20
167.5460384334436
 30
0.0
 10
84.05400808036846
 20
166.3195091137511
 30
0.0
 10
84.28092520347991
 20
165.714535792106
 30
0.0
 10
84.62096205942254
 20
164.5486951431519
 30
0.0
 10
84.73426646517046
 20
163.9876721833059
 30
0.0
 10
84.87692650228992
 20
162.9224772394734
 30
0.0
 10
84.90635013494581
 20
162.4181517176219
 30
0.0
 10
84.90635013494581
 20
161.9437699431451
 30
0.0
  0
SPLINE
  5
BE
330
1F
100
AcDbEntity
  8
0
  6
Continuous
 62
     7
370
    15
100
AcDbSpline
210
0.0
220
0.0
230
1.0
 70
    24
 71
     3
 72
    14
 73
    10
 74
     0
 42
0.000000001
 43
0.00000001
 40
0.0
 40
0.0
 40
0.0
 40
0.0
 40
0.25
 40
0.25
 40
0.5
 40
0.5
 40
0.75
 40
0.75
 40
1.0
 40
1.0
 40
1.0
 40
1.0
 10
84.90635013498489
 20
161.9437699431451
 30
0.0
 10
85.01536668401494
 20
161.9437699431451
 30
0.0
 10
85.13144467559918
 20
161.9437699431451
 30
0.0
 10
85.35727371489722
 20
161.9437699431451
 30
0.0
 10
85.46655207454768
 20
161.9437699431451
 30
0.0
 10
85.6543467854223
 20
161.9437699431451
 30
0.0
 10
85.73244138132769
 20
161.9437699431451
 30
0.0
 10
85.84528734111326
 20
161.9437699431451
 30
0.0
 10
85.88015093849329
 20
161.9437699431451
 30
0.0
 10
85.89588292345466
 20
161.9437699431451
 30
0.0
  0
ARC
  5
BF
330
1F
100
AcDbEntity
  8
0
  6
Continuous
 62
     7
370
    15
100
AcDbCircle
 10
73.5211875476
 20
161.9437699431
 30
0.0
 40
12.3746953759981
100
AcDbArc
 50
180.0
 51
359.9999999824
  0
SPLINE
  5
C0
330
1F
100
AcDbEntity
  8
0
  6
Continuous
 62
     7
370
    15
100
AcDbSpline
210
0.0
220
0.0
230
1.0
 70
    24
 71
     3
 72
    14
 73
    10
 74
     0
 42
0.000000001
 43
0.00000001
 40
0.0
 40
0.0
 40
0.0
 40
0.0
 40
0.25
 40
0.25
 40
0.5
 40
0.5
 40
0.75
 40
0.75
 40
1.0
 40
1.0
 40
1.0
 40
1.0
 10
62.13602496017778
 20
161.9437699431451
 30
0.0
 10
62.02700841114773
 20
161.9437699431451
 30
0.0
 10
61.91093041956348
 20
161.9437699431451
 30
0.0
 10
61.68510138026545
 20
161.9437699431451
 30
0.0
 10
61.57582302061498
 20
161.9437699431451
 30
0.0
 10
61.38802830974037
 20
161.9437699431451
 30
0.0
 10
61.30993371383498
 20
161.9437699431451
 30
0.0
 10
61.19708775404941
 20
161.9437699431451
 30
0.0
 10
61.16222415666938
 20
161.9437699431451
 30
0.0
 10
61.146492171708
 20
161.9437699431451
 30
0.0
  0
ARC
  5
C1
330
1F
100
AcDbEntity
  8
0
  6
Continuous
 62
     7
370
    15
100
AcDbCircle
 10
73.5211875476
 20
161.9437699431
 30
0.0
 40
12.37469537600001
100
AcDbArc
 50
359.9999999824
 51
180.0
  0
CIRCLE
  5
C2
330
1F
100
AcDbEntity
  8
0
  6
Continuous
 62
     7
370
    15
100
AcDbCircle
 10
73.5211875476
 20
161.9437699431
 30
0.0
 40
22.22499999999999
  0
SPLINE
  5
C3
330
1F
100
AcDbEntity
  8
0
  6
Continuous
 62
     7
370
    15
100
AcDbSpline
210
0.0
220
0.0
230
1.0
 70
     8
 71
     3
 72
    47
 73
    43
 74
     0
 42
0.000000001
 43
0.00000001
 40
0.0
 40
0.0
 40
0.0
 40
0.0
 40
0.0064865025304972
 40
0.012963809852073
 40
0.0194345943986053
 40
0.0259015366904969
 40
0.0323673220268025
 40
0.0388346371477183
 40
0.0453061668881103
 40
0.0517845908428884
 40
0.0582725800648599
 40
0.0891441960336896
 40
0.1200232680065205
 40
0.1521817332807755
 40
0.1843476847365887
 40
0.2171904233651775
 40
0.2500408074748665
 40
0.282883546321449
 40
0.3157339306503827
 40
0.3478923965272001
 40
0.3800583485857348
 40
0.410929964066402
 40
0.4418090356813762
 40
0.5000011037081269
 40
0.5581931717348777
 40
0.5890647877051908
 40
0.6199438596765361
 40
0.6521023249515937
 40
0.6842682764065996
 40
0.7171110150353992
 40
0.7499613991448758
 40
0.7828041379923278
 40
0.8156545223204007
 40
0.8478129881975721
 40
0.8799789402557395
 40
0.9108505557359757
 40
0.9417296273513857
 40
0.9533981518071717
 40
0.965043798634132
 40
0.9766822122394823
 40
0.9883290661781213
 40
1.0
 40
1.0
 40
1.0
 40
1.0
 10
51.12118754756927
 20
161.9437699431451
 30
0.0
 10
51.1220745705422
 20
162.0958542704722
 30
0.0
 10
51.1238473590521
 20
162.399807331722
 30
0.0
 10
51.13821600011956
 20
162.8552892616686
 30
0.0
 10
51.16116161256858
 20
163.3099373972194
 30
0.0
 10
51.19352137335522
 20
163.7637515793935
 30
0.0
 10
51.23507117470067
 20
164.2167313897471
 30
0.0
 10
51.28587130429029
 20
164.6688772508599
 30
0.0
 10
51.34590443037317
 20
165.1201864839663
 30
0.0
 10
51.41517935605957
 20
165.5706680057175
 30
0.0
 10
51.5919546026457
 20
166.5831920720153
 30
0.0
 10
51.95910719439134
 20
168.1433839618159
 30
0.0
 10
52.67116750919816
 20
170.2303201970378
 30
0.0
 10
53.59736279116635
 20
172.2654772686117
 30
0.0
 10
54.74881461902309
 20
174.2356922236127
 30
0.0
 10
56.10333836633924
 20
176.0926543729385
 30
0.0
 10
57.65395953956477
 20
177.8107443408129
 30
0.0
 10
59.37216334181237
 20
179.3615052815194
 30
0.0
 10
61.22896419216597
 20
180.7159488686431
 30
0.0
 10
63.19933898860449
 20
181.8675128451025
 30
0.0
 10
65.23424978185899
 20
182.793666254495
 30
0.0
 10
67.32162595559141
 20
183.5057810283509
 30
0.0
 10
70.06260120674115
 20
184.1512775226994
 30
0.0
 10
73.52118742958602
 20
184.469529540467
 30
0.0
 10
76.97959914823477
 20
184.1512929934087
 30
0.0
 10
79.72057977521217
 20
183.5058307058127
 30
0.0
 10
81.80779998013739
 20
182.7937954720635
 30
0.0
 10
83.84287793562454
 20
181.867593208935
 30
0.0
 10
85.8131144705683
 20
180.7161432604231
 30
0.0
 10
87.67007073289248
 20
179.3616190952754
 30
0.0
 10
89.38816223910436
 20
177.8109976750916
 30
0.0
 10
90.93892295540516
 20
176.0927952814399
 30
0.0
 10
92.29336590651505
 20
174.2359890806661
 30
0.0
 10
93.44493259520401
 20
172.2656338829987
 30
0.0
 10
94.37107595907072
 20
170.2306512260184
 30
0.0
 10
95.08322680821684
 20
168.1435329410705
 30
0.0
 10
95.4782415134962
 20
166.4649741603034
 30
0.0
 10
95.6866983321058
 20
165.2113964313161
 30
0.0
 10
95.79162070659386
 20
164.3984305001471
 30
0.0
 10
95.86601046512672
 20
163.5826908439003
 30
0.0
 10
95.91258030785231
 20
162.7641569552604
 30
0.0
 10
95.91831649312601
 20
162.217420482339
 30
0.0
 10
95.92118754759339
 20
161.9437699431451
 30
0.0
  0
SPLINE
  5
C4
330
1F
100
AcDbEntity
  8
0
  6
Continuous
 62
     7
370
    15
100
AcDbSpline
210
0.0
220
0.0
230
1.0
 70
     8
 71
     3
 72
    47
 73
    43
 74
     0
 42
0.000000001
 43
0.00000001
 40
0.0
 40
0.0
 40
0.0
 40
0.0
 40
0.0064865025307663
 40
0.0129638098525436
 40
0.0194345943992101
 40
0.0259015366911689
 40
0.0323673220274745
 40
0.0388346371483234
 40
0.045306166888582
 40
0.0517845908431606
 40
0.0582725800648672
 40
0.0891441960344757
 40
0.1200232680065222
 40
0.1521817332802239
 40
0.1843476847365824
 40
0.2171904233643379
 40
0.250040807474865
 40
0.2828835463211989
 40
0.3157339306503821
 40
0.3478923965259775
 40
0.3800583485857232
 40
0.4109299640649397
 40
0.4418090356813723
 40
0.5000011037081227
 40
0.558193171734873
 40
0.5890647877039732
 40
0.6199438596765295
 40
0.6521023249504556
 40
0.6842682764065957
 40
0.7171110150351447
 40
0.7499613991448784
 40
0.782804137992006
 40
0.8156545223203957
 40
0.8478129881970667
 40
0.8799789402557394
 40
0.9108505557356688
 40
0.9417296273513824
 40
0.9533981518069745
 40
0.9650437986338376
 40
0.9766822122391875
 40
0.9883290661779248
 40
1.0
 40
1.0
 40
1.0
 40
1.0
 10
95.92118754759339
 20
161.9437699431451
 30
0.0
 10
95.92030052462047
 20
161.7916856158117
 30
0.0
 10
95.91852773611059
 20
161.4877325545509
 30
0.0
 10
95.90415909504321
 20
161.0322506245901
 30
0.0
 10
95.88121348259423
 20
160.5776024890299
 30
0.0
 10
95.84885372180764
 20
160.123788306851
 30
0.0
 10
95.80730392046222
 20
159.6708084964974
 30
0.0
 10
95.75650379087267
 20
159.2186626353894
 30
0.0
 10
95.69647066478976
 20
158.7673534022923
 30
0.0
 10
95.62719573910361
 20
158.3168718805553
 30
0.0
 10
95.4504204925077
 20
157.3043478142517
 30
0.0
 10
95.08326790076086
 20
155.7441559244584
 30
0.0
 10
94.37120758596446
 20
153.6572196892466
 30
0.0
 10
93.44501230399396
 20
151.6220626176943
 30
0.0
 10
92.29356047615806
 20
149.6518476627045
 30
0.0
 10
90.93903672883994
 20
147.7948855133637
 30
0.0
 10
89.38841555561523
 20
146.0767955454959
 30
0.0
 10
87.67021175335562
 20
144.526034604774
 30
0.0
 10
85.81341090302632
 20
143.1715910176644
 30
0.0
 10
83.84303610657793
 20
142.020027041212
 30
0.0
 10
81.80812531336214
 20
141.0938736318181
 30
0.0
 10
79.72074913960665
 20
140.3817588579403
 30
0.0
 10
76.97977388845456
 20
139.7362623635987
 30
0.0
 10
73.52118766557716
 20
139.418010345822
 30
0.0
 10
70.06277594695604
 20
139.7362468928782
 30
0.0
 10
67.32179531997853
 20
140.3817091804714
 30
0.0
 10
65.23457511507651
 20
141.0937444142067
 30
0.0
 10
63.19949715956022
 20
142.0199466773398
 30
0.0
 10
61.22926062462247
 20
143.1713966258507
 30
0.0
 10
59.37230436227027
 20
144.5259207910052
 30
0.0
 10
57.65421285606772
 20
146.0765422111893
 30
0.0
 10
56.10345213976824
 20
147.7947446048493
 30
0.0
 10
54.74900918865801
 20
149.6515508056079
 30
0.0
 10
53.59744249995929
 20
151.6219060032785
 30
0.0
 10
52.67129913609927
 20
153.6568886602544
 30
0.0
 10
51.95914828695035
 20
155.7440069452136
 30
0.0
 10
51.56413358167033
 20
157.4225657259756
 30
0.0
 10
51.35567676305621
 20
158.6761434549625
 30
0.0
 10
51.25075438856847
 20
159.4891093861247
 30
0.0
 10
51.17636463003567
 20
160.3048490423715
 30
0.0
 10
51.12979478731025
 20
161.1233829310184
 30
0.0
 10
51.12405860203663
 20
161.6701194039467
 30
0.0
 10
51.12118754756927
 20
161.9437699431451
 30
0.0
  0
SPLINE
  5
C5
330
1F
100
AcDbEntity
  8
0
  6
Continuous
 62
     7
370
    15
100
AcDbSpline
210
0.0
220
0.0
230
1.0
 70
    24
 71
     3
 72
     8
 73
     4
 74
     0
 42
0.000000001
 43
0.00000001
 40
0.0
 40
0.0
 40
0.0
 40
0.0
 40
1.0
 40
1.0
 40
1.0
 40
1.0
 10
48.81225395793732
 20
143.4437699431451
 30
0.0
 10
48.91242289874074
 20
143.4437699431451
 30
0.0
 10
49.03866083652021
 20
143.4437699431451
 30
0.0
 10
49.16651042139947
 20
143.4437699431451
 30
0.0
  0
ARC
  5
C6
330
1F
100
AcDbEntity
  8
0
  6
Continuous
 62
     7
370
    15
100
AcDbCircle
 10
73.5211875476
 20
161.9437699431
 30
0.0
 40
30.58431456937747
100
AcDbArc
 50
217.2205832061
 51
232.7794167939
  0
SPLINE
  5
C7
330
1F
100
AcDbEntity
  8
0
  6
Continuous
 62
     7
370
    15
100
AcDbSpline
210
0.0
220
0.0
230
1.0
 70
    24
 71
     3
 72
     8
 73
     4
 74
     0
 42
0.000000001
 43
0.00000001
 40
0.0
 40
0.0
 40
0.0
 40
0.0
 40
1.0
 40
1.0
 40
1.0
 40
1.0
 10
55.02118754758131
 20
137.5890928157606
 30
0.0
 10
55.02118754758131
 20
137.4613021558195
 30
0.0
 10
55.02118754758133
 20
137.3349020284617
 30
0.0
 10
55.02118754758133
 20
137.2348363561716
 30
0.0
  0
ARC
  5
C8
330
1F
100
AcDbEntity
  8
0
  6
Continuous
 62
     7
370
    15
100
AcDbCircle
 10
73.5211875476
 20
161.9437699431
 30
0.0
 40
30.86715728677042
100
AcDbArc
 50
216.8228239937
 51
233.1771760063
  0
SPLINE
  5
C9
330
1F
100
AcDbEntity
  8
0
  6
Continuous
 62
     7
370
    15
100
AcDbSpline
210
0.0
220
0.0
230
1.0
 70
     8
 71
     3
 72
    10
 73
     6
 74
     0
 42
0.000000001
 43
0.00000001
 40
0.0
 40
0.0
 40
0.0
 40
0.0
 40
0.5
 40
0.5
 40
1.0
 40
1.0
 40
1.0
 40
1.0
 10
82.15403026063564
 20
191.5791445091156
 30
0.0
 10
82.18668488603454
 20
191.5356202504042
 30
0.0
 10
82.21466600094037
 20
191.4870581468816
 30
0.0
 10
82.25731220697904
 20
191.3755798366256
 30
0.0
 10
82.27118754886672
 20
191.3136085462914
 30
0.0
 10
82.27118754760431
 20
191.2497044540611
 30
0.0
  0
ARC
  5
CA
330
1F
100
AcDbEntity
  8
0
  6
Continuous
 62
     7
370
    15
100
AcDbCircle
 10
73.5211875476
 20
161.9437699431
 30
0.0
 40
30.58431456937746
100
AcDbArc
 50
73.3757249533
 51
106.6242750347
  0
SPLINE
  5
CB
330
1F
100
AcDbEntity
  8
0
  6
Continuous
 62
     7
370
    15
100
AcDbSpline
210
0.0
220
0.0
230
1.0
 70
     8
 71
     3
 72
    10
 73
     6
 74
     0
 42
0.000000001
 43
0.00000001
 40
0.0
 40
0.0
 40
0.0
 40
0.0
 40
0.5
 40
0.5
 40
1.0
 40
1.0
 40
1.0
 40
1.0
 10
64.88834483666824
 20
191.5791445123851
 30
0.0
 10
64.85569021067123
 20
191.5356202534269
 30
0.0
 10
64.82770909528521
 20
191.4870581495209
 30
0.0
 10
64.78506288840829
 20
191.375579837955
 30
0.0
 10
64.77118754625033
 20
191.313608546951
 30
0.0
 10
64.77118754755834
 20
191.2497044539489
 30
0.0
  0
ARC
  5
CC
330
1F
100
AcDbEntity
  8
0
  6
Continuous
 62
     7
370
    15
100
AcDbCircle
 10
73.5211875476
 20
161.9437699431
 30
0.0
 40
30.86715728677044
100
AcDbArc
 50
73.7590550436
 51
106.2409449564
  0
ARC
  5
CD
330
1F
100
AcDbEntity
  8
0
  6
Continuous
 62
     7
370
    15
100
AcDbCircle
 10
73.5211875476
 20
161.9437699431
 30
0.0
 40
30.58431456937747
100
AcDbArc
 50
253.3757249612
 51
286.6242750319
  0
SPLINE
  5
CE
330
1F
100
AcDbEntity
  8
0
  6
Continuous
 62
     7
370
    15
100
AcDbSpline
210
0.0
220
0.0
230
1.0
 70
     8
 71
     3
 72
    10
 73
     6
 74
     0
 42
0.000000001
 43
0.00000001
 40
0.0
 40
0.0
 40
0.0
 40
0.0
 40
0.5
 40
0.5
 40
1.0
 40
1.0
 40
1.0
 40
1.0
 10
82.15403026161385
 20
132.3083953784785
 30
0.0
 10
82.18668488679494
 20
132.3519196371368
 30
0.0
 10
82.21466600147029
 20
132.4004817405079
 30
0.0
 10
82.25731220715726
 20
132.5119600504164
 30
0.0
 10
82.27118754890643
 20
132.5739313405309
 30
0.0
 10
82.27118754760431
 20
132.6378354324998
 30
0.0
  0
ARC
  5
CF
330
1F
100
AcDbEntity
  8
0
  6
Continuous
 62
     7
370
    15
100
AcDbCircle
 10
73.5211875476
 20
161.9437699431
 30
0.0
 40
30.86715728677042
100
AcDbArc
 50
253.7590550436
 51
286.2409449564
  0
SPLINE
  5
D0
330
1F
100
AcDbEntity
  8
0
  6
Continuous
 62
     7
370
    15
100
AcDbSpline
210
0.0
220
0.0
230
1.0
 70
     8
 71
     3
 72
    10
 73
     6
 74
     0
 42
0.000000001
 43
0.00000001
 40
0.0
 40
0.0
 40
0.0
 40
0.0
 40
0.5
 40
0.5
 40
1.0
 40
1.0
 40
1.0
 40
1.0
 10
64.8883448386095
 20
132.3083953713784
 30
0.0
 10
64.85569021282721
 20
132.3519196295941
 30
0.0
 10
64.82770909606516
 20
132.4004817353192
 30
0.0
 10
64.7850628892028
 20
132.5119600452803
 30
0.0
 10
64.7711875468747
 20
132.5739313353364
 30
0.0
 10
64.77118754755838
 20
132.6378354276096
 30
0.0
  0
SPLINE
  5
D1
330
1F
100
AcDbEntity
  8
0
  6
Continuous
 62
     7
370
    15
100
AcDbSpline
210
0.0
220
0.0
230
1.0
 70
     8
 71
     3
 72
    31
 73
    27
 74
     0
 42
0.000000001
 43
0.00000001
 40
0.0
 40
0.0
 40
0.0
 40
0.0
 40
0.0132547819330006
 40
0.0264968711361932
 40
0.0397300665204496
 40
0.0529581746591516
 40
0.0661850065178842
 40
0.0794143741652008
 40
0.0926500874786285
 40
0.1058959508601271
 40
0.1191557599751217
 40
0.1810884463277486
 40
0.243047162376073
 40
0.3066892811316299
 40
0.3703583835057533
 40
0.4993829934529773
 40
0.628492604224161
 40
0.6922587070831899
 40
0.7560526560711289
 40
0.8181812940694496
 40
0.8803373239639678
 40
0.9042880499961603
 40
0.9282071643754681
 40
0.952117176855972
 40
0.9760406228839057
 40
1.0
 40
1.0
 40
1.0
 40
1.0
 10
104.1055021165321
 20
161.9437699431451
 30
0.0
 10
104.1046593824684
 20
162.1167501067785
 30
0.0
 10
104.10297472134
 20
162.462544788885
 30
0.0
 10
104.0893293479612
 20
162.9808897483207
 30
0.0
 10
104.0675415082437
 20
163.4985895470115
 30
0.0
 10
104.0368152001434
 20
164.0156441074874
 30
0.0
 10
103.9973635986509
 20
164.5320531628202
 30
0.0
 10
103.9491293538271
 20
165.047817085204
 30
0.0
 10
103.8921288492312
 20
165.5629338810095
 30
0.0
 10
103.8263540121824
 20
166.0774103953779
 30
0.0
 10
103.660666451938
 20
167.2196137786745
 30
0.0
 10
103.3187016816088
 20
168.9787040767316
 30
0.0
 10
102.661304565879
 20
171.3386318237688
 30
0.0
 10
101.8093122945756
 20
173.6601412292831
 30
0.0
 10
100.4027729668068
 20
176.6987071646985
 30
0.0
 10
98.17307163162214
 20
180.2816198915802
 30
0.0
 10
95.38180349347068
 20
183.4484230157954
 30
0.0
 10
92.8725156290552
 20
185.6719358592851
 30
0.0
 10
90.8892612881408
 20
187.1582486843814
 30
0.0
 10
88.8113792229773
 20
188.4693360837582
 30
0.0
 10
87.09607075476876
 20
189.3687316648395
 30
0.0
 10
85.78963896789315
 20
189.9648600755032
 30
0.0
 10
84.92579923800764
 20
190.3276167032256
 30
0.0
 10
84.05142119708422
 20
190.6630179659049
 30
0.0
 10
83.16723165306783
 20
190.9735579796621
 30
0.0
 10
82.57001830342061
 20
191.1576095920495
 30
0.0
 10
82.27118755528522
 20
191.2497044540578
 30
0.0
  0
SPLINE
  5
D2
330
1F
100
AcDbEntity
  8
0
  6
Continuous
 62
     7
370
    15
100
AcDbSpline
210
0.0
220
0.0
230
1.0
 70
     8
 71
     3
 72
    31
 73
    27
 74
     0
 42
0.000000001
 43
0.00000001
 40
0.0
 40
0.0
 40
0.0
 40
0.0
 40
0.0133116725625788
 40
0.0266104831151372
 40
0.0399002795277768
 40
0.0531849175033871
 40
0.0664682572368162
 40
0.079754160054518
 40
0.0930464850492733
 40
0.1063490857246304
 40
0.1196658066636192
 40
0.1817950737360664
 40
0.2439504668761813
 40
0.3077169629634829
 40
0.3715105118386547
 40
0.5006201174259409
 40
0.6296447221926801
 40
0.6932864260642574
 40
0.7569559400770535
 40
0.8188879793688763
 40
0.8808473402653628
 40
0.9046957898290695
 40
0.9285130513473471
 40
0.9523213477371509
 40
0.9761429270058902
 40
1.0
 40
1.0
 40
1.0
 40
1.0
 10
82.27118755528312
 20
132.6378354324187
 30
0.0
 10
82.43740567094926
 20
132.6883509141747
 30
0.0
 10
82.76968129894195
 20
132.7893330685962
 30
0.0
 10
83.26454964955926
 20
132.9514505803606
 30
0.0
 10
83.75644215855009
 20
133.1212500396593
 30
0.0
 10
84.24512907366667
 20
133.299500666157
 30
0.0
 10
84.73067164348673
 20
133.485996374914
 30
0.0
 10
85.21305367938152
 20
133.6807926959957
 30
0.0
 10
85.69227797818334
 20
133.8838732131157
 30
0.0
 10
86.16834883275976
 20
134.0952477303852
 30
0.0
 10
87.21877987697572
 20
134.5831391386129
 30
0.0
 10
88.81108382625594
 20
135.4180472680511
 30
0.0
 10
90.88867641465431
 20
136.7288850029351
 30
0.0
 10
92.87223592045922
 20
138.215378592078
 30
0.0
 10
95.38156622293188
 20
140.4388458780212
 30
0.0
 10
98.17307177923735
 20
143.6059201605427
 30
0.0
 10
100.402581965089
 20
147.1885281602476
 30
0.0
 10
101.8091770911213
 20
150.2270665672734
 30
0.0
 10
102.6610839833646
 20
152.5482329077742
 30
0.0
 10
103.3186367176437
 20
154.9085088151678
 30
0.0
 10
103.6869834605852
 20
156.8033501390133
 30
0.0
 10
103.8828784682241
 20
158.2206567733226
 30
0.0
 10
103.9824792998017
 20
159.1482471762644
 30
0.0
 10
104.0531016298563
 20
160.0780810109355
 30
0.0
 10
104.0973212210058
 20
161.0101752458016
 30
0.0
 10
104.1027737983243
 20
161.6324173041465
 30
0.0
 10
104.1055021165321
 20
161.9437699431451
 30
0.0
  0
SPLINE
  5
D3
330
1F
100
AcDbEntity
  8
0
  6
Continuous
 62
     7
370
    15
100
AcDbSpline
210
0.0
220
0.0
230
1.0
 70
     8
 71
     3
 72
    22
 73
    18
 74
     0
 42
0.000000001
 43
0.00000001
 40
0.0
 40
0.0
 40
0.0
 40
0.0
 40
0.0500818594021375
 40
0.1001009735654184
 40
0.1500734565517078
 40
0.2000154675603021
 40
0.2499431953774372
 40
0.2998728426825523
 40
0.3498206102870833
 40
0.399802681382339
 40
0.4498352058728934
 40
0.4999342848709805
 40
0.6000617850922388
 40
0.7000024527622186
 40
0.7998858810011455
 40
0.899841885562535
 40
1.0
 40
1.0
 40
1.0
 40
1.0
 10
55.02118755191385
 20
137.5890928158344
 30
0.0
 10
55.16791096004871
 20
137.4788292064636
 30
0.0
 10
55.46117395336541
 20
137.258440131884
 30
0.0
 10
55.90825637246527
 20
136.9380832252515
 30
0.0
 10
56.36018323420583
 20
136.6255357917112
 30
0.0
 10
56.81749489243086
 20
136.3215094405282
 30
0.0
 10
57.28004658313581
 20
136.0258138776305
 30
0.0
 10
57.74787683016347
 20
135.738500151585
 30
0.0
 10
58.22097533160838
 20
135.4595547997674
 30
0.0
 10
58.69934387832193
 20
135.1889811523455
 30
0.0
 10
59.18298467798037
 20
134.9267798025476
 30
0.0
 10
59.8343374337018
 20
134.5886017692859
 30
0.0
 10
60.65921585657265
 20
134.1880638793299
 30
0.0
 10
61.66480641214874
 20
133.7435228593006
 30
0.0
 10
62.68540577189334
 20
133.3364855771376
 30
0.0
 10
63.71998038010327
 20
132.9635381362832
 30
0.0
 10
64.42054930463071
 20
132.7464760727359
 30
0.0
 10
64.77118754477685
 20
132.6378354275402
 30
0.0
  0
SPLINE
  5
D4
330
1F
100
AcDbEntity
  8
0
  6
Continuous
 62
     7
370
    15
100
AcDbSpline
210
0.0
220
0.0
230
1.0
 70
     8
 71
     3
 72
    39
 73
    35
 74
     0
 42
0.000000001
 43
0.00000001
 40
0.0
 40
0.0
 40
0.0
 40
0.0
 40
0.0093873624730784
 40
0.0187596707936824
 40
0.0281199657427761
 40
0.0374712998205243
 40
0.046816734307767
 40
0.0561593362846839
 40
0.0655021756210368
 40
0.0748483219526953
 40
0.0842008416593147
 40
0.0935627948580173
 40
0.1029372324277466
 40
0.1123271930786155
 40
0.173620040787089
 40
0.2349299481775093
 40
0.2671836517164293
 40
0.2994546244324501
 40
0.3655428526242332
 40
0.4327326145939586
 40
0.5004775806171914
 40
0.5682037170080704
 40
0.6353379406829986
 40
0.7013366563009739
 40
0.7335302738127061
 40
0.7657418649604153
 40
0.8268808733258043
 40
0.8880378861963684
 40
0.9067361961672026
 40
0.9253869597000397
 40
0.9440144095616172
 40
0.9626428695014168
 40
0.9812966593176231
 40
1.0
 40
1.0
 40
1.0
 40
1.0
 10
64.77118753745168
 20
191.2497044536162
 30
0.0
 10
64.59452789655418
 20
191.1959623451569
 30
0.0
 10
64.24149191703687
 20
191.0885643123925
 30
0.0
 10
63.71608195842318
 20
190.9155546096871
 30
0.0
 10
63.19433468233135
 20
190.7340059287607
 30
0.0
 10
62.67650782887807
 20
190.5430555515397
 30
0.0
 10
62.16253267577895
 20
190.3429342778066
 30
0.0
 10
61.65242784292554
 20
190.1335804185223
 30
0.0
 10
61.14618851219399
 20
189.9150105212754
 30
0.0
 10
60.64381634961281
 20
189.6872204211312
 30
0.0
 10
60.14531047586609
 20
189.4502106895841
 30
0.0
 10
59.65067367724913
 20
189.2039837326769
 30
0.0
 10
59.15989656084717
 20
188.9485299243912
 30
0.0
 10
57.77635412793642
 20
188.1965075120509
 30
0.0
 10
55.57831588505174
 20
186.8018244020263
 30
0.0
 10
53.21361584216113
 20
184.8700599033452
 30
0.0
 10
51.44352173999062
 20
183.1379480703064
 30
0.0
 10
49.72201957778301
 20
181.2289698944086
 30
0.0
 10
47.7742778686655
 20
178.6074104069633
 30
0.0
 10
45.83784592665109
 20
175.1474518429764
 30
0.0
 10
44.35496983523183
 20
171.4348920103018
 30
0.0
 10
43.36927843082685
 20
167.5616991442394
 30
0.0
 10
42.89877219437778
 20
163.6280056096465
 30
0.0
 10
42.92997424170778
 20
160.3666435759787
 30
0.0
 10
43.1969699173818
 20
157.8141300611075
 30
0.0
 10
43.60658441900517
 20
155.3774663508533
 30
0.0
 10
44.37777494753502
 20
152.4301032384824
 30
0.0
 10
45.39676549658102
 20
149.8430706085176
 30
0.0
 10
46.24211163076476
 20
148.0993266548409
 30
0.0
 10
46.75791563004319
 20
147.1262745545218
 30
0.0
 10
47.30767167133419
 20
146.1735860793746
 30
0.0
 10
47.89215143952858
 20
145.2418030068009
 30
0.0
 10
48.50850635441029
 20
144.3287817814144
 30
0.0
 10
48.94698186618633
 20
143.7390346387081
 30
0.0
 10
49.16651042119508
 20
143.443769944143
 30
0.0
  0
ARC
  5
D5
330
1F
100
AcDbEntity
  8
0
  6
Continuous
 62
     7
370
    15
100
AcDbCircle
 10
73.5211875483
 20
161.9437699428
 30
0.0
 40
30.86715728967724
100
AcDbArc
 50
106.2409449518
 51
216.8228239879
  0
ARC
  5
D6
330
1F
100
AcDbEntity
  8
0
  6
Continuous
 62
     7
370
    15
100
AcDbCircle
 10
73.5211875466
 20
161.9437699436
 30
0.0
 40
30.8671572875942
100
AcDbArc
 50
233.1771760093
 51
253.759055052
  0
SPLINE
  5
D7
330
1F
100
AcDbEntity
  8
0
  6
Continuous
 62
     7
370
    15
100
AcDbSpline
210
0.0
220
0.0
230
1.0
 70
    24
 71
     3
 72
    10
 73
     6
 74
     0
 42
0.000000001
 43
0.00000001
 40
0.0
 40
0.0
 40
0.0
 40
0.0
 40
0.5
 40
0.5
 40
1.0
 40
1.0
 40
1.0
 40
1.0
 10
104.1055021175794
 20
161.9437699431451
 30
0.0
 10
104.1565265761234
 20
161.9437699431451
 30
0.0
 10
104.2095698750756
 20
161.9437699431451
 30
0.0
 10
104.3075811114312
 20
161.9437699431451
 30
0.0
 10
104.3522650943132
 20
161.9437699431451
 30
0.0
 10
104.3883448347209
 20
161.9437699431451
 30
0.0
  0
ARC
  5
D8
330
1F
100
AcDbEntity
  8
0
  6
Continuous
 62
     7
370
    15
100
AcDbCircle
 10
73.5211875473
 20
161.9437699431
 30
0.0
 40
30.86715728628027
100
AcDbArc
 50
286.2409449591
 51
0.0
  0
ARC
  5
D9
330
1F
100
AcDbEntity
  8
0
  6
Continuous
 62
     7
370
    15
100
AcDbCircle
 10
73.5211875473
 20
161.9437699431
 30
0.0
 40
30.86715728740135
100
AcDbArc
 50
0.0
 51
73.7590550436
  0
SPLINE
  5
DA
330
1F
100
AcDbEntity
  8
0
  6
Continuous
 62
     7
370
    15
100
AcDbSpline
210
0.0
220
0.0
230
1.0
 70
     8
 71
     3
 72
     9
 73
     5
 74
     0
 42
0.000000001
 43
0.00000001
 40
0.0
 40
0.0
 40
0.0
 40
0.0
 40
0.5013664821396464
 40
1.0
 40
1.0
 40
1.0
 40
1.0
 10
81.74035799973673
 20
192.1254785480115
 30
0.0
 10
81.80971222068486
 20
192.0345078039517
 30
0.0
 10
81.94804261056683
 20
191.853062200186
 30
0.0
 10
82.08549292633315
 20
191.6702838973347
 30
0.0
 10
82.15403026081474
 20
191.5791445091955
 30
0.0
  0
SPLINE
  5
DB
330
1F
100
AcDbEntity
  8
0
  6
Continuous
 62
     7
370
    15
100
AcDbSpline
210
0.0
220
0.0
230
1.0
 70
    24
 71
     3
 72
     8
 73
     4
 74
     0
 42
0.000000001
 43
0.00000001
 40
0.0
 40
0.0
 40
0.0
 40
0.0
 40
0.000536435201519
 40
0.000536435201519
 40
0.000536435201519
 40
0.000536435201519
 10
82.02658310122858
 20
192.4117036527924
 30
0.0
 10
81.9312484142235
 20
192.3163689657873
 30
0.0
 10
81.83584094122989
 20
192.2209614927937
 30
0.0
 10
81.74035807807061
 20
192.1254786296344
 30
0.0
  0
ARC
  5
DC
330
1F
100
AcDbEntity
  8
0
  6
Continuous
 62
     7
370
    15
100
AcDbCircle
 10
73.5211875476
 20
161.9437699431
 30
0.0
 40
31.63284271226524
100
AcDbArc
 50
359.9999999882
 51
74.4024500297
  0
ARC
  5
DD
330
1F
100
AcDbEntity
  8
0
  6
Continuous
 62
     7
370
    15
100
AcDbCircle
 10
73.5211875476
 20
161.9437699431
 30
0.0
 40
31.63284271276865
100
AcDbArc
 50
285.7334817376
 51
359.9999999941
  0
SPLINE
  5
DE
330
1F
100
AcDbEntity
  8
0
  6
Continuous
 62
     7
370
    15
100
AcDbSpline
210
0.0
220
0.0
230
1.0
 70
     8
 71
     3
 72
     8
 73
     4
 74
     0
 42
0.000000001
 43
0.00000001
 40
0.0
 40
0.0
 40
0.0
 40
0.0
 40
0.0005532767480406
 40
0.0005532767480406
 40
0.0005532767480406
 40
0.0005532767480406
 10
81.71057152288967
 20
131.7231037677298
 30
0.0
 10
81.84020953787775
 20
131.647310834757
 30
0.0
 10
81.96963114561301
 20
131.5716443960632
 30
0.0
 10
82.09884295646866
 20
131.4961006435584
 30
0.0
  0
SPLINE
  5
DF
330
1F
100
AcDbEntity
  8
0
  6
Continuous
 62
     7
370
    15
100
AcDbSpline
210
0.0
220
0.0
230
1.0
 70
     8
 71
     3
 72
     9
 73
     5
 74
     0
 42
0.000000001
 43
0.00000001
 40
0.0
 40
0.0
 40
0.0
 40
0.0
 40
0.4985358156079709
 40
1.0
 40
1.0
 40
1.0
 40
1.0
 10
82.15403026201125
 20
132.3083953783301
 30
0.0
 10
82.08058878006851
 20
132.2107508432623
 30
0.0
 10
81.9332744254255
 20
132.0148882151205
 30
0.0
 10
81.78495071076908
 20
131.8205550559861
 30
0.0
 10
81.71057168017289
 20
131.7231039368405
 30
0.0
  0
SPLINE
  5
E0
330
1F
100
AcDbEntity
  8
0
  6
Continuous
 62
     7
370
    15
100
AcDbSpline
210
0.0
220
0.0
230
1.0
 70
    24
 71
     3
 72
     8
 73
     4
 74
     0
 42
0.000000001
 43
0.00000001
 40
0.0
 40
0.0
 40
0.0
 40
0.0
 40
0.0005364352003056
 40
0.0005364352003056
 40
0.0005364352003056
 40
0.0005364352003056
 10
65.01579199360312
 20
131.4758362331669
 30
0.0
 10
65.11112668039237
 20
131.5711709199562
 30
0.0
 10
65.20653415316986
 20
131.6665783927336
 30
0.0
 10
65.30201701611261
 20
131.7620612556764
 30
0.0
  0
ARC
  5
E1
330
1F
100
AcDbEntity
  8
0
  6
Continuous
 62
     7
370
    15
100
AcDbCircle
 10
73.5211875507
 20
161.94376995
 30
0.0
 40
31.63284271995778
100
AcDbArc
 50
234.2086512617
 51
254.4024500274
  0
SPLINE
  5
E2
330
1F
100
AcDbEntity
  8
0
  6
Continuous
 62
     7
370
    15
100
AcDbSpline
210
0.0
220
0.0
230
1.0
 70
     8
 71
     3
 72
     9
 73
     5
 74
     0
 42
0.000000001
 43
0.00000001
 40
0.0
 40
0.0
 40
0.0
 40
0.0
 40
0.4967202157236505
 40
0.9999999999999999
 40
0.9999999999999999
 40
0.9999999999999999
 40
0.9999999999999999
 10
55.02118754747154
 20
137.2348363562033
 30
0.0
 10
55.02118746922769
 20
137.0772148361782
 30
0.0
 10
55.02118731170671
 20
136.7598902839743
 30
0.0
 10
55.0211874679815
 20
136.4438026056165
 30
0.0
 10
55.02118754663143
 20
136.2847220670402
 30
0.0
  0
SPLINE
  5
E3
330
1F
100
AcDbEntity
  8
0
  6
Continuous
 62
     7
370
    15
100
AcDbSpline
210
0.0
220
0.0
230
1.0
 70
     8
 71
     3
 72
     9
 73
     5
 74
     0
 42
0.000000001
 43
0.00000001
 40
0.0
 40
0.0
 40
0.0
 40
0.0
 40
0.5013664810506587
 40
1.0
 40
1.0
 40
1.0
 40
1.0
 10
65.30201709944515
 20
131.7620613342722
 30
0.0
 10
65.23266287907896
 20
131.8530320779947
 30
0.0
 10
65.09433249005724
 20
132.0344776814819
 30
0.0
 10
64.95688217401191
 20
132.2172559836862
 30
0.0
 10
64.88834483924153
 20
132.3083953717019
 30
0.0
  0
ARC
  5
E4
330
1F
100
AcDbEntity
  8
0
  6
Continuous
 62
     7
370
    15
100
AcDbCircle
 10
73.5211875476
 20
161.9437699431
 30
0.0
 40
31.63284271236436
100
AcDbArc
 50
254.4024500295
 51
285.7334817369
  0
ARC
  5
E5
330
1F
100
AcDbEntity
  8
0
  6
Continuous
 62
     7
370
    15
100
AcDbCircle
 10
73.5211875476
 20
161.9437699431
 30
0.0
 40
31.63284271236437
100
AcDbArc
 50
74.4024500295
 51
105.7334817369
  0
SPLINE
  5
E6
330
1F
100
AcDbEntity
  8
0
  6
Continuous
 62
     7
370
    15
100
AcDbSpline
210
0.0
220
0.0
230
1.0
 70
     8
 71
     3
 72
     9
 73
     5
 74
     0
 42
0.000000001
 43
0.00000001
 40
0.0
 40
0.0
 40
0.0
 40
0.0
 40
0.4985357287287135
 40
1.0
 40
1.0
 40
1.0
 40
1.0
 10
64.88834483710131
 20
191.5791445120987
 30
0.0
 10
64.96178630531989
 20
191.6767890296277
 30
0.0
 10
65.10910065810633
 20
191.8726516567216
 30
0.0
 10
65.2574243752204
 20
192.0669848134276
 30
0.0
 10
65.33180341993524
 20
192.1644359482391
 30
0.0
  0
SPLINE
  5
E7
330
1F
100
AcDbEntity
  8
0
  6
Continuous
 62
     7
370
    15
100
AcDbSpline
210
0.0
220
0.0
230
1.0
 70
    24
 71
     3
 72
     8
 73
     4
 74
     0
 42
0.000000001
 43
0.00000001
 40
0.0
 40
0.0
 40
0.0
 40
0.0
 40
0.0005532767489124
 40
0.0005532767489124
 40
0.0005532767489124
 40
0.0005532767489124
 10
65.33180358079574
 20
192.1644361419116
 30
0.0
 10
65.20216556558368
 20
192.2402290750154
 30
0.0
 10
65.07274395245128
 20
192.3158954885306
 30
0.0
 10
64.94353214138908
 20
192.3914392411562
 30
0.0
  0
SPLINE
  5
E8
330
1F
100
AcDbEntity
  8
0
  6
Continuous
 62
     7
370
    15
100
AcDbSpline
210
0.0
220
0.0
230
1.0
 70
     8
 71
     3
 72
     9
 73
     5
 74
     0
 42
0.000000001
 43
0.00000001
 40
0.0
 40
0.0
 40
0.0
 40
0.0
 40
0.5032797825851262
 40
1.0
 40
1.0
 40
1.0
 40
1.0
 10
47.86213966841315
 20
143.4437699431213
 30
0.0
 10
48.02122020671898
 20
143.4437698637377
 30
0.0
 10
48.3373078856015
 20
143.443769706005
 30
0.0
 10
48.65463243747568
 20
143.4437698650226
 30
0.0
 10
48.81225395787372
 20
143.4437699440098
 30
0.0
  0
ARC
  5
E9
330
1F
100
AcDbEntity
  8
0
  6
Continuous
 62
     7
370
    15
100
AcDbCircle
 10
73.5211875476
 20
161.9437699431
 30
0.0
 40
31.63284271236435
100
AcDbArc
 50
215.7913487371
 51
234.2086512629
  0
ARC
  5
EA
330
1F
100
AcDbEntity
  8
0
  6
Continuous
 62
     7
370
    15
100
AcDbCircle
 10
73.5211875473
 20
161.9437699434
 30
0.0
 40
31.63284271198253
100
AcDbArc
 50
105.7334817332
 51
215.791348738
  0
SPLINE
  5
EB
330
1F
100
AcDbEntity
  8
0
  6
Continuous
 62
     7
370
    15
100
AcDbSpline
210
0.0
220
0.0
230
1.0
 70
    24
 71
     3
 72
     8
 73
     4
 74
     0
 42
0.000000001
 43
0.00000001
 40
0.0
 40
0.0
 40
0.0
 40
0.0
 40
1.0
 40
1.0
 40
1.0
 40
1.0
 10
47.71784474100006
 20
143.4437699431451
 30
0.0
 10
47.7178447407922
 20
143.4437699431451
 30
0.0
 10
47.77662979935108
 20
143.4437699431453
 30
0.0
 10
47.86213966857249
 20
143.4437699431453
 30
0.0
  0
SPLINE
  5
EC
330
1F
100
AcDbEntity
  8
0
  6
Continuous
 62
     7
370
    15
100
AcDbSpline
210
0.0
220
0.0
230
1.0
 70
    24
 71
     3
 72
     8
 73
     4
 74
     0
 42
0.000000001
 43
0.00000001
 40
0.0
 40
0.0
 40
0.0
 40
0.0
 40
1.0
 40
1.0
 40
1.0
 40
1.0
 10
55.02118754758135
 20
136.2847220669044
 30
0.0
 10
55.02118754758135
 20
136.1991084838385
 30
0.0
 10
55.02118754758191
 20
136.1404271363585
 30
0.0
 10
55.02118754758191
 20
136.1404271367218
 30
0.0
  0
ARC
  5
ED
330
1F
100
AcDbEntity
  8
0
  6
Continuous
 62
     7
370
    15
100
AcDbCircle
 10
73.5211875476
 20
161.9437699431
 30
0.0
 40
31.74999999998979
100
AcDbArc
 50
215.6390613326
 51
234.3609386674
  0
ARC
  5
EE
330
1F
100
AcDbEntity
  8
0
  6
Continuous
 62
     7
370
    15
100
AcDbCircle
 10
73.5211875476
 20
161.9437699431
 30
0.0
 40
31.74999999980465
100
AcDbArc
 50
74.2833781211
 51
105.9369715321
  0
SPLINE
  5
EF
330
1F
100
AcDbEntity
  8
0
  6
Continuous
 62
     7
370
    15
100
AcDbSpline
210
0.0
220
0.0
230
1.0
 70
    24
 71
     3
 72
     8
 73
     4
 74
     0
 42
0.000000001
 43
0.00000001
 40
0.0
 40
0.0
 40
0.0
 40
0.0
 40
1.0
 40
1.0
 40
1.0
 40
1.0
 10
82.12161858540271
 20
192.5067391369665
 30
0.0
 10
82.1216185856481
 20
192.5067391372119
 30
0.0
 10
82.08434460098755
 20
192.4694651525513
 30
0.0
 10
82.02658310117782
 20
192.4117036527416
 30
0.0
  0
SPLINE
  5
F0
330
1F
100
AcDbEntity
  8
0
  6
Continuous
 62
     7
370
    15
100
AcDbSpline
210
0.0
220
0.0
230
1.0
 70
    24
 71
     3
 72
    10
 73
     6
 74
     0
 42
0.000000001
 43
0.00000001
 40
0.0
 40
0.0
 40
0.0
 40
0.0
 40
0.5
 40
0.5
 40
1.0
 40
1.0
 40
1.0
 40
1.0
 10
64.9435321415449
 20
192.3914392410651
 30
0.0
 10
64.90373805713261
 20
192.4147048732399
 30
0.0
 10
64.86890338855702
 20
192.435070980363
 30
0.0
 10
64.81833625416459
 20
192.4646350818187
 30
0.0
 10
64.80328051034273
 20
192.4734374302846
 30
0.0
 10
64.80328051043568
 20
192.4734374302303
 30
0.0
  0
SPLINE
  5
F1
330
1F
100
AcDbEntity
  8
0
  6
Continuous
 62
     7
370
    15
100
AcDbSpline
210
0.0
220
0.0
230
1.0
 70
    24
 71
     3
 72
    10
 73
     6
 74
     0
 42
0.000000001
 43
0.00000001
 40
0.0
 40
0.0
 40
0.0
 40
0.0
 40
0.5
 40
0.5
 40
1.0
 40
1.0
 40
1.0
 40
1.0
 10
82.09884295645654
 20
131.4961006435654
 30
0.0
 10
82.13863704024973
 20
131.4728350117527
 30
0.0
 10
82.17347170826734
 20
131.4524689049558
 30
0.0
 10
82.2240388418318
 20
131.4229048039841
 30
0.0
 10
82.2390945853845
 20
131.4141024556756
 30
0.0
 10
82.23909458511577
 20
131.4141024558327
 30
0.0
  0
ARC
  5
F2
330
1F
100
AcDbEntity
  8
0
  6
Continuous
 62
     7
370
    15
100
AcDbCircle
 10
73.5211875476
 20
161.9437699431
 30
0.0
 40
31.75000000003397
100
AcDbArc
 50
254.2833781209
 51
285.9369715327
  0
SPLINE
  5
F3
330
1F
100
AcDbEntity
  8
0
  6
Continuous
 62
     7
370
    15
100
AcDbSpline
210
0.0
220
0.0
230
1.0
 70
    24
 71
     3
 72
     8
 73
     4
 74
     0
 42
0.000000001
 43
0.00000001
 40
0.0
 40
0.0
 40
0.0
 40
0.0
 40
1.0
 40
1.0
 40
1.0
 40
1.0
 10
64.92075650946373
 20
131.3808007490275
 30
0.0
 10
64.92075650958411
 20
131.3808007491479
 30
0.0
 10
64.95803049405413
 20
131.4180747336179
 30
0.0
 10
65.01579199363931
 20
131.4758362332031
 30
0.0
  0
ARC
  5
F4
330
1F
100
AcDbEntity
  8
0
  6
Continuous
 62
     7
370
    15
100
AcDbCircle
 10
73.5211875476
 20
161.9437699431
 30
0.0
 40
31.75000000003397
100
AcDbArc
 50
234.3609386674
 51
254.2833781209
  0
ARC
  5
F5
330
1F
100
AcDbEntity
  8
0
  6
Continuous
 62
     7
370
    15
100
AcDbCircle
 10
73.5211875476
 20
161.9437699431
 30
0.0
 40
31.74999999998979
100
AcDbArc
 50
105.9369715321
 51
215.6390613326
  0
ARC
  5
F6
330
1F
100
AcDbEntity
  8
0
  6
Continuous
 62
     7
370
    15
100
AcDbCircle
 10
73.5211875476
 20
161.9437699431
 30
0.0
 40
31.75000000000907
100
AcDbArc
 50
359.9999999974
 51
74.2833781211
  0
SPLINE
  5
F7
330
1F
100
AcDbEntity
  8
0
  6
Continuous
 62
     7
370
    15
100
AcDbSpline
210
0.0
220
0.0
230
1.0
 70
    24
 71
     3
 72
    10
 73
     6
 74
     0
 42
0.000000001
 43
0.00000001
 40
0.0
 40
0.0
 40
0.0
 40
0.0
 40
0.5
 40
0.5
 40
1.0
 40
1.0
 40
1.0
 40
1.0
 10
105.1540302596405
 20
161.9437699403047
 30
0.0
 10
105.1901099996851
 20
161.9437699403015
 30
0.0
 10
105.2204405690539
 20
161.9437699402988
 30
0.0
 10
105.2610381519819
 20
161.9437699402951
 30
0.0
 10
105.271187547725
 20
161.9437699402942
 30
0.0
 10
105.2711875475995
 20
161.9437699402942
 30
0.0
  0
ARC
  5
F8
330
1F
100
AcDbEntity
  8
0
  6
Continuous
 62
     7
370
    15
100
AcDbCircle
 10
73.5211875476
 20
161.9437699431
 30
0.0
 40
31.75000000003396
100
AcDbArc
 50
285.9369715327
 51
359.9999999974
  0
ARC
  5
F9
330
1F
100
AcDbEntity
  8
0
  6
Continuous
 62
     7
370
    15
100
AcDbCircle
 10
73.5211875476
 20
161.9437699431
 30
0.0
 40
31.75000000000003
100
AcDbArc
 50
90.0
 51
105.9369715321
  0
ARC
  5
FA
330
1F
100
AcDbEntity
  8
0
  6
Continuous
 62
     7
370
    15
100
AcDbCircle
 10
73.5211875476
 20
161.9437699431
 30
0.0
 40
31.75000000000003
100
AcDbArc
 50
74.2833781211
 51
90.0
  0
INSERT
  5
106
330
1F
100
AcDbEntity
  8
DIM
100
AcDbBlockReference
  2
SW_CENTERMARKSYMBOL_0
 10
73.5211875476
 20
161.9437699431
 30
0.0
  0
LINE
  5
107
330
1F
100
AcDbEntity
  8
0
  6
Continuous
 62
     7
370
    15
100
AcDbLine
 10
225.8270239891
 20
130.1937689299
 30
0.0
 11
229.1395018311
 21
130.1937689299
 31
0.0
  0
LINE
  5
108
330
1F
100
AcDbEntity
  8
0
  6
Continuous
 62
     7
370
    15
100
AcDbLine
 10
229.1395018311
 20
193.6937709564
 30
0.0
 11
225.8270239891
 21
193.6937709564
 31
0.0
  0
LINE
  5
109
330
1F
100
AcDbEntity
  8
0
  6
Continuous
 62
     7
370
    15
100
AcDbLine
 10
215.5708723204
 20
130.1937689299
 30
0.0
 11
218.7833503322
 21
130.1937689299
 31
0.0
  0
LINE
  5
10A
330
1F
100
AcDbEntity
  8
0
  6
Continuous
 62
     7
370
    15
100
AcDbLine
 10
218.7833503322
 20
193.6937709564
 30
0.0
 11
215.5708723204
 21
193.6937709564
 31
0.0
  0
LINE
  5
10B
330
1F
100
AcDbEntity
  8
0
  6
Continuous
 62
     7
370
    15
100
AcDbLine
 10
225.8270239891
 20
193.6937709564
 30
0.0
 11
224.2051871927
 21
190.8846673781
 31
0.0
  0
LINE
  5
10C
330
1F
100
AcDbEntity
  8
0
  6
Continuous
 62
     7
370
    15
100
AcDbLine
 10
224.2051871927
 20
133.0028725082
 30
0.0
 11
225.8270239891
 21
130.1937689299
 31
0.0
  0
LINE
  5
10D
330
1F
100
AcDbEntity
  8
0
  6
Continuous
 62
     7
370
    15
100
AcDbLine
 10
218.7833503322
 20
130.1937689299
 30
0.0
 11
220.4051871286
 21
133.0028725082
 31
0.0
  0
LINE
  5
10E
330
1F
100
AcDbEntity
  8
0
  6
Continuous
 62
     7
370
    15
100
AcDbLine
 10
220.4051871286
 20
190.8846673781
 30
0.0
 11
218.7833503322
 21
193.6937709564
 31
0.0
  0
LINE
  5
10F
330
1F
100
AcDbEntity
  8
0
  6
Continuous
 62
     7
370
    15
100
AcDbLine
 10
220.4051871286
 20
133.9437690789
 30
0.0
 11
224.2051871927
 21
133.9437690789
 31
0.0
  0
LINE
  5
110
330
1F
100
AcDbEntity
  8
0
  6
Continuous
 62
     7
370
    15
100
AcDbLine
 10
224.2051871927
 20
189.9437708074
 30
0.0
 11
220.4051871286
 21
189.9437708074
 31
0.0
  0
LINE
  5
111
330
1F
100
AcDbEntity
  8
0
  6
Continuous
 62
     7
370
    15
100
AcDbLine
 10
368.3184409947
 20
136.9437695706
 30
0.0
 11
371.2051833482
 21
141.9437703902
 31
0.0
  0
LINE
  5
112
330
1F
100
AcDbEntity
  8
0
  6
Continuous
 62
     7
370
    15
100
AcDbLine
 10
371.2051833482
 20
181.9437694961
 30
0.0
 11
368.3184409947
 21
186.9437703157
 31
0.0
  0
LINE
  5
113
330
1F
100
AcDbEntity
  8
0
  6
Continuous
 62
     7
370
    15
100
AcDbLine
 10
350.7051939578
 20
136.9437695706
 30
0.0
 11
368.3184409947
 21
136.9437695706
 31
0.0
  0
LINE
  5
114
330
1F
100
AcDbEntity
  8
0
  6
Continuous
 62
     7
370
    15
100
AcDbLine
 10
368.3184409947
 20
186.9437703157
 30
0.0
 11
350.7051939578
 21
186.9437703157
 31
0.0
  0
LINE
  5
115
330
1F
100
AcDbEntity
  8
0
  6
Continuous
 62
     7
370
    15
100
AcDbLine
 10
350.7051939578
 20
186.9437703157
 30
0.0
 11
348.7051899047
 21
184.9437699878
 31
0.0
  0
LINE
  5
116
330
1F
100
AcDbEntity
  8
0
  6
Continuous
 62
     7
370
    15
100
AcDbLine
 10
348.7051899047
 20
138.9437698984
 30
0.0
 11
350.7051939578
 21
136.9437695706
 31
0.0
  0
LINE
  5
117
330
1F
100
AcDbEntity
  8
0
  6
Continuous
 62
     7
370
    15
100
AcDbLine
 10
330.4551864476
 20
139.4437690491
 30
0.0
 11
333.2051882954
 21
142.1937690342
 31
0.0
  0
LINE
  5
118
330
1F
100
AcDbEntity
  8
0
  6
Continuous
 62
     7
370
    15
100
AcDbLine
 10
333.2051882954
 20
181.6937708521
 30
0.0
 11
330.4551864476
 21
184.4437708372
 31
0.0
  0
LINE
  5
119
330
1F
100
AcDbEntity
  8
0
  6
Continuous
 62
     7
370
    15
100
AcDbLine
 10
230.3051861436
 20
139.4437690491
 30
0.0
 11
330.4551864476
 21
139.4437690491
 31
0.0
  0
LINE
  5
11A
330
1F
100
AcDbEntity
  8
0
  6
Continuous
 62
     7
370
    15
100
AcDbLine
 10
330.4551864476
 20
184.4437708372
 30
0.0
 11
230.3051861436
 21
184.4437708372
 31
0.0
  0
ARC
  5
11B
330
1F
100
AcDbEntity
  8
0
  6
Continuous
 62
     7
370
    15
100
AcDbCircle
 10
214.0051869241
 20
139.5437699428
 30
0.0
 40
0.4000000002154707
100
AcDbArc
 50
0.0
 51
89.9999999705
  0
ARC
  5
11C
330
1F
100
AcDbEntity
  8
0
  6
Continuous
 62
     7
370
    15
100
AcDbCircle
 10
214.0051869241
 20
184.3437699435
 30
0.0
 40
0.4000000002154707
100
AcDbArc
 50
270.0000000295
 51
0.0
  0
LINE
  5
11D
330
1F
100
AcDbEntity
  8
0
  6
Continuous
 62
     7
370
    15
100
AcDbLine
 10
211.2051869245
 20
139.7187699789
 30
0.0
 11
211.6877009885
 21
139.9437700624
 31
0.0
  0
LINE
  5
11E
330
1F
100
AcDbEntity
  8
0
  6
Continuous
 62
     7
370
    15
100
AcDbLine
 10
211.6877009885
 20
183.9437698239
 30
0.0
 11
211.2051869245
 21
184.1687699074
 31
0.0
  0
LINE
  5
11F
330
1F
100
AcDbEntity
  8
0
  6
Continuous
 62
     7
370
    15
100
AcDbLine
 10
211.2051869245
 20
184.1687699074
 30
0.0
 11
143.6608756394
 21
174.3184653336
 31
0.0
  0
LINE
  5
120
330
1F
100
AcDbEntity
  8
0
  6
Continuous
 62
     7
370
    15
100
AcDbLine
 10
143.6608756394
 20
149.5690745527
 30
0.0
 11
211.2051869245
 21
139.7187699789
 31
0.0
  0
LINE
  5
121
330
1F
100
AcDbEntity
  8
0
  6
Continuous
 62
     7
370
    15
100
AcDbLine
 10
211.6877009885
 20
139.9437700624
 30
0.0
 11
214.0051868246
 21
139.9437700624
 31
0.0
  0
LINE
  5
122
330
1F
100
AcDbEntity
  8
0
  6
Continuous
 62
     7
370
    15
100
AcDbLine
 10
214.0051868246
 20
183.9437698239
 30
0.0
 11
211.6877009885
 21
183.9437698239
 31
0.0
  0
LINE
  5
123
330
1F
100
AcDbEntity
  8
0
  6
Continuous
 62
     7
370
    15
100
AcDbLine
 10
339.3496895642
 20
141.1937707329
 30
0.0
 11
348.7051899047
 21
141.1937707329
 31
0.0
  0
LINE
  5
124
330
1F
100
AcDbEntity
  8
0
  6
Continuous
 62
     7
370
    15
100
AcDbLine
 10
348.7051899047
 20
182.6937691534
 30
0.0
 11
339.3496895642
 21
182.6937691534
 31
0.0
  0
LINE
  5
125
330
1F
100
AcDbEntity
  8
0
  6
Continuous
 62
     7
370
    15
100
AcDbLine
 10
339.3496895642
 20
182.6937691534
 30
0.0
 11
337.205188951
 21
181.6937708521
 31
0.0
  0
LINE
  5
126
330
1F
100
AcDbEntity
  8
0
  6
Continuous
 62
     7
370
    15
100
AcDbLine
 10
337.205188951
 20
142.1937690342
 30
0.0
 11
339.3496895642
 21
141.1937707329
 31
0.0
  0
LINE
  5
127
330
1F
100
AcDbEntity
  8
0
  6
Continuous
 62
     7
370
    15
100
AcDbLine
 10
333.2051882954
 20
142.1937690342
 30
0.0
 11
337.205188951
 21
142.1937690342
 31
0.0
  0
LINE
  5
128
330
1F
100
AcDbEntity
  8
0
  6
Continuous
 62
     7
370
    15
100
AcDbLine
 10
337.205188951
 20
181.6937708521
 30
0.0
 11
333.2051882954
 21
181.6937708521
 31
0.0
  0
SPLINE
  5
129
330
1F
100
AcDbEntity
  8
0
  6
Continuous
 62
     7
370
    15
100
AcDbSpline
210
0.0
220
0.0
230
1.0
 70
     8
 71
     3
 72
    11
 73
     7
 74
     0
 42
0.000000001
 43
0.00000001
 40
0.0
 40
0.0
 40
0.0
 40
0.0
 40
0.2418860895924856
 40
0.4999977846006939
 40
0.7581134239561622
 40
1.0
 40
1.0
 40
1.0
 40
1.0
 10
143.6608756394419
 20
174.318465333608
 30
0.0
 10
143.5487230091975
 20
174.2904105671491
 30
0.0
 10
143.3168946028851
 20
174.2324191336582
 30
0.0
 10
143.0332847853295
 20
173.9964290301589
 30
0.0
 10
142.840694256224
 20
173.6817315709577
 30
0.0
 10
142.8167617575079
 20
173.4439595260784
 30
0.0
 10
142.8051839084658
 20
173.3289323041113
 30
0.0
  0
SPLINE
  5
12A
330
1F
100
AcDbEntity
  8
0
  6
Continuous
 62
     7
370
    15
100
AcDbSpline
210
0.0
220
0.0
230
1.0
 70
     8
 71
     3
 72
    11
 73
     7
 74
     0
 42
0.000000001
 43
0.00000001
 40
0.0
 40
0.0
 40
0.0
 40
0.0
 40
0.2418865760438377
 40
0.5000022153993059
 40
0.7581139104075142
 40
1.0
 40
1.0
 40
1.0
 40
1.0
 10
142.8051839084658
 20
150.5586075821789
 30
0.0
 10
142.8167617575079
 20
150.4435803602118
 30
0.0
 10
142.840694256224
 20
150.2058083153326
 30
0.0
 10
143.0332847853295
 20
149.8911108561314
 30
0.0
 10
143.3168946028851
 20
149.6551207526321
 30
0.0
 10
143.5487230091975
 20
149.5971293191412
 30
0.0
 10
143.6608756394419
 20
149.5690745526823
 30
0.0
  0
ARC
  5
12B
330
1F
100
AcDbEntity
  8
0
  6
Continuous
 62
     7
370
    15
100
AcDbCircle
 10
214.8051869226
 20
192.5280845188
 30
0.0
 40
0.3999999981377016
100
AcDbArc
 50
135.0000000163
 51
180.0000004524
  0
ARC
  5
12C
330
1F
100
AcDbEntity
  8
0
  6
Continuous
 62
     7
370
    15
100
AcDbCircle
 10
214.8051869226
 20
131.3594553675
 30
0.0
 40
0.3999999981377016
100
AcDbArc
 50
179.9999995476
 51
224.9999999837
  0
LINE
  5
12D
330
1F
100
AcDbEntity
  8
0
  6
Continuous
 62
     7
370
    15
100
AcDbLine
 10
214.5223441967
 20
131.0766124392
 30
0.0
 11
215.2880296544
 21
130.3109255845
 31
0.0
  0
LINE
  5
12E
330
1F
100
AcDbEntity
  8
0
  6
Continuous
 62
     7
370
    15
100
AcDbLine
 10
215.2880296544
 20
193.5766143018
 30
0.0
 11
214.5223441967
 21
192.8109274471
 31
0.0
  0
ARC
  5
12F
330
1F
100
AcDbEntity
  8
0
  6
Continuous
 62
     7
370
    15
100
AcDbCircle
 10
215.5708723487
 20
130.5937699412
 30
0.0
 40
0.3999999981249722
100
AcDbArc
 50
224.9999998534
 51
270.0000001247
  0
ARC
  5
130
330
1F
100
AcDbEntity
  8
0
  6
Continuous
 62
     7
370
    15
100
AcDbCircle
 10
229.1395015002
 20
130.5937699412
 30
0.0
 40
0.3999999981157074
100
AcDbArc
 50
269.9999998924
 51
315.0000002227
  0
ARC
  5
131
330
1F
100
AcDbEntity
  8
0
  6
Continuous
 62
     7
370
    15
100
AcDbCircle
 10
229.1395015002
 20
193.2937699451
 30
0.0
 40
0.3999999981157074
100
AcDbArc
 50
44.9999997773
 51
90.0000001076
  0
ARC
  5
132
330
1F
100
AcDbEntity
  8
0
  6
Continuous
 62
     7
370
    15
100
AcDbCircle
 10
215.5708723487
 20
193.2937699451
 30
0.0
 40
0.3999999981249923
100
AcDbArc
 50
89.9999998753
 51
135.0000001465
  0
LINE
  5
133
330
1F
100
AcDbEntity
  8
0
  6
Continuous
 62
     7
370
    15
100
AcDbLine
 10
229.422344497
 20
130.3109255845
 30
0.0
 11
230.188029489
 21
131.0766124392
 31
0.0
  0
LINE
  5
134
330
1F
100
AcDbEntity
  8
0
  6
Continuous
 62
     7
370
    15
100
AcDbLine
 10
230.188029489
 20
192.8109274471
 30
0.0
 11
229.422344497
 21
193.5766143018
 31
0.0
  0
ARC
  5
135
330
1F
100
AcDbEntity
  8
0
  6
Continuous
 62
     7
370
    15
100
AcDbCircle
 10
229.9051869263
 20
131.3594553675
 30
0.0
 40
0.3999999982797808
100
AcDbArc
 50
314.9999999318
 51
0.0000005591
  0
ARC
  5
136
330
1F
100
AcDbEntity
  8
0
  6
Continuous
 62
     7
370
    15
100
AcDbCircle
 10
229.9051869263
 20
192.5280845188
 30
0.0
 40
0.3999999982797607
100
AcDbArc
 50
359.9999994409
 51
45.0000000682
  0
LINE
  5
137
330
1F
100
AcDbEntity
  8
0
  6
Continuous
 62
     7
370
    15
100
AcDbLine
 10
215.2880296544
 20
161.9437699367
 30
0.0
 11
215.2880296544
 21
192.411702987
 31
0.0
  0
SPLINE
  5
138
330
1F
100
AcDbEntity
  8
0
  6
Continuous
 62
     7
370
    15
100
AcDbSpline
210
0.0
220
0.0
230
1.0
 70
     8
 71
     3
 72
     8
 73
     4
 74
     0
 42
0.000000001
 43
0.00000001
 40
0.0
 40
0.0
 40
0.0
 40
0.0
 40
1.0
 40
1.0
 40
1.0
 40
1.0
 10
215.5708723498256
 20
192.5067391369665
 30
0.0
 10
215.4623665632425
 20
192.5067391372119
 30
0.0
 10
215.3591948483835
 20
192.4694651525513
 30
0.0
 10
215.2880296368172
 20
192.4117036527416
 30
0.0
  0
LINE
  5
139
330
1F
100
AcDbEntity
  8
0
  6
Continuous
 62
     7
370
    15
100
AcDbLine
 10
215.5708723204
 20
192.5067388678
 30
0.0
 11
215.5708723204
 21
161.9437699417
 31
0.0
  0
SPLINE
  5
13A
330
1F
100
AcDbEntity
  8
0
  6
Continuous
 62
     7
370
    15
100
AcDbSpline
210
0.0
220
0.0
230
1.0
 70
    24
 71
     3
 72
    10
 73
     6
 74
     0
 42
0.000000001
 43
0.00000001
 40
0.0
 40
0.0
 40
0.0
 40
0.0
 40
0.5
 40
0.5
 40
1.0
 40
1.0
 40
1.0
 40
1.0
 10
215.2880296366255
 20
161.9437699403047
 30
0.0
 10
215.3241093764697
 20
161.9437699403015
 30
0.0
 10
215.3687933585783
 20
161.9437699402988
 30
0.0
 10
215.4668045933836
 20
161.9437699402951
 30
0.0
 10
215.5198478915789
 20
161.9437699402942
 30
0.0
 10
215.5708723495997
 20
161.9437699402942
 30
0.0
  0
SPLINE
  5
13B
330
1F
100
AcDbEntity
  8
0
  6
Continuous
 62
     7
370
    15
100
AcDbSpline
210
0.0
220
0.0
230
1.0
 70
     8
 71
     3
 72
    10
 73
     6
 74
     0
 42
0.000000001
 43
0.00000001
 40
0.0
 40
0.0
 40
0.0
 40
0.0
 40
0.5
 40
0.5
 40
1.0
 40
1.0
 40
1.0
 40
1.0
 10
215.2880296372466
 20
131.4961006435654
 30
0.0
 10
215.3212142677759
 20
131.4728350117527
 30
0.0
 10
215.3619408161555
 20
131.4524689049558
 30
0.0
 10
215.4582326712527
 20
131.4229048039841
 30
0.0
 10
215.5137987406157
 20
131.4141024556756
 30
0.0
 10
215.570872349673
 20
131.4141024558327
 30
0.0
  0
LINE
  5
13C
330
1F
100
AcDbEntity
  8
0
  6
Continuous
 62
     7
370
    15
100
AcDbLine
 10
215.2880296544
 20
131.4961006159
 30
0.0
 11
215.2880296544
 21
161.9437699399
 31
0.0
  0
LINE
  5
13D
330
1F
100
AcDbEntity
  8
0
  6
Continuous
 62
     7
370
    15
100
AcDbLine
 10
215.5708723204
 20
161.9437699417
 30
0.0
 11
215.5708723204
 21
131.4141032511
 31
0.0
  0
LINE
  5
13E
330
1F
100
AcDbEntity
  8
0
  6
Continuous
 62
     7
370
    15
100
AcDbLine
 10
229.1395018311
 20
161.943769941
 30
0.0
 11
229.1395018311
 21
192.5067388678
 31
0.0
  0
SPLINE
  5
13F
330
1F
100
AcDbEntity
  8
0
  6
Continuous
 62
     7
370
    15
100
AcDbSpline
210
0.0
220
0.0
230
1.0
 70
     8
 71
     3
 72
     8
 73
     4
 74
     0
 42
0.000000001
 43
0.00000001
 40
0.0
 40
0.0
 40
0.0
 40
0.0
 40
1.0
 40
1.0
 40
1.0
 40
1.0
 10
229.422344212877
 20
192.4117036521145
 30
0.0
 10
229.3511804889073
 20
192.4694639448272
 30
0.0
 10
229.2480103284562
 20
192.5067391371626
 30
0.0
 10
229.1395014993201
 20
192.5067391369665
 30
0.0
  0
LINE
  5
140
330
1F
100
AcDbEntity
  8
0
  6
Continuous
 62
     7
370
    15
100
AcDbLine
 10
229.422344497
 20
192.411702987
 30
0.0
 11
229.422344497
 21
161.9437699431
 31
0.0
  0
SPLINE
  5
141
330
1F
100
AcDbEntity
  8
0
  6
Continuous
 62
     7
370
    15
100
AcDbSpline
210
0.0
220
0.0
230
1.0
 70
    24
 71
     3
 72
    10
 73
     6
 74
     0
 42
0.000000001
 43
0.00000001
 40
0.0
 40
0.0
 40
0.0
 40
0.0
 40
0.5
 40
0.5
 40
1.0
 40
1.0
 40
1.0
 40
1.0
 10
229.1395014994413
 20
161.9437699388687
 30
0.0
 10
229.1905259574334
 20
161.9437699388687
 30
0.0
 10
229.2435692555929
 20
161.9437699388701
 30
0.0
 10
229.3415804903347
 20
161.9437699388756
 30
0.0
 10
229.3862644724163
 20
161.9437699388796
 30
0.0
 10
229.4223442122457
 20
161.9437699388845
 30
0.0
  0
SPLINE
  5
142
330
1F
100
AcDbEntity
  8
0
  6
Continuous
 62
     7
370
    15
100
AcDbSpline
210
0.0
220
0.0
230
1.0
 70
     8
 71
     3
 72
    10
 73
     6
 74
     0
 42
0.000000001
 43
0.00000001
 40
0.0
 40
0.0
 40
0.0
 40
0.0
 40
0.5
 40
0.5
 40
1.0
 40
1.0
 40
1.0
 40
1.0
 10
229.1395014994188
 20
131.4141024558327
 30
0.0
 10
229.1965687818542
 20
131.4141024556925
 30
0.0
 10
229.2520144302298
 20
131.4228722664778
 30
0.0
 10
229.3484438865506
 20
131.4524658677597
 30
0.0
 10
229.3891546631578
 20
131.4728315632152
 30
0.0
 10
229.4223442150305
 20
131.4961006459196
 30
0.0
  0
LINE
  5
143
330
1F
100
AcDbEntity
  8
0
  6
Continuous
 62
     7
370
    15
100
AcDbLine
 10
229.1395018311
 20
131.4141032511
 30
0.0
 11
229.1395018311
 21
161.943769941
 31
0.0
  0
LINE
  5
144
330
1F
100
AcDbEntity
  8
0
  6
Continuous
 62
     7
370
    15
100
AcDbLine
 10
229.422344497
 20
161.9437699431
 30
0.0
 11
229.422344497
 21
131.4961006159
 31
0.0
  0
LINE
  5
145
330
1F
100
AcDbEntity
  8
0
  6
Continuous
 62
     7
370
    15
100
AcDbLine
 10
225.8270239891
 20
130.1937689299
 30
0.0
 11
225.8270239891
 21
193.6937709564
 31
0.0
  0
LINE
  5
146
330
1F
100
AcDbEntity
  8
0
  6
Continuous
 62
     7
370
    15
100
AcDbLine
 10
218.7833503322
 20
161.9437699431
 30
0.0
 11
218.7833503322
 21
130.1937689299
 31
0.0
  0
LINE
  5
147
330
1F
100
AcDbEntity
  8
0
  6
Continuous
 62
     7
370
    15
100
AcDbLine
 10
218.7833503322
 20
193.6937709564
 30
0.0
 11
218.7833503322
 21
161.9437699431
 31
0.0
  0
LINE
  5
148
330
1F
100
AcDbEntity
  8
0
  6
Continuous
 62
     7
370
    15
100
AcDbLine
 10
224.2051871927
 20
190.8846673781
 30
0.0
 11
224.2051871927
 21
133.0028725082
 31
0.0
  0
LINE
  5
149
330
1F
100
AcDbEntity
  8
0
  6
Continuous
 62
     7
370
    15
100
AcDbLine
 10
220.4051871286
 20
133.0028725082
 30
0.0
 11
220.4051871286
 21
190.8846673781
 31
0.0
  0
SPLINE
  5
14A
330
1F
100
AcDbEntity
  8
0
  6
Continuous
 62
     7
370
    15
100
AcDbSpline
210
0.0
220
0.0
230
1.0
 70
     8
 71
     3
 72
     8
 73
     4
 74
     0
 42
0.000000001
 43
0.00000001
 40
0.0
 40
0.0
 40
0.0
 40
0.0
 40
0.0008530936110185
 40
0.0008530936110185
 40
0.0008530936110185
 40
0.0008530936110185
 10
229.9818068928429
 20
191.95630809932
 30
0.0
 10
229.7956310221176
 20
192.1082977948036
 30
0.0
 10
229.6091368056532
 20
192.2600927732326
 30
0.0
 10
229.4223442129595
 20
192.4117036521653
 30
0.0
  0
LINE
  5
14B
330
1F
100
AcDbEntity
  8
0
  6
Continuous
 62
     7
370
    15
100
AcDbLine
 10
229.9818067313
 20
191.9563085997
 30
0.0
 11
230.188029489
 21
191.7427451575
 31
0.0
  0
LINE
  5
14C
330
1F
100
AcDbEntity
  8
0
  6
Continuous
 62
     7
370
    15
100
AcDbLine
 10
230.188029489
 20
191.7427451575
 30
0.0
 11
230.188029489
 21
161.9437699431
 31
0.0
  0
LINE
  5
14D
330
1F
100
AcDbEntity
  8
0
  6
Continuous
 62
     7
370
    15
100
AcDbLine
 10
230.188029489
 20
161.9437699431
 30
0.0
 11
230.188029489
 21
132.1447947288
 31
0.0
  0
SPLINE
  5
14E
330
1F
100
AcDbEntity
  8
0
  6
Continuous
 62
     7
370
    15
100
AcDbSpline
210
0.0
220
0.0
230
1.0
 70
     8
 71
     3
 72
     8
 73
     4
 74
     0
 42
0.000000001
 43
0.00000001
 40
0.0
 40
0.0
 40
0.0
 40
0.0
 40
0.0004729523684993
 40
0.0004729523684993
 40
0.0004729523684993
 40
0.0004729523684993
 10
229.8594758861051
 20
131.8045946526517
 30
0.0
 10
229.9690153280698
 20
131.9179740250435
 30
0.0
 10
230.0785334862942
 20
132.0313739644625
 30
0.0
 10
230.1880296373782
 20
132.1447951455871
 30
0.0
  0
SPLINE
  5
14F
330
1F
100
AcDbEntity
  8
0
  6
Continuous
 62
     7
370
    15
100
AcDbSpline
210
0.0
220
0.0
230
1.0
 70
     8
 71
     3
 72
     8
 73
     4
 74
     0
 42
0.000000001
 43
0.00000001
 40
0.0
 40
0.0
 40
0.0
 40
0.0
 40
0.0007514471878812
 40
0.0007514471878812
 40
0.0007514471878812
 40
0.0007514471878812
 10
229.4223442153868
 20
131.4961006451768
 30
0.0
 10
229.5686888267213
 20
131.5987023550533
 30
0.0
 10
229.7144126203447
 20
131.7015304503818
 30
0.0
 10
229.8594758862224
 20
131.8045946529183
 30
0.0
  0
SPLINE
  5
150
330
1F
100
AcDbEntity
  8
0
  6
Continuous
 62
     7
370
    15
100
AcDbSpline
210
0.0
220
0.0
230
1.0
 70
     8
 71
     3
 72
     9
 73
     5
 74
     0
 42
0.000000001
 43
0.00000001
 40
0.0
 40
0.0
 40
0.0
 40
0.0
 40
0.5013664821396464
 40
1.0
 40
1.0
 40
1.0
 40
1.0
 10
214.9360164727744
 20
192.1254785480115
 30
0.0
 10
214.8666622618025
 20
192.0345078039517
 30
0.0
 10
214.7283318918188
 20
191.853062200186
 30
0.0
 10
214.590881555973
 20
191.6702838973347
 30
0.0
 10
214.5223442114792
 20
191.5791445091955
 30
0.0
  0
SPLINE
  5
151
330
1F
100
AcDbEntity
  8
0
  6
Continuous
 62
     7
370
    15
100
AcDbSpline
210
0.0
220
0.0
230
1.0
 70
     8
 71
     3
 72
     8
 73
     4
 74
     0
 42
0.000000001
 43
0.00000001
 40
0.0
 40
0.0
 40
0.0
 40
0.0
 40
0.000536435201519
 40
0.000536435201519
 40
0.000536435201519
 40
0.000536435201519
 10
215.2880296367347
 20
192.4117036527924
 30
0.0
 10
215.1705722782337
 20
192.3163689657873
 30
0.0
 10
215.0532329610879
 20
192.2209614927937
 30
0.0
 10
214.9360165721119
 20
192.1254786296344
 30
0.0
  0
SPLINE
  5
152
330
1F
100
AcDbEntity
  8
0
  6
Continuous
 62
     7
370
    15
100
AcDbSpline
210
0.0
220
0.0
230
1.0
 70
     8
 71
     3
 72
     8
 73
     4
 74
     0
 42
0.000000001
 43
0.00000001
 40
0.0
 40
0.0
 40
0.0
 40
0.0
 40
0.0005532767480406
 40
0.0005532767480406
 40
0.0005532767480406
 40
0.0005532767480406
 10
214.9658029539663
 20
131.7231037677298
 30
0.0
 10
215.0728646741479
 20
131.647310834757
 30
0.0
 10
215.1802787906419
 20
131.5716443960632
 30
0.0
 10
215.2880296372271
 20
131.4961006435584
 30
0.0
  0
SPLINE
  5
153
330
1F
100
AcDbEntity
  8
0
  6
Continuous
 62
     7
370
    15
100
AcDbSpline
210
0.0
220
0.0
230
1.0
 70
     8
 71
     3
 72
     9
 73
     5
 74
     0
 42
0.000000001
 43
0.00000001
 40
0.0
 40
0.0
 40
0.0
 40
0.0
 40
0.4985358156079709
 40
1.0
 40
1.0
 40
1.0
 40
1.0
 10
214.5223442106278
 20
132.3083953783301
 30
0.0
 10
214.5957857050683
 20
132.2107508432623
 30
0.0
 10
214.7431000847802
 20
132.0148882151205
 30
0.0
 10
214.8914237776283
 20
131.8205550559861
 30
0.0
 10
214.9658027972883
 20
131.7231039368405
 30
0.0
  0
LINE
  5
154
330
1F
100
AcDbEntity
  8
0
  6
Continuous
 62
     7
370
    15
100
AcDbLine
 10
214.5223441967
 20
132.3083945775
 30
0.0
 11
214.5223441967
 21
161.9437699431
 31
0.0
  0
LINE
  5
155
330
1F
100
AcDbEntity
  8
0
  6
Continuous
 62
     7
370
    15
100
AcDbLine
 10
214.5223441967
 20
161.9437699431
 30
0.0
 11
214.5223441967
 21
191.5791453088
 31
0.0
  0
SPLINE
  5
156
330
1F
100
AcDbEntity
  8
0
  6
Continuous
 62
     7
370
    15
100
AcDbSpline
210
0.0
220
0.0
230
1.0
 70
     8
 71
     3
 72
    10
 73
     6
 74
     0
 42
0.000000001
 43
0.00000001
 40
0.0
 40
0.0
 40
0.0
 40
0.0
 40
0.5
 40
0.5
 40
1.0
 40
1.0
 40
1.0
 40
1.0
 10
214.5223442104283
 20
132.3083953784785
 30
0.0
 10
214.4896895852472
 20
132.3519196371368
 30
0.0
 10
214.4617084705719
 20
132.4004817405079
 30
0.0
 10
214.4190622648849
 20
132.5119600504164
 30
0.0
 10
214.4051869231422
 20
132.5739313405309
 30
0.0
 10
214.4051869244443
 20
132.6378354324998
 30
0.0
  0
SPLINE
  5
157
330
1F
100
AcDbEntity
  8
0
  6
Continuous
 62
     7
370
    15
100
AcDbSpline
210
0.0
220
0.0
230
1.0
 70
    24
 71
     3
 72
    31
 73
    27
 74
     0
 42
0.000000001
 43
0.00000001
 40
0.0
 40
0.0
 40
0.0
 40
0.0
 40
0.0133116725625788
 40
0.0266104831151372
 40
0.0399002795277768
 40
0.0531849175033871
 40
0.0664682572368162
 40
0.079754160054518
 40
0.0930464850492733
 40
0.1063490857246304
 40
0.1196658066636192
 40
0.1817950737360664
 40
0.2439504668761813
 40
0.3077169629634829
 40
0.3715105118386547
 40
0.5006201174259409
 40
0.6296447221926801
 40
0.6932864260642574
 40
0.7569559400770535
 40
0.8188879793688763
 40
0.8808473402653628
 40
0.9046957898290695
 40
0.9285130513473471
 40
0.9523213477371509
 40
0.9761429270058902
 40
1.0
 40
1.0
 40
1.0
 40
1.0
 10
214.4051869244608
 20
132.6378354324187
 30
0.0
 10
214.4051869244608
 20
132.6883509141747
 30
0.0
 10
214.4051869244608
 20
132.7893330685962
 30
0.0
 10
214.4051869244608
 20
132.9514505803606
 30
0.0
 10
214.4051869244608
 20
133.1212500396593
 30
0.0
 10
214.4051869244608
 20
133.299500666157
 30
0.0
 10
214.4051869244608
 20
133.485996374914
 30
0.0
 10
214.4051869244608
 20
133.6807926959957
 30
0.0
 10
214.4051869244608
 20
133.8838732131157
 30
0.0
 10
214.4051869244608
 20
134.0952477303852
 30
0.0
 10
214.4051869244608
 20
134.5831391386129
 30
0.0
 10
214.4051869244608
 20
135.4180472680511
 30
0.0
 10
214.4051869244608
 20
136.7288850029351
 30
0.0
 10
214.4051869244608
 20
138.215378592078
 30
0.0
 10
214.4051869244608
 20
140.4388458780212
 30
0.0
 10
214.4051869244608
 20
143.6059201605427
 30
0.0
 10
214.4051869244608
 20
147.1885281602476
 30
0.0
 10
214.4051869244608
 20
150.2270665672734
 30
0.0
 10
214.4051869244608
 20
152.5482329077742
 30
0.0
 10
214.4051869244608
 20
154.9085088151678
 30
0.0
 10
214.4051869244608
 20
156.8033501390133
 30
0.0
 10
214.4051869244608
 20
158.2206567733226
 30
0.0
 10
214.4051869244608
 20
159.1482471762644
 30
0.0
 10
214.4051869244608
 20
160.0780810109355
 30
0.0
 10
214.4051869244608
 20
161.0101752458016
 30
0.0
 10
214.4051869244608
 20
161.6324173041465
 30
0.0
 10
214.4051869244608
 20
161.9437699431451
 30
0.0
  0
SPLINE
  5
158
330
1F
100
AcDbEntity
  8
0
  6
Continuous
 62
     7
370
    15
100
AcDbSpline
210
0.0
220
0.0
230
1.0
 70
    24
 71
     3
 72
    10
 73
     6
 74
     0
 42
0.000000001
 43
0.00000001
 40
0.0
 40
0.0
 40
0.0
 40
0.0
 40
0.5
 40
0.5
 40
1.0
 40
1.0
 40
1.0
 40
1.0
 10
214.4051869244427
 20
161.9437699431451
 30
0.0
 10
214.4051869236968
 20
161.9437699431451
 30
0.0
 10
214.4153363190124
 20
161.9437699431451
 30
0.0
 10
214.4559339017101
 20
161.9437699431451
 30
0.0
 10
214.4862644712753
 20
161.9437699431451
 30
0.0
 10
214.522344211706
 20
161.9437699431451
 30
0.0
  0
SPLINE
  5
159
330
1F
100
AcDbEntity
  8
0
  6
Continuous
 62
     7
370
    15
100
AcDbSpline
210
0.0
220
0.0
230
1.0
 70
     8
 71
     3
 72
     8
 73
     4
 74
     0
 42
0.000000001
 43
0.00000001
 40
0.0
 40
0.0
 40
0.0
 40
0.0
 40
1.0
 40
1.0
 40
1.0
 40
1.0
 10
230.1880296373062
 20
132.1447951456565
 30
0.0
 10
230.263425857897
 20
132.2228940408871
 30
0.0
 10
230.3051869263099
 20
132.329361691902
 30
0.0
 10
230.3051869244789
 20
132.4378756561405
 30
0.0
  0
SPLINE
  5
15A
330
1F
100
AcDbEntity
  8
0
  6
Continuous
 62
     7
370
    15
100
AcDbSpline
210
0.0
220
0.0
230
1.0
 70
    24
 71
     3
 72
    10
 73
     6
 74
     0
 42
0.000000001
 43
0.00000001
 40
0.0
 40
0.0
 40
0.0
 40
0.0
 40
0.5
 40
0.5
 40
1.0
 40
1.0
 40
1.0
 40
1.0
 10
230.1880296369773
 20
161.9437699431451
 30
0.0
 10
230.224109377847
 20
161.9437699431451
 30
0.0
 10
230.2544399477251
 20
161.9437699431451
 30
0.0
 10
230.2950375305272
 20
161.9437699431451
 30
0.0
 10
230.3051869256307
 20
161.9437699431451
 30
0.0
 10
230.3051869244789
 20
161.9437699431451
 30
0.0
  0
SPLINE
  5
15B
330
1F
100
AcDbEntity
  8
0
  6
Continuous
 62
     7
370
    15
100
AcDbSpline
210
0.0
220
0.0
230
1.0
 70
    24
 71
     3
 72
    31
 73
    27
 74
     0
 42
0.000000001
 43
0.00000001
 40
0.0
 40
0.0
 40
0.0
 40
0.0
 40
0.0132396092091617
 40
0.0264660618450863
 40
0.0396832849561651
 40
0.0528952138208074
 40
0.066105788448708
 40
0.0793189500610149
 40
0.0925386375650821
 40
0.1057687840395578
 40
0.1190133132454455
 40
0.1809527911010384
 40
0.2429177637412543
 40
0.306622628900579
 40
0.3703539546717338
 40
0.4995483899434736
 40
0.6288053293865353
 40
0.6926011614643532
 40
0.7564243173477275
 40
0.8185072676796309
 40
0.8806170734034717
 40
0.9045126187218097
 40
0.9283754861280431
 40
0.9522288664741477
 40
0.9760959782668669
 40
1.0
 40
1.0
 40
1.0
 40
1.0
 10
230.3051869244608
 20
161.9437699431451
 30
0.0
 10
230.3051869244608
 20
161.767779255541
 30
0.0
 10
230.3051869244608
 20
161.4159727672448
 30
0.0
 10
230.3051869244608
 20
160.8886291572657
 30
0.0
 10
230.3051869244608
 20
160.3619662573615
 30
0.0
 10
230.3051869244608
 20
159.8359841531746
 30
0.0
 10
230.3051869244608
 20
159.3106831310577
 30
0.0
 10
230.3051869244608
 20
158.7860628025435
 30
0.0
 10
230.3051869244608
 20
158.2621252763576
 30
0.0
 10
230.3051869244608
 20
157.7388633311498
 30
0.0
 10
230.3051869244608
 20
156.5761935783286
 30
0.0
 10
230.3051869244608
 20
154.7855714482851
 30
0.0
 10
230.3051869244608
 20
152.38405859491
 30
0.0
 10
230.3051869244608
 20
150.0232962114102
 30
0.0
 10
230.3051869244608
 20
146.9362247505376
 30
0.0
 10
230.3051869244608
 20
143.3057067415067
 30
0.0
 10
230.3051869244608
 20
140.1154426154088
 30
0.0
 10
230.3051869244608
 20
137.8903384468985
 30
0.0
 10
230.3051869244608
 20
136.4122852800084
 30
0.0
 10
230.3051869244608
 20
135.1180867727239
 30
0.0
 10
230.3051869244608
 20
134.2390528415668
 30
0.0
 10
230.3051869244608
 20
133.661522317781
 30
0.0
 10
230.3051869244608
 20
133.3123474671979
 30
0.0
 10
230.3051869244608
 20
132.9916621863272
 30
0.0
 10
230.3051869244608
 20
132.6968739551662
 30
0.0
 10
230.3051869244608
 20
132.5242528805279
 30
0.0
 10
230.3051869244608
 20
132.4378756561416
 30
0.0
  0
SPLINE
  5
15C
330
1F
100
AcDbEntity
  8
0
  6
Continuous
 62
     7
370
    15
100
AcDbSpline
210
0.0
220
0.0
230
1.0
 70
     8
 71
     3
 72
     8
 73
     4
 74
     0
 42
0.000000001
 43
0.00000001
 40
0.0
 40
0.0
 40
0.0
 40
0.0
 40
1.0
 40
1.0
 40
1.0
 40
1.0
 10
230.3051869244789
 20
191.4496642306376
 30
0.0
 10
230.3051869261867
 20
191.5581791908093
 30
0.0
 10
230.2634253866263
 20
191.6646463334142
 30
0.0
 10
230.1880296375833
 20
191.7427447403469
 30
0.0
  0
SPLINE
  5
15D
330
1F
100
AcDbEntity
  8
0
  6
Continuous
 62
     7
370
    15
100
AcDbSpline
210
0.0
220
0.0
230
1.0
 70
    24
 71
     3
 72
    31
 73
    27
 74
     0
 42
0.000000001
 43
0.00000001
 40
0.0
 40
0.0
 40
0.0
 40
0.0
 40
0.0132812016889388
 40
0.0265491188028612
 40
0.0398077153875875
 40
0.0530609638522497
 40
0.0663128414154689
 40
0.0795673265299493
 40
0.0928283953015211
 40
0.1061000179187325
 40
0.1193861551089748
 40
0.1814697478221898
 40
0.2435789045010258
 40
0.3073751403752084
 40
0.3711978866588496
 40
0.5004548221310404
 40
0.6296492534338298
 40
0.6933536989453395
 40
0.7570854424093362
 40
0.8190239570485667
 40
0.8809898899876775
 40
0.9048104695303595
 40
0.9285987886878955
 40
0.9523778222876182
 40
0.9761705720559226
 40
1.0
 40
1.0
 40
1.0
 40
1.0
 10
230.3051869244608
 20
191.4496642304255
 30
0.0
 10
230.3051869244608
 20
191.4023501074457
 30
0.0
 10
230.3051869244608
 20
191.3077691876265
 30
0.0
 10
230.3051869244608
 20
191.1548244682697
 30
0.0
 10
230.3051869244608
 20
190.9938797686392
 30
0.0
 10
230.3051869244608
 20
190.8241354698619
 30
0.0
 10
230.3051869244608
 20
190.6458057905464
 30
0.0
 10
230.3051869244608
 20
190.4588330150567
 30
0.0
 10
230.3051869244608
 20
190.2632341817141
 30
0.0
 10
230.3051869244608
 20
190.0589991946701
 30
0.0
 10
230.3051869244608
 20
189.5856935800903
 30
0.0
 10
230.3051869244608
 20
188.7696028212396
 30
0.0
 10
230.3051869244608
 20
187.4756494085725
 30
0.0
 10
230.3051869244608
 20
185.9974217825862
 30
0.0
 10
230.3051869244608
 20
183.7723647649825
 30
0.0
 10
230.3051869244608
 20
180.5818329558982
 30
0.0
 10
230.3051869244608
 20
176.9516175565188
 30
0.0
 10
230.3051869244608
 20
173.8645745760655
 30
0.0
 10
230.3051869244608
 20
171.5041586476083
 30
0.0
 10
230.3051869244608
 20
169.1022974691333
 30
0.0
 10
230.3051869244608
 20
167.1736556761336
 30
0.0
 10
230.3051869244608
 20
165.7311672496737
 30
0.0
 10
230.3051869244608
 20
164.7876737912954
 30
0.0
 10
230.3051869244608
 20
163.8418186578845
 30
0.0
 10
230.3051869244608
 20
162.8935840092717
 30
0.0
 10
230.3051869244608
 20
162.2605371541978
 30
0.0
 10
230.3051869244608
 20
161.9437699431451
 30
0.0
  0
SPLINE
  5
15E
330
1F
100
AcDbEntity
  8
0
  6
Continuous
 62
     7
370
    15
100
AcDbSpline
210
0.0
220
0.0
230
1.0
 70
    24
 71
     3
 72
    31
 73
    27
 74
     0
 42
0.000000001
 43
0.00000001
 40
0.0
 40
0.0
 40
0.0
 40
0.0
 40
0.0132547819330006
 40
0.0264968711361932
 40
0.0397300665204496
 40
0.0529581746591516
 40
0.0661850065178842
 40
0.0794143741652008
 40
0.0926500874786285
 40
0.1058959508601271
 40
0.1191557599751217
 40
0.1810884463277486
 40
0.243047162376073
 40
0.3066892811316299
 40
0.3703583835057533
 40
0.4993829934529773
 40
0.628492604224161
 40
0.6922587070831899
 40
0.7560526560711289
 40
0.8181812940694496
 40
0.8803373239639678
 40
0.9042880499961603
 40
0.9282071643754681
 40
0.952117176855972
 40
0.9760406228839057
 40
1.0
 40
1.0
 40
1.0
 40
1.0
 10
214.4051869244608
 20
161.9437699431451
 30
0.0
 10
214.4051869244608
 20
162.1167501067785
 30
0.0
 10
214.4051869244608
 20
162.462544788885
 30
0.0
 10
214.4051869244608
 20
162.9808897483207
 30
0.0
 10
214.4051869244608
 20
163.4985895470115
 30
0.0
 10
214.4051869244608
 20
164.0156441074874
 30
0.0
 10
214.4051869244608
 20
164.5320531628202
 30
0.0
 10
214.4051869244608
 20
165.047817085204
 30
0.0
 10
214.4051869244608
 20
165.5629338810095
 30
0.0
 10
214.4051869244608
 20
166.0774103953779
 30
0.0
 10
214.4051869244608
 20
167.2196137786745
 30
0.0
 10
214.4051869244608
 20
168.9787040767316
 30
0.0
 10
214.4051869244608
 20
171.3386318237688
 30
0.0
 10
214.4051869244608
 20
173.6601412292831
 30
0.0
 10
214.4051869244608
 20
176.6987071646985
 30
0.0
 10
214.4051869244608
 20
180.2816198915802
 30
0.0
 10
214.4051869244608
 20
183.4484230157954
 30
0.0
 10
214.4051869244608
 20
185.6719358592851
 30
0.0
 10
214.4051869244608
 20
187.1582486843814
 30
0.0
 10
214.4051869244608
 20
188.4693360837582
 30
0.0
 10
214.4051869244608
 20
189.3687316648395
 30
0.0
 10
214.4051869244608
 20
189.9648600755032
 30
0.0
 10
214.4051869244608
 20
190.3276167032256
 30
0.0
 10
214.4051869244608
 20
190.6630179659049
 30
0.0
 10
214.4051869244608
 20
190.9735579796621
 30
0.0
 10
214.4051869244608
 20
191.1576095920495
 30
0.0
 10
214.4051869244608
 20
191.2497044540578
 30
0.0
  0
SPLINE
  5
15F
330
1F
100
AcDbEntity
  8
0
  6
Continuous
 62
     7
370
    15
100
AcDbSpline
210
0.0
220
0.0
230
1.0
 70
     8
 71
     3
 72
    10
 73
     6
 74
     0
 42
0.000000001
 43
0.00000001
 40
0.0
 40
0.0
 40
0.0
 40
0.0
 40
0.5
 40
0.5
 40
1.0
 40
1.0
 40
1.0
 40
1.0
 10
214.5223442114065
 20
191.5791445091156
 30
0.0
 10
214.4896895860076
 20
191.5356202504042
 30
0.0
 10
214.4617084711018
 20
191.4870581468816
 30
0.0
 10
214.4190622650631
 20
191.3755798366256
 30
0.0
 10
214.4051869231819
 20
191.3136085462914
 30
0.0
 10
214.4051869244443
 20
191.2497044540611
 30
0.0
  0
LINE
  5
160
330
1F
100
AcDbEntity
  8
0
  6
Continuous
 62
     7
370
    15
100
AcDbLine
 10
368.3184409947
 20
161.9437699431
 30
0.0
 11
368.3184409947
 21
186.9437703157
 31
0.0
  0
LINE
  5
161
330
1F
100
AcDbEntity
  8
0
  6
Continuous
 62
     7
370
    15
100
AcDbLine
 10
368.3184409947
 20
136.9437695706
 30
0.0
 11
368.3184409947
 21
161.9437699431
 31
0.0
  0
LINE
  5
162
330
1F
100
AcDbEntity
  8
0
  6
Continuous
 62
     7
370
    15
100
AcDbLine
 10
371.2051833482
 20
141.9437703902
 30
0.0
 11
371.2051833482
 21
181.9437694961
 31
0.0
  0
LINE
  5
163
330
1F
100
AcDbEntity
  8
0
  6
Continuous
 62
     7
370
    15
100
AcDbLine
 10
350.7051939578
 20
136.9437695706
 30
0.0
 11
350.7051939578
 21
186.9437703157
 31
0.0
  0
LINE
  5
164
330
1F
100
AcDbEntity
  8
0
  6
Continuous
 62
     7
370
    15
100
AcDbLine
 10
348.7051899047
 20
138.9437698984
 30
0.0
 11
348.7051899047
 21
184.9437699878
 31
0.0
  0
LINE
  5
165
330
1F
100
AcDbEntity
  8
0
  6
Continuous
 62
     7
370
    15
100
AcDbLine
 10
330.4551864476
 20
139.4437690491
 30
0.0
 11
330.4551864476
 21
184.4437708372
 31
0.0
  0
LINE
  5
166
330
1F
100
AcDbEntity
  8
0
  6
Continuous
 62
     7
370
    15
100
AcDbLine
 10
333.2051882954
 20
161.9437699431
 30
0.0
 11
333.2051882954
 21
181.6937708521
 31
0.0
  0
LINE
  5
167
330
1F
100
AcDbEntity
  8
0
  6
Continuous
 62
     7
370
    15
100
AcDbLine
 10
333.2051882954
 20
142.1937690342
 30
0.0
 11
333.2051882954
 21
161.9437699431
 31
0.0
  0
LINE
  5
168
330
1F
100
AcDbEntity
  8
0
  6
Continuous
 62
     7
370
    15
100
AcDbLine
 10
211.6877009885
 20
161.9437699431
 30
0.0
 11
211.6877009885
 21
139.9437700624
 31
0.0
  0
LINE
  5
169
330
1F
100
AcDbEntity
  8
0
  6
Continuous
 62
     7
370
    15
100
AcDbLine
 10
211.6877009885
 20
183.9437698239
 30
0.0
 11
211.6877009885
 21
161.9437699431
 31
0.0
  0
LINE
  5
16A
330
1F
100
AcDbEntity
  8
0
  6
Continuous
 62
     7
370
    15
100
AcDbLine
 10
211.2051869245
 20
161.9437699431
 30
0.0
 11
211.2051869245
 21
139.7187699789
 31
0.0
  0
LINE
  5
16B
330
1F
100
AcDbEntity
  8
0
  6
Continuous
 62
     7
370
    15
100
AcDbLine
 10
211.2051869245
 20
184.1687699074
 30
0.0
 11
211.2051869245
 21
161.9437699431
 31
0.0
  0
LINE
  5
16C
330
1F
100
AcDbEntity
  8
0
  6
Continuous
 62
     7
370
    15
100
AcDbLine
 10
339.3496895642
 20
141.1937707329
 30
0.0
 11
339.3496895642
 21
182.6937691534
 31
0.0
  0
LINE
  5
16D
330
1F
100
AcDbEntity
  8
0
  6
Continuous
 62
     7
370
    15
100
AcDbLine
 10
337.205188951
 20
161.9437699431
 30
0.0
 11
337.205188951
 21
181.6937708521
 31
0.0
  0
LINE
  5
16E
330
1F
100
AcDbEntity
  8
0
  6
Continuous
 62
     7
370
    15
100
AcDbLine
 10
337.205188951
 20
142.1937690342
 30
0.0
 11
337.205188951
 21
161.9437699431
 31
0.0
  0
SPLINE
  5
16F
330
1F
100
AcDbEntity
  8
0
  6
Continuous
 62
     7
370
    15
100
AcDbSpline
210
0.0
220
0.0
230
1.0
 70
    24
 71
     3
 72
    14
 73
    10
 74
     0
 42
0.000000001
 43
0.00000001
 40
0.0
 40
0.0
 40
0.0
 40
0.0
 40
0.25
 40
0.25
 40
0.5
 40
0.5
 40
0.75
 40
0.75
 40
1.0
 40
1.0
 40
1.0
 40
1.0
 10
142.805186924746
 20
161.9437699431451
 30
0.0
 10
142.8051869245076
 20
161.9437699431451
 30
0.0
 10
142.8234911061495
 20
161.9437699431451
 30
0.0
 10
142.9045970299902
 20
161.9437699431451
 30
0.0
 10
142.9675811272185
 20
161.9437699431451
 30
0.0
 10
143.1299753306413
 20
161.9437699431451
 30
0.0
 10
143.2290207267851
 20
161.9437699431451
 30
0.0
 10
143.4407817131475
 20
161.9437699431451
 30
0.0
 10
143.5530032476973
 20
161.9437699431451
 30
0.0
 10
143.6608786974658
 20
161.9437699431451
 30
0.0
  0
SPLINE
  5
170
330
1F
100
AcDbEntity
  8
0
  6
Continuous
 62
     7
370
    15
100
AcDbSpline
210
0.0
220
0.0
230
1.0
 70
    24
 71
     3
 72
    22
 73
    18
 74
     0
 42
0.000000001
 43
0.00000001
 40
0.0
 40
0.0
 40
0.0
 40
0.0
 40
0.1249999999999999
 40
0.1249999999999999
 40
0.2499999999999998
 40
0.2499999999999998
 40
0.3749999999999998
 40
0.3749999999999998
 40
0.4999999999999997
 40
0.4999999999999997
 40
0.6249999999999998
 40
0.6249999999999998
 40
0.7499999999999999
 40
0.7499999999999999
 40
0.875
 40
0.875
 40
1.0
 40
1.0
 40
1.0
 40
1.0
 10
142.805186924746
 20
173.3289325305873
 30
0.0
 10
142.805186924746
 20
173.3289325305772
 30
0.0
 10
142.805186924746
 20
173.2085686815176
 30
0.0
 10
142.805186924746
 20
172.7486709896088
 30
0.0
 10
142.805186924746
 20
172.4097152512867
 30
0.0
 10
142.805186924746
 20
171.5692880245262
 30
0.0
 10
142.805186924746
 20
171.0685643531149
 30
0.0
 10
142.805186924746
 20
169.9746999799181
 30
0.0
 10
142.805186924746
 20
169.382076166899
 30
0.0
 10
142.805186924746
 20
168.1676588242437
 30
0.0
 10
142.805186924746
 20
167.5460384334104
 30
0.0
 10
142.805186924746
 20
166.319509113725
 30
0.0
 10
142.805186924746
 20
165.7145357920836
 30
0.0
 10
142.805186924746
 20
164.5486951431367
 30
0.0
 10
142.805186924746
 20
163.9876721832942
 30
0.0
 10
142.805186924746
 20
162.922477239468
 30
0.0
 10
142.805186924746
 20
162.4181517176193
 30
0.0
 10
142.805186924746
 20
161.9437699431451
 30
0.0
  0
SPLINE
  5
171
330
1F
100
AcDbEntity
  8
0
  6
Continuous
 62
     7
370
    15
100
AcDbSpline
210
0.0
220
0.0
230
1.0
 70
    24
 71
     3
 72
    22
 73
    18
 74
     0
 42
0.000000001
 43
0.00000001
 40
0.0
 40
0.0
 40
0.0
 40
0.0
 40
0.125
 40
0.125
 40
0.25
 40
0.25
 40
0.375
 40
0.375
 40
0.5
 40
0.5
 40
0.625
 40
0.625
 40
0.75
 40
0.75
 40
0.875
 40
0.875
 40
1.0
 40
1.0
 40
1.0
 40
1.0
 10
142.805186924746
 20
161.9437699431451
 30
0.0
 10
142.805186924746
 20
161.4693881686658
 30
0.0
 10
142.805186924746
 20
160.9650626468114
 30
0.0
 10
142.805186924746
 20
159.8998677029726
 30
0.0
 10
142.805186924746
 20
159.3388447431232
 30
0.0
 10
142.805186924746
 20
158.1730040941619
 30
0.0
 10
142.805186924746
 20
157.5680307725131
 30
0.0
 10
142.805186924746
 20
156.3415014528136
 30
0.0
 10
142.805186924746
 20
155.7198810619736
 30
0.0
 10
142.805186924746
 20
154.5054637193078
 30
0.0
 10
142.805186924746
 20
153.9128399062851
 30
0.0
 10
142.805186924746
 20
152.8189755330865
 30
0.0
 10
142.805186924746
 20
152.318251861677
 30
0.0
 10
142.805186924746
 20
151.4778246349282
 30
0.0
 10
142.805186924746
 20
151.1388688966159
 30
0.0
 10
142.805186924746
 20
150.6789712047346
 30
0.0
 10
142.805186924746
 20
150.5586073556927
 30
0.0
 10
142.805186924746
 20
150.5586073557029
 30
0.0
  0
LINE
  5
172
330
1F
100
AcDbEntity
  8
0
  6
Continuous
 62
     7
370
    15
100
AcDbLine
 10
214.4051868436
 20
191.2497048492
 30
0.0
 11
214.4051868436
 21
192.5280847812
 31
0.0
  0
LINE
  5
173
330
1F
100
AcDbEntity
  8
0
  6
Continuous
 62
     7
370
    15
100
AcDbLine
 10
214.4051868436
 20
131.3594551051
 30
0.0
 11
214.4051868436
 21
132.6378350371
 31
0.0
  0
LINE
  5
174
330
1F
100
AcDbEntity
  8
0
  6
Continuous
 62
     7
370
    15
100
AcDbLine
 10
230.3051861436
 20
131.3594551051
 30
0.0
 11
230.3051861436
 21
132.4378763551
 31
0.0
  0
LINE
  5
175
330
1F
100
AcDbEntity
  8
0
  6
Continuous
 62
     7
370
    15
100
AcDbLine
 10
230.3051861436
 20
191.4496635312
 30
0.0
 11
230.3051861436
 21
192.5280847812
 31
0.0
  0
LINE
  5
176
330
1F
100
AcDbEntity
  8
0
  6
Continuous
 62
     8
370
    15
100
AcDbLine
 10
229.1395018311
 20
192.5067388678
 30
0.0
 11
229.1395018311
 21
193.6937709564
 31
0.0
  0
LINE
  5
177
330
1F
100
AcDbEntity
  8
0
  6
Continuous
 62
     8
370
    15
100
AcDbLine
 10
229.1395018311
 20
130.1937689299
 30
0.0
 11
229.1395018311
 21
131.4141032511
 31
0.0
  0
LINE
  5
178
330
1F
100
AcDbEntity
  8
0
  6
Continuous
 62
     8
370
    15
100
AcDbLine
 10
215.5708723204
 20
192.5067388678
 30
0.0
 11
215.5708723204
 21
193.6937709564
 31
0.0
  0
LINE
  5
179
330
1F
100
AcDbEntity
  8
0
  6
Continuous
 62
     8
370
    15
100
AcDbLine
 10
215.5708723204
 20
130.1937689299
 30
0.0
 11
215.5708723204
 21
131.4141032511
 31
0.0
  0
LINE
  5
17A
330
1F
100
AcDbEntity
  8
0
  6
Continuous
 62
     8
370
    15
100
AcDbLine
 10
214.0051868246
 20
161.9437699431
 30
0.0
 11
214.0051868246
 21
183.9437698239
 31
0.0
  0
LINE
  5
17B
330
1F
100
AcDbEntity
  8
0
  6
Continuous
 62
     8
370
    15
100
AcDbLine
 10
214.0051868246
 20
139.9437700624
 30
0.0
 11
214.0051868246
 21
161.9437699431
 31
0.0
  0
LINE
  5
17C
330
1F
100
AcDbEntity
  8
0
  6
Continuous
 62
     8
370
    15
100
AcDbLine
 10
143.6608756394
 20
161.9437699393
 30
0.0
 11
143.6608756394
 21
149.5690745527
 31
0.0
  0
LINE
  5
17D
330
1F
100
AcDbEntity
  8
0
  6
Continuous
 62
     8
370
    15
100
AcDbLine
 10
143.6608756394
 20
174.3184653336
 30
0.0
 11
143.6608756394
 21
161.9437699393
 31
0.0
  0
LINE
  5
17E
330
1F
100
AcDbEntity
  8
0
  6
Continuous
 62
     8
370
    15
100
AcDbLine
 10
214.5223441967
 20
191.5791453088
 30
0.0
 11
214.5223441967
 21
192.8109274471
 31
0.0
  0
LINE
  5
17F
330
1F
100
AcDbEntity
  8
0
  6
Continuous
 62
     8
370
    15
100
AcDbLine
 10
214.5223441967
 20
131.0766124392
 30
0.0
 11
214.5223441967
 21
132.3083945775
 31
0.0
  0
LINE
  5
180
330
1F
100
AcDbEntity
  8
0
  6
Continuous
 62
     8
370
    15
100
AcDbLine
 10
215.2880296544
 20
130.3109255845
 30
0.0
 11
215.2880296544
 21
131.4961006159
 31
0.0
  0
LINE
  5
181
330
1F
100
AcDbEntity
  8
0
  6
Continuous
 62
     8
370
    15
100
AcDbLine
 10
215.2880296544
 20
192.411702987
 30
0.0
 11
215.2880296544
 21
193.5766143018
 31
0.0
  0
LINE
  5
182
330
1F
100
AcDbEntity
  8
0
  6
Continuous
 62
     8
370
    15
100
AcDbLine
 10
229.422344497
 20
130.3109255845
 30
0.0
 11
229.422344497
 21
131.4961006159
 31
0.0
  0
LINE
  5
183
330
1F
100
AcDbEntity
  8
0
  6
Continuous
 62
     8
370
    15
100
AcDbLine
 10
229.422344497
 20
192.411702987
 30
0.0
 11
229.422344497
 21
193.5766143018
 31
0.0
  0
LINE
  5
184
330
1F
100
AcDbEntity
  8
0
  6
Continuous
 62
     8
370
    15
100
AcDbLine
 10
230.188029489
 20
131.0766124392
 30
0.0
 11
230.188029489
 21
132.1447947288
 31
0.0
  0
LINE
  5
185
330
1F
100
AcDbEntity
  8
0
  6
Continuous
 62
     8
370
    15
100
AcDbLine
 10
230.188029489
 20
191.7427451575
 30
0.0
 11
230.188029489
 21
192.8109274471
 31
0.0
  0
DIMENSION
  5
186
330
1F
100
AcDbEntity
  8
DIM
100
AcDbDimension
  2
_D
 10
371.2051869245
 20
111.9202139787
 30
0.0
 11
246.7222856572
 21
111.9202139787
 31
0.0
 70
   160
  1
<>
 71
     2
 42
-1.0
  3
SLDDIMSTYLE0
100
AcDbAlignedDimension
 13
142.8051869246
 23
161.9437699431
 33
0.0
 14
371.2051869245
 24
141.9437699431
 34
0.0
 50
0.0
100
AcDbRotatedDimension
  0
DIMENSION
  5
191
330
1F
100
AcDbEntity
  8
DIM
100
AcDbDimension
  2
_D_1
 10
371.2051869245
 20
122.1144432166
 30
0.0
 11
280.8877588512
 21
122.1144432166
 31
0.0
 70
   160
  1
<>
 71
     2
 42
-1.0
  3
SLDDIMSTYLE1
100
AcDbAlignedDimension
 13
211.2051869245
 23
139.7187699431
 33
0.0
 14
371.2051869245
 24
141.9437699431
 34
0.0
100
AcDbRotatedDimension
  0
DIMENSION
  5
19C
330
1F
100
AcDbEntity
  8
DIM
100
AcDbDimension
  2
_D_2
 10
128.518063512
 20
130.1937699431
 30
0.0
 11
128.518063512
 21
164.8806948244
 31
0.0
 70
   160
  1
%%c<>
 71
     2
 42
-1.0
  3
SLDDIMSTYLE0
100
AcDbAlignedDimension
 13
215.5708723496
 23
193.6937699431
 33
0.0
 14
215.5708723496
 24
130.1937699431
 34
0.0
 50
90.0
100
AcDbRotatedDimension
  0
DIMENSION
  5
1A7
330
1F
100
AcDbEntity
  8
DIM
100
AcDbDimension
  2
_D_3
 10
388.1109886457
 20
136.9437699431
 30
0.0
 11
388.1109886457
 21
161.9437699431
 31
0.0
 70
   160
  1
%%c<>
 71
     2
 42
-1.0
  3
SLDDIMSTYLE1
100
AcDbAlignedDimension
 13
368.3184355785
 23
186.9437699431
 33
0.0
 14
368.3184355785
 24
136.9437699431
 34
0.0
 50
90.0
100
AcDbRotatedDimension
  0
DIMENSION
  5
1B2
330
1F
100
AcDbEntity
  8
DIM
100
AcDbDimension
  2
_D_4
 10
380.1869561622
 20
139.4437699431
 30
0.0
 11
380.1869561622
 21
161.9437699431
 31
0.0
 70
   160
  1
%%c<>
 71
     2
 42
-1.0
  3
SLDDIMSTYLE1
100
AcDbAlignedDimension
 13
330.4551869245
 23
184.4437699431
 33
0.0
 14
330.4551869245
 24
139.4437699431
 34
0.0
 50
90.0
100
AcDbRotatedDimension
  0
LINE
  5
1BD
330
1F
100
AcDbEntity
  8
DIM
  6
CENTERX2
 48
1.4
370
     0
100
AcDbLine
 10
141.0142621732
 20
161.9437699431
 30
0.0
 11
374.7170722079
 21
161.9437699431
 31
0.0
  0
ENDSEC
  0
SECTION
  2
OBJECTS
  0
DICTIONARY
  5
C
330
0
100
AcDbDictionary
281
     1
  3
ACAD_GROUP
350
D
  3
ACAD_LAYOUT
350
1A
  3
ACAD_MLINESTYLE
350
17
  3
ACAD_PLOTSETTINGS
350
19
  3
ACAD_PLOTSTYLENAME
350
E
  3
ACAD_SCALELIST
350
47
  0
DICTIONARY
  5
D
102
{ACAD_REACTORS
330
C
102
}
330
C
100
AcDbDictionary
281
     1
  0
DICTIONARY
  5
1A
102
{ACAD_REACTORS
330
C
102
}
330
C
100
AcDbDictionary
281
     1
  3
Layout1
350
1E
  3
Layout2
350
26
  3
Model
350
22
  0
DICTIONARY
  5
17
102
{ACAD_REACTORS
330
C
102
}
330
C
100
AcDbDictionary
281
     1
  3
Standard
350
18
  0
DICTIONARY
  5
19
102
{ACAD_REACTORS
330
C
102
}
330
C
100
AcDbDictionary
281
     1
  0
ACDBDICTIONARYWDFLT
  5
E
102
{ACAD_REACTORS
330
C
102
}
330
C
100
AcDbDictionary
281
     1
  3
Normal
350
F
100
AcDbDictionaryWithDefault
340
F
  0
DICTIONARY
  5
47
102
{ACAD_REACTORS
330
C
102
}
330
C
100
AcDbDictionary
281
     1
  3
A0
350
48
  3
A1
350
49
  3
A2
350
4A
  3
A3
350
4B
  3
A4
350
4C
  3
A5
350
4D
  3
A6
350
4E
  3
A7
350
4F
  3
A8
350
50
  3
A9
350
51
  3
B0
350
52
  3
B1
350
53
  3
B2
350
54
  3
B3
350
55
  3
B4
350
56
  3
B5
350
57
  3
B6
350
58
  3
B7
350
59
  3
B8
350
5A
  3
B9
350
5B
  3
C0
350
5C
  3
C1
350
5D
  3
C2
350
5E
  3
C3
350
5F
  3
C4
350
60
  3
C5
350
61
  3
C6
350
62
  3
C7
350
63
  3
C8
350
64
  3
C9
350
65
  3
D0
350
66
  3
D1
350
67
  3
D2
350
68
  0
LAYOUT
  5
1E
102
{ACAD_REACTORS
330
1A
102
}
330
1A
100
AcDbPlotSettings
  1

  2
none_device
  4

  6

 40
0.0
 41
0.0
 42
0.0
 43
0.0
 44
0.0
 45
0.0
 46
0.0
 47
0.0
 48
0.0
 49
0.0
140
0.0
141
0.0
142
1.0
143
1.0
 70
   688
 72
     1
 73
     0
 74
     5
  7

 75
    16
147
1.0
148
0.0
149
0.0
100
AcDbLayout
  1
Layout1
 70
     1
 71
     1
 10
0.0
 20
0.0
 11
420.0
 21
297.0
 12
0.0
 22
0.0
 32
0.0
 14
1.0000000000E+20
 24
1.0000000000E+20
 34
1.0000000000E+20
 15
-1.0000000000E+20
 25
-1.0000000000E+20
 35
-1.0000000000E+20
146
0.0
 13
0.0
 23
0.0
 33
0.0
 16
1.0
 26
0.0
 36
0.0
 17
0.0
 27
1.0
 37
0.0
 76
     0
330
1B
  0
LAYOUT
  5
26
102
{ACAD_REACTORS
330
1A
102
}
330
1A
100
AcDbPlotSettings
  1

  2
none_device
  4

  6

 40
0.0
 41
0.0
 42
0.0
 43
0.0
 44
0.0
 45
0.0
 46
0.0
 47
0.0
 48
0.0
 49
0.0
140
0.0
141
0.0
142
1.0
143
1.0
 70
   688
 72
     1
 73
     0
 74
     5
  7

 75
    16
147
1.0
148
0.0
149
0.0
100
AcDbLayout
  1
Layout2
 70
     1
 71
     2
 10
0.0
 20
0.0
 11
0.0
 21
0.0
 12
0.0
 22
0.0
 32
0.0
 14
0.0
 24
0.0
 34
0.0
 15
0.0
 25
0.0
 35
0.0
146
0.0
 13
0.0
 23
0.0
 33
0.0
 16
1.0
 26
0.0
 36
0.0
 17
0.0
 27
1.0
 37
0.0
 76
     0
330
23
  0
LAYOUT
  5
22
102
{ACAD_REACTORS
330
1A
102
}
330
1A
100
AcDbPlotSettings
  1

  2
none_device
  4
Letter_(8.50_x_11.00_Inches)
  6

 40
6.35
 41
6.35
 42
6.35000508
 43
6.35000508
 44
215.9
 45
279.4
 46
0.0
 47
0.0
 48
0.0
 49
0.0
140
0.0
141
0.0
142
1.0
143
1.0
 70
  1712
 72
     1
 73
     0
 74
     0
  7

 75
     0
147
1.0
148
0.0
149
0.0
100
AcDbLayout
  1
Model
 70
     1
 71
     0
 10
0.0
 20
0.0
 11
424.2857142857
 21
300.0
 12
0.0
 22
0.0
 32
0.0
 14
0.0
 24
0.0
 34
0.0
 15
424.2857142857
 25
300.0
 35
0.0
146
0.0
 13
0.0
 23
0.0
 33
0.0
 16
1.0
 26
0.0
 36
0.0
 17
0.0
 27
1.0
 37
0.0
 76
     0
330
1F
331
29
  0
MLINESTYLE
  5
18
102
{ACAD_REACTORS
330
17
102
}
330
17
100
AcDbMlineStyle
  2
Standard
 70
     0
  3

 62
   256
 51
90.0
 52
90.0
 71
     2
 49
0.5
 62
   256
  6
BYLAYER
 49
-0.5
 62
   256
  6
BYLAYER
  0
ACDBPLACEHOLDER
  5
F
102
{ACAD_REACTORS
330
E
102
}
330
E
  0
SCALE
  5
48
102
{ACAD_REACTORS
330
47
102
}
330
47
100
AcDbScale
 70
     0
300
1:1
140
1.0
141
1.0
290
     1
  0
SCALE
  5
49
102
{ACAD_REACTORS
330
47
102
}
330
47
100
AcDbScale
 70
     0
300
1:2
140
1.0
141
2.0
290
     0
  0
SCALE
  5
4A
102
{ACAD_REACTORS
330
47
102
}
330
47
100
AcDbScale
 70
     0
300
1:4
140
1.0
141
4.0
290
     0
  0
SCALE
  5
4B
102
{ACAD_REACTORS
330
47
102
}
330
47
100
AcDbScale
 70
     0
300
1:5
140
1.0
141
5.0
290
     0
  0
SCALE
  5
4C
102
{ACAD_REACTORS
330
47
102
}
330
47
100
AcDbScale
 70
     0
300
1:8
140
1.0
141
8.0
290
     0
  0
SCALE
  5
4D
102
{ACAD_REACTORS
330
47
102
}
330
47
100
AcDbScale
 70
     0
300
1:10
140
1.0
141
10.0
290
     0
  0
SCALE
  5
4E
102
{ACAD_REACTORS
330
47
102
}
330
47
100
AcDbScale
 70
     0
300
1:16
140
1.0
141
16.0
290
     0
  0
SCALE
  5
4F
102
{ACAD_REACTORS
330
47
102
}
330
47
100
AcDbScale
 70
     0
300
1:20
140
1.0
141
20.0
290
     0
  0
SCALE
  5
50
102
{ACAD_REACTORS
330
47
102
}
330
47
100
AcDbScale
 70
     0
300
1:30
140
1.0
141
30.0
290
     0
  0
SCALE
  5
51
102
{ACAD_REACTORS
330
47
102
}
330
47
100
AcDbScale
 70
     0
300
1:40
140
1.0
141
40.0
290
     0
  0
SCALE
  5
52
102
{ACAD_REACTORS
330
47
102
}
330
47
100
AcDbScale
 70
     0
300
1:50
140
1.0
141
50.0
290
     0
  0
SCALE
  5
53
102
{ACAD_REACTORS
330
47
102
}
330
47
100
AcDbScale
 70
     0
300
1:100
140
1.0
141
100.0
290
     0
  0
SCALE
  5
54
102
{ACAD_REACTORS
330
47
102
}
330
47
100
AcDbScale
 70
     0
300
2:1
140
2.0
141
1.0
290
     0
  0
SCALE
  5
55
102
{ACAD_REACTORS
330
47
102
}
330
47
100
AcDbScale
 70
     0
300
4:1
140
4.0
141
1.0
290
     0
  0
SCALE
  5
56
102
{ACAD_REACTORS
330
47
102
}
330
47
100
AcDbScale
 70
     0
300
8:1
140
8.0
141
1.0
290
     0
  0
SCALE
  5
57
102
{ACAD_REACTORS
330
47
102
}
330
47
100
AcDbScale
 70
     0
300
10:1
140
10.0
141
1.0
290
     0
  0
SCALE
  5
58
102
{ACAD_REACTORS
330
47
102
}
330
47
100
AcDbScale
 70
     0
300
100:1
140
100.0
141
1.0
290
     0
  0
SCALE
  5
59
102
{ACAD_REACTORS
330
47
102
}
330
47
100
AcDbScale
 70
     0
300
1/128" = 1'-0"
140
0.0078125
141
12.0
290
     0
  0
SCALE
  5
5A
102
{ACAD_REACTORS
330
47
102
}
330
47
100
AcDbScale
 70
     0
300
1/64" = 1'-0"
140
0.015625
141
12.0
290
     0
  0
SCALE
  5
5B
102
{ACAD_REACTORS
330
47
102
}
330
47
100
AcDbScale
 70
     0
300
1/32" = 1'-0"
140
0.03125
141
12.0
290
     0
  0
SCALE
  5
5C
102
{ACAD_REACTORS
330
47
102
}
330
47
100
AcDbScale
 70
     0
300
1/16" = 1'-0"
140
0.0625
141
12.0
290
     0
  0
SCALE
  5
5D
102
{ACAD_REACTORS
330
47
102
}
330
47
100
AcDbScale
 70
     0
300
3/32" = 1'-0"
140
0.09375
141
12.0
290
     0
  0
SCALE
  5
5E
102
{ACAD_REACTORS
330
47
102
}
330
47
100
AcDbScale
 70
     0
300
1/8" = 1'-0"
140
0.125
141
12.0
290
     0
  0
SCALE
  5
5F
102
{ACAD_REACTORS
330
47
102
}
330
47
100
AcDbScale
 70
     0
300
3/16" = 1'-0"
140
0.1875
141
12.0
290
     0
  0
SCALE
  5
60
102
{ACAD_REACTORS
330
47
102
}
330
47
100
AcDbScale
 70
     0
300
1/4" = 1'-0"
140
0.25
141
12.0
290
     0
  0
SCALE
  5
61
102
{ACAD_REACTORS
330
47
102
}
330
47
100
AcDbScale
 70
     0
300
3/8" = 1'-0"
140
0.375
141
12.0
290
     0
  0
SCALE
  5
62
102
{ACAD_REACTORS
330
47
102
}
330
47
100
AcDbScale
 70
     0
300
1/2" = 1'-0"
140
0.5
141
12.0
290
     0
  0
SCALE
  5
63
102
{ACAD_REACTORS
330
47
102
}
330
47
100
AcDbScale
 70
     0
300
3/4" = 1'-0"
140
0.75
141
12.0
290
     0
  0
SCALE
  5
64
102
{ACAD_REACTORS
330
47
102
}
330
47
100
AcDbScale
 70
     0
300
1" = 1'-0"
140
1.0
141
12.0
290
     0
  0
SCALE
  5
65
102
{ACAD_REACTORS
330
47
102
}
330
47
100
AcDbScale
 70
     0
300
1-1/2" = 1'-0"
140
1.5
141
12.0
290
     0
  0
SCALE
  5
66
102
{ACAD_REACTORS
330
47
102
}
330
47
100
AcDbScale
 70
     0
300
3" = 1'-0"
140
3.0
141
12.0
290
     0
  0
SCALE
  5
67
102
{ACAD_REACTORS
330
47
102
}
330
47
100
AcDbScale
 70
     0
300
6" = 1'-0"
140
6.0
141
12.0
290
     0
  0
SCALE
  5
68
102
{ACAD_REACTORS
330
47
102
}
330
47
100
AcDbScale
 70
     0
300
1'-0" = 1'-0"
140
12.0
141
12.0
290
     0
  0
ENDSEC
  0
EOF
