  0
SECTION
  2
HEADER
  9
$ACADVER
  1
AC1015
  9
$ACADMAINTVER
 70
     6
  9
$DWGCODEPAGE
  3
ANSI_1252
  9
$INSBASE
 10
0.0
 20
0.0
 30
0.0
  9
$EXTMIN
 10
0.0
 20
0.0
 30
0.0
  9
$EXTMAX
 10
534.6
 20
378.0
 30
0.0
  9
$LIMMIN
 10
0.0
 20
0.0
  9
$LIMMAX
 10
534.6
 20
378.0
  9
$ORTHOMODE
 70
     0
  9
$REGENMODE
 70
     1
  9
$FILLMODE
 70
     1
  9
$QTEXTMODE
 70
     0
  9
$MIRRTEXT
 70
     1
  9
$LTSCALE
 40
1.8
  9
$ATTMODE
 70
     1
  9
$TEXTSIZE
 40
6.985
  9
$TRACEWID
 40
1.0
  9
$TEXTSTYLE
  7
Standard
  9
$CLAYER
  8
0
  9
$CELTYPE
  6
ByLayer
  9
$CECOLOR
 62
   256
  9
$CELTSCALE
 40
1.0
  9
$DISPSILH
 70
     0
  9
$DIMSCALE
 40
1.0
  9
$DIMASZ
 40
5.9436
  9
$DIMEXO
 40
1.8
  9
$DIMDLI
 40
3.75
  9
$DIMRND
 40
0.0
  9
$DIMDLE
 40
0.0
  9
$DIMEXE
 40
1.8
  9
$DIMTP
 40
0.0
  9
$DIMTM
 40
0.0
  9
$DIMTXT
 40
6.985
  9
$DIMCEN
 40
2.5
  9
$DIMTSZ
 40
0.0
  9
$DIMTOL
 70
     0
  9
$DIMLIM
 70
     0
  9
$DIMTIH
 70
     1
  9
$DIMTOH
 70
     1
  9
$DIMSE1
 70
     0
  9
$DIMSE2
 70
     0
  9
$DIMTAD
 70
     1
  9
$DIMZIN
 70
     0
  9
$DIMBLK
  1

  9
$DIMASO
 70
     1
  9
$DIMSHO
 70
     1
  9
$DIMPOST
  1

  9
$DIMAPOST
  1

  9
$DIMALT
 70
     0
  9
$DIMALTD
 70
     3
  9
$DIMALTF
 40
0.0393700787
  9
$DIMLFAC
 40
1.0
  9
$DIMTOFL
 70
     1
  9
$DIMTVP
 40
0.0
  9
$DIMTIX
 70
     0
  9
$DIMSOXD
 70
     0
  9
$DIMSAH
 70
     0
  9
$DIMBLK1
  1

  9
$DIMBLK2
  1

  9
$DIMSTYLE
  2
ISO-25
  9
$DIMCLRD
 70
     0
  9
$DIMCLRE
 70
     0
  9
$DIMCLRT
 70
     0
  9
$DIMTFAC
 40
1.0
  9
$DIMGAP
 40
2.7432
  9
$DIMJUST
 70
     0
  9
$DIMSD1
 70
     0
  9
$DIMSD2
 70
     0
  9
$DIMTOLJ
 70
     0
  9
$DIMTZIN
 70
     0
  9
$DIMALTZ
 70
     0
  9
$DIMALTTZ
 70
     0
  9
$DIMUPT
 70
     0
  9
$DIMDEC
 70
     2
  9
$DIMTDEC
 70
     2
  9
$DIMALTU
 70
     2
  9
$DIMALTTD
 70
     3
  9
$DIMTXSTY
  7
Standard
  9
$DIMAUNIT
 70
     0
  9
$DIMADEC
 70
     2
  9
$DIMALTRND
 40
0.0
  9
$DIMAZIN
 70
     0
  9
$DIMDSEP
 70
    44
  9
$DIMATFIT
 70
     3
  9
$DIMFRAC
 70
     0
  9
$DIMLDRBLK
  1

  9
$DIMLUNIT
 70
     2
  9
$DIMLWD
 70
    -2
  9
$DIMLWE
 70
    -2
  9
$DIMTMOVE
 70
     0
  9
$LUNITS
 70
     2
  9
$LUPREC
 70
     2
  9
$SKETCHINC
 40
1.0
  9
$FILLETRAD
 40
10.0
  9
$AUNITS
 70
     1
  9
$AUPREC
 70
     2
  9
$MENU
  1
.
  9
$ELEVATION
 40
0.0
  9
$PELEVATION
 40
0.0
  9
$THICKNESS
 40
0.0
  9
$LIMCHECK
 70
     0
  9
$CHAMFERA
 40
0.0
  9
$CHAMFERB
 40
0.0
  9
$CHAMFERC
 40
0.0
  9
$CHAMFERD
 40
0.0
  9
$SKPOLY
 70
     0
  9
$TDCREATE
 40
2458600.643480104
  9
$TDUCREATE
 40
2458600.414313437
  9
$TDUPDATE
 40
2458600.643481146
  9
$TDUUPDATE
 40
2458600.414314479
  9
$TDINDWG
 40
0.0000000116
  9
$TDUSRTIMER
 40
0.0000000116
  9
$USRTIMER
 70
     1
  9
$ANGBASE
 50
0.0
  9
$ANGDIR
 70
     0
  9
$PDMODE
 70
     0
  9
$PDSIZE
 40
-1.0
  9
$PLINEWID
 40
0.0
  9
$SPLFRAME
 70
     0
  9
$SPLINETYPE
 70
     6
  9
$SPLINESEGS
 70
     8
  9
$HANDSEED
  5
18A
  9
$SURFTAB1
 70
     6
  9
$SURFTAB2
 70
     6
  9
$SURFTYPE
 70
     6
  9
$SURFU
 70
     6
  9
$SURFV
 70
     6
  9
$UCSBASE
  2

  9
$UCSNAME
  2

  9
$UCSORG
 10
0.0
 20
0.0
 30
0.0
  9
$UCSXDIR
 10
1.0
 20
0.0
 30
0.0
  9
$UCSYDIR
 10
0.0
 20
1.0
 30
0.0
  9
$UCSORTHOREF
  2

  9
$UCSORTHOVIEW
 70
     0
  9
$UCSORGTOP
 10
0.0
 20
0.0
 30
0.0
  9
$UCSORGBOTTOM
 10
0.0
 20
0.0
 30
0.0
  9
$UCSORGLEFT
 10
0.0
 20
0.0
 30
0.0
  9
$UCSORGRIGHT
 10
0.0
 20
0.0
 30
0.0
  9
$UCSORGFRONT
 10
0.0
 20
0.0
 30
0.0
  9
$UCSORGBACK
 10
0.0
 20
0.0
 30
0.0
  9
$PUCSBASE
  2

  9
$PUCSNAME
  2

  9
$PUCSORG
 10
0.0
 20
0.0
 30
0.0
  9
$PUCSXDIR
 10
1.0
 20
0.0
 30
0.0
  9
$PUCSYDIR
 10
0.0
 20
1.0
 30
0.0
  9
$PUCSORTHOREF
  2

  9
$PUCSORTHOVIEW
 70
     0
  9
$PUCSORGTOP
 10
0.0
 20
0.0
 30
0.0
  9
$PUCSORGBOTTOM
 10
0.0
 20
0.0
 30
0.0
  9
$PUCSORGLEFT
 10
0.0
 20
0.0
 30
0.0
  9
$PUCSORGRIGHT
 10
0.0
 20
0.0
 30
0.0
  9
$PUCSORGFRONT
 10
0.0
 20
0.0
 30
0.0
  9
$PUCSORGBACK
 10
0.0
 20
0.0
 30
0.0
  9
$USERI1
 70
     0
  9
$USERI2
 70
     0
  9
$USERI3
 70
     0
  9
$USERI4
 70
     0
  9
$USERI5
 70
     0
  9
$USERR1
 40
0.0
  9
$USERR2
 40
0.0
  9
$USERR3
 40
0.0
  9
$USERR4
 40
0.0
  9
$USERR5
 40
0.0
  9
$WORLDVIEW
 70
     1
  9
$SHADEDGE
 70
     3
  9
$SHADEDIF
 70
    70
  9
$TILEMODE
 70
     1
  9
$MAXACTVP
 70
    64
  9
$PINSBASE
 10
0.0
 20
0.0
 30
0.0
  9
$PLIMCHECK
 70
     0
  9
$PEXTMIN
 10
1.0000000000E+20
 20
1.0000000000E+20
 30
1.0000000000E+20
  9
$PEXTMAX
 10
-1.0000000000E+20
 20
-1.0000000000E+20
 30
-1.0000000000E+20
  9
$PLIMMIN
 10
0.0
 20
0.0
  9
$PLIMMAX
 10
420.0
 20
297.0
  9
$UNITMODE
 70
     0
  9
$VISRETAIN
 70
     1
  9
$PLINEGEN
 70
     0
  9
$PSLTSCALE
 70
     1
  9
$TREEDEPTH
 70
  3020
  9
$CMLSTYLE
  2
Standard
  9
$CMLJUST
 70
     0
  9
$CMLSCALE
 40
20.0
  9
$PROXYGRAPHICS
 70
     1
  9
$MEASUREMENT
 70
     1
  9
$CELWEIGHT
370
    -1
  9
$ENDCAPS
280
     0
  9
$JOINSTYLE
280
     0
  9
$LWDISPLAY
290
     1
  9
$INSUNITS
 70
     4
  9
$HYPERLINKBASE
  1

  9
$STYLESHEET
  1

  9
$XEDIT
290
     1
  9
$CEPSNTYPE
380
     0
  9
$PSTYLEMODE
290
     1
  9
$FINGERPRINTGUID
  2
{ABDE8ACB-3B35-40D4-B68B-C4ACFCD5038F}
  9
$VERSIONGUID
  2
{FAEB1C32-E019-11D5-929B-00C0DF256EC4}
  9
$EXTNAMES
290
     1
  9
$PSVPSCALE
 40
0.0
  9
$OLESTARTUP
290
     0
  0
ENDSEC
  0
SECTION
  2
CLASSES
  0
CLASS
  1
ACDBDICTIONARYWDFLT
  2
AcDbDictionaryWithDefault
  3
ObjectDBX Classes
 90
        0
280
     0
281
     0
  0
CLASS
  1
VISUALSTYLE
  2
AcDbVisualStyle
  3
ObjectDBX Classes
 90
     4095
280
     0
281
     0
  0
CLASS
  1
MATERIAL
  2
AcDbMaterial
  3
ObjectDBX Classes
 90
     1153
280
     0
281
     0
  0
CLASS
  1
SCALE
  2
AcDbScale
  3
ObjectDBX Classes
 90
     1153
280
     0
281
     0
  0
CLASS
  1
SUN
  2
AcDbSun
  3
SCENEOE
 90
     1153
280
     0
281
     0
  0
CLASS
  1
ACDBPLACEHOLDER
  2
AcDbPlaceHolder
  3
ObjectDBX Classes
 90
        0
280
     0
281
     0
  0
CLASS
  1
LAYOUT
  2
AcDbLayout
  3
ObjectDBX Classes
 90
        0
280
     0
281
     0
  0
ENDSEC
  0
SECTION
  2
TABLES
  0
TABLE
  2
VPORT
  5
8
330
0
100
AcDbSymbolTable
 70
     1
  0
VPORT
  5
29
330
8
100
AcDbSymbolTableRecord
100
AcDbViewportTableRecord
  2
*Active
 70
     0
 10
0.0
 20
0.0
 11
1.0
 21
1.0
 12
267.3
 22
189.0
 13
0.0
 23
0.0
 14
10.0
 24
10.0
 15
10.0
 25
10.0
 16
0.0
 26
0.0
 36
1.0
 17
0.0
 27
0.0
 37
0.0
 40
378.0
 41
1.4142857143
 42
50.0
 43
0.0
 44
0.0
 50
0.0
 51
0.0
 71
     0
 72
  2000
 73
     1
 74
     3
 75
     0
 76
     0
 77
     0
 78
     0
281
     0
 65
     1
110
0.0
120
0.0
130
0.0
111
1.0
121
0.0
131
0.0
112
0.0
122
1.0
132
0.0
 79
     0
146
0.0
  0
ENDTAB
  0
TABLE
  2
LTYPE
  5
5
330
0
100
AcDbSymbolTable
 70
     6
  0
LTYPE
  5
14
330
5
100
AcDbSymbolTableRecord
100
AcDbLinetypeTableRecord
  2
ByBlock
 70
     0
  3

 72
    65
 73
     0
 40
0.0
  0
LTYPE
  5
15
330
5
100
AcDbSymbolTableRecord
100
AcDbLinetypeTableRecord
  2
ByLayer
 70
     0
  3

 72
    65
 73
     0
 40
0.0
  0
LTYPE
  5
16
330
5
100
AcDbSymbolTableRecord
100
AcDbLinetypeTableRecord
  2
Continuous
 70
     0
  3
Solid line
 72
    65
 73
     0
 40
0.0
  0
LTYPE
  5
6A
330
5
100
AcDbSymbolTableRecord
100
AcDbLinetypeTableRecord
  2
HIDDEN
 70
     0
  3
Hidden __ __ __ __ __ __ __ __ __ __ __ __ __ __
 72
    65
 73
     2
 40
1.905
 49
1.27
 74
     0
 49
-0.635
 74
     0
  0
LTYPE
  5
6B
330
5
100
AcDbSymbolTableRecord
100
AcDbLinetypeTableRecord
  2
PHANTOM
 70
     0
  3
Phantom ______  __  __  ______  __  __  ______
 72
    65
 73
     6
 40
12.7
 49
6.35
 74
     0
 49
-1.27
 74
     0
 49
1.27
 74
     0
 49
-1.27
 74
     0
 49
1.27
 74
     0
 49
-1.27
 74
     0
  0
LTYPE
  5
6C
330
5
100
AcDbSymbolTableRecord
100
AcDbLinetypeTableRecord
  2
CENTER
 70
     0
  3
Center ____ _ ____ _ ____ _ ____ _ ____ _ ____
 72
    65
 73
     4
 40
10.16
 49
6.35
 74
     0
 49
-1.27
 74
     0
 49
1.27
 74
     0
 49
-1.27
 74
     0
  0
LTYPE
  5
6D
330
5
100
AcDbSymbolTableRecord
100
AcDbLinetypeTableRecord
  2
CENTERX2
 70
     0
  3
Center (2x) ________  __  ________  __  _____
 72
    65
 73
     4
 40
20.32
 49
12.7
 74
     0
 49
-2.54
 74
     0
 49
2.54
 74
     0
 49
-2.54
 74
     0
  0
LTYPE
  5
6E
330
5
100
AcDbSymbolTableRecord
100
AcDbLinetypeTableRecord
  2
DOT2
 70
     0
  3
Dot (.5x) ........................................
 72
    65
 73
     2
 40
0.635
 49
0.0
 74
     0
 49
-0.635
 74
     0
  0
ENDTAB
  0
TABLE
  2
LAYER
  5
2
330
0
100
AcDbSymbolTable
 70
     8
  0
LAYER
  5
10
330
2
100
AcDbSymbolTableRecord
100
AcDbLayerTableRecord
  2
0
 70
     0
 62
     7
  6
Continuous
370
    -3
390
F
  0
LAYER
  5
6F
330
2
100
AcDbSymbolTableRecord
100
AcDbLayerTableRecord
  2
FORMAT
 70
     0
 62
     7
  6
Continuous
370
    -3
390
F
  0
LAYER
  5
70
330
2
100
AcDbSymbolTableRecord
100
AcDbLayerTableRecord
  2
SLD-0
 70
     0
 62
     2
  6
Continuous
370
    -3
390
F
  0
LAYER
  5
71
330
2
100
AcDbSymbolTableRecord
100
AcDbLayerTableRecord
  2
DIM
 70
     0
 62
   179
  6
Continuous
370
    -3
390
F
  0
LAYER
  5
72
330
2
100
AcDbSymbolTableRecord
100
AcDbLayerTableRecord
  2
SLD-DEFPOINTS
 70
     0
 62
   179
  6
Continuous
370
    -3
390
F
  0
LAYER
  5
73
330
2
100
AcDbSymbolTableRecord
100
AcDbLayerTableRecord
  2
HAT
 70
     0
 62
   135
  6
Continuous
370
    -3
390
F
  0
LAYER
  5
74
330
2
100
AcDbSymbolTableRecord
100
AcDbLayerTableRecord
  2
JOB
 70
     0
 62
   201
  6
Continuous
370
    -3
390
F
  0
LAYER
  5
75
330
2
100
AcDbSymbolTableRecord
100
AcDbLayerTableRecord
  2
INSPECTION_REPORT
 70
     0
 62
   255
  6
Continuous
370
    -3
390
F
  0
ENDTAB
  0
TABLE
  2
STYLE
  5
3
330
0
100
AcDbSymbolTable
 70
     4
  0
STYLE
  5
11
330
3
100
AcDbSymbolTableRecord
100
AcDbTextStyleTableRecord
  2
Standard
 70
     0
 40
0.0
 41
1.0
 50
0.0
 71
     0
 42
6.985
  3
txt
  4

  0
STYLE
  5
96
330
3
100
AcDbSymbolTableRecord
100
AcDbTextStyleTableRecord
  2
SLDTEXTSTYLE0
 70
     0
 40
0.0
 41
0.7
 50
0.0
 71
     0
 42
6.985
  3
TXT
  4

  0
STYLE
  5
98
330
3
100
AcDbSymbolTableRecord
100
AcDbTextStyleTableRecord
  2
SLDTEXTSTYLE1
 70
     0
 40
0.0
 41
0.75
 50
0.0
 71
     0
 42
6.985
  3
TXT
  4

  0
STYLE
  5
AB
330
3
100
AcDbSymbolTableRecord
100
AcDbTextStyleTableRecord
  2
SLDTEXTSTYLE2
 70
     0
 40
0.0
 41
0.6875
 50
0.0
 71
     0
 42
6.985
  3
TXT
  4

  0
ENDTAB
  0
TABLE
  2
VIEW
  5
6
330
0
100
AcDbSymbolTable
 70
     0
  0
ENDTAB
  0
TABLE
  2
UCS
  5
7
330
0
100
AcDbSymbolTable
 70
     0
  0
ENDTAB
  0
TABLE
  2
APPID
  5
9
330
0
100
AcDbSymbolTable
 70
     1
  0
APPID
  5
12
330
9
100
AcDbSymbolTableRecord
100
AcDbRegAppTableRecord
  2
ACAD
 70
     0
  0
ENDTAB
  0
TABLE
  2
DIMSTYLE
  5
A
330
0
100
AcDbSymbolTable
 70
     4
100
AcDbDimStyleTable
  0
DIMSTYLE
105
27
330
A
100
AcDbSymbolTableRecord
100
AcDbDimStyleTableRecord
  2
ISO-25
 70
     0
 41
2.5
 42
0.625
 43
3.75
 44
1.25
 73
     0
 74
     0
 77
     1
 78
     8
140
2.5
141
2.5
143
0.0393700787
147
0.625
171
     3
172
     1
178
     0
271
     2
272
     2
274
     3
278
    44
283
     0
284
     8
340
11
  0
DIMSTYLE
105
15B
102
{ACAD_REACTORS
330
15A
330
165
102
}
330
A
100
AcDbSymbolTableRecord
100
AcDbDimStyleTableRecord
  2
SLDDIMSTYLE0
 70
     0
 41
5.9436
 44
0.0
 45
0.000000001
 73
     0
 74
     0
 77
     1
 78
    12
 79
     3
140
5.23875
144
1.0
147
1.3096875
173
     1
178
     0
271
     2
272
     2
276
     2
284
    12
340
96
  0
DIMSTYLE
105
170
102
{ACAD_REACTORS
330
16F
102
}
330
A
100
AcDbSymbolTableRecord
100
AcDbDimStyleTableRecord
  2
SLDDIMSTYLE1
 70
     0
 41
5.9436
 44
0.0
 45
0.000000001
 73
     0
 74
     0
 77
     1
 78
    12
 79
     3
140
5.23875
144
1.0
147
1.3096875
172
     1
173
     1
178
     0
271
     2
272
     2
276
     2
284
    12
289
     0
340
96
  0
DIMSTYLE
105
17E
102
{ACAD_REACTORS
330
17D
102
}
330
A
100
AcDbSymbolTableRecord
100
AcDbDimStyleTableRecord
  2
SLDDIMSTYLE2
 70
     0
 41
5.9436
 44
0.0
 45
0.000000001
 73
     0
 74
     0
 77
     1
 78
     4
 79
     1
140
5.23875
144
1.0
147
1.3096875
173
     1
178
     0
271
     2
272
     2
276
     2
284
    12
340
96
  0
ENDTAB
  0
TABLE
  2
BLOCK_RECORD
  5
1
330
0
100
AcDbSymbolTable
 70
     6
  0
BLOCK_RECORD
  5
1F
330
1
100
AcDbSymbolTableRecord
100
AcDbBlockTableRecord
  2
*Model_Space
340
22
  0
BLOCK_RECORD
  5
1B
330
1
100
AcDbSymbolTableRecord
100
AcDbBlockTableRecord
  2
*Paper_Space
340
1E
  0
BLOCK_RECORD
  5
23
330
1
100
AcDbSymbolTableRecord
100
AcDbBlockTableRecord
  2
*Paper_Space0
340
26
  0
BLOCK_RECORD
  5
E7
330
1
100
AcDbSymbolTableRecord
100
AcDbBlockTableRecord
  2
SW_CENTERMARKSYMBOL_0
340
0
102
{BLKREFS
331
F2
102
}
  0
BLOCK_RECORD
  5
15C
330
1
100
AcDbSymbolTableRecord
100
AcDbBlockTableRecord
  2
_D
340
0
  0
BLOCK_RECORD
  5
166
330
1
100
AcDbSymbolTableRecord
100
AcDbBlockTableRecord
  2
_D_1
340
0
  0
BLOCK_RECORD
  5
171
330
1
100
AcDbSymbolTableRecord
100
AcDbBlockTableRecord
  2
_D_2
340
0
  0
BLOCK_RECORD
  5
17F
330
1
100
AcDbSymbolTableRecord
100
AcDbBlockTableRecord
  2
_D_3
340
0
  0
ENDTAB
  0
ENDSEC
  0
SECTION
  2
BLOCKS
  0
BLOCK
  5
20
330
1F
100
AcDbEntity
  8
0
100
AcDbBlockBegin
  2
*Model_Space
 70
     0
 10
0.0
 20
0.0
 30
0.0
  3
*Model_Space
  1
*Model_Space
  0
ENDBLK
  5
21
330
1F
100
AcDbEntity
  8
0
100
AcDbBlockEnd
  0
BLOCK
  5
1C
330
1B
100
AcDbEntity
 67
     1
  8
0
100
AcDbBlockBegin
  2
*Paper_Space
 70
     0
 10
0.0
 20
0.0
 30
0.0
  3
*Paper_Space
  1
*Paper_Space
  0
ENDBLK
  5
1D
330
1B
100
AcDbEntity
 67
     1
  8
0
100
AcDbBlockEnd
  0
BLOCK
  5
24
330
23
100
AcDbEntity
  8
0
100
AcDbBlockBegin
  2
*Paper_Space0
 70
     0
 10
0.0
 20
0.0
 30
0.0
  3
*Paper_Space0
  1
*Paper_Space0
  0
ENDBLK
  5
25
330
23
100
AcDbEntity
  8
0
100
AcDbBlockEnd
  0
BLOCK
  5
E8
330
E7
100
AcDbEntity
  8
0
100
AcDbBlockBegin
  2
SW_CENTERMARKSYMBOL_0
 70
     0
 10
0.0
 20
0.0
 30
0.0
  3
SW_CENTERMARKSYMBOL_0
  1
SW_CENTERMARKSYMBOL_0
  0
LINE
  5
EA
330
E7
100
AcDbEntity
  8
DIM
 62
     0
100
AcDbLine
 10
0.0
 20
0.0
 30
0.0
 11
0.0
 21
2.5
 31
0.0
  0
LINE
  5
EB
330
E7
100
AcDbEntity
  8
DIM
 62
     0
100
AcDbLine
 10
0.0
 20
0.0
 30
0.0
 11
-2.5
 21
0.0
 31
0.0
  0
LINE
  5
EC
330
E7
100
AcDbEntity
  8
DIM
 62
     0
100
AcDbLine
 10
0.0
 20
0.0
 30
0.0
 11
0.0
 21
-2.5
 31
0.0
  0
LINE
  5
ED
330
E7
100
AcDbEntity
  8
DIM
 62
     0
100
AcDbLine
 10
0.0
 20
0.0
 30
0.0
 11
2.5
 21
0.0
 31
0.0
  0
LINE
  5
EE
330
E7
100
AcDbEntity
  8
DIM
 62
     0
100
AcDbLine
 10
0.0
 20
5.0
 30
0.0
 11
0.0
 21
50.0843145751
 31
0.0
  0
LINE
  5
EF
330
E7
100
AcDbEntity
  8
DIM
 62
     0
100
AcDbLine
 10
-5.0
 20
0.0
 30
0.0
 11
-50.0843145751
 21
0.0
 31
0.0
  0
LINE
  5
F0
330
E7
100
AcDbEntity
  8
DIM
 62
     0
100
AcDbLine
 10
0.0
 20
-5.0
 30
0.0
 11
0.0
 21
-50.0843145751
 31
0.0
  0
LINE
  5
F1
330
E7
100
AcDbEntity
  8
DIM
 62
     0
100
AcDbLine
 10
5.0
 20
0.0
 30
0.0
 11
50.0843145751
 21
0.0
 31
0.0
  0
ENDBLK
  5
E9
330
E7
100
AcDbEntity
  8
0
100
AcDbBlockEnd
  0
BLOCK
  5
15D
330
15C
100
AcDbEntity
  8
0
100
AcDbBlockBegin
  2
_D
 70
     0
 10
0.0
 20
0.0
 30
0.0
  3
_D
  1
_D
  0
SOLID
  5
15F
330
15C
100
AcDbEntity
  8
DIM
100
AcDbTrace
 10
247.0804121525
 20
128.8859508256
 30
0.0
 11
253.0240121525
 21
127.9715508256
 31
0.0
 12
253.0240121525
 22
129.8003508256
 32
0.0
 13
253.0240121525
 23
129.8003508256
 33
0.0
  0
SOLID
  5
160
330
15C
100
AcDbEntity
  8
DIM
100
AcDbTrace
 10
418.8304121525
 20
128.8859508256
 30
0.0
 11
412.8868121525
 21
129.8003508256
 31
0.0
 12
412.8868121525
 22
127.9715508256
 32
0.0
 13
412.8868121525
 23
127.9715508256
 33
0.0
  0
LINE
  5
161
330
15C
100
AcDbEntity
  8
DIM
100
AcDbLine
 10
247.0804121525
 20
193.8359508256
 30
0.0
 11
247.0804121525
 21
127.0859508256
 31
0.0
  0
LINE
  5
162
330
15C
100
AcDbEntity
  8
DIM
100
AcDbLine
 10
418.8304121525
 20
183.3359508256
 30
0.0
 11
418.8304121525
 21
127.0859508256
 31
0.0
  0
LINE
  5
163
330
15C
100
AcDbEntity
  8
DIM
100
AcDbLine
 10
247.0804121525
 20
128.8859508256
 30
0.0
 11
418.8304121525
 21
128.8859508256
 31
0.0
  0
MTEXT
  5
164
330
15C
100
AcDbEntity
  8
DIM
100
AcDbMText
 10
323.1715610766
 20
135.6390548664
 30
0.0
 40
5.23875
 41
0.0
 71
     1
 72
     1
  1
171.75
  7
SLDTEXTSTYLE0
 73
     1
 44
1.0
  0
ENDBLK
  5
15E
330
15C
100
AcDbEntity
  8
0
100
AcDbBlockEnd
  0
BLOCK
  5
167
330
166
100
AcDbEntity
  8
0
100
AcDbBlockBegin
  2
_D_1
 70
     0
 10
0.0
 20
0.0
 30
0.0
  3
_D_1
  1
_D_1
  0
SOLID
  5
169
330
166
100
AcDbEntity
  8
DIM
100
AcDbTrace
 10
348.8304121525
 20
138.5104658687
 30
0.0
 11
354.7740121525
 21
137.5960658687
 31
0.0
 12
354.7740121525
 22
139.4248658687
 32
0.0
 13
354.7740121525
 23
139.4248658687
 33
0.0
  0
SOLID
  5
16A
330
166
100
AcDbEntity
  8
DIM
100
AcDbTrace
 10
418.8304121525
 20
138.5104658687
 30
0.0
 11
412.8868121525
 21
139.4248658687
 31
0.0
 12
412.8868121525
 22
137.5960658687
 32
0.0
 13
412.8868121525
 23
137.5960658687
 33
0.0
  0
LINE
  5
16B
330
166
100
AcDbEntity
  8
DIM
100
AcDbLine
 10
348.8304121525
 20
158.9109508256
 30
0.0
 11
348.8304121525
 21
136.7104658687
 31
0.0
  0
LINE
  5
16C
330
166
100
AcDbEntity
  8
DIM
100
AcDbLine
 10
418.8304121525
 20
183.3359508256
 30
0.0
 11
418.8304121525
 21
136.7104658687
 31
0.0
  0
LINE
  5
16D
330
166
100
AcDbEntity
  8
DIM
100
AcDbLine
 10
348.8304121525
 20
138.5104658687
 30
0.0
 11
418.8304121525
 21
138.5104658687
 31
0.0
  0
MTEXT
  5
16E
330
166
100
AcDbEntity
  8
DIM
100
AcDbMText
 10
380.2894050733
 20
145.2635699095
 30
0.0
 40
5.23875
 41
0.0
 71
     1
 72
     1
  1
70
  7
SLDTEXTSTYLE0
 73
     1
 44
1.0
  0
ENDBLK
  5
168
330
166
100
AcDbEntity
  8
0
100
AcDbBlockEnd
  0
BLOCK
  5
172
330
171
100
AcDbEntity
  8
0
100
AcDbBlockBegin
  2
_D_2
 70
     0
 10
0.0
 20
0.0
 30
0.0
  3
_D_2
  1
_D_2
  0
SOLID
  5
174
330
171
100
AcDbEntity
  8
DIM
100
AcDbTrace
 10
429.6198855837
 20
211.6359508256
 30
0.0
 11
430.5342855837
 21
217.5795508256
 31
0.0
 12
428.7054855837
 22
217.5795508256
 32
0.0
 13
428.7054855837
 23
217.5795508256
 33
0.0
  0
SOLID
  5
175
330
171
100
AcDbEntity
  8
DIM
100
AcDbTrace
 10
429.6198855837
 20
179.6359508256
 30
0.0
 11
428.7054855837
 21
173.6923508256
 31
0.0
 12
430.5342855837
 22
173.6923508256
 32
0.0
 13
430.5342855837
 23
173.6923508256
 33
0.0
  0
LINE
  5
176
330
171
100
AcDbEntity
  8
DIM
100
AcDbLine
 10
417.454985672
 20
211.6359508256
 30
0.0
 11
431.4198855837
 21
211.6359508256
 31
0.0
  0
LINE
  5
177
330
171
100
AcDbEntity
  8
DIM
100
AcDbLine
 10
417.454985672
 20
179.6359508256
 30
0.0
 11
431.4198855837
 21
179.6359508256
 31
0.0
  0
LINE
  5
178
330
171
100
AcDbEntity
  8
DIM
100
AcDbLine
 10
429.6198855837
 20
211.6359508256
 30
0.0
 11
429.6198855837
 21
223.0659508256
 31
0.0
  0
LINE
  5
179
330
171
100
AcDbEntity
  8
DIM
100
AcDbLine
 10
429.6198855837
 20
211.6359508256
 30
0.0
 11
429.6198855837
 21
179.6359508256
 31
0.0
  0
LINE
  5
17A
330
171
100
AcDbEntity
  8
DIM
100
AcDbLine
 10
429.6198855837
 20
179.6359508256
 30
0.0
 11
429.6198855837
 21
168.2059508256
 31
0.0
  0
MTEXT
  5
17B
330
171
100
AcDbEntity
  8
DIM
100
AcDbMText
 10
422.8667815429
 20
188.0443714368
 30
0.0
 40
5.23875
 41
0.0
 71
     1
 72
     1
  1
%%c
  7
SLDTEXTSTYLE0
 11
-7.044195017643634E-15
 21
1.0
 31
0.0
 73
     1
 44
1.0
  0
MTEXT
  5
17C
330
171
100
AcDbEntity
  8
DIM
100
AcDbMText
 10
422.8667815429
 20
196.1455160561
 30
0.0
 40
5.23875
 41
0.0
 71
     1
 72
     1
  1
32
  7
SLDTEXTSTYLE0
 11
-7.044195017643634E-15
 21
1.0
 31
0.0
 73
     1
 44
1.0
  0
ENDBLK
  5
173
330
171
100
AcDbEntity
  8
0
100
AcDbBlockEnd
  0
BLOCK
  5
180
330
17F
100
AcDbEntity
  8
0
100
AcDbBlockBegin
  2
_D_3
 70
     0
 10
0.0
 20
0.0
 30
0.0
  3
_D_3
  1
_D_3
  0
SOLID
  5
182
330
17F
100
AcDbEntity
  8
DIM
100
AcDbTrace
 10
239.2298895618
 20
244.3859508256
 30
0.0
 11
238.3154895618
 21
238.4423508256
 31
0.0
 12
240.1442895618
 22
238.4423508256
 32
0.0
 13
240.1442895618
 23
238.4423508256
 33
0.0
  0
SOLID
  5
183
330
17F
100
AcDbEntity
  8
DIM
100
AcDbTrace
 10
239.2298895618
 20
146.8859508256
 30
0.0
 11
240.1442895618
 21
152.8295508256
 31
0.0
 12
238.3154895618
 22
152.8295508256
 32
0.0
 13
238.3154895618
 23
152.8295508256
 33
0.0
  0
LINE
  5
184
330
17F
100
AcDbEntity
  8
DIM
100
AcDbLine
 10
351.3960975775
 20
244.3859508256
 30
0.0
 11
237.4298895618
 21
244.3859508256
 31
0.0
  0
LINE
  5
185
330
17F
100
AcDbEntity
  8
DIM
100
AcDbLine
 10
351.3960975775
 20
146.8859508256
 30
0.0
 11
237.4298895618
 21
146.8859508256
 31
0.0
  0
LINE
  5
186
330
17F
100
AcDbEntity
  8
DIM
100
AcDbLine
 10
239.2298895618
 20
244.3859508256
 30
0.0
 11
239.2298895618
 21
146.8859508256
 31
0.0
  0
MTEXT
  5
187
330
17F
100
AcDbEntity
  8
DIM
100
AcDbMText
 10
232.476785521
 20
183.5720309796
 30
0.0
 40
5.23875
 41
0.0
 71
     1
 72
     1
  1
%%c
  7
SLDTEXTSTYLE0
 11
-7.044195017643634E-15
 21
1.0
 31
0.0
 73
     1
 44
1.0
  0
MTEXT
  5
188
330
17F
100
AcDbEntity
  8
DIM
100
AcDbMText
 10
232.476785521
 20
191.6731755989
 30
0.0
 40
5.23875
 41
0.0
 71
     1
 72
     1
  1
97.50
  7
SLDTEXTSTYLE0
 11
-7.044195017643634E-15
 21
1.0
 31
0.0
 73
     1
 44
1.0
  0
ENDBLK
  5
181
330
17F
100
AcDbEntity
  8
0
100
AcDbBlockEnd
  0
ENDSEC
  0
SECTION
  2
ENTITIES
  0
LINE
  5
76
330
1F
100
AcDbEntity
  8
DIM
100
AcDbLine
 10
188.4679644402
 20
17.6237846223
 30
0.0
 11
188.4679644402
 21
8.6237846223
 31
0.0
  0
LINE
  5
77
330
1F
100
AcDbEntity
  8
DIM
100
AcDbLine
 10
458.0452830515
 20
17.6237846223
 30
0.0
 11
458.0452830515
 21
8.6237846223
 31
0.0
  0
LINE
  5
78
330
1F
100
AcDbEntity
  8
DIM
100
AcDbLine
 10
427.4130778768
 20
17.6237846223
 30
0.0
 11
427.4130778768
 21
8.6237846223
 31
0.0
  0
LINE
  5
79
330
1F
100
AcDbEntity
  8
DIM
100
AcDbLine
 10
502.0279644402
 20
8.6237846223
 30
0.0
 11
502.0279644402
 21
17.6237846223
 31
0.0
  0
LINE
  5
7A
330
1F
100
AcDbEntity
  8
DIM
100
AcDbLine
 10
202.5079644402
 20
17.6237846223
 30
0.0
 11
202.5079644402
 21
8.6237846223
 31
0.0
  0
LINE
  5
7B
330
1F
100
AcDbEntity
  8
DIM
100
AcDbLine
 10
237.051678821
 20
17.6237846223
 30
0.0
 11
237.051678821
 21
8.6237846223
 31
0.0
  0
LINE
  5
7C
330
1F
100
AcDbEntity
  8
DIM
100
AcDbLine
 10
525.4279644402
 20
8.6237846223
 30
0.0
 11
525.4279644402
 21
138.6737846223
 31
0.0
  0
LINE
  5
7D
330
1F
100
AcDbEntity
  8
DIM
100
AcDbLine
 10
514.4742084504
 20
108.0737846223
 30
0.0
 11
525.4279644402
 21
108.0737846223
 31
0.0
  0
LINE
  5
7E
330
1F
100
AcDbEntity
  8
DIM
100
AcDbLine
 10
268.3860315346
 20
16.2737846223
 30
0.0
 11
268.3860315346
 21
8.6237846223
 31
0.0
  0
LINE
  5
7F
330
1F
100
AcDbEntity
  8
DIM
100
AcDbLine
 10
354.1751084888
 20
17.6237846223
 30
0.0
 11
354.1751084888
 21
8.6237846223
 31
0.0
  0
LINE
  5
80
330
1F
100
AcDbEntity
  8
DIM
100
AcDbLine
 10
268.3860315346
 20
17.6237846223
 30
0.0
 11
268.3860315346
 21
16.2737846223
 31
0.0
  0
LINE
  5
81
330
1F
100
AcDbEntity
  8
DIM
100
AcDbLine
 10
516.4279644402
 20
31.5736550223
 30
0.0
 11
525.4279644402
 21
31.5736550223
 31
0.0
  0
LINE
  5
82
330
1F
100
AcDbEntity
  8
DIM
100
AcDbLine
 10
516.4279644402
 20
359.6237846223
 30
0.0
 11
17.8279644402
 21
359.6237846223
 31
0.0
  0
LINE
  5
83
330
1F
100
AcDbEntity
  8
DIM
100
AcDbLine
 10
525.4279644402
 20
368.6237846223
 30
0.0
 11
8.8279644402
 21
368.6237846223
 31
0.0
  0
LINE
  5
84
330
1F
100
AcDbEntity
  8
DIM
100
AcDbLine
 10
17.8279644402
 20
359.6237846223
 30
0.0
 11
17.8279644402
 21
17.6237846223
 31
0.0
  0
LINE
  5
85
330
1F
100
AcDbEntity
  8
DIM
100
AcDbLine
 10
8.8279644402
 20
368.6237846223
 30
0.0
 11
8.8279644402
 21
8.6237846223
 31
0.0
  0
LINE
  5
86
330
1F
100
AcDbEntity
  8
DIM
100
AcDbLine
 10
17.8279644402
 20
98.6237846223
 30
0.0
 11
8.8279644402
 21
98.6237846223
 31
0.0
  0
LINE
  5
87
330
1F
100
AcDbEntity
  8
DIM
100
AcDbLine
 10
8.8279644402
 20
188.6237846223
 30
0.0
 11
17.8279644402
 21
188.6237846223
 31
0.0
  0
LINE
  5
88
330
1F
100
AcDbEntity
  8
DIM
100
AcDbLine
 10
8.8279644402
 20
8.6237846223
 30
0.0
 11
525.4279644402
 21
8.6237846223
 31
0.0
  0
LINE
  5
89
330
1F
100
AcDbEntity
  8
DIM
100
AcDbLine
 10
17.8279644402
 20
17.6237846223
 30
0.0
 11
525.4279644402
 21
17.6237846223
 31
0.0
  0
LINE
  5
8A
330
1F
100
AcDbEntity
  8
DIM
100
AcDbLine
 10
87.1279644402
 20
8.6237846223
 30
0.0
 11
87.1279644402
 21
17.6237846223
 31
0.0
  0
LINE
  5
8B
330
1F
100
AcDbEntity
  8
DIM
100
AcDbLine
 10
177.1279644402
 20
17.6237846223
 30
0.0
 11
177.1279644402
 21
8.6237846223
 31
0.0
  0
LINE
  5
8C
330
1F
100
AcDbEntity
  8
DIM
100
AcDbLine
 10
17.8279644402
 20
278.6237846223
 30
0.0
 11
8.8279644402
 21
278.6237846223
 31
0.0
  0
LINE
  5
8D
330
1F
100
AcDbEntity
  8
DIM
100
AcDbLine
 10
87.1279644402
 20
359.6237846223
 30
0.0
 11
87.1279644402
 21
368.6237846223
 31
0.0
  0
LINE
  5
8E
330
1F
100
AcDbEntity
  8
DIM
100
AcDbLine
 10
177.1279644402
 20
368.6237846223
 30
0.0
 11
177.1279644402
 21
359.6237846223
 31
0.0
  0
LINE
  5
8F
330
1F
100
AcDbEntity
  8
DIM
100
AcDbLine
 10
267.1279644402
 20
368.6237846223
 30
0.0
 11
267.1279644402
 21
359.6237846223
 31
0.0
  0
LINE
  5
90
330
1F
100
AcDbEntity
  8
DIM
100
AcDbLine
 10
516.4279644402
 20
17.6237846223
 30
0.0
 11
516.4279644402
 21
359.6237846223
 31
0.0
  0
LINE
  5
91
330
1F
100
AcDbEntity
  8
DIM
100
AcDbLine
 10
525.4279644402
 20
138.6737846223
 30
0.0
 11
525.4279644402
 21
368.6237846223
 31
0.0
  0
LINE
  5
92
330
1F
100
AcDbEntity
  8
DIM
100
AcDbLine
 10
525.4279644402
 20
188.6237846223
 30
0.0
 11
516.4279644402
 21
188.6237846223
 31
0.0
  0
LINE
  5
93
330
1F
100
AcDbEntity
  8
DIM
100
AcDbLine
 10
357.1279644402
 20
368.6237846223
 30
0.0
 11
357.1279644402
 21
359.6237846223
 31
0.0
  0
LINE
  5
94
330
1F
100
AcDbEntity
  8
DIM
100
AcDbLine
 10
447.1279644402
 20
359.6237846223
 30
0.0
 11
447.1279644402
 21
368.6237846223
 31
0.0
  0
LINE
  5
95
330
1F
100
AcDbEntity
  8
DIM
100
AcDbLine
 10
516.4279644402
 20
278.6237846223
 30
0.0
 11
525.4279644402
 21
278.6237846223
 31
0.0
  0
MTEXT
  5
97
330
1F
100
AcDbEntity
  8
DIM
100
AcDbMText
 10
23.8693578155
 20
349.4211447127
 30
0.0
 40
7.62
 41
0.0
 71
     1
 72
     1
  1
SK 50 ER 16 070 AD+B/6.3G15000 SL
  7
SLDTEXTSTYLE0
 73
     1
 44
1.0
  0
MTEXT
  5
99
330
1F
100
AcDbEntity
  8
DIM
 62
     7
100
AcDbMText
 10
355.9190015639
 20
14.0435127473
 30
0.0
 40
2.69748
 41
0.0
 71
     1
 72
     1
  1
WEIGHT:
  7
SLDTEXTSTYLE1
 73
     1
 44
1.0
  0
MTEXT
  5
9A
330
1F
100
AcDbEntity
  8
DIM
 62
     7
100
AcDbMText
 10
519.4747381586
 20
147.4931043148
 30
0.0
 40
3.33375
 41
0.0
 71
     1
 72
     1
  1
C
  7
SLDTEXTSTYLE1
 73
     1
 44
1.0
  0
MTEXT
  5
9B
330
1F
100
AcDbEntity
  8
DIM
 62
     7
100
AcDbMText
 10
509.478445115
 20
26.7371675705
 30
0.0
 40
5.23875
 41
0.0
 71
     1
 72
     1
  1
A4
  7
SLDTEXTSTYLE1
 73
     1
 44
1.0
  0
MTEXT
  5
9C
330
1F
100
AcDbEntity
  8
DIM
 62
     7
100
AcDbMText
 10
490.6279716402
 20
366.2262141487
 30
0.0
 40
3.33375
 41
0.0
 71
     1
 72
     1
  1
6
  7
SLDTEXTSTYLE1
 73
     1
 44
1.0
  0
MTEXT
  5
9D
330
1F
100
AcDbEntity
  8
DIM
 62
     7
100
AcDbMText
 10
400.6279716402
 20
366.2262141487
 30
0.0
 40
3.33375
 41
0.0
 71
     1
 72
     1
  1
5
  7
SLDTEXTSTYLE1
 73
     1
 44
1.0
  0
MTEXT
  5
9E
330
1F
100
AcDbEntity
  8
DIM
 62
     7
100
AcDbMText
 10
519.4279788402
 20
325.7262141487
 30
0.0
 40
3.33375
 41
0.0
 71
     1
 72
     1
  1
A
  7
SLDTEXTSTYLE1
 73
     1
 44
1.0
  0
MTEXT
  5
9F
330
1F
100
AcDbEntity
  8
DIM
 62
     7
100
AcDbMText
 10
519.4279788402
 20
235.7262141487
 30
0.0
 40
3.33375
 41
0.0
 71
     1
 72
     1
  1
B
  7
SLDTEXTSTYLE1
 73
     1
 44
1.0
  0
MTEXT
  5
A0
330
1F
100
AcDbEntity
  8
DIM
 62
     7
100
AcDbMText
 10
310.6279716402
 20
366.2262141487
 30
0.0
 40
3.33375
 41
0.0
 71
     1
 72
     1
  1
4
  7
SLDTEXTSTYLE1
 73
     1
 44
1.0
  0
MTEXT
  5
A1
330
1F
100
AcDbEntity
  8
DIM
 62
     7
100
AcDbMText
 10
41.3779716402
 20
366.2262141487
 30
0.0
 40
3.33375
 41
0.0
 71
     1
 72
     1
  1
1
  7
SLDTEXTSTYLE1
 73
     1
 44
1.0
  0
MTEXT
  5
A2
330
1F
100
AcDbEntity
  8
DIM
 62
     7
100
AcDbMText
 10
130.6279716402
 20
366.2262141487
 30
0.0
 40
3.33375
 41
0.0
 71
     1
 72
     1
  1
2
  7
SLDTEXTSTYLE1
 73
     1
 44
1.0
  0
MTEXT
  5
A3
330
1F
100
AcDbEntity
  8
DIM
 62
     7
100
AcDbMText
 10
220.6279716402
 20
366.2262141487
 30
0.0
 40
3.33375
 41
0.0
 71
     1
 72
     1
  1
3
  7
SLDTEXTSTYLE1
 73
     1
 44
1.0
  0
MTEXT
  5
A4
330
1F
100
AcDbEntity
  8
DIM
 62
     7
100
AcDbMText
 10
11.8279644402
 20
325.7262141487
 30
0.0
 40
3.33375
 41
0.0
 71
     1
 72
     1
  1
A
  7
SLDTEXTSTYLE1
 73
     1
 44
1.0
  0
MTEXT
  5
A5
330
1F
100
AcDbEntity
  8
DIM
 62
     7
100
AcDbMText
 10
130.6279716402
 20
15.2262141487
 30
0.0
 40
3.33375
 41
0.0
 71
     1
 72
     1
  1
2
  7
SLDTEXTSTYLE1
 73
     1
 44
1.0
  0
MTEXT
  5
A6
330
1F
100
AcDbEntity
  8
DIM
 62
     7
100
AcDbMText
 10
41.3779716402
 20
15.2262141487
 30
0.0
 40
3.33375
 41
0.0
 71
     1
 72
     1
  1
1
  7
SLDTEXTSTYLE1
 73
     1
 44
1.0
  0
MTEXT
  5
A7
330
1F
100
AcDbEntity
  8
DIM
 62
     7
100
AcDbMText
 10
11.8279644402
 20
55.7262141487
 30
0.0
 40
3.33375
 41
0.0
 71
     1
 72
     1
  1
D
  7
SLDTEXTSTYLE1
 73
     1
 44
1.0
  0
MTEXT
  5
A8
330
1F
100
AcDbEntity
  8
DIM
 62
     7
100
AcDbMText
 10
11.8279644402
 20
145.7262141487
 30
0.0
 40
3.33375
 41
0.0
 71
     1
 72
     1
  1
C
  7
SLDTEXTSTYLE1
 73
     1
 44
1.0
  0
MTEXT
  5
A9
330
1F
100
AcDbEntity
  8
DIM
 62
     7
100
AcDbMText
 10
11.8279644402
 20
235.7262141487
 30
0.0
 40
3.33375
 41
0.0
 71
     1
 72
     1
  1
B
  7
SLDTEXTSTYLE1
 73
     1
 44
1.0
  0
MTEXT
  5
AA
330
1F
100
AcDbEntity
  8
DIM
 62
     7
100
AcDbMText
 10
519.4747381586
 20
147.4931043148
 30
0.0
 40
3.33375
 41
0.0
 71
     1
 72
     1
  1
C
  7
SLDTEXTSTYLE1
 73
     1
 44
1.0
  0
MTEXT
  5
AC
330
1F
100
AcDbEntity
  8
DIM
 62
     7
100
AcDbMText
 10
461.7456584625
 20
13.8439417165
 30
0.0
 40
2.7
 41
0.0
 71
     1
 72
     1
  1
SHEET 1 OF 1
  7
SLDTEXTSTYLE2
 73
     1
 44
1.0
  0
MTEXT
  5
AD
330
1F
100
AcDbEntity
  8
DIM
 62
     7
100
AcDbMText
 10
270.6692046902
 20
14.1360614706
 30
0.0
 40
2.7
 41
0.0
 71
     1
 72
     1
  1
MATERIAL:
  7
SLDTEXTSTYLE1
 73
     1
 44
1.0
  0
MTEXT
  5
AE
330
1F
100
AcDbEntity
  8
DIM
 62
     7
100
AcDbMText
 10
490.6279716402
 20
366.2262141487
 30
0.0
 40
3.33375
 41
0.0
 71
     1
 72
     1
  1
6
  7
SLDTEXTSTYLE1
 73
     1
 44
1.0
  0
MTEXT
  5
AF
330
1F
100
AcDbEntity
  8
DIM
 62
     7
100
AcDbMText
 10
400.6279716402
 20
366.2262141487
 30
0.0
 40
3.33375
 41
0.0
 71
     1
 72
     1
  1
5
  7
SLDTEXTSTYLE1
 73
     1
 44
1.0
  0
MTEXT
  5
B0
330
1F
100
AcDbEntity
  8
DIM
 62
     7
100
AcDbMText
 10
519.4279788402
 20
325.7262141487
 30
0.0
 40
3.33375
 41
0.0
 71
     1
 72
     1
  1
A
  7
SLDTEXTSTYLE1
 73
     1
 44
1.0
  0
MTEXT
  5
B1
330
1F
100
AcDbEntity
  8
DIM
 62
     7
100
AcDbMText
 10
519.4279788402
 20
235.7262141487
 30
0.0
 40
3.33375
 41
0.0
 71
     1
 72
     1
  1
B
  7
SLDTEXTSTYLE1
 73
     1
 44
1.0
  0
MTEXT
  5
B2
330
1F
100
AcDbEntity
  8
DIM
 62
     7
100
AcDbMText
 10
310.6279716402
 20
366.2262141487
 30
0.0
 40
3.33375
 41
0.0
 71
     1
 72
     1
  1
4
  7
SLDTEXTSTYLE1
 73
     1
 44
1.0
  0
MTEXT
  5
B3
330
1F
100
AcDbEntity
  8
DIM
 62
     7
100
AcDbMText
 10
41.3779716402
 20
366.2262141487
 30
0.0
 40
3.33375
 41
0.0
 71
     1
 72
     1
  1
1
  7
SLDTEXTSTYLE1
 73
     1
 44
1.0
  0
MTEXT
  5
B4
330
1F
100
AcDbEntity
  8
DIM
 62
     7
100
AcDbMText
 10
130.6279716402
 20
366.2262141487
 30
0.0
 40
3.33375
 41
0.0
 71
     1
 72
     1
  1
2
  7
SLDTEXTSTYLE1
 73
     1
 44
1.0
  0
MTEXT
  5
B5
330
1F
100
AcDbEntity
  8
DIM
 62
     7
100
AcDbMText
 10
220.6279716402
 20
366.2262141487
 30
0.0
 40
3.33375
 41
0.0
 71
     1
 72
     1
  1
3
  7
SLDTEXTSTYLE1
 73
     1
 44
1.0
  0
MTEXT
  5
B6
330
1F
100
AcDbEntity
  8
DIM
 62
     7
100
AcDbMText
 10
11.8279644402
 20
325.7262141487
 30
0.0
 40
3.33375
 41
0.0
 71
     1
 72
     1
  1
A
  7
SLDTEXTSTYLE1
 73
     1
 44
1.0
  0
MTEXT
  5
B7
330
1F
100
AcDbEntity
  8
DIM
 62
     7
100
AcDbMText
 10
130.6279716402
 20
15.2262141487
 30
0.0
 40
3.33375
 41
0.0
 71
     1
 72
     1
  1
2
  7
SLDTEXTSTYLE1
 73
     1
 44
1.0
  0
MTEXT
  5
B8
330
1F
100
AcDbEntity
  8
DIM
 62
     7
100
AcDbMText
 10
41.3779716402
 20
15.2262141487
 30
0.0
 40
3.33375
 41
0.0
 71
     1
 72
     1
  1
1
  7
SLDTEXTSTYLE1
 73
     1
 44
1.0
  0
MTEXT
  5
B9
330
1F
100
AcDbEntity
  8
DIM
 62
     7
100
AcDbMText
 10
11.8279644402
 20
55.7262141487
 30
0.0
 40
3.33375
 41
0.0
 71
     1
 72
     1
  1
D
  7
SLDTEXTSTYLE1
 73
     1
 44
1.0
  0
MTEXT
  5
BA
330
1F
100
AcDbEntity
  8
DIM
 62
     7
100
AcDbMText
 10
11.8279644402
 20
145.7262141487
 30
0.0
 40
3.33375
 41
0.0
 71
     1
 72
     1
  1
C
  7
SLDTEXTSTYLE1
 73
     1
 44
1.0
  0
MTEXT
  5
BB
330
1F
100
AcDbEntity
  8
DIM
 62
     7
100
AcDbMText
 10
11.8279644402
 20
235.7262141487
 30
0.0
 40
3.33375
 41
0.0
 71
     1
 72
     1
  1
B
  7
SLDTEXTSTYLE1
 73
     1
 44
1.0
  0
SPLINE
  5
BC
330
1F
100
AcDbEntity
  8
0
  6
Continuous
 62
     7
370
    15
100
AcDbSpline
210
0.0
220
0.0
230
1.0
 70
     8
 71
     3
 72
    14
 73
    10
 74
     0
 42
0.000000001
 43
0.00000001
 40
0.0
 40
0.0
 40
0.0
 40
0.0
 40
0.25
 40
0.25
 40
0.5
 40
0.5
 40
0.75
 40
0.75
 40
1.0
 40
1.0
 40
1.0
 40
1.0
 10
142.330442439182
 20
195.6359508256004
 30
0.0
 10
142.330442439182
 20
190.5382164488259
 30
0.0
 10
140.3052160131131
 20
185.6488873441339
 30
0.0
 10
133.0959309201031
 20
178.4396022511239
 30
0.0
 10
128.2066018154111
 20
176.414375825055
 30
0.0
 10
118.0111330618622
 20
176.414375825055
 30
0.0
 10
113.1218039571702
 20
178.4396022511239
 30
0.0
 10
105.9125188641602
 20
185.6488873441339
 30
0.0
 10
103.8872924380913
 20
190.5382164488259
 30
0.0
 10
103.8872924380912
 20
195.6359508256004
 30
0.0
  0
SPLINE
  5
BD
330
1F
100
AcDbEntity
  8
0
  6
Continuous
 62
     7
370
    15
100
AcDbSpline
210
0.0
220
0.0
230
1.0
 70
     8
 71
     3
 72
    14
 73
    10
 74
     0
 42
0.000000001
 43
0.00000001
 40
0.0
 40
0.0
 40
0.0
 40
0.0
 40
0.25
 40
0.25
 40
0.5
 40
0.5
 40
0.75
 40
0.75
 40
1.0
 40
1.0
 40
1.0
 40
1.0
 10
103.8872924380912
 20
195.6359508256004
 30
0.0
 10
103.8872924380912
 20
200.7336852023748
 30
0.0
 10
105.9125188641602
 20
205.6230143070668
 30
0.0
 10
113.1218039571702
 20
212.8322994000768
 30
0.0
 10
118.0111330618622
 20
214.8575258261457
 30
0.0
 10
128.2066018154111
 20
214.8575258261457
 30
0.0
 10
133.0959309201031
 20
212.8322994000768
 30
0.0
 10
140.3052160131131
 20
205.6230143070668
 30
0.0
 10
142.330442439182
 20
200.7336852023748
 30
0.0
 10
142.330442439182
 20
195.6359508256004
 30
0.0
  0
CIRCLE
  5
BE
330
1F
100
AcDbEntity
  8
0
  6
Continuous
 62
     7
370
    15
100
AcDbCircle
 10
123.1088674386
 20
195.6359508256
 30
0.0
 40
20.21110778703758
  0
CIRCLE
  5
BF
330
1F
100
AcDbEntity
  8
0
  6
Continuous
 62
     7
370
    15
100
AcDbCircle
 10
123.1088674386
 20
195.6359508256
 30
0.0
 40
34.925
  0
SPLINE
  5
C0
330
1F
100
AcDbEntity
  8
0
  6
Continuous
 62
     7
370
    15
100
AcDbSpline
210
0.0
220
0.0
230
1.0
 70
     8
 71
     3
 72
    52
 73
    48
 74
     0
 42
0.000000001
 43
0.00000001
 40
0.0
 40
0.0
 40
0.0
 40
0.0
 40
0.0053074994726554
 40
0.0106084744807156
 40
0.0159043870752884
 40
0.0211967035030982
 40
0.0264868930010475
 40
0.031776426578386
 40
0.0370667757915106
 40
0.0423594115164833
 40
0.0476558027243854
 40
0.0529574152645906
 40
0.0582657106609693
 40
0.0891348494758177
 40
0.1200087595578935
 40
0.1521645941108524
 40
0.1843252192282218
 40
0.2171652710885947
 40
0.2500102154523581
 40
0.2828502674523063
 40
0.3156952119562962
 40
0.3478510468948057
 40
0.380011672397905
 40
0.4108808109142898
 40
0.4417547207534483
 40
0.470875333637603
 40
0.5000007798720159
 40
0.5291213927975412
 40
0.5582468390472084
 40
0.5891159778617261
 40
0.6199898879441322
 40
0.652145722497098
 40
0.6843063476144644
 40
0.7171463994755694
 40
0.7499913438386044
 40
0.7828313958395676
 40
0.8156763403425417
 40
0.8478321752819549
 40
0.8799928007841501
 40
0.9108619393016738
 40
0.941735849139696
 40
0.9514609652020397
 40
0.9611682412334405
 40
0.9708667191333772
 40
0.9805654654081966
 40
0.9902735458123287
 40
1.0
 40
1.0
 40
1.0
 40
1.0
 10
88.10886743863662
 20
195.6359508256004
 30
0.0
 10
88.10979546954707
 20
195.8304129836533
 30
0.0
 10
88.11165039054738
 20
196.219098249059
 30
0.0
 10
88.12667942489901
 20
196.8016612190805
 30
0.0
 10
88.15067805393339
 20
197.3833471064499
 30
0.0
 10
88.18452235801651
 20
197.964155801267
 30
0.0
 10
88.2279778997501
 20
198.5440871496862
 30
0.0
 10
88.28110746081616
 20
199.1231410701108
 30
0.0
 10
88.34389413053835
 20
199.7013172342475
 30
0.0
 10
88.41634272305492
 20
200.2786162316159
 30
0.0
 10
88.49845076054794
 20
200.8550352317634
 30
0.0
 10
88.59022316254159
 20
201.4305841933415
 30
0.0
 10
88.854362664175
 20
202.9271967968552
 30
0.0
 10
89.4181304170804
 20
205.3229036580233
 30
0.0
 10
90.53074759741912
 20
208.5837747640758
 30
0.0
 10
91.97791381295971
 20
211.7636636463695
 30
0.0
 10
93.77708944236643
 20
214.8421625781252
 30
0.0
 10
95.89351001792679
 20
217.7436224861621
 30
0.0
 10
98.3163952114419
 20
220.428169462156
 30
0.0
 10
101.0010556900604
 20
222.8511946371025
 30
0.0
 10
103.9023558296207
 20
224.9675338731795
 30
0.0
 10
106.9810089276477
 20
226.7668260652986
 30
0.0
 10
110.160672361656
 20
228.213934198506
 30
0.0
 10
113.4219086596623
 20
229.3266640155108
 30
0.0
 10
116.6676529583963
 20
230.090551500907
 30
0.0
 10
119.9065190765522
 20
230.5388295009174
 30
0.0
 10
123.1086904664821
 20
230.6845073657576
 30
0.0
 10
126.3110379371284
 20
230.5388459883091
 30
0.0
 10
129.5497361968423
 20
230.090615795848
 30
0.0
 10
132.7956568064153
 20
229.3267137367253
 30
0.0
 10
136.0567372069748
 20
228.2140634073666
 30
0.0
 10
139.2365677754299
 20
226.7669064323112
 30
0.0
 10
142.3150826156399
 20
224.9677282650821
 30
0.0
 10
145.2165381717664
 20
222.8513084482346
 30
0.0
 10
147.9010863297759
 20
220.4284228071242
 30
0.0
 10
150.3241111593587
 20
217.7437633546388
 30
0.0
 10
152.4404505935237
 20
214.8424595832859
 30
0.0
 10
154.2397423461618
 20
211.7638197207038
 30
0.0
 10
155.6868520155214
 20
208.58410777528
 30
0.0
 10
156.7995763391847
 20
205.3230455656047
 30
0.0
 10
157.4004222712275
 20
202.7696314802505
 30
0.0
 10
157.7083623507466
 20
200.9522117746488
 30
0.0
 10
157.8545014616692
 20
199.8947650364203
 30
0.0
 10
157.9683074889303
 20
198.8343277830455
 30
0.0
 10
158.0490028097368
 20
197.7708738088934
 30
0.0
 10
158.0995243451525
 20
196.704413440159
 30
0.0
 10
158.1057511118402
 20
195.9923294364333
 30
0.0
 10
158.1088674386366
 20
195.6359508256004
 30
0.0
  0
SPLINE
  5
C1
330
1F
100
AcDbEntity
  8
0
  6
Continuous
 62
     7
370
    15
100
AcDbSpline
210
0.0
220
0.0
230
1.0
 70
     8
 71
     3
 72
    52
 73
    48
 74
     0
 42
0.000000001
 43
0.00000001
 40
0.0
 40
0.0
 40
0.0
 40
0.0
 40
0.0053074994726554
 40
0.0106084744807156
 40
0.0159043870752884
 40
0.0211967035030983
 40
0.0264868930010475
 40
0.0317764265783861
 40
0.0370667757915106
 40
0.0423594115164834
 40
0.0476558027243854
 40
0.0529574152645907
 40
0.0582657106609694
 40
0.0891348494759667
 40
0.1200087595578951
 40
0.1521645941111445
 40
0.1843252192282232
 40
0.2171652710889209
 40
0.25001021545236
 40
0.2828502674525652
 40
0.315695211956297
 40
0.3478510468951538
 40
0.3800116723979077
 40
0.41088081091547
 40
0.4417547207534571
 40
0.4708753336379863
 40
0.5000007798720127
 40
0.5291213927971703
 40
0.5582468390472111
 40
0.5891159778626601
 40
0.6199898879441411
 40
0.6521457224976949
 40
0.6843063476144631
 40
0.7171463994753853
 40
0.7499913438386053
 40
0.7828313958393156
 40
0.8156763403425399
 40
0.8478321752809374
 40
0.8799928007841432
 40
0.9108619393011222
 40
0.9417358491396983
 40
0.9514609652021586
 40
0.9611682412336295
 40
0.9708667191335897
 40
0.9805654654083855
 40
0.9902735458124469
 40
1.0
 40
1.0
 40
1.0
 40
1.0
 10
158.1088674386366
 20
195.6359508256004
 30
0.0
 10
158.1079394077262
 20
195.4414886675474
 30
0.0
 10
158.1060844867259
 20
195.0528034021417
 30
0.0
 10
158.0910554523742
 20
194.4702404321202
 30
0.0
 10
158.0670568233399
 20
193.8885545447508
 30
0.0
 10
158.0332125192567
 20
193.3077458499337
 30
0.0
 10
157.9897569775231
 20
192.7278145015145
 30
0.0
 10
157.9366274164571
 20
192.1487605810898
 30
0.0
 10
157.8738407467349
 20
191.5705844169532
 30
0.0
 10
157.8013921542183
 20
190.9932854195848
 30
0.0
 10
157.7192841167253
 20
190.4168664194373
 30
0.0
 10
157.6275117147317
 20
189.8413174578592
 30
0.0
 10
157.3633722130972
 20
188.3447048543401
 30
0.0
 10
156.7996044601941
 20
185.9489979931713
 30
0.0
 10
155.6869872798477
 20
182.6881268871101
 30
0.0
 10
154.2398210643087
 20
179.5082380048216
 30
0.0
 10
152.4406454348944
 20
176.4297390730567
 30
0.0
 10
150.3242248593394
 20
173.5282791650289
 30
0.0
 10
147.9013396658164
 20
170.8437321890295
 30
0.0
 10
145.2166791872043
 20
168.4207070140935
 30
0.0
 10
142.3153790476339
 20
166.3043677780095
 30
0.0
 10
139.2367259496161
 20
164.5050755858923
 30
0.0
 10
136.0570625155647
 20
163.0579674526762
 30
0.0
 10
132.7958262175723
 20
161.9452376356682
 30
0.0
 10
129.5500819188211
 20
161.1813501502808
 30
0.0
 10
126.3112158007049
 20
160.7330721503051
 30
0.0
 10
123.1090444107911
 20
160.5873942854412
 30
0.0
 10
119.9066969401572
 20
160.7330556628797
 30
0.0
 10
116.6679986804115
 20
161.1812858553596
 30
0.0
 10
113.4220780708221
 20
161.9451879144741
 30
0.0
 10
110.1609976702462
 20
163.0578382438542
 30
0.0
 10
106.981167101832
 20
164.504995218915
 30
0.0
 10
103.9026522616196
 20
166.3041733861246
 30
0.0
 10
101.0011967055107
 20
168.4205932029604
 30
0.0
 10
98.31664854750802
 20
170.8434788440647
 30
0.0
 10
95.89362371792467
 20
173.5281382965581
 30
0.0
 10
93.77728428377308
 20
176.4294420678749
 30
0.0
 10
91.97799253113641
 20
179.5080819304679
 30
0.0
 10
90.53088286177444
 20
182.6877938758678
 30
0.0
 10
89.41815853807773
 20
185.9488560855718
 30
0.0
 10
88.81731260604722
 20
188.5022701709343
 30
0.0
 10
88.50937252652699
 20
190.3196898765632
 30
0.0
 10
88.3632334156044
 20
191.3771366147995
 30
0.0
 10
88.24942738834322
 20
192.4375738681769
 30
0.0
 10
88.16873206753658
 20
193.5010278423264
 30
0.0
 10
88.11821053212078
 20
194.567488211053
 30
0.0
 10
88.11198376543307
 20
195.2795722147717
 30
0.0
 10
88.10886743863662
 20
195.6359508256004
 30
0.0
  0
ARC
  5
C2
330
1F
100
AcDbEntity
  8
0
  6
Continuous
 62
     7
370
    15
100
AcDbCircle
 10
123.1088674386
 20
195.6359508256
 30
0.0
 40
47.58431457505078
100
AcDbArc
 50
253.4556342686
 51
286.5443657314
  0
SPLINE
  5
C3
330
1F
100
AcDbEntity
  8
0
  6
Continuous
 62
     7
370
    15
100
AcDbSpline
210
0.0
220
0.0
230
1.0
 70
     8
 71
     3
 72
    10
 73
     6
 74
     0
 42
0.000000001
 43
0.00000001
 40
0.0
 40
0.0
 40
0.0
 40
0.0
 40
0.5
 40
0.5
 40
1.0
 40
1.0
 40
1.0
 40
1.0
 10
136.6588674386366
 20
150.0216494106122
 30
0.0
 10
136.6588674386366
 20
149.9576977217691
 30
0.0
 10
136.6450215626118
 20
149.896133383318
 30
0.0
 10
136.6028557864244
 20
149.785508032469
 30
0.0
 10
136.5743650861614
 20
149.7358213407995
 30
0.0
 10
136.5417101511113
 20
149.6922517641337
 30
0.0
  0
ARC
  5
C4
330
1F
100
AcDbEntity
  8
0
  6
Continuous
 62
     7
370
    15
100
AcDbCircle
 10
123.1088674386
 20
195.6359508256
 30
0.0
 40
47.8671572875254
100
AcDbArc
 50
253.7023380383
 51
286.2976619617
  0
SPLINE
  5
C5
330
1F
100
AcDbEntity
  8
0
  6
Continuous
 62
     7
370
    15
100
AcDbSpline
210
0.0
220
0.0
230
1.0
 70
     8
 71
     3
 72
    10
 73
     6
 74
     0
 42
0.000000001
 43
0.00000001
 40
0.0
 40
0.0
 40
0.0
 40
0.0
 40
0.5
 40
0.5
 40
1.0
 40
1.0
 40
1.0
 40
1.0
 10
109.676024726162
 20
149.6922517641337
 30
0.0
 10
109.6433916651447
 20
149.7357921555524
 30
0.0
 10
109.6154107788785
 20
149.7843467596702
 30
0.0
 10
109.5727539285035
 20
149.8957962954321
 30
0.0
 10
109.5588674386367
 20
149.9577545480212
 30
0.0
 10
109.5588674386367
 20
150.0216494106122
 30
0.0
  0
ARC
  5
C6
330
1F
100
AcDbEntity
  8
0
  6
Continuous
 62
     7
370
    15
100
AcDbCircle
 10
123.1088674386
 20
195.6359508256
 30
0.0
 40
47.58431457505077
100
AcDbArc
 50
73.4556342686
 51
106.5443657314
  0
SPLINE
  5
C7
330
1F
100
AcDbEntity
  8
0
  6
Continuous
 62
     7
370
    15
100
AcDbSpline
210
0.0
220
0.0
230
1.0
 70
     8
 71
     3
 72
    10
 73
     6
 74
     0
 42
0.000000001
 43
0.00000001
 40
0.0
 40
0.0
 40
0.0
 40
0.0
 40
0.5
 40
0.5
 40
1.0
 40
1.0
 40
1.0
 40
1.0
 10
109.5588674386366
 20
241.2502522405885
 30
0.0
 10
109.5588674386366
 20
241.3142039294316
 30
0.0
 10
109.5727133146615
 20
241.3757682678828
 30
0.0
 10
109.6148790908488
 20
241.4863936187318
 30
0.0
 10
109.6433697911119
 20
241.5360803104012
 30
0.0
 10
109.676024726162
 20
241.579649887067
 30
0.0
  0
ARC
  5
C8
330
1F
100
AcDbEntity
  8
0
  6
Continuous
 62
     7
370
    15
100
AcDbCircle
 10
123.1088674386
 20
195.6359508256
 30
0.0
 40
47.86715728752537
100
AcDbArc
 50
73.7023380383
 51
106.2976619617
  0
SPLINE
  5
C9
330
1F
100
AcDbEntity
  8
0
  6
Continuous
 62
     7
370
    15
100
AcDbSpline
210
0.0
220
0.0
230
1.0
 70
     8
 71
     3
 72
    10
 73
     6
 74
     0
 42
0.000000001
 43
0.00000001
 40
0.0
 40
0.0
 40
0.0
 40
0.0
 40
0.5
 40
0.5
 40
1.0
 40
1.0
 40
1.0
 40
1.0
 10
136.5417101511113
 20
241.5796498870669
 30
0.0
 10
136.5743432121286
 20
241.5361094956483
 30
0.0
 10
136.6023240983948
 20
241.4875548915305
 30
0.0
 10
136.6449809487698
 20
241.3761053557686
 30
0.0
 10
136.6588674386367
 20
241.3141471031795
 30
0.0
 10
136.6588674386367
 20
241.2502522405885
 30
0.0
  0
ARC
  5
CA
330
1F
100
AcDbEntity
  8
0
  6
Continuous
 62
     7
370
    15
100
AcDbCircle
 10
123.1088674386
 20
195.6359508256
 30
0.0
 40
47.86715728752539
100
AcDbArc
 50
218.8096103904
 51
231.1903896096
  0
SPLINE
  5
CB
330
1F
100
AcDbEntity
  8
0
  6
Continuous
 62
     7
370
    15
100
AcDbSpline
210
0.0
220
0.0
230
1.0
 70
    24
 71
     3
 72
     8
 73
     4
 74
     0
 42
0.000000001
 43
0.00000001
 40
0.0
 40
0.0
 40
0.0
 40
0.0
 40
1.0
 40
1.0
 40
1.0
 40
1.0
 10
86.17288236205597
 20
165.6359508256003
 30
0.0
 10
86.0421782124491
 20
165.6359508256003
 30
0.0
 10
85.91264124543294
 20
165.6359508256003
 30
0.0
 10
85.8092059550696
 20
165.6359508256003
 30
0.0
  0
ARC
  5
CC
330
1F
100
AcDbEntity
  8
0
  6
Continuous
 62
     7
370
    15
100
AcDbCircle
 10
123.1088674386
 20
195.6359508256
 30
0.0
 40
47.58431457505077
100
AcDbArc
 50
219.0840578538
 51
230.9159421462
  0
SPLINE
  5
CD
330
1F
100
AcDbEntity
  8
0
  6
Continuous
 62
     7
370
    15
100
AcDbSpline
210
0.0
220
0.0
230
1.0
 70
    24
 71
     3
 72
     8
 73
     4
 74
     0
 42
0.000000001
 43
0.00000001
 40
0.0
 40
0.0
 40
0.0
 40
0.0
 40
1.0
 40
1.0
 40
1.0
 40
1.0
 10
93.10886743863662
 20
158.6999657490197
 30
0.0
 10
93.10886743863662
 20
158.5692615994128
 30
0.0
 10
93.10886743863662
 20
158.4397246323967
 30
0.0
 10
93.10886743863662
 20
158.3362893420333
 30
0.0
  0
SPLINE
  5
CE
330
1F
100
AcDbEntity
  8
0
  6
Continuous
 62
     7
370
    15
100
AcDbSpline
210
0.0
220
0.0
230
1.0
 70
     8
 71
     3
 72
    40
 73
    36
 74
     0
 42
0.000000001
 43
0.00000001
 40
0.0
 40
0.0
 40
0.0
 40
0.0
 40
0.0076138096088312
 40
0.0152227036962087
 40
0.0228283796616984
 40
0.0304325370599136
 40
0.0380368764636579
 40
0.045643098323658
 40
0.0532529018287069
 40
0.0608679837700301
 40
0.0919930035856531
 40
0.1231236538966447
 40
0.1547321881285769
 40
0.1863461940165405
 40
0.2182020912720865
 40
0.2500635030030742
 40
0.3137495787501955
 40
0.3769416086590397
 40
0.4391681485651269
 40
0.5000004350472884
 40
0.56083272152945
 40
0.6230592614355372
 40
0.6862512913443813
 40
0.7499373670915028
 40
0.7817932643705642
 40
0.8136546761204153
 40
0.8452632104152359
 40
0.8768772163635344
 40
0.9080022357777107
 40
0.9391328857746196
 40
0.9513123423169161
 40
0.9634818178562744
 40
0.9756482751527067
 40
0.9878186821464896
 40
0.9999999999999999
 40
0.9999999999999999
 40
0.9999999999999999
 40
0.9999999999999999
 10
109.5588674386366
 20
241.2502522405885
 30
0.0
 10
109.3318546809211
 20
241.1817528297583
 30
0.0
 10
108.8779757262971
 20
241.0447982317312
 30
0.0
 10
108.2013085051422
 20
240.8265681425987
 30
0.0
 10
107.5280378045845
 20
240.5990725212059
 30
0.0
 10
106.8584382737973
 20
240.3613875570386
 30
0.0
 10
106.192436133444
 20
240.1137604109958
 30
0.0
 10
105.5300525984159
 20
239.8561259809417
 30
0.0
 10
104.8712771633879
 20
239.5884978005892
 30
0.0
 10
103.5421734282086
 20
239.025305150633
 30
0.0
 10
101.5708726567976
 20
238.1002864784525
 30
0.0
 10
99.00402757737454
 20
236.6978737660153
 30
0.0
 10
96.51507775087303
 20
235.1323341579005
 30
0.0
 10
94.11004833877766
 20
233.4018227025962
 30
0.0
 10
91.81093798106068
 20
231.5201682654097
 30
0.0
 10
88.90234410707954
 20
228.8183384983449
 30
0.0
 10
85.60176526065548
 20
225.1189747608296
 30
0.0
 10
82.24971594307628
 20
220.2586978556963
 30
0.0
 10
79.56140515410092
 20
215.1024101548403
 30
0.0
 10
77.5407764868278
 20
209.7292463393296
 30
0.0
 10
76.17513008553189
 20
204.1535096660628
 30
0.0
 10
75.48302335498117
 20
198.379836118928
 30
0.0
 10
75.50587728770236
 20
192.4757694642538
 30
0.0
 10
76.14162829976634
 20
187.5591417388268
 30
0.0
 10
77.01700332598294
 20
183.6869959468739
 30
0.0
 10
77.85230911131967
 20
180.8360684953839
 30
0.0
 10
78.8604751020218
 20
178.0497706773056
 30
0.0
 10
80.03091549650007
 20
175.3525852473801
 30
0.0
 10
81.35790080926182
 20
172.7457425158778
 30
0.0
 10
82.53492083682652
 20
170.7467705901699
 30
0.0
 10
83.47399452250478
 20
169.2963063562527
 30
0.0
 10
84.11463632586302
 20
168.3565740982284
 30
0.0
 10
84.77781806715765
 20
167.4330120217319
 30
0.0
 10
85.46163325504364
 20
166.5240555376504
 30
0.0
 10
85.93572851980696
 20
165.9320741426008
 30
0.0
 10
86.17288236205597
 20
165.6359508256004
 30
0.0
  0
SPLINE
  5
CF
330
1F
100
AcDbEntity
  8
0
  6
Continuous
 62
     7
370
    15
100
AcDbSpline
210
0.0
220
0.0
230
1.0
 70
     8
 71
     3
 72
    36
 73
    32
 74
     0
 42
0.000000001
 43
0.00000001
 40
0.0
 40
0.0
 40
0.0
 40
0.0
 40
0.0108670927972102
 40
0.0217248651287689
 40
0.0325754130147298
 40
0.0434208366638035
 40
0.054263239262445
 40
0.0651047257553089
 40
0.0759474016205952
 40
0.0867933716438414
 40
0.0976447386937312
 40
0.1085036025034721
 40
0.1193720584612587
 40
0.1813968118519611
 40
0.243429965651617
 40
0.3071319153790351
 40
0.3708424926864586
 40
0.4354174331843808
 40
0.5000011195034878
 40
0.5645760601031748
 40
0.6291597465272367
 40
0.6928616965444044
 40
0.7565722741492558
 40
0.8185970279753502
 40
0.8806301822188909
 40
0.9005456108403475
 40
0.9204355762662809
 40
0.9403130274597373
 40
0.9601909378400201
 40
0.9800822799279674
 40
0.9999999999999999
 40
0.9999999999999999
 40
0.9999999999999999
 40
0.9999999999999999
 10
170.6931820136874
 20
195.6359508256004
 30
0.0
 10
170.6922986863906
 20
195.8568886258378
 30
0.0
 10
170.6905327894074
 20
196.2985747328375
 30
0.0
 10
170.6762324113685
 20
196.9607348607122
 30
0.0
 10
170.6533995876019
 20
197.622199095364
 30
0.0
 10
170.6211998967395
 20
198.2829673765231
 30
0.0
 10
170.5798567193225
 20
198.9430396157713
 30
0.0
 10
170.5293102230806
 20
199.602415779323
 30
0.0
 10
170.4695764989511
 20
200.2610956423862
 30
0.0
 10
170.4006510317013
 20
200.9190796909069
 30
0.0
 10
170.3225358529997
 20
201.5763657602457
 30
0.0
 10
170.2352274343236
 20
202.2329615902408
 30
0.0
 10
169.9873948109176
 20
203.9175762793607
 30
0.0
 10
169.4617487907649
 20
206.6133049444461
 30
0.0
 10
168.4333581451511
 20
210.2934526129652
 30
0.0
 10
167.1014082326466
 20
213.9120252347331
 30
0.0
 10
165.4554823448006
 20
217.4560284958817
 30
0.0
 10
163.5164612852217
 20
220.8693988856166
 30
0.0
 10
161.290486304698
 20
224.1242773100388
 30
0.0
 10
158.8041310280313
 20
227.1850986569916
 30
0.0
 10
156.0843632341714
 20
230.0157157467252
 30
0.0
 10
153.1556548961389
 20
232.6028175624721
 30
0.0
 10
150.066328896989
 20
234.9099476285394
 30
0.0
 10
146.8312278488045
 20
236.9438519432301
 30
0.0
 10
144.2336159790878
 20
238.3005560518038
 30
0.0
 10
142.3507285490966
 20
239.1619900472384
 30
0.0
 10
141.2346735747307
 20
239.6385368408086
 30
0.0
 10
140.1075794397357
 20
240.0862833701977
 30
0.0
 10
138.9692145160523
 20
240.5045225109437
 30
0.0
 10
137.8203830346988
 20
240.8959357152802
 30
0.0
 10
137.0462102961808
 20
241.1320945715453
 30
0.0
 10
136.6588674386367
 20
241.2502522405885
 30
0.0
  0
SPLINE
  5
D0
330
1F
100
AcDbEntity
  8
0
  6
Continuous
 62
     7
370
    15
100
AcDbSpline
210
0.0
220
0.0
230
1.0
 70
     8
 71
     3
 72
    36
 73
    32
 74
     0
 42
0.000000001
 43
0.00000001
 40
0.0
 40
0.0
 40
0.0
 40
0.0
 40
0.0108670927976138
 40
0.0217248651294953
 40
0.0325754130156982
 40
0.0434208366649332
 40
0.0542632392636552
 40
0.065104725756519
 40
0.0759474016217247
 40
0.0867933716448104
 40
0.0976447386944597
 40
0.1085036025038803
 40
0.1193720584612676
 40
0.1813968118522707
 40
0.2434299656516123
 40
0.3071319153785467
 40
0.3708424926864622
 40
0.4354174331848614
 40
0.5000011195034882
 40
0.5645760601040033
 40
0.6291597465272422
 40
0.6928616965456248
 40
0.7565722741492584
 40
0.8185970279756692
 40
0.8806301822188896
 40
0.9005456108402741
 40
0.9204355762661642
 40
0.9403130274596062
 40
0.9601909378399034
 40
0.9800822799278944
 40
1.0
 40
1.0
 40
1.0
 40
1.0
 10
136.6588674386366
 20
150.0216494106122
 30
0.0
 10
136.8704067750627
 20
150.0854099077001
 30
0.0
 10
137.2933040152932
 20
150.2128762159042
 30
0.0
 10
137.9239782575166
 20
150.4151397469256
 30
0.0
 10
138.5515557371958
 20
150.625384315425
 30
0.0
 10
139.1757987886466
 20
150.8444097801687
 30
0.0
 10
139.7967709364403
 20
151.0720019834975
 30
0.0
 10
140.4144551104903
 20
151.308218270977
 30
0.0
 10
141.0288556773296
 20
151.5530431538309
 30
0.0
 10
141.6399718170384
 20
151.806481098736
 30
0.0
 10
142.2478020331277
 20
152.0685295417384
 30
0.0
 10
142.8523527402287
 20
152.3391940692562
 30
0.0
 10
144.3966513353888
 20
153.0564733098455
 30
0.0
 10
146.8310938049943
 20
154.3279868317546
 30
0.0
 10
150.066039461564
 20
156.3617520052819
 30
0.0
 10
153.1555184686664
 20
158.6689749795649
 30
0.0
 10
156.0841082452331
 20
161.2559409754722
 30
0.0
 10
158.8040123059972
 20
164.0866691481031
 30
0.0
 10
161.2902737051929
 20
167.1473394058549
 30
0.0
 10
163.5163667874283
 20
170.402350844993
 30
0.0
 10
165.4553201660553
 20
173.8155589776617
 30
0.0
 10
167.1013424894475
 20
177.3597145675116
 30
0.0
 10
168.4332469103656
 20
180.9781140596024
 30
0.0
 10
169.4617266876417
 20
184.6584503079399
 30
0.0
 10
170.0225726206614
 20
187.5348517582453
 30
0.0
 10
170.3121761457629
 20
189.5850867205658
 30
0.0
 10
170.4511884282068
 20
190.7906368595447
 30
0.0
 10
170.55944930505
 20
191.9985680356733
 30
0.0
 10
170.6362149692452
 20
193.2089009283633
 30
0.0
 10
170.6842848706085
 20
194.4216281663139
 30
0.0
 10
170.6902149895374
 20
195.230997839671
 30
0.0
 10
170.6931820136874
 20
195.6359508256004
 30
0.0
  0
SPLINE
  5
D1
330
1F
100
AcDbEntity
  8
0
  6
Continuous
 62
     7
370
    15
100
AcDbSpline
210
0.0
220
0.0
230
1.0
 70
     8
 71
     3
 72
    27
 73
    23
 74
     0
 42
0.000000001
 43
0.00000001
 40
0.0
 40
0.0
 40
0.0
 40
0.0
 40
0.0385569892849984
 40
0.0770658329197954
 40
0.1155353026404073
 40
0.1539741971381833
 40
0.1923913361124397
 40
0.2307955542512551
 40
0.2691956951607655
 40
0.3076006052637321
 40
0.3460191276883882
 40
0.3844600961686546
 40
0.4229323289767205
 40
0.4614446229087285
 40
0.5000057473438753
 40
0.571571333449417
 40
0.6429967682529732
 40
0.7143384572511784
 40
0.785653004654555
 40
0.8569970792758755
 40
0.9284272796521089
 40
1.0
 40
1.0
 40
1.0
 40
1.0
 10
93.10886743863662
 20
158.6999657490197
 30
0.0
 10
93.29627262280937
 20
158.5490964131891
 30
0.0
 10
93.67084898054844
 20
158.2475461302585
 30
0.0
 10
94.24095967396819
 20
157.8062604507509
 30
0.0
 10
94.81660150934123
 20
157.373473329464
 30
0.0
 10
95.39839534488327
 20
156.9499493133007
 30
0.0
 10
95.98617495556313
 20
156.5354839350404
 30
0.0
 10
96.57998472464426
 20
156.1301320172209
 30
0.0
 10
97.17981265108197
 20
155.7338789698315
 30
0.0
 10
97.78566183828076
 20
155.346728780234
 30
0.0
 10
98.39753129585185
 20
154.9686804604816
 30
0.0
 10
99.01542128756005
 20
154.5997343167992
 30
0.0
 10
99.63933113496462
 20
154.2398904170433
 30
0.0
 10
100.2692626612609
 20
153.8891484489974
 30
0.0
 10
101.0863138102436
 20
153.4502176910666
 30
0.0
 10
102.0956694030028
 20
152.9355764659408
 30
0.0
 10
103.3038328040182
 20
152.3616852476862
 30
0.0
 10
104.5262574828978
 20
151.8227079643967
 30
0.0
 10
105.7628669109211
 20
151.3184163933789
 30
0.0
 10
107.0139183525896
 20
150.8496800843747
 30
0.0
 10
108.2784438947894
 20
150.4132501918199
 30
0.0
 10
109.1317761072405
 20
150.1522697040498
 30
0.0
 10
109.5588674386366
 20
150.0216494106122
 30
0.0
  0
ARC
  5
D2
330
1F
100
AcDbEntity
  8
0
  6
Continuous
 62
     7
370
    15
100
AcDbCircle
 10
123.1088674386
 20
195.6359508256
 30
0.0
 40
47.86715728752539
100
AcDbArc
 50
106.2976619617
 51
218.8096103904
  0
ARC
  5
D3
330
1F
100
AcDbEntity
  8
0
  6
Continuous
 62
     7
370
    15
100
AcDbCircle
 10
123.1088674386
 20
195.6359508256
 30
0.0
 40
47.86715728752539
100
AcDbArc
 50
286.2976619617
 51
73.7023380383
  0
ARC
  5
D4
330
1F
100
AcDbEntity
  8
0
  6
Continuous
 62
     7
370
    15
100
AcDbCircle
 10
123.1088674386
 20
195.6359508256
 30
0.0
 40
47.8671572875254
100
AcDbArc
 50
231.1903896096
 51
253.7023380383
  0
ARC
  5
D5
330
1F
100
AcDbEntity
  8
0
  6
Continuous
 62
     7
370
    15
100
AcDbCircle
 10
123.1088674386
 20
195.6359508256
 30
0.0
 40
48.63284271247463
100
AcDbArc
 50
231.9122882504
 51
254.1258902834
  0
ARC
  5
D6
330
1F
100
AcDbEntity
  8
0
  6
Continuous
 62
     7
370
    15
100
AcDbCircle
 10
123.1088674386
 20
195.6359508256
 30
0.0
 40
48.63284271247463
100
AcDbArc
 50
218.0877117496
 51
231.9122882504
  0
ARC
  5
D7
330
1F
100
AcDbEntity
  8
0
  6
Continuous
 62
     7
370
    15
100
AcDbCircle
 10
123.1088674386
 20
195.6359508256
 30
0.0
 40
48.63284271247462
100
AcDbArc
 50
105.9657859825
 51
218.0877117496
  0
ARC
  5
D8
330
1F
100
AcDbEntity
  8
0
  6
Continuous
 62
     7
370
    15
100
AcDbCircle
 10
123.1088674386
 20
195.6359508256
 30
0.0
 40
48.63284271247461
100
AcDbArc
 50
74.1258902834
 51
105.9657859825
  0
ARC
  5
D9
330
1F
100
AcDbEntity
  8
0
  6
Continuous
 62
     7
370
    15
100
AcDbCircle
 10
123.1088674386
 20
195.6359508256
 30
0.0
 40
48.63284271247462
100
AcDbArc
 50
285.9657859825
 51
74.1258902834
  0
ARC
  5
DA
330
1F
100
AcDbEntity
  8
0
  6
Continuous
 62
     7
370
    15
100
AcDbCircle
 10
123.1088674386
 20
195.6359508256
 30
0.0
 40
48.63284271247464
100
AcDbArc
 50
254.1258902834
 51
285.9657859825
  0
SPLINE
  5
DB
330
1F
100
AcDbEntity
  8
0
  6
Continuous
 62
     7
370
    15
100
AcDbSpline
210
0.0
220
0.0
230
1.0
 70
    24
 71
     3
 72
    10
 73
     6
 74
     0
 42
0.000000001
 43
0.00000001
 40
0.0
 40
0.0
 40
0.0
 40
0.0
 40
0.5
 40
0.5
 40
1.0
 40
1.0
 40
1.0
 40
1.0
 10
136.4859772507448
 20
148.879065521176
 30
0.0
 10
136.526170583008
 20
148.8561240009389
 30
0.0
 10
136.5614225478446
 20
148.8360029107193
 30
0.0
 10
136.6127020465483
 20
148.8067336366628
 30
0.0
 10
136.628026004874
 20
148.7979870391489
 30
0.0
 10
136.628026004874
 20
148.797987039149
 30
0.0
  0
ARC
  5
DC
330
1F
100
AcDbEntity
  8
0
  6
Continuous
 62
     7
370
    15
100
AcDbCircle
 10
123.1088674386
 20
195.6359508256
 30
0.0
 40
48.75000000000001
100
AcDbArc
 50
254.0491974398
 51
286.1000846724
  0
SPLINE
  5
DD
330
1F
100
AcDbEntity
  8
0
  6
Continuous
 62
     7
370
    15
100
AcDbSpline
210
0.0
220
0.0
230
1.0
 70
    24
 71
     3
 72
     8
 73
     4
 74
     0
 42
0.000000001
 43
0.00000001
 40
0.0
 40
0.0
 40
0.0
 40
0.0
 40
1.0
 40
1.0
 40
1.0
 40
1.0
 10
109.711789267224
 20
148.7629223713917
 30
0.0
 10
109.711789267224
 20
148.7629223713917
 30
0.0
 10
109.7488858602902
 20
148.8000189644579
 30
0.0
 10
109.8065881983872
 20
148.8577213025549
 30
0.0
  0
SPLINE
  5
DE
330
1F
100
AcDbEntity
  8
0
  6
Continuous
 62
     7
370
    15
100
AcDbSpline
210
0.0
220
0.0
230
1.0
 70
    24
 71
     3
 72
    10
 73
     6
 74
     0
 42
0.000000001
 43
0.00000001
 40
0.0
 40
0.0
 40
0.0
 40
0.0
 40
0.5
 40
0.5
 40
1.0
 40
1.0
 40
1.0
 40
1.0
 10
109.7317576265286
 20
242.3928361300247
 30
0.0
 10
109.6915642942653
 20
242.4157776502619
 30
0.0
 10
109.6563123294287
 20
242.4358987404814
 30
0.0
 10
109.605032830725
 20
242.465168014538
 30
0.0
 10
109.5897088723993
 20
242.4739146120517
 30
0.0
 10
109.5897088723993
 20
242.4739146120517
 30
0.0
  0
ARC
  5
DF
330
1F
100
AcDbEntity
  8
0
  6
Continuous
 62
     7
370
    15
100
AcDbCircle
 10
123.1088674386
 20
195.6359508256
 30
0.0
 40
48.75000000000001
100
AcDbArc
 50
74.0491974398
 51
106.1000846724
  0
SPLINE
  5
E0
330
1F
100
AcDbEntity
  8
0
  6
Continuous
 62
     7
370
    15
100
AcDbSpline
210
0.0
220
0.0
230
1.0
 70
    24
 71
     3
 72
     8
 73
     4
 74
     0
 42
0.000000001
 43
0.00000001
 40
0.0
 40
0.0
 40
0.0
 40
0.0
 40
1.0
 40
1.0
 40
1.0
 40
1.0
 10
136.5059456100494
 20
242.508979279809
 30
0.0
 10
136.5059456100494
 20
242.508979279809
 30
0.0
 10
136.4688490169831
 20
242.4718826867428
 30
0.0
 10
136.4111466788862
 20
242.4141803486458
 30
0.0
  0
ARC
  5
E1
330
1F
100
AcDbEntity
  8
0
  6
Continuous
 62
     7
370
    15
100
AcDbCircle
 10
123.1088674386
 20
195.6359508256
 30
0.0
 40
48.75000000000003
100
AcDbArc
 50
217.9798724449
 51
232.0201275551
  0
SPLINE
  5
E2
330
1F
100
AcDbEntity
  8
0
  6
Continuous
 62
     7
370
    15
100
AcDbSpline
210
0.0
220
0.0
230
1.0
 70
    24
 71
     3
 72
     8
 73
     4
 74
     0
 42
0.000000001
 43
0.00000001
 40
0.0
 40
0.0
 40
0.0
 40
0.0
 40
1.0
 40
1.0
 40
1.0
 40
1.0
 10
84.6828020662881
 20
165.6359508256004
 30
0.0
 10
84.6828020662881
 20
165.6359508256004
 30
0.0
 10
84.74431761471955
 20
165.6359508256004
 30
0.0
 10
84.83154529750068
 20
165.6359508256004
 30
0.0
  0
SPLINE
  5
E3
330
1F
100
AcDbEntity
  8
0
  6
Continuous
 62
     7
370
    15
100
AcDbSpline
210
0.0
220
0.0
230
1.0
 70
    24
 71
     3
 72
     8
 73
     4
 74
     0
 42
0.000000001
 43
0.00000001
 40
0.0
 40
0.0
 40
0.0
 40
0.0
 40
1.0
 40
1.0
 40
1.0
 40
1.0
 10
93.10886743863665
 20
157.3586286844644
 30
0.0
 10
93.10886743863665
 20
157.2713542682501
 30
0.0
 10
93.10886743863664
 20
157.2098854532516
 30
0.0
 10
93.10886743863664
 20
157.2098854532518
 30
0.0
  0
ARC
  5
E4
330
1F
100
AcDbEntity
  8
0
  6
Continuous
 62
     7
370
    15
100
AcDbCircle
 10
123.1088674386
 20
195.6359508256
 30
0.0
 40
48.75000000000003
100
AcDbArc
 50
232.0201275551
 51
254.0491974398
  0
ARC
  5
E5
330
1F
100
AcDbEntity
  8
0
  6
Continuous
 62
     7
370
    15
100
AcDbCircle
 10
123.1088674386
 20
195.6359508256
 30
0.0
 40
48.75000000000002
100
AcDbArc
 50
106.1000846724
 51
217.9798724449
  0
ARC
  5
E6
330
1F
100
AcDbEntity
  8
0
  6
Continuous
 62
     7
370
    15
100
AcDbCircle
 10
123.1088674386
 20
195.6359508256
 30
0.0
 40
48.75000000000001
100
AcDbArc
 50
286.1000846724
 51
74.0491974398
  0
INSERT
  5
F2
330
1F
100
AcDbEntity
  8
DIM
100
AcDbBlockReference
  2
SW_CENTERMARKSYMBOL_0
 10
123.1088674386
 20
195.6359508256
 30
0.0
  0
LINE
  5
F3
330
1F
100
AcDbEntity
  8
0
  6
Continuous
 62
     7
370
    15
100
AcDbLine
 10
363.1780074167
 20
146.8859508256
 30
0.0
 11
366.7647267276
 21
146.8859508256
 31
0.0
  0
LINE
  5
F4
330
1F
100
AcDbEntity
  8
0
  6
Continuous
 62
     7
370
    15
100
AcDbLine
 10
366.7647267276
 20
244.3859508256
 30
0.0
 11
363.1780074167
 21
244.3859508256
 31
0.0
  0
LINE
  5
F5
330
1F
100
AcDbEntity
  8
0
  6
Continuous
 62
     7
370
    15
100
AcDbLine
 10
363.1780074167
 20
244.3859508256
 30
0.0
 11
361.8304121525
 21
242.05184736
 31
0.0
  0
LINE
  5
F6
330
1F
100
AcDbEntity
  8
0
  6
Continuous
 62
     7
370
    15
100
AcDbLine
 10
361.8304121525
 20
149.2200542912
 30
0.0
 11
363.1780074167
 21
146.8859508256
 31
0.0
  0
LINE
  5
F7
330
1F
100
AcDbEntity
  8
0
  6
Continuous
 62
     7
370
    15
100
AcDbLine
 10
356.6828168883
 20
146.8859508256
 30
0.0
 11
358.0304121525
 21
149.2200542912
 31
0.0
  0
LINE
  5
F8
330
1F
100
AcDbEntity
  8
0
  6
Continuous
 62
     7
370
    15
100
AcDbLine
 10
358.0304121525
 20
242.05184736
 30
0.0
 11
356.6828168883
 21
244.3859508256
 31
0.0
  0
LINE
  5
F9
330
1F
100
AcDbEntity
  8
0
  6
Continuous
 62
     7
370
    15
100
AcDbLine
 10
353.1960975775
 20
146.8859508256
 30
0.0
 11
356.6828168883
 21
146.8859508256
 31
0.0
  0
LINE
  5
FA
330
1F
100
AcDbEntity
  8
0
  6
Continuous
 62
     7
370
    15
100
AcDbLine
 10
356.6828168883
 20
244.3859508256
 30
0.0
 11
353.1960975775
 21
244.3859508256
 31
0.0
  0
LINE
  5
FB
330
1F
100
AcDbEntity
  8
0
  6
Continuous
 62
     7
370
    15
100
AcDbLine
 10
367.0475694401
 20
147.0031081131
 30
0.0
 11
367.813254865
 21
147.7687935381
 31
0.0
  0
LINE
  5
FC
330
1F
100
AcDbEntity
  8
0
  6
Continuous
 62
     7
370
    15
100
AcDbLine
 10
367.813254865
 20
243.5031081131
 30
0.0
 11
367.0475694401
 21
244.2687935381
 31
0.0
  0
LINE
  5
FD
330
1F
100
AcDbEntity
  8
0
  6
Continuous
 62
     7
370
    15
100
AcDbLine
 10
352.913254865
 20
244.2687935381
 30
0.0
 11
352.1475694401
 21
243.5031081131
 31
0.0
  0
LINE
  5
FE
330
1F
100
AcDbEntity
  8
0
  6
Continuous
 62
     7
370
    15
100
AcDbLine
 10
352.1475694401
 20
147.7687935381
 30
0.0
 11
352.913254865
 21
147.0031081131
 31
0.0
  0
LINE
  5
FF
330
1F
100
AcDbEntity
  8
0
  6
Continuous
 62
     7
370
    15
100
AcDbLine
 10
358.0304121525
 20
150.1359508256
 30
0.0
 11
361.8304121525
 21
150.1359508256
 31
0.0
  0
LINE
  5
100
330
1F
100
AcDbEntity
  8
0
  6
Continuous
 62
     7
370
    15
100
AcDbLine
 10
361.8304121525
 20
241.1359508256
 30
0.0
 11
358.0304121525
 21
241.1359508256
 31
0.0
  0
ARC
  5
101
330
1F
100
AcDbEntity
  8
0
  6
Continuous
 62
     7
370
    15
100
AcDbCircle
 10
351.5304121525
 20
160.6359508256
 30
0.0
 40
0.5000000000000568
100
AcDbArc
 50
0.0
 51
90.0
  0
ARC
  5
102
330
1F
100
AcDbEntity
  8
0
  6
Continuous
 62
     7
370
    15
100
AcDbCircle
 10
351.5304121525
 20
230.6359508256
 30
0.0
 40
0.5000000000000568
100
AcDbArc
 50
270.0
 51
0.0
  0
LINE
  5
103
330
1F
100
AcDbEntity
  8
0
  6
Continuous
 62
     7
370
    15
100
AcDbLine
 10
348.8304121525
 20
230.5609508256
 30
0.0
 11
247.9361039253
 21
215.8470586126
 31
0.0
  0
LINE
  5
104
330
1F
100
AcDbEntity
  8
0
  6
Continuous
 62
     7
370
    15
100
AcDbLine
 10
247.9361039253
 20
175.4248430386
 30
0.0
 11
348.8304121525
 21
160.7109508256
 31
0.0
  0
LINE
  5
105
330
1F
100
AcDbEntity
  8
0
  6
Continuous
 62
     7
370
    15
100
AcDbLine
 10
348.8304121525
 20
160.7109508256
 30
0.0
 11
349.7418275937
 21
161.1359508256
 31
0.0
  0
LINE
  5
106
330
1F
100
AcDbEntity
  8
0
  6
Continuous
 62
     7
370
    15
100
AcDbLine
 10
349.7418275937
 20
230.1359508256
 30
0.0
 11
348.8304121525
 21
230.5609508256
 31
0.0
  0
LINE
  5
107
330
1F
100
AcDbEntity
  8
0
  6
Continuous
 62
     7
370
    15
100
AcDbLine
 10
349.7418275937
 20
161.1359508256
 30
0.0
 11
351.5304121525
 21
161.1359508256
 31
0.0
  0
LINE
  5
108
330
1F
100
AcDbEntity
  8
0
  6
Continuous
 62
     7
370
    15
100
AcDbLine
 10
351.5304121525
 20
230.1359508256
 30
0.0
 11
349.7418275937
 21
230.1359508256
 31
0.0
  0
ARC
  5
109
330
1F
100
AcDbEntity
  8
0
  6
Continuous
 62
     7
370
    15
100
AcDbCircle
 10
248.0804121525
 20
176.4143758251
 30
0.0
 40
1.000000000000028
100
AcDbArc
 50
180.0
 51
261.7027777778
  0
ARC
  5
10A
330
1F
100
AcDbEntity
  8
0
  6
Continuous
 62
     7
370
    15
100
AcDbCircle
 10
248.0804121525
 20
214.8575258261
 30
0.0
 40
1.000000000000028
100
AcDbArc
 50
98.2972222222
 51
180.0
  0
LINE
  5
10B
330
1F
100
AcDbEntity
  8
0
  6
Continuous
 62
     7
370
    15
100
AcDbLine
 10
415.654985672
 20
179.6359508256
 30
0.0
 11
418.8304121525
 21
185.1359508256
 31
0.0
  0
LINE
  5
10C
330
1F
100
AcDbEntity
  8
0
  6
Continuous
 62
     7
370
    15
100
AcDbLine
 10
418.8304121525
 20
206.1359508256
 30
0.0
 11
415.654985672
 21
211.6359508256
 31
0.0
  0
LINE
  5
10D
330
1F
100
AcDbEntity
  8
0
  6
Continuous
 62
     7
370
    15
100
AcDbLine
 10
399.8304121525
 20
179.6359508256
 30
0.0
 11
415.654985672
 21
179.6359508256
 31
0.0
  0
LINE
  5
10E
330
1F
100
AcDbEntity
  8
0
  6
Continuous
 62
     7
370
    15
100
AcDbLine
 10
415.654985672
 20
211.6359508256
 30
0.0
 11
399.8304121525
 21
211.6359508256
 31
0.0
  0
LINE
  5
10F
330
1F
100
AcDbEntity
  8
0
  6
Continuous
 62
     7
370
    15
100
AcDbLine
 10
399.8304121525
 20
211.6359508256
 30
0.0
 11
398.3304121525
 21
210.1359508256
 31
0.0
  0
LINE
  5
110
330
1F
100
AcDbEntity
  8
0
  6
Continuous
 62
     7
370
    15
100
AcDbLine
 10
398.3304121525
 20
181.1359508256
 30
0.0
 11
399.8304121525
 21
179.6359508256
 31
0.0
  0
LINE
  5
111
330
1F
100
AcDbEntity
  8
0
  6
Continuous
 62
     7
370
    15
100
AcDbLine
 10
367.9304121525
 20
179.9409508256
 30
0.0
 11
386.8930796759
 21
184.8081560293
 31
0.0
  0
LINE
  5
112
330
1F
100
AcDbEntity
  8
0
  6
Continuous
 62
     7
370
    15
100
AcDbLine
 10
386.8930796759
 20
206.4637456219
 30
0.0
 11
367.9304121525
 21
211.3309508256
 31
0.0
  0
ARC
  5
113
330
1F
100
AcDbEntity
  8
0
  6
Continuous
 62
     7
370
    15
100
AcDbCircle
 10
352.4304121525
 20
243.2202654007
 30
0.0
 40
0.3999999999999992
100
AcDbArc
 50
135.0
 51
180.0
  0
ARC
  5
114
330
1F
100
AcDbEntity
  8
0
  6
Continuous
 62
     7
370
    15
100
AcDbCircle
 10
367.5304121525
 20
243.2202654007
 30
0.0
 40
0.4000000000000394
100
AcDbArc
 50
0.0
 51
45.0
  0
ARC
  5
115
330
1F
100
AcDbEntity
  8
0
  6
Continuous
 62
     7
370
    15
100
AcDbCircle
 10
367.5304121525
 20
148.0516362505
 30
0.0
 40
0.4000000000000595
100
AcDbArc
 50
315.0
 51
0.0
  0
ARC
  5
116
330
1F
100
AcDbEntity
  8
0
  6
Continuous
 62
     7
370
    15
100
AcDbCircle
 10
352.4304121525
 20
148.0516362505
 30
0.0
 40
0.3999999999999992
100
AcDbArc
 50
180.0
 51
225.0
  0
ARC
  5
117
330
1F
100
AcDbEntity
  8
0
  6
Continuous
 62
     7
370
    15
100
AcDbCircle
 10
353.1960975775
 20
147.2859508256
 30
0.0
 40
0.3999999999999791
100
AcDbArc
 50
225.0
 51
270.0
  0
ARC
  5
118
330
1F
100
AcDbEntity
  8
0
  6
Continuous
 62
     7
370
    15
100
AcDbCircle
 10
366.7647267276
 20
147.2859508256
 30
0.0
 40
0.4000000000000193
100
AcDbArc
 50
270.0
 51
315.0
  0
ARC
  5
119
330
1F
100
AcDbEntity
  8
0
  6
Continuous
 62
     7
370
    15
100
AcDbCircle
 10
366.7647267276
 20
243.9859508256
 30
0.0
 40
0.4000000000000394
100
AcDbArc
 50
45.0
 51
90.0
  0
ARC
  5
11A
330
1F
100
AcDbEntity
  8
0
  6
Continuous
 62
     7
370
    15
100
AcDbCircle
 10
353.1960975775
 20
243.9859508256
 30
0.0
 40
0.4000000000000341
100
AcDbArc
 50
90.0
 51
135.0
  0
LINE
  5
11B
330
1F
100
AcDbEntity
  8
0
  6
Continuous
 62
     7
370
    15
100
AcDbLine
 10
388.2304121525
 20
184.6859508256
 30
0.0
 11
398.3304121525
 21
184.6859508256
 31
0.0
  0
LINE
  5
11C
330
1F
100
AcDbEntity
  8
0
  6
Continuous
 62
     7
370
    15
100
AcDbLine
 10
398.3304121525
 20
206.5859508256
 30
0.0
 11
388.2304121525
 21
206.5859508256
 31
0.0
  0
ARC
  5
11D
330
1F
100
AcDbEntity
  8
0
  6
Continuous
 62
     7
370
    15
100
AcDbCircle
 10
387.3903079923
 20
182.8709508256
 30
0.0
 40
2.000000000000005
100
AcDbArc
 50
65.1621244326
 51
104.395520359
  0
ARC
  5
11E
330
1F
100
AcDbEntity
  8
0
  6
Continuous
 62
     7
370
    15
100
AcDbCircle
 10
387.3903079923
 20
208.4009508256
 30
0.0
 40
2.000000000000005
100
AcDbArc
 50
255.604479641
 51
294.8378755674
  0
SPLINE
  5
11F
330
1F
100
AcDbEntity
  8
0
  6
Continuous
 62
     7
370
    15
100
AcDbSpline
210
0.0
220
0.0
230
1.0
 70
     8
 71
     3
 72
     8
 73
     4
 74
     0
 42
0.000000001
 43
0.00000001
 40
0.0
 40
0.0
 40
0.0
 40
0.0
 40
1.0
 40
1.0
 40
1.0
 40
1.0
 10
367.0475694400539
 20
242.4141803486458
 30
0.0
 10
366.976253627872
 20
242.4719077339185
 30
0.0
 10
366.8733524702352
 20
242.508979279809
 30
0.0
 10
366.7647267275793
 20
242.508979279809
 30
0.0
  0
LINE
  5
120
330
1F
100
AcDbEntity
  8
0
  6
Continuous
 62
     7
370
    15
100
AcDbLine
 10
367.0475694401
 20
242.4141803486
 30
0.0
 11
367.0475694401
 21
148.8790655212
 31
0.0
  0
SPLINE
  5
121
330
1F
100
AcDbEntity
  8
0
  6
Continuous
 62
     7
370
    15
100
AcDbSpline
210
0.0
220
0.0
230
1.0
 70
     8
 71
     3
 72
    10
 73
     6
 74
     0
 42
0.000000001
 43
0.00000001
 40
0.0
 40
0.0
 40
0.0
 40
0.0
 40
0.5
 40
0.5
 40
1.0
 40
1.0
 40
1.0
 40
1.0
 10
366.7647267275793
 20
148.797987039149
 30
0.0
 10
366.8219168373299
 20
148.797987039149
 30
0.0
 10
366.8773821630203
 20
148.8067028537664
 30
0.0
 10
366.9736136769384
 20
148.8359209310128
 30
0.0
 10
367.0144427020205
 20
148.8561139887449
 30
0.0
 10
367.0475694400539
 20
148.879065521176
 30
0.0
  0
LINE
  5
122
330
1F
100
AcDbEntity
  8
0
  6
Continuous
 62
     7
370
    15
100
AcDbLine
 10
366.7647267276
 20
148.7979870391
 30
0.0
 11
366.7647267276
 21
242.5089792798
 31
0.0
  0
LINE
  5
123
330
1F
100
AcDbEntity
  8
0
  6
Continuous
 62
     7
370
    15
100
AcDbLine
 10
353.1960975775
 20
148.7979870391
 30
0.0
 11
353.1960975775
 21
242.5089792798
 31
0.0
  0
SPLINE
  5
124
330
1F
100
AcDbEntity
  8
0
  6
Continuous
 62
     7
370
    15
100
AcDbSpline
210
0.0
220
0.0
230
1.0
 70
     8
 71
     3
 72
    10
 73
     6
 74
     0
 42
0.000000001
 43
0.00000001
 40
0.0
 40
0.0
 40
0.0
 40
0.0
 40
0.5
 40
0.5
 40
1.0
 40
1.0
 40
1.0
 40
1.0
 10
352.9132548650031
 20
148.879065521176
 30
0.0
 10
352.9463671520919
 20
148.8561240009389
 30
0.0
 10
352.9870071112055
 20
148.8360029107193
 30
0.0
 10
353.083274524268
 20
148.8067336366628
 30
0.0
 10
353.1389092187313
 20
148.7979870391489
 30
0.0
 10
353.1960975774778
 20
148.797987039149
 30
0.0
  0
LINE
  5
125
330
1F
100
AcDbEntity
  8
0
  6
Continuous
 62
     7
370
    15
100
AcDbLine
 10
352.913254865
 20
148.8790655212
 30
0.0
 11
352.913254865
 21
242.4141803486
 31
0.0
  0
SPLINE
  5
126
330
1F
100
AcDbEntity
  8
0
  6
Continuous
 62
     7
370
    15
100
AcDbSpline
210
0.0
220
0.0
230
1.0
 70
     8
 71
     3
 72
     8
 73
     4
 74
     0
 42
0.000000001
 43
0.00000001
 40
0.0
 40
0.0
 40
0.0
 40
0.0
 40
1.0
 40
1.0
 40
1.0
 40
1.0
 10
353.1960975774778
 20
242.508979279809
 30
0.0
 10
353.0875805860268
 20
242.508979279809
 30
0.0
 10
352.9845397341644
 20
242.4718826867428
 30
0.0
 10
352.9132548650032
 20
242.4141803486458
 30
0.0
  0
LINE
  5
127
330
1F
100
AcDbEntity
  8
0
  6
Continuous
 62
     7
370
    15
100
AcDbLine
 10
363.1780074167
 20
148.7979870391
 30
0.0
 11
363.1780074167
 21
146.8859508256
 31
0.0
  0
LINE
  5
128
330
1F
100
AcDbEntity
  8
0
  6
Continuous
 62
     7
370
    15
100
AcDbLine
 10
363.1780074167
 20
244.3859508256
 30
0.0
 11
363.1780074167
 21
148.7979870391
 31
0.0
  0
LINE
  5
129
330
1F
100
AcDbEntity
  8
0
  6
Continuous
 62
     7
370
    15
100
AcDbLine
 10
361.8304121525
 20
242.05184736
 30
0.0
 11
361.8304121525
 21
149.2200542912
 31
0.0
  0
LINE
  5
12A
330
1F
100
AcDbEntity
  8
0
  6
Continuous
 62
     7
370
    15
100
AcDbLine
 10
358.0304121525
 20
195.6359508256
 30
0.0
 11
358.0304121525
 21
242.05184736
 31
0.0
  0
LINE
  5
12B
330
1F
100
AcDbEntity
  8
0
  6
Continuous
 62
     7
370
    15
100
AcDbLine
 10
358.0304121525
 20
149.2200542912
 30
0.0
 11
358.0304121525
 21
195.6359508256
 31
0.0
  0
LINE
  5
12C
330
1F
100
AcDbEntity
  8
0
  6
Continuous
 62
     7
370
    15
100
AcDbLine
 10
356.6828168883
 20
242.5089792798
 30
0.0
 11
356.6828168883
 21
146.8859508256
 31
0.0
  0
LINE
  5
12D
330
1F
100
AcDbEntity
  8
0
  6
Continuous
 62
     7
370
    15
100
AcDbLine
 10
356.6828168883
 20
244.3859508256
 30
0.0
 11
356.6828168883
 21
242.5089792798
 31
0.0
  0
LINE
  5
12E
330
1F
100
AcDbEntity
  8
0
  6
Continuous
 62
     7
370
    15
100
AcDbLine
 10
367.813254865
 20
241.5796498871
 30
0.0
 11
367.813254865
 21
149.6922517641
 31
0.0
  0
LINE
  5
12F
330
1F
100
AcDbEntity
  8
0
  6
Continuous
 62
     7
370
    15
100
AcDbLine
 10
352.1475694401
 20
149.6922517641
 30
0.0
 11
352.1475694401
 21
241.5796498871
 31
0.0
  0
SPLINE
  5
130
330
1F
100
AcDbEntity
  8
0
  6
Continuous
 62
     7
370
    15
100
AcDbSpline
210
0.0
220
0.0
230
1.0
 70
     8
 71
     3
 72
    10
 73
     6
 74
     0
 42
0.000000001
 43
0.00000001
 40
0.0
 40
0.0
 40
0.0
 40
0.0
 40
0.5
 40
0.5
 40
1.0
 40
1.0
 40
1.0
 40
1.0
 10
352.0304121525285
 20
150.0216494106122
 30
0.0
 10
352.0304121525285
 20
149.9576977217691
 30
0.0
 10
352.0442580285533
 20
149.896133383318
 30
0.0
 10
352.0864238047407
 20
149.785508032469
 30
0.0
 10
352.1149145050039
 20
149.7358213407995
 30
0.0
 10
352.1475694400539
 20
149.6922517641337
 30
0.0
  0
SPLINE
  5
131
330
1F
100
AcDbEntity
  8
0
  6
Continuous
 62
     7
370
    15
100
AcDbSpline
210
0.0
220
0.0
230
1.0
 70
    24
 71
     3
 72
    36
 73
    32
 74
     0
 42
0.000000001
 43
0.00000001
 40
0.0
 40
0.0
 40
0.0
 40
0.0
 40
0.0108670927976138
 40
0.0217248651294953
 40
0.0325754130156982
 40
0.0434208366649332
 40
0.0542632392636552
 40
0.065104725756519
 40
0.0759474016217247
 40
0.0867933716448104
 40
0.0976447386944597
 40
0.1085036025038803
 40
0.1193720584612676
 40
0.1813968118522707
 40
0.2434299656516123
 40
0.3071319153785467
 40
0.3708424926864622
 40
0.4354174331848614
 40
0.5000011195034882
 40
0.5645760601040033
 40
0.6291597465272422
 40
0.6928616965456248
 40
0.7565722741492584
 40
0.8185970279756692
 40
0.8806301822188896
 40
0.9005456108402741
 40
0.9204355762661642
 40
0.9403130274596062
 40
0.9601909378399034
 40
0.9800822799278944
 40
1.0
 40
1.0
 40
1.0
 40
1.0
 10
352.0304121525285
 20
150.0216494106122
 30
0.0
 10
352.0304121525285
 20
150.0854099077001
 30
0.0
 10
352.0304121525285
 20
150.2128762159042
 30
0.0
 10
352.0304121525285
 20
150.4151397469256
 30
0.0
 10
352.0304121525285
 20
150.625384315425
 30
0.0
 10
352.0304121525285
 20
150.8444097801687
 30
0.0
 10
352.0304121525285
 20
151.0720019834975
 30
0.0
 10
352.0304121525285
 20
151.308218270977
 30
0.0
 10
352.0304121525285
 20
151.5530431538309
 30
0.0
 10
352.0304121525285
 20
151.806481098736
 30
0.0
 10
352.0304121525285
 20
152.0685295417384
 30
0.0
 10
352.0304121525285
 20
152.3391940692562
 30
0.0
 10
352.0304121525285
 20
153.0564733098455
 30
0.0
 10
352.0304121525285
 20
154.3279868317546
 30
0.0
 10
352.0304121525285
 20
156.3617520052819
 30
0.0
 10
352.0304121525285
 20
158.6689749795649
 30
0.0
 10
352.0304121525285
 20
161.2559409754722
 30
0.0
 10
352.0304121525285
 20
164.0866691481031
 30
0.0
 10
352.0304121525285
 20
167.1473394058549
 30
0.0
 10
352.0304121525285
 20
170.402350844993
 30
0.0
 10
352.0304121525285
 20
173.8155589776617
 30
0.0
 10
352.0304121525285
 20
177.3597145675116
 30
0.0
 10
352.0304121525285
 20
180.9781140596024
 30
0.0
 10
352.0304121525285
 20
184.6584503079399
 30
0.0
 10
352.0304121525285
 20
187.5348517582453
 30
0.0
 10
352.0304121525285
 20
189.5850867205658
 30
0.0
 10
352.0304121525285
 20
190.7906368595447
 30
0.0
 10
352.0304121525285
 20
191.9985680356733
 30
0.0
 10
352.0304121525285
 20
193.2089009283633
 30
0.0
 10
352.0304121525285
 20
194.4216281663139
 30
0.0
 10
352.0304121525285
 20
195.230997839671
 30
0.0
 10
352.0304121525285
 20
195.6359508256004
 30
0.0
  0
SPLINE
  5
132
330
1F
100
AcDbEntity
  8
0
  6
Continuous
 62
     7
370
    15
100
AcDbSpline
210
0.0
220
0.0
230
1.0
 70
    24
 71
     3
 72
    36
 73
    32
 74
     0
 42
0.000000001
 43
0.00000001
 40
0.0
 40
0.0
 40
0.0
 40
0.0
 40
0.0108670927972102
 40
0.0217248651287689
 40
0.0325754130147298
 40
0.0434208366638035
 40
0.054263239262445
 40
0.0651047257553089
 40
0.0759474016205952
 40
0.0867933716438414
 40
0.0976447386937312
 40
0.1085036025034721
 40
0.1193720584612587
 40
0.1813968118519611
 40
0.243429965651617
 40
0.3071319153790351
 40
0.3708424926864586
 40
0.4354174331843808
 40
0.5000011195034878
 40
0.5645760601031748
 40
0.6291597465272367
 40
0.6928616965444044
 40
0.7565722741492558
 40
0.8185970279753502
 40
0.8806301822188909
 40
0.9005456108403475
 40
0.9204355762662809
 40
0.9403130274597373
 40
0.9601909378400201
 40
0.9800822799279674
 40
0.9999999999999999
 40
0.9999999999999999
 40
0.9999999999999999
 40
0.9999999999999999
 10
352.0304121525285
 20
195.6359508256004
 30
0.0
 10
352.0304121525285
 20
195.8568886258378
 30
0.0
 10
352.0304121525285
 20
196.2985747328375
 30
0.0
 10
352.0304121525285
 20
196.9607348607122
 30
0.0
 10
352.0304121525285
 20
197.622199095364
 30
0.0
 10
352.0304121525285
 20
198.2829673765231
 30
0.0
 10
352.0304121525285
 20
198.9430396157713
 30
0.0
 10
352.0304121525285
 20
199.602415779323
 30
0.0
 10
352.0304121525285
 20
200.2610956423862
 30
0.0
 10
352.0304121525285
 20
200.9190796909069
 30
0.0
 10
352.0304121525285
 20
201.5763657602457
 30
0.0
 10
352.0304121525285
 20
202.2329615902408
 30
0.0
 10
352.0304121525285
 20
203.9175762793607
 30
0.0
 10
352.0304121525285
 20
206.6133049444461
 30
0.0
 10
352.0304121525285
 20
210.2934526129652
 30
0.0
 10
352.0304121525285
 20
213.9120252347331
 30
0.0
 10
352.0304121525285
 20
217.4560284958817
 30
0.0
 10
352.0304121525285
 20
220.8693988856166
 30
0.0
 10
352.0304121525285
 20
224.1242773100388
 30
0.0
 10
352.0304121525285
 20
227.1850986569916
 30
0.0
 10
352.0304121525285
 20
230.0157157467252
 30
0.0
 10
352.0304121525285
 20
232.6028175624721
 30
0.0
 10
352.0304121525285
 20
234.9099476285394
 30
0.0
 10
352.0304121525285
 20
236.9438519432301
 30
0.0
 10
352.0304121525285
 20
238.3005560518038
 30
0.0
 10
352.0304121525285
 20
239.1619900472384
 30
0.0
 10
352.0304121525285
 20
239.6385368408086
 30
0.0
 10
352.0304121525285
 20
240.0862833701977
 30
0.0
 10
352.0304121525285
 20
240.5045225109437
 30
0.0
 10
352.0304121525285
 20
240.8959357152802
 30
0.0
 10
352.0304121525285
 20
241.1320945715453
 30
0.0
 10
352.0304121525285
 20
241.2502522405885
 30
0.0
  0
SPLINE
  5
133
330
1F
100
AcDbEntity
  8
0
  6
Continuous
 62
     7
370
    15
100
AcDbSpline
210
0.0
220
0.0
230
1.0
 70
     8
 71
     3
 72
    10
 73
     6
 74
     0
 42
0.000000001
 43
0.00000001
 40
0.0
 40
0.0
 40
0.0
 40
0.0
 40
0.5
 40
0.5
 40
1.0
 40
1.0
 40
1.0
 40
1.0
 10
352.1475694400539
 20
241.5796498870669
 30
0.0
 10
352.1149363790366
 20
241.5361094956483
 30
0.0
 10
352.0869554927704
 20
241.4875548915305
 30
0.0
 10
352.0442986423953
 20
241.3761053557686
 30
0.0
 10
352.0304121525285
 20
241.3141471031795
 30
0.0
 10
352.0304121525285
 20
241.2502522405885
 30
0.0
  0
SPLINE
  5
134
330
1F
100
AcDbEntity
  8
0
  6
Continuous
 62
     7
370
    15
100
AcDbSpline
210
0.0
220
0.0
230
1.0
 70
     8
 71
     3
 72
    10
 73
     6
 74
     0
 42
0.000000001
 43
0.00000001
 40
0.0
 40
0.0
 40
0.0
 40
0.0
 40
0.5
 40
0.5
 40
1.0
 40
1.0
 40
1.0
 40
1.0
 10
367.9304121525285
 20
241.2502522405885
 30
0.0
 10
367.9304121525285
 20
241.3142039294316
 30
0.0
 10
367.9165662765037
 20
241.3757682678827
 30
0.0
 10
367.8744005003164
 20
241.4863936187317
 30
0.0
 10
367.8459098000532
 20
241.5360803104012
 30
0.0
 10
367.8132548650031
 20
241.579649887067
 30
0.0
  0
SPLINE
  5
135
330
1F
100
AcDbEntity
  8
0
  6
Continuous
 62
     7
370
    15
100
AcDbSpline
210
0.0
220
0.0
230
1.0
 70
    24
 71
     3
 72
    36
 73
    32
 74
     0
 42
0.000000001
 43
0.00000001
 40
0.0
 40
0.0
 40
0.0
 40
0.0
 40
0.0108670927972472
 40
0.0217248651288356
 40
0.0325754130148188
 40
0.0434208366639073
 40
0.0542632392625562
 40
0.0651047257554201
 40
0.0759474016206991
 40
0.0867933716439306
 40
0.0976447386937984
 40
0.1085036025035098
 40
0.1193720584612599
 40
0.1813968118502012
 40
0.2434299656516057
 40
0.3071319153746148
 40
0.370842492686443
 40
0.4354174331816608
 40
0.5000011195034887
 40
0.5645760601039024
 40
0.6291597465272449
 40
0.6928616965474207
 40
0.7565722741492724
 40
0.8185970279804481
 40
0.8806301822189132
 40
0.9005456108420076
 40
0.920435576268927
 40
0.940313027462713
 40
0.9601909378426655
 40
0.9800822799296213
 40
1.0
 40
1.0
 40
1.0
 40
1.0
 10
367.9304121525285
 20
241.2502522405885
 30
0.0
 10
367.9304121525285
 20
241.1864917435027
 30
0.0
 10
367.9304121525285
 20
241.0590254353024
 30
0.0
 10
367.9304121525285
 20
240.8567619042861
 30
0.0
 10
367.9304121525285
 20
240.6465173357904
 30
0.0
 10
367.9304121525285
 20
240.4274918710493
 30
0.0
 10
367.9304121525285
 20
240.1998996677217
 30
0.0
 10
367.9304121525285
 20
239.9636833802422
 30
0.0
 10
367.9304121525285
 20
239.718858497387
 30
0.0
 10
367.9304121525285
 20
239.4654205524792
 30
0.0
 10
367.9304121525285
 20
239.2033721094731
 30
0.0
 10
367.9304121525285
 20
238.9327075819501
 30
0.0
 10
367.9304121525285
 20
238.2154283413818
 30
0.0
 10
367.9304121525285
 20
236.9439148194651
 30
0.0
 10
367.9304121525285
 20
234.9101496459899
 30
0.0
 10
367.9304121525285
 20
232.6029266716739
 30
0.0
 10
367.9304121525285
 20
230.015960675828
 30
0.0
 10
367.9304121525285
 20
227.1852325031616
 30
0.0
 10
367.9304121525285
 20
224.1245622453967
 30
0.0
 10
367.9304121525285
 20
220.8695508062125
 30
0.0
 10
367.9304121525285
 20
217.4563426735071
 30
0.0
 10
367.9304121525285
 20
213.9121870836607
 30
0.0
 10
367.9304121525285
 20
210.2937875914705
 30
0.0
 10
367.9304121525285
 20
206.6134513431684
 30
0.0
 10
367.9304121525285
 20
203.7370498928274
 30
0.0
 10
367.9304121525285
 20
201.6868149305429
 30
0.0
 10
367.9304121525285
 20
200.4812647915012
 30
0.0
 10
367.9304121525285
 20
199.2733336153518
 30
0.0
 10
367.9304121525285
 20
198.0630007226829
 30
0.0
 10
367.9304121525285
 20
196.8502734847955
 30
0.0
 10
367.9304121525285
 20
196.0409038114946
 30
0.0
 10
367.9304121525285
 20
195.6359508256004
 30
0.0
  0
SPLINE
  5
136
330
1F
100
AcDbEntity
  8
0
  6
Continuous
 62
     7
370
    15
100
AcDbSpline
210
0.0
220
0.0
230
1.0
 70
    24
 71
     3
 72
    36
 73
    32
 74
     0
 42
0.000000001
 43
0.00000001
 40
0.0
 40
0.0
 40
0.0
 40
0.0
 40
0.0108670927969108
 40
0.02172486512823
 40
0.0325754130140115
 40
0.0434208366629656
 40
0.0542632392615474
 40
0.0651047257544114
 40
0.0759474016197574
 40
0.0867933716431228
 40
0.0976447386931911
 40
0.1085036025031695
 40
0.1193720584612525
 40
0.1813968118502307
 40
0.2434299656516114
 40
0.3071319153754981
 40
0.3708424926864406
 40
0.4354174331818233
 40
0.5000011195034904
 40
0.564576060104914
 40
0.629159746527249
 40
0.6928616965461416
 40
0.7565722741492587
 40
0.8185970279777103
 40
0.8806301822189075
 40
0.9005456108415781
 40
0.9204355762682426
 40
0.9403130274619433
 40
0.9601909378419812
 40
0.9800822799291934
 40
0.9999999999999999
 40
0.9999999999999999
 40
0.9999999999999999
 40
0.9999999999999999
 10
367.9304121525285
 20
195.6359508256004
 30
0.0
 10
367.9304121525285
 20
195.415013025369
 30
0.0
 10
367.9304121525285
 20
194.9733269183803
 30
0.0
 10
367.9304121525285
 20
194.3111667905202
 30
0.0
 10
367.9304121525285
 20
193.6497025558794
 30
0.0
 10
367.9304121525285
 20
192.9889342747275
 30
0.0
 10
367.9304121525285
 20
192.3288620354829
 30
0.0
 10
367.9304121525285
 20
191.6694858719313
 30
0.0
 10
367.9304121525285
 20
191.0108060088644
 30
0.0
 10
367.9304121525285
 20
190.3528219603364
 30
0.0
 10
367.9304121525285
 20
189.6955358909866
 30
0.0
 10
367.9304121525285
 20
189.038940060977
 30
0.0
 10
367.9304121525285
 20
187.3543253718798
 30
0.0
 10
367.9304121525285
 20
184.6585967067894
 30
0.0
 10
367.9304121525285
 20
180.9784490383362
 30
0.0
 10
367.9304121525285
 20
177.3598764165395
 30
0.0
 10
367.9304121525285
 20
173.8158731554298
 30
0.0
 10
367.9304121525285
 20
170.402502765615
 30
0.0
 10
367.9304121525285
 20
167.1476243411786
 30
0.0
 10
367.9304121525285
 20
164.0868029941739
 30
0.0
 10
367.9304121525285
 20
161.2561859044271
 30
0.0
 10
367.9304121525285
 20
158.6690840887143
 30
0.0
 10
367.9304121525285
 20
156.3619540226147
 30
0.0
 10
367.9304121525285
 20
154.3280497079354
 30
0.0
 10
367.9304121525285
 20
152.971345599357
 30
0.0
 10
367.9304121525285
 20
152.1099116039461
 30
0.0
 10
367.9304121525285
 20
151.6333648103621
 30
0.0
 10
367.9304121525285
 20
151.1856182809686
 30
0.0
 10
367.9304121525285
 20
150.7673791402265
 30
0.0
 10
367.9304121525285
 20
150.3759659359024
 30
0.0
 10
367.9304121525285
 20
150.1398070796484
 30
0.0
 10
367.9304121525285
 20
150.0216494106122
 30
0.0
  0
SPLINE
  5
137
330
1F
100
AcDbEntity
  8
0
  6
Continuous
 62
     7
370
    15
100
AcDbSpline
210
0.0
220
0.0
230
1.0
 70
     8
 71
     3
 72
    10
 73
     6
 74
     0
 42
0.000000001
 43
0.00000001
 40
0.0
 40
0.0
 40
0.0
 40
0.0
 40
0.5
 40
0.5
 40
1.0
 40
1.0
 40
1.0
 40
1.0
 10
367.9304121525285
 20
150.0216494106122
 30
0.0
 10
367.9304121525285
 20
149.9576977217691
 30
0.0
 10
367.9165662765037
 20
149.896133383318
 30
0.0
 10
367.8744005003164
 20
149.785508032469
 30
0.0
 10
367.8459098000532
 20
149.7358213407995
 30
0.0
 10
367.8132548650031
 20
149.6922517641337
 30
0.0
  0
LINE
  5
138
330
1F
100
AcDbEntity
  8
0
  6
Continuous
 62
     7
370
    15
100
AcDbLine
 10
348.8304121525
 20
160.7109508256
 30
0.0
 11
348.8304121525
 21
230.5609508256
 31
0.0
  0
LINE
  5
139
330
1F
100
AcDbEntity
  8
0
  6
Continuous
 62
     7
370
    15
100
AcDbLine
 10
349.7418275937
 20
195.6359508256
 30
0.0
 11
349.7418275937
 21
230.1359508256
 31
0.0
  0
LINE
  5
13A
330
1F
100
AcDbEntity
  8
0
  6
Continuous
 62
     7
370
    15
100
AcDbLine
 10
349.7418275937
 20
161.1359508256
 30
0.0
 11
349.7418275937
 21
195.6359508256
 31
0.0
  0
SPLINE
  5
13B
330
1F
100
AcDbEntity
  8
0
  6
Continuous
 62
     7
370
    15
100
AcDbSpline
210
0.0
220
0.0
230
1.0
 70
    24
 71
     3
 72
    10
 73
     6
 74
     0
 42
0.000000001
 43
0.00000001
 40
0.0
 40
0.0
 40
0.0
 40
0.0
 40
0.4999999999999997
 40
0.4999999999999997
 40
0.9999999999999999
 40
0.9999999999999999
 40
0.9999999999999999
 40
0.9999999999999999
 10
247.0804121525285
 20
214.8575258261457
 30
0.0
 10
247.0804121525285
 20
214.8575258261456
 30
0.0
 10
247.0804121525285
 20
212.8322994000767
 30
0.0
 10
247.0804121525285
 20
205.6230143070666
 30
0.0
 10
247.0804121525285
 20
200.7336852023748
 30
0.0
 10
247.0804121525285
 20
195.6359508256004
 30
0.0
  0
SPLINE
  5
13C
330
1F
100
AcDbEntity
  8
0
  6
Continuous
 62
     7
370
    15
100
AcDbSpline
210
0.0
220
0.0
230
1.0
 70
    24
 71
     3
 72
    10
 73
     6
 74
     0
 42
0.000000001
 43
0.00000001
 40
0.0
 40
0.0
 40
0.0
 40
0.0
 40
0.4999999999999999
 40
0.4999999999999999
 40
0.9999999999999999
 40
0.9999999999999999
 40
0.9999999999999999
 40
0.9999999999999999
 10
247.0804121525285
 20
195.6359508256004
 30
0.0
 10
247.0804121525285
 20
190.5382164488259
 30
0.0
 10
247.0804121525285
 20
185.6488873441337
 30
0.0
 10
247.0804121525285
 20
178.4396022511238
 30
0.0
 10
247.0804121525285
 20
176.4143758250548
 30
0.0
 10
247.0804121525285
 20
176.4143758250549
 30
0.0
  0
LINE
  5
13D
330
1F
100
AcDbEntity
  8
0
  6
Continuous
 62
     7
370
    15
100
AcDbLine
 10
415.654985672
 20
195.6359508256
 30
0.0
 11
415.654985672
 21
211.6359508256
 31
0.0
  0
LINE
  5
13E
330
1F
100
AcDbEntity
  8
0
  6
Continuous
 62
     7
370
    15
100
AcDbLine
 10
415.654985672
 20
179.6359508256
 30
0.0
 11
415.654985672
 21
195.6359508256
 31
0.0
  0
LINE
  5
13F
330
1F
100
AcDbEntity
  8
0
  6
Continuous
 62
     7
370
    15
100
AcDbLine
 10
418.8304121525
 20
195.6359508256
 30
0.0
 11
418.8304121525
 21
206.1359508256
 31
0.0
  0
LINE
  5
140
330
1F
100
AcDbEntity
  8
0
  6
Continuous
 62
     7
370
    15
100
AcDbLine
 10
418.8304121525
 20
185.1359508256
 30
0.0
 11
418.8304121525
 21
195.6359508256
 31
0.0
  0
LINE
  5
141
330
1F
100
AcDbEntity
  8
0
  6
Continuous
 62
     7
370
    15
100
AcDbLine
 10
399.8304121525
 20
179.6359508256
 30
0.0
 11
399.8304121525
 21
211.6359508256
 31
0.0
  0
LINE
  5
142
330
1F
100
AcDbEntity
  8
0
  6
Continuous
 62
     7
370
    15
100
AcDbLine
 10
398.3304121525
 20
210.1359508256
 30
0.0
 11
398.3304121525
 21
181.1359508256
 31
0.0
  0
LINE
  5
143
330
1F
100
AcDbEntity
  8
0
  6
Continuous
 62
     7
370
    15
100
AcDbLine
 10
352.0304121525
 20
241.2502522406
 30
0.0
 11
352.0304121525
 21
243.2202654007
 31
0.0
  0
LINE
  5
144
330
1F
100
AcDbEntity
  8
0
  6
Continuous
 62
     7
370
    15
100
AcDbLine
 10
367.9304121525
 20
241.2502522406
 30
0.0
 11
367.9304121525
 21
243.2202654007
 31
0.0
  0
LINE
  5
145
330
1F
100
AcDbEntity
  8
0
  6
Continuous
 62
     7
370
    15
100
AcDbLine
 10
367.9304121525
 20
148.0516362505
 30
0.0
 11
367.9304121525
 21
150.0216494106
 31
0.0
  0
LINE
  5
146
330
1F
100
AcDbEntity
  8
0
  6
Continuous
 62
     7
370
    15
100
AcDbLine
 10
352.0304121525
 20
148.0516362505
 30
0.0
 11
352.0304121525
 21
150.0216494106
 31
0.0
  0
LINE
  5
147
330
1F
100
AcDbEntity
  8
0
  6
Continuous
 62
     7
370
    15
100
AcDbLine
 10
388.2304121525
 20
195.6359508256
 30
0.0
 11
388.2304121525
 21
184.6859508256
 31
0.0
  0
LINE
  5
148
330
1F
100
AcDbEntity
  8
0
  6
Continuous
 62
     7
370
    15
100
AcDbLine
 10
388.2304121525
 20
206.5859508256
 30
0.0
 11
388.2304121525
 21
195.6359508256
 31
0.0
  0
LINE
  5
149
330
1F
100
AcDbEntity
  8
0
  6
Continuous
 62
     8
370
    15
100
AcDbLine
 10
366.7647267276
 20
242.5089792798
 30
0.0
 11
366.7647267276
 21
244.3859508256
 31
0.0
  0
LINE
  5
14A
330
1F
100
AcDbEntity
  8
0
  6
Continuous
 62
     8
370
    15
100
AcDbLine
 10
366.7647267276
 20
146.8859508256
 30
0.0
 11
366.7647267276
 21
148.7979870391
 31
0.0
  0
LINE
  5
14B
330
1F
100
AcDbEntity
  8
0
  6
Continuous
 62
     8
370
    15
100
AcDbLine
 10
353.1960975775
 20
242.5089792798
 30
0.0
 11
353.1960975775
 21
244.3859508256
 31
0.0
  0
LINE
  5
14C
330
1F
100
AcDbEntity
  8
0
  6
Continuous
 62
     8
370
    15
100
AcDbLine
 10
353.1960975775
 20
146.8859508256
 30
0.0
 11
353.1960975775
 21
148.7979870391
 31
0.0
  0
LINE
  5
14D
330
1F
100
AcDbEntity
  8
0
  6
Continuous
 62
     8
370
    15
100
AcDbLine
 10
367.813254865
 20
147.7687935381
 30
0.0
 11
367.813254865
 21
149.6922517641
 31
0.0
  0
LINE
  5
14E
330
1F
100
AcDbEntity
  8
0
  6
Continuous
 62
     8
370
    15
100
AcDbLine
 10
367.813254865
 20
241.5796498871
 30
0.0
 11
367.813254865
 21
243.5031081131
 31
0.0
  0
LINE
  5
14F
330
1F
100
AcDbEntity
  8
0
  6
Continuous
 62
     8
370
    15
100
AcDbLine
 10
367.0475694401
 20
242.4141803486
 30
0.0
 11
367.0475694401
 21
244.2687935381
 31
0.0
  0
LINE
  5
150
330
1F
100
AcDbEntity
  8
0
  6
Continuous
 62
     8
370
    15
100
AcDbLine
 10
367.0475694401
 20
147.0031081131
 30
0.0
 11
367.0475694401
 21
148.8790655212
 31
0.0
  0
LINE
  5
151
330
1F
100
AcDbEntity
  8
0
  6
Continuous
 62
     8
370
    15
100
AcDbLine
 10
352.1475694401
 20
147.7687935381
 30
0.0
 11
352.1475694401
 21
149.6922517641
 31
0.0
  0
LINE
  5
152
330
1F
100
AcDbEntity
  8
0
  6
Continuous
 62
     8
370
    15
100
AcDbLine
 10
352.1475694401
 20
241.5796498871
 30
0.0
 11
352.1475694401
 21
243.5031081131
 31
0.0
  0
LINE
  5
153
330
1F
100
AcDbEntity
  8
0
  6
Continuous
 62
     8
370
    15
100
AcDbLine
 10
352.913254865
 20
242.4141803486
 30
0.0
 11
352.913254865
 21
244.2687935381
 31
0.0
  0
LINE
  5
154
330
1F
100
AcDbEntity
  8
0
  6
Continuous
 62
     8
370
    15
100
AcDbLine
 10
352.913254865
 20
147.0031081131
 30
0.0
 11
352.913254865
 21
148.8790655212
 31
0.0
  0
LINE
  5
155
330
1F
100
AcDbEntity
  8
0
  6
Continuous
 62
     8
370
    15
100
AcDbLine
 10
351.5304121525
 20
195.6359508256
 30
0.0
 11
351.5304121525
 21
230.1359508256
 31
0.0
  0
LINE
  5
156
330
1F
100
AcDbEntity
  8
0
  6
Continuous
 62
     8
370
    15
100
AcDbLine
 10
351.5304121525
 20
161.1359508256
 30
0.0
 11
351.5304121525
 21
195.6359508256
 31
0.0
  0
LINE
  5
157
330
1F
100
AcDbEntity
  8
0
  6
Continuous
 62
     8
370
    15
100
AcDbLine
 10
247.9361039253
 20
215.8470586126
 30
0.0
 11
247.9361039253
 21
175.4248430386
 31
0.0
  0
LINE
  5
158
330
1F
100
AcDbEntity
  8
0
  6
Continuous
 62
     8
370
    15
100
AcDbLine
 10
386.8930796759
 20
195.6359508256
 30
0.0
 11
386.8930796759
 21
206.4637456219
 31
0.0
  0
LINE
  5
159
330
1F
100
AcDbEntity
  8
0
  6
Continuous
 62
     8
370
    15
100
AcDbLine
 10
386.8930796759
 20
184.8081560293
 30
0.0
 11
386.8930796759
 21
195.6359508256
 31
0.0
  0
DIMENSION
  5
15A
330
1F
100
AcDbEntity
  8
DIM
100
AcDbDimension
  2
_D
 10
418.8304121525
 20
128.8859508256
 30
0.0
 11
332.9554121525
 21
128.8859508256
 31
0.0
 70
   160
  1
<>
 71
     2
 42
-1.0
  3
SLDDIMSTYLE0
100
AcDbAlignedDimension
 13
247.0804121525
 23
195.6359508256
 33
0.0
 14
418.8304121525
 24
185.1359508256
 34
0.0
100
AcDbRotatedDimension
  0
DIMENSION
  5
165
330
1F
100
AcDbEntity
  8
DIM
100
AcDbDimension
  2
_D_1
 10
418.8304121525
 20
138.5104658687
 30
0.0
 11
383.8304121525
 21
138.5104658687
 31
0.0
 70
   160
  1
<>
 71
     2
 42
-1.0
  3
SLDDIMSTYLE0
100
AcDbAlignedDimension
 13
348.8304121525
 23
160.7109508256
 33
0.0
 14
418.8304121525
 24
185.1359508256
 34
0.0
100
AcDbRotatedDimension
  0
DIMENSION
  5
16F
330
1F
100
AcDbEntity
  8
DIM
100
AcDbDimension
  2
_D_2
 10
429.6198855837
 20
179.6359508256
 30
0.0
 11
429.6198855837
 21
195.6359508256
 31
0.0
 70
   160
  1
%%c<>
 71
     2
 42
-1.0
  3
SLDDIMSTYLE1
100
AcDbAlignedDimension
 13
415.654985672
 23
211.6359508256
 33
0.0
 14
415.654985672
 24
179.6359508256
 34
0.0
 50
90.0
100
AcDbRotatedDimension
  0
DIMENSION
  5
17D
330
1F
100
AcDbEntity
  8
DIM
100
AcDbDimension
  2
_D_3
 10
239.2298895618
 20
146.8859508256
 30
0.0
 11
239.2298895618
 21
195.6359508256
 31
0.0
 70
   160
  1
%%c<>
 71
     2
 42
-1.0
  3
SLDDIMSTYLE2
100
AcDbAlignedDimension
 13
353.1960975775
 23
244.3859508256
 33
0.0
 14
353.1960975775
 24
146.8859508256
 34
0.0
 50
90.0
100
AcDbRotatedDimension
  0
LINE
  5
189
330
1F
100
AcDbEntity
  8
DIM
  6
CENTERX2
 48
1.1111111111
370
     0
100
AcDbLine
 10
244.0870623369
 20
195.6359508256
 30
0.0
 11
420.0382876211
 21
195.6359508256
 31
0.0
  0
ENDSEC
  0
SECTION
  2
OBJECTS
  0
DICTIONARY
  5
C
330
0
100
AcDbDictionary
281
     1
  3
ACAD_GROUP
350
D
  3
ACAD_LAYOUT
350
1A
  3
ACAD_MLINESTYLE
350
17
  3
ACAD_PLOTSETTINGS
350
19
  3
ACAD_PLOTSTYLENAME
350
E
  3
ACAD_SCALELIST
350
47
  0
DICTIONARY
  5
D
102
{ACAD_REACTORS
330
C
102
}
330
C
100
AcDbDictionary
281
     1
  0
DICTIONARY
  5
1A
102
{ACAD_REACTORS
330
C
102
}
330
C
100
AcDbDictionary
281
     1
  3
Layout1
350
1E
  3
Layout2
350
26
  3
Model
350
22
  0
DICTIONARY
  5
17
102
{ACAD_REACTORS
330
C
102
}
330
C
100
AcDbDictionary
281
     1
  3
Standard
350
18
  0
DICTIONARY
  5
19
102
{ACAD_REACTORS
330
C
102
}
330
C
100
AcDbDictionary
281
     1
  0
ACDBDICTIONARYWDFLT
  5
E
102
{ACAD_REACTORS
330
C
102
}
330
C
100
AcDbDictionary
281
     1
  3
Normal
350
F
100
AcDbDictionaryWithDefault
340
F
  0
DICTIONARY
  5
47
102
{ACAD_REACTORS
330
C
102
}
330
C
100
AcDbDictionary
281
     1
  3
A0
350
48
  3
A1
350
49
  3
A2
350
4A
  3
A3
350
4B
  3
A4
350
4C
  3
A5
350
4D
  3
A6
350
4E
  3
A7
350
4F
  3
A8
350
50
  3
A9
350
51
  3
B0
350
52
  3
B1
350
53
  3
B2
350
54
  3
B3
350
55
  3
B4
350
56
  3
B5
350
57
  3
B6
350
58
  3
B7
350
59
  3
B8
350
5A
  3
B9
350
5B
  3
C0
350
5C
  3
C1
350
5D
  3
C2
350
5E
  3
C3
350
5F
  3
C4
350
60
  3
C5
350
61
  3
C6
350
62
  3
C7
350
63
  3
C8
350
64
  3
C9
350
65
  3
D0
350
66
  3
D1
350
67
  3
D2
350
68
  0
LAYOUT
  5
1E
102
{ACAD_REACTORS
330
1A
102
}
330
1A
100
AcDbPlotSettings
  1

  2
none_device
  4

  6

 40
0.0
 41
0.0
 42
0.0
 43
0.0
 44
0.0
 45
0.0
 46
0.0
 47
0.0
 48
0.0
 49
0.0
140
0.0
141
0.0
142
1.0
143
1.0
 70
   688
 72
     1
 73
     0
 74
     5
  7

 75
    16
147
1.0
148
0.0
149
0.0
100
AcDbLayout
  1
Layout1
 70
     1
 71
     1
 10
0.0
 20
0.0
 11
420.0
 21
297.0
 12
0.0
 22
0.0
 32
0.0
 14
1.0000000000E+20
 24
1.0000000000E+20
 34
1.0000000000E+20
 15
-1.0000000000E+20
 25
-1.0000000000E+20
 35
-1.0000000000E+20
146
0.0
 13
0.0
 23
0.0
 33
0.0
 16
1.0
 26
0.0
 36
0.0
 17
0.0
 27
1.0
 37
0.0
 76
     0
330
1B
  0
LAYOUT
  5
26
102
{ACAD_REACTORS
330
1A
102
}
330
1A
100
AcDbPlotSettings
  1

  2
none_device
  4

  6

 40
0.0
 41
0.0
 42
0.0
 43
0.0
 44
0.0
 45
0.0
 46
0.0
 47
0.0
 48
0.0
 49
0.0
140
0.0
141
0.0
142
1.0
143
1.0
 70
   688
 72
     1
 73
     0
 74
     5
  7

 75
    16
147
1.0
148
0.0
149
0.0
100
AcDbLayout
  1
Layout2
 70
     1
 71
     2
 10
0.0
 20
0.0
 11
0.0
 21
0.0
 12
0.0
 22
0.0
 32
0.0
 14
0.0
 24
0.0
 34
0.0
 15
0.0
 25
0.0
 35
0.0
146
0.0
 13
0.0
 23
0.0
 33
0.0
 16
1.0
 26
0.0
 36
0.0
 17
0.0
 27
1.0
 37
0.0
 76
     0
330
23
  0
LAYOUT
  5
22
102
{ACAD_REACTORS
330
1A
102
}
330
1A
100
AcDbPlotSettings
  1

  2
none_device
  4
Letter_(8.50_x_11.00_Inches)
  6

 40
6.35
 41
6.35
 42
6.35000508
 43
6.35000508
 44
215.9
 45
279.4
 46
0.0
 47
0.0
 48
0.0
 49
0.0
140
0.0
141
0.0
142
1.0
143
1.0
 70
  1712
 72
     1
 73
     0
 74
     0
  7

 75
     0
147
1.0
148
0.0
149
0.0
100
AcDbLayout
  1
Model
 70
     1
 71
     0
 10
0.0
 20
0.0
 11
534.6
 21
378.0
 12
0.0
 22
0.0
 32
0.0
 14
0.0
 24
0.0
 34
0.0
 15
534.6
 25
378.0
 35
0.0
146
0.0
 13
0.0
 23
0.0
 33
0.0
 16
1.0
 26
0.0
 36
0.0
 17
0.0
 27
1.0
 37
0.0
 76
     0
330
1F
331
29
  0
MLINESTYLE
  5
18
102
{ACAD_REACTORS
330
17
102
}
330
17
100
AcDbMlineStyle
  2
Standard
 70
     0
  3

 62
   256
 51
90.0
 52
90.0
 71
     2
 49
0.5
 62
   256
  6
BYLAYER
 49
-0.5
 62
   256
  6
BYLAYER
  0
ACDBPLACEHOLDER
  5
F
102
{ACAD_REACTORS
330
E
102
}
330
E
  0
SCALE
  5
48
102
{ACAD_REACTORS
330
47
102
}
330
47
100
AcDbScale
 70
     0
300
1:1
140
1.0
141
1.0
290
     1
  0
SCALE
  5
49
102
{ACAD_REACTORS
330
47
102
}
330
47
100
AcDbScale
 70
     0
300
1:2
140
1.0
141
2.0
290
     0
  0
SCALE
  5
4A
102
{ACAD_REACTORS
330
47
102
}
330
47
100
AcDbScale
 70
     0
300
1:4
140
1.0
141
4.0
290
     0
  0
SCALE
  5
4B
102
{ACAD_REACTORS
330
47
102
}
330
47
100
AcDbScale
 70
     0
300
1:5
140
1.0
141
5.0
290
     0
  0
SCALE
  5
4C
102
{ACAD_REACTORS
330
47
102
}
330
47
100
AcDbScale
 70
     0
300
1:8
140
1.0
141
8.0
290
     0
  0
SCALE
  5
4D
102
{ACAD_REACTORS
330
47
102
}
330
47
100
AcDbScale
 70
     0
300
1:10
140
1.0
141
10.0
290
     0
  0
SCALE
  5
4E
102
{ACAD_REACTORS
330
47
102
}
330
47
100
AcDbScale
 70
     0
300
1:16
140
1.0
141
16.0
290
     0
  0
SCALE
  5
4F
102
{ACAD_REACTORS
330
47
102
}
330
47
100
AcDbScale
 70
     0
300
1:20
140
1.0
141
20.0
290
     0
  0
SCALE
  5
50
102
{ACAD_REACTORS
330
47
102
}
330
47
100
AcDbScale
 70
     0
300
1:30
140
1.0
141
30.0
290
     0
  0
SCALE
  5
51
102
{ACAD_REACTORS
330
47
102
}
330
47
100
AcDbScale
 70
     0
300
1:40
140
1.0
141
40.0
290
     0
  0
SCALE
  5
52
102
{ACAD_REACTORS
330
47
102
}
330
47
100
AcDbScale
 70
     0
300
1:50
140
1.0
141
50.0
290
     0
  0
SCALE
  5
53
102
{ACAD_REACTORS
330
47
102
}
330
47
100
AcDbScale
 70
     0
300
1:100
140
1.0
141
100.0
290
     0
  0
SCALE
  5
54
102
{ACAD_REACTORS
330
47
102
}
330
47
100
AcDbScale
 70
     0
300
2:1
140
2.0
141
1.0
290
     0
  0
SCALE
  5
55
102
{ACAD_REACTORS
330
47
102
}
330
47
100
AcDbScale
 70
     0
300
4:1
140
4.0
141
1.0
290
     0
  0
SCALE
  5
56
102
{ACAD_REACTORS
330
47
102
}
330
47
100
AcDbScale
 70
     0
300
8:1
140
8.0
141
1.0
290
     0
  0
SCALE
  5
57
102
{ACAD_REACTORS
330
47
102
}
330
47
100
AcDbScale
 70
     0
300
10:1
140
10.0
141
1.0
290
     0
  0
SCALE
  5
58
102
{ACAD_REACTORS
330
47
102
}
330
47
100
AcDbScale
 70
     0
300
100:1
140
100.0
141
1.0
290
     0
  0
SCALE
  5
59
102
{ACAD_REACTORS
330
47
102
}
330
47
100
AcDbScale
 70
     0
300
1/128" = 1'-0"
140
0.0078125
141
12.0
290
     0
  0
SCALE
  5
5A
102
{ACAD_REACTORS
330
47
102
}
330
47
100
AcDbScale
 70
     0
300
1/64" = 1'-0"
140
0.015625
141
12.0
290
     0
  0
SCALE
  5
5B
102
{ACAD_REACTORS
330
47
102
}
330
47
100
AcDbScale
 70
     0
300
1/32" = 1'-0"
140
0.03125
141
12.0
290
     0
  0
SCALE
  5
5C
102
{ACAD_REACTORS
330
47
102
}
330
47
100
AcDbScale
 70
     0
300
1/16" = 1'-0"
140
0.0625
141
12.0
290
     0
  0
SCALE
  5
5D
102
{ACAD_REACTORS
330
47
102
}
330
47
100
AcDbScale
 70
     0
300
3/32" = 1'-0"
140
0.09375
141
12.0
290
     0
  0
SCALE
  5
5E
102
{ACAD_REACTORS
330
47
102
}
330
47
100
AcDbScale
 70
     0
300
1/8" = 1'-0"
140
0.125
141
12.0
290
     0
  0
SCALE
  5
5F
102
{ACAD_REACTORS
330
47
102
}
330
47
100
AcDbScale
 70
     0
300
3/16" = 1'-0"
140
0.1875
141
12.0
290
     0
  0
SCALE
  5
60
102
{ACAD_REACTORS
330
47
102
}
330
47
100
AcDbScale
 70
     0
300
1/4" = 1'-0"
140
0.25
141
12.0
290
     0
  0
SCALE
  5
61
102
{ACAD_REACTORS
330
47
102
}
330
47
100
AcDbScale
 70
     0
300
3/8" = 1'-0"
140
0.375
141
12.0
290
     0
  0
SCALE
  5
62
102
{ACAD_REACTORS
330
47
102
}
330
47
100
AcDbScale
 70
     0
300
1/2" = 1'-0"
140
0.5
141
12.0
290
     0
  0
SCALE
  5
63
102
{ACAD_REACTORS
330
47
102
}
330
47
100
AcDbScale
 70
     0
300
3/4" = 1'-0"
140
0.75
141
12.0
290
     0
  0
SCALE
  5
64
102
{ACAD_REACTORS
330
47
102
}
330
47
100
AcDbScale
 70
     0
300
1" = 1'-0"
140
1.0
141
12.0
290
     0
  0
SCALE
  5
65
102
{ACAD_REACTORS
330
47
102
}
330
47
100
AcDbScale
 70
     0
300
1-1/2" = 1'-0"
140
1.5
141
12.0
290
     0
  0
SCALE
  5
66
102
{ACAD_REACTORS
330
47
102
}
330
47
100
AcDbScale
 70
     0
300
3" = 1'-0"
140
3.0
141
12.0
290
     0
  0
SCALE
  5
67
102
{ACAD_REACTORS
330
47
102
}
330
47
100
AcDbScale
 70
     0
300
6" = 1'-0"
140
6.0
141
12.0
290
     0
  0
SCALE
  5
68
102
{ACAD_REACTORS
330
47
102
}
330
47
100
AcDbScale
 70
     0
300
1'-0" = 1'-0"
140
12.0
141
12.0
290
     0
  0
ENDSEC
  0
EOF
