  0
SECTION
  2
HEADER
  9
$ACADVER
  1
AC1015
  9
$ACADMAINTVER
 70
     6
  9
$DWGCODEPAGE
  3
ANSI_1252
  9
$INSBASE
 10
0.0
 20
0.0
 30
0.0
  9
$EXTMIN
 10
0.0
 20
0.0
 30
0.0
  9
$EXTMAX
 10
534.6
 20
378.0
 30
0.0
  9
$LIMMIN
 10
0.0
 20
0.0
  9
$LIMMAX
 10
534.6
 20
378.0
  9
$ORTHOMODE
 70
     0
  9
$REGENMODE
 70
     1
  9
$FILLMODE
 70
     1
  9
$QTEXTMODE
 70
     0
  9
$MIRRTEXT
 70
     1
  9
$LTSCALE
 40
1.8
  9
$ATTMODE
 70
     1
  9
$TEXTSIZE
 40
6.985
  9
$TRACEWID
 40
1.0
  9
$TEXTSTYLE
  7
Standard
  9
$CLAYER
  8
0
  9
$CELTYPE
  6
ByLayer
  9
$CECOLOR
 62
   256
  9
$CELTSCALE
 40
1.0
  9
$DISPSILH
 70
     0
  9
$DIMSCALE
 40
1.0
  9
$DIMASZ
 40
5.9436
  9
$DIMEXO
 40
1.8
  9
$DIMDLI
 40
3.75
  9
$DIMRND
 40
0.0
  9
$DIMDLE
 40
0.0
  9
$DIMEXE
 40
1.8
  9
$DIMTP
 40
0.0
  9
$DIMTM
 40
0.0
  9
$DIMTXT
 40
6.985
  9
$DIMCEN
 40
2.5
  9
$DIMTSZ
 40
0.0
  9
$DIMTOL
 70
     0
  9
$DIMLIM
 70
     0
  9
$DIMTIH
 70
     1
  9
$DIMTOH
 70
     1
  9
$DIMSE1
 70
     0
  9
$DIMSE2
 70
     0
  9
$DIMTAD
 70
     1
  9
$DIMZIN
 70
     0
  9
$DIMBLK
  1

  9
$DIMASO
 70
     1
  9
$DIMSHO
 70
     1
  9
$DIMPOST
  1

  9
$DIMAPOST
  1

  9
$DIMALT
 70
     0
  9
$DIMALTD
 70
     3
  9
$DIMALTF
 40
0.0393700787
  9
$DIMLFAC
 40
1.0
  9
$DIMTOFL
 70
     1
  9
$DIMTVP
 40
0.0
  9
$DIMTIX
 70
     0
  9
$DIMSOXD
 70
     0
  9
$DIMSAH
 70
     0
  9
$DIMBLK1
  1

  9
$DIMBLK2
  1

  9
$DIMSTYLE
  2
ISO-25
  9
$DIMCLRD
 70
     0
  9
$DIMCLRE
 70
     0
  9
$DIMCLRT
 70
     0
  9
$DIMTFAC
 40
1.0
  9
$DIMGAP
 40
2.7432
  9
$DIMJUST
 70
     0
  9
$DIMSD1
 70
     0
  9
$DIMSD2
 70
     0
  9
$DIMTOLJ
 70
     0
  9
$DIMTZIN
 70
     0
  9
$DIMALTZ
 70
     0
  9
$DIMALTTZ
 70
     0
  9
$DIMUPT
 70
     0
  9
$DIMDEC
 70
     2
  9
$DIMTDEC
 70
     2
  9
$DIMALTU
 70
     2
  9
$DIMALTTD
 70
     3
  9
$DIMTXSTY
  7
Standard
  9
$DIMAUNIT
 70
     0
  9
$DIMADEC
 70
     2
  9
$DIMALTRND
 40
0.0
  9
$DIMAZIN
 70
     0
  9
$DIMDSEP
 70
    44
  9
$DIMATFIT
 70
     3
  9
$DIMFRAC
 70
     0
  9
$DIMLDRBLK
  1

  9
$DIMLUNIT
 70
     2
  9
$DIMLWD
 70
    -2
  9
$DIMLWE
 70
    -2
  9
$DIMTMOVE
 70
     0
  9
$LUNITS
 70
     2
  9
$LUPREC
 70
     2
  9
$SKETCHINC
 40
1.0
  9
$FILLETRAD
 40
10.0
  9
$AUNITS
 70
     1
  9
$AUPREC
 70
     2
  9
$MENU
  1
.
  9
$ELEVATION
 40
0.0
  9
$PELEVATION
 40
0.0
  9
$THICKNESS
 40
0.0
  9
$LIMCHECK
 70
     0
  9
$CHAMFERA
 40
0.0
  9
$CHAMFERB
 40
0.0
  9
$CHAMFERC
 40
0.0
  9
$CHAMFERD
 40
0.0
  9
$SKPOLY
 70
     0
  9
$TDCREATE
 40
2458600.646878912
  9
$TDUCREATE
 40
2458600.417712246
  9
$TDUPDATE
 40
2458600.646879815
  9
$TDUUPDATE
 40
2458600.417713148
  9
$TDINDWG
 40
0.0000000116
  9
$TDUSRTIMER
 40
0.0000000116
  9
$USRTIMER
 70
     1
  9
$ANGBASE
 50
0.0
  9
$ANGDIR
 70
     0
  9
$PDMODE
 70
     0
  9
$PDSIZE
 40
-1.0
  9
$PLINEWID
 40
0.0
  9
$SPLFRAME
 70
     0
  9
$SPLINETYPE
 70
     6
  9
$SPLINESEGS
 70
     8
  9
$HANDSEED
  5
1A1
  9
$SURFTAB1
 70
     6
  9
$SURFTAB2
 70
     6
  9
$SURFTYPE
 70
     6
  9
$SURFU
 70
     6
  9
$SURFV
 70
     6
  9
$UCSBASE
  2

  9
$UCSNAME
  2

  9
$UCSORG
 10
0.0
 20
0.0
 30
0.0
  9
$UCSXDIR
 10
1.0
 20
0.0
 30
0.0
  9
$UCSYDIR
 10
0.0
 20
1.0
 30
0.0
  9
$UCSORTHOREF
  2

  9
$UCSORTHOVIEW
 70
     0
  9
$UCSORGTOP
 10
0.0
 20
0.0
 30
0.0
  9
$UCSORGBOTTOM
 10
0.0
 20
0.0
 30
0.0
  9
$UCSORGLEFT
 10
0.0
 20
0.0
 30
0.0
  9
$UCSORGRIGHT
 10
0.0
 20
0.0
 30
0.0
  9
$UCSORGFRONT
 10
0.0
 20
0.0
 30
0.0
  9
$UCSORGBACK
 10
0.0
 20
0.0
 30
0.0
  9
$PUCSBASE
  2

  9
$PUCSNAME
  2

  9
$PUCSORG
 10
0.0
 20
0.0
 30
0.0
  9
$PUCSXDIR
 10
1.0
 20
0.0
 30
0.0
  9
$PUCSYDIR
 10
0.0
 20
1.0
 30
0.0
  9
$PUCSORTHOREF
  2

  9
$PUCSORTHOVIEW
 70
     0
  9
$PUCSORGTOP
 10
0.0
 20
0.0
 30
0.0
  9
$PUCSORGBOTTOM
 10
0.0
 20
0.0
 30
0.0
  9
$PUCSORGLEFT
 10
0.0
 20
0.0
 30
0.0
  9
$PUCSORGRIGHT
 10
0.0
 20
0.0
 30
0.0
  9
$PUCSORGFRONT
 10
0.0
 20
0.0
 30
0.0
  9
$PUCSORGBACK
 10
0.0
 20
0.0
 30
0.0
  9
$USERI1
 70
     0
  9
$USERI2
 70
     0
  9
$USERI3
 70
     0
  9
$USERI4
 70
     0
  9
$USERI5
 70
     0
  9
$USERR1
 40
0.0
  9
$USERR2
 40
0.0
  9
$USERR3
 40
0.0
  9
$USERR4
 40
0.0
  9
$USERR5
 40
0.0
  9
$WORLDVIEW
 70
     1
  9
$SHADEDGE
 70
     3
  9
$SHADEDIF
 70
    70
  9
$TILEMODE
 70
     1
  9
$MAXACTVP
 70
    64
  9
$PINSBASE
 10
0.0
 20
0.0
 30
0.0
  9
$PLIMCHECK
 70
     0
  9
$PEXTMIN
 10
1.0000000000E+20
 20
1.0000000000E+20
 30
1.0000000000E+20
  9
$PEXTMAX
 10
-1.0000000000E+20
 20
-1.0000000000E+20
 30
-1.0000000000E+20
  9
$PLIMMIN
 10
0.0
 20
0.0
  9
$PLIMMAX
 10
420.0
 20
297.0
  9
$UNITMODE
 70
     0
  9
$VISRETAIN
 70
     1
  9
$PLINEGEN
 70
     0
  9
$PSLTSCALE
 70
     1
  9
$TREEDEPTH
 70
  3020
  9
$CMLSTYLE
  2
Standard
  9
$CMLJUST
 70
     0
  9
$CMLSCALE
 40
20.0
  9
$PROXYGRAPHICS
 70
     1
  9
$MEASUREMENT
 70
     1
  9
$CELWEIGHT
370
    -1
  9
$ENDCAPS
280
     0
  9
$JOINSTYLE
280
     0
  9
$LWDISPLAY
290
     1
  9
$INSUNITS
 70
     4
  9
$HYPERLINKBASE
  1

  9
$STYLESHEET
  1

  9
$XEDIT
290
     1
  9
$CEPSNTYPE
380
     0
  9
$PSTYLEMODE
290
     1
  9
$FINGERPRINTGUID
  2
{E4C32D9C-5FBF-4BCA-88D4-BAD9C751065E}
  9
$VERSIONGUID
  2
{FAEB1C32-E019-11D5-929B-00C0DF256EC4}
  9
$EXTNAMES
290
     1
  9
$PSVPSCALE
 40
0.0
  9
$OLESTARTUP
290
     0
  0
ENDSEC
  0
SECTION
  2
CLASSES
  0
CLASS
  1
ACDBDICTIONARYWDFLT
  2
AcDbDictionaryWithDefault
  3
ObjectDBX Classes
 90
        0
280
     0
281
     0
  0
CLASS
  1
VISUALSTYLE
  2
AcDbVisualStyle
  3
ObjectDBX Classes
 90
     4095
280
     0
281
     0
  0
CLASS
  1
MATERIAL
  2
AcDbMaterial
  3
ObjectDBX Classes
 90
     1153
280
     0
281
     0
  0
CLASS
  1
SCALE
  2
AcDbScale
  3
ObjectDBX Classes
 90
     1153
280
     0
281
     0
  0
CLASS
  1
SUN
  2
AcDbSun
  3
SCENEOE
 90
     1153
280
     0
281
     0
  0
CLASS
  1
ACDBPLACEHOLDER
  2
AcDbPlaceHolder
  3
ObjectDBX Classes
 90
        0
280
     0
281
     0
  0
CLASS
  1
LAYOUT
  2
AcDbLayout
  3
ObjectDBX Classes
 90
        0
280
     0
281
     0
  0
ENDSEC
  0
SECTION
  2
TABLES
  0
TABLE
  2
VPORT
  5
8
330
0
100
AcDbSymbolTable
 70
     1
  0
VPORT
  5
29
330
8
100
AcDbSymbolTableRecord
100
AcDbViewportTableRecord
  2
*Active
 70
     0
 10
0.0
 20
0.0
 11
1.0
 21
1.0
 12
267.3
 22
189.0
 13
0.0
 23
0.0
 14
10.0
 24
10.0
 15
10.0
 25
10.0
 16
0.0
 26
0.0
 36
1.0
 17
0.0
 27
0.0
 37
0.0
 40
378.0
 41
1.4142857143
 42
50.0
 43
0.0
 44
0.0
 50
0.0
 51
0.0
 71
     0
 72
  2000
 73
     1
 74
     3
 75
     0
 76
     0
 77
     0
 78
     0
281
     0
 65
     1
110
0.0
120
0.0
130
0.0
111
1.0
121
0.0
131
0.0
112
0.0
122
1.0
132
0.0
 79
     0
146
0.0
  0
ENDTAB
  0
TABLE
  2
LTYPE
  5
5
330
0
100
AcDbSymbolTable
 70
     6
  0
LTYPE
  5
14
330
5
100
AcDbSymbolTableRecord
100
AcDbLinetypeTableRecord
  2
ByBlock
 70
     0
  3

 72
    65
 73
     0
 40
0.0
  0
LTYPE
  5
15
330
5
100
AcDbSymbolTableRecord
100
AcDbLinetypeTableRecord
  2
ByLayer
 70
     0
  3

 72
    65
 73
     0
 40
0.0
  0
LTYPE
  5
16
330
5
100
AcDbSymbolTableRecord
100
AcDbLinetypeTableRecord
  2
Continuous
 70
     0
  3
Solid line
 72
    65
 73
     0
 40
0.0
  0
LTYPE
  5
6A
330
5
100
AcDbSymbolTableRecord
100
AcDbLinetypeTableRecord
  2
HIDDEN
 70
     0
  3
Hidden __ __ __ __ __ __ __ __ __ __ __ __ __ __
 72
    65
 73
     2
 40
1.905
 49
1.27
 74
     0
 49
-0.635
 74
     0
  0
LTYPE
  5
6B
330
5
100
AcDbSymbolTableRecord
100
AcDbLinetypeTableRecord
  2
PHANTOM
 70
     0
  3
Phantom ______  __  __  ______  __  __  ______
 72
    65
 73
     6
 40
12.7
 49
6.35
 74
     0
 49
-1.27
 74
     0
 49
1.27
 74
     0
 49
-1.27
 74
     0
 49
1.27
 74
     0
 49
-1.27
 74
     0
  0
LTYPE
  5
6C
330
5
100
AcDbSymbolTableRecord
100
AcDbLinetypeTableRecord
  2
CENTER
 70
     0
  3
Center ____ _ ____ _ ____ _ ____ _ ____ _ ____
 72
    65
 73
     4
 40
10.16
 49
6.35
 74
     0
 49
-1.27
 74
     0
 49
1.27
 74
     0
 49
-1.27
 74
     0
  0
LTYPE
  5
6D
330
5
100
AcDbSymbolTableRecord
100
AcDbLinetypeTableRecord
  2
CENTERX2
 70
     0
  3
Center (2x) ________  __  ________  __  _____
 72
    65
 73
     4
 40
20.32
 49
12.7
 74
     0
 49
-2.54
 74
     0
 49
2.54
 74
     0
 49
-2.54
 74
     0
  0
LTYPE
  5
6E
330
5
100
AcDbSymbolTableRecord
100
AcDbLinetypeTableRecord
  2
DOT2
 70
     0
  3
Dot (.5x) ........................................
 72
    65
 73
     2
 40
0.635
 49
0.0
 74
     0
 49
-0.635
 74
     0
  0
ENDTAB
  0
TABLE
  2
LAYER
  5
2
330
0
100
AcDbSymbolTable
 70
     8
  0
LAYER
  5
10
330
2
100
AcDbSymbolTableRecord
100
AcDbLayerTableRecord
  2
0
 70
     0
 62
     7
  6
Continuous
370
    -3
390
F
  0
LAYER
  5
6F
330
2
100
AcDbSymbolTableRecord
100
AcDbLayerTableRecord
  2
FORMAT
 70
     0
 62
     7
  6
Continuous
370
    -3
390
F
  0
LAYER
  5
70
330
2
100
AcDbSymbolTableRecord
100
AcDbLayerTableRecord
  2
SLD-0
 70
     0
 62
     2
  6
Continuous
370
    -3
390
F
  0
LAYER
  5
71
330
2
100
AcDbSymbolTableRecord
100
AcDbLayerTableRecord
  2
DIM
 70
     0
 62
   179
  6
Continuous
370
    -3
390
F
  0
LAYER
  5
72
330
2
100
AcDbSymbolTableRecord
100
AcDbLayerTableRecord
  2
SLD-DEFPOINTS
 70
     0
 62
   179
  6
Continuous
370
    -3
390
F
  0
LAYER
  5
73
330
2
100
AcDbSymbolTableRecord
100
AcDbLayerTableRecord
  2
HAT
 70
     0
 62
   135
  6
Continuous
370
    -3
390
F
  0
LAYER
  5
74
330
2
100
AcDbSymbolTableRecord
100
AcDbLayerTableRecord
  2
JOB
 70
     0
 62
   201
  6
Continuous
370
    -3
390
F
  0
LAYER
  5
75
330
2
100
AcDbSymbolTableRecord
100
AcDbLayerTableRecord
  2
INSPECTION_REPORT
 70
     0
 62
   255
  6
Continuous
370
    -3
390
F
  0
ENDTAB
  0
TABLE
  2
STYLE
  5
3
330
0
100
AcDbSymbolTable
 70
     4
  0
STYLE
  5
11
330
3
100
AcDbSymbolTableRecord
100
AcDbTextStyleTableRecord
  2
Standard
 70
     0
 40
0.0
 41
1.0
 50
0.0
 71
     0
 42
6.985
  3
txt
  4

  0
STYLE
  5
96
330
3
100
AcDbSymbolTableRecord
100
AcDbTextStyleTableRecord
  2
SLDTEXTSTYLE0
 70
     0
 40
0.0
 41
0.7
 50
0.0
 71
     0
 42
6.985
  3
TXT
  4

  0
STYLE
  5
98
330
3
100
AcDbSymbolTableRecord
100
AcDbTextStyleTableRecord
  2
SLDTEXTSTYLE1
 70
     0
 40
0.0
 41
0.75
 50
0.0
 71
     0
 42
6.985
  3
TXT
  4

  0
STYLE
  5
AB
330
3
100
AcDbSymbolTableRecord
100
AcDbTextStyleTableRecord
  2
SLDTEXTSTYLE2
 70
     0
 40
0.0
 41
0.6875
 50
0.0
 71
     0
 42
6.985
  3
TXT
  4

  0
ENDTAB
  0
TABLE
  2
VIEW
  5
6
330
0
100
AcDbSymbolTable
 70
     0
  0
ENDTAB
  0
TABLE
  2
UCS
  5
7
330
0
100
AcDbSymbolTable
 70
     0
  0
ENDTAB
  0
TABLE
  2
APPID
  5
9
330
0
100
AcDbSymbolTable
 70
     1
  0
APPID
  5
12
330
9
100
AcDbSymbolTableRecord
100
AcDbRegAppTableRecord
  2
ACAD
 70
     0
  0
ENDTAB
  0
TABLE
  2
DIMSTYLE
  5
A
330
0
100
AcDbSymbolTable
 70
     4
100
AcDbDimStyleTable
  0
DIMSTYLE
105
27
330
A
100
AcDbSymbolTableRecord
100
AcDbDimStyleTableRecord
  2
ISO-25
 70
     0
 41
2.5
 42
0.625
 43
3.75
 44
1.25
 73
     0
 74
     0
 77
     1
 78
     8
140
2.5
141
2.5
143
0.0393700787
147
0.625
171
     3
172
     1
178
     0
271
     2
272
     2
274
     3
278
    44
283
     0
284
     8
340
11
  0
DIMSTYLE
105
165
102
{ACAD_REACTORS
330
164
330
193
102
}
330
A
100
AcDbSymbolTableRecord
100
AcDbDimStyleTableRecord
  2
SLDDIMSTYLE0
 70
     0
 41
5.9436
 44
0.0
 45
0.000000001
 73
     0
 74
     0
 77
     1
 78
    12
 79
     3
140
5.23875
144
1.0
147
1.3096875
172
     1
173
     1
178
     0
271
     2
272
     2
276
     2
284
    12
289
     0
340
96
  0
DIMSTYLE
105
173
102
{ACAD_REACTORS
330
172
330
17D
102
}
330
A
100
AcDbSymbolTableRecord
100
AcDbDimStyleTableRecord
  2
SLDDIMSTYLE1
 70
     0
 41
5.9436
 44
0.0
 45
0.000000001
 73
     0
 74
     0
 77
     1
 78
    12
 79
     3
140
5.23875
144
1.0
147
1.3096875
173
     1
178
     0
271
     2
272
     2
276
     2
284
    12
340
96
  0
DIMSTYLE
105
188
102
{ACAD_REACTORS
330
187
102
}
330
A
100
AcDbSymbolTableRecord
100
AcDbDimStyleTableRecord
  2
SLDDIMSTYLE2
 70
     0
 41
5.9436
 44
0.0
 45
0.000000001
 73
     0
 74
     0
 77
     1
 78
     4
 79
     1
140
5.23875
144
1.0
147
1.3096875
173
     1
178
     0
271
     2
272
     2
276
     2
284
    12
340
96
  0
ENDTAB
  0
TABLE
  2
BLOCK_RECORD
  5
1
330
0
100
AcDbSymbolTable
 70
     7
  0
BLOCK_RECORD
  5
1F
330
1
100
AcDbSymbolTableRecord
100
AcDbBlockTableRecord
  2
*Model_Space
340
22
  0
BLOCK_RECORD
  5
1B
330
1
100
AcDbSymbolTableRecord
100
AcDbBlockTableRecord
  2
*Paper_Space
340
1E
  0
BLOCK_RECORD
  5
23
330
1
100
AcDbSymbolTableRecord
100
AcDbBlockTableRecord
  2
*Paper_Space0
340
26
  0
BLOCK_RECORD
  5
E7
330
1
100
AcDbSymbolTableRecord
100
AcDbBlockTableRecord
  2
SW_CENTERMARKSYMBOL_0
340
0
102
{BLKREFS
331
F2
102
}
  0
BLOCK_RECORD
  5
166
330
1
100
AcDbSymbolTableRecord
100
AcDbBlockTableRecord
  2
_D
340
0
  0
BLOCK_RECORD
  5
174
330
1
100
AcDbSymbolTableRecord
100
AcDbBlockTableRecord
  2
_D_1
340
0
  0
BLOCK_RECORD
  5
17E
330
1
100
AcDbSymbolTableRecord
100
AcDbBlockTableRecord
  2
_D_2
340
0
  0
BLOCK_RECORD
  5
189
330
1
100
AcDbSymbolTableRecord
100
AcDbBlockTableRecord
  2
_D_3
340
0
  0
BLOCK_RECORD
  5
194
330
1
100
AcDbSymbolTableRecord
100
AcDbBlockTableRecord
  2
_D_4
340
0
  0
ENDTAB
  0
ENDSEC
  0
SECTION
  2
BLOCKS
  0
BLOCK
  5
20
330
1F
100
AcDbEntity
  8
0
100
AcDbBlockBegin
  2
*Model_Space
 70
     0
 10
0.0
 20
0.0
 30
0.0
  3
*Model_Space
  1
*Model_Space
  0
ENDBLK
  5
21
330
1F
100
AcDbEntity
  8
0
100
AcDbBlockEnd
  0
BLOCK
  5
1C
330
1B
100
AcDbEntity
 67
     1
  8
0
100
AcDbBlockBegin
  2
*Paper_Space
 70
     0
 10
0.0
 20
0.0
 30
0.0
  3
*Paper_Space
  1
*Paper_Space
  0
ENDBLK
  5
1D
330
1B
100
AcDbEntity
 67
     1
  8
0
100
AcDbBlockEnd
  0
BLOCK
  5
24
330
23
100
AcDbEntity
  8
0
100
AcDbBlockBegin
  2
*Paper_Space0
 70
     0
 10
0.0
 20
0.0
 30
0.0
  3
*Paper_Space0
  1
*Paper_Space0
  0
ENDBLK
  5
25
330
23
100
AcDbEntity
  8
0
100
AcDbBlockEnd
  0
BLOCK
  5
E8
330
E7
100
AcDbEntity
  8
0
100
AcDbBlockBegin
  2
SW_CENTERMARKSYMBOL_0
 70
     0
 10
0.0
 20
0.0
 30
0.0
  3
SW_CENTERMARKSYMBOL_0
  1
SW_CENTERMARKSYMBOL_0
  0
LINE
  5
EA
330
E7
100
AcDbEntity
  8
DIM
 62
     0
100
AcDbLine
 10
0.0
 20
0.0
 30
0.0
 11
0.0
 21
2.5
 31
0.0
  0
LINE
  5
EB
330
E7
100
AcDbEntity
  8
DIM
 62
     0
100
AcDbLine
 10
0.0
 20
0.0
 30
0.0
 11
-2.5
 21
0.0
 31
0.0
  0
LINE
  5
EC
330
E7
100
AcDbEntity
  8
DIM
 62
     0
100
AcDbLine
 10
0.0
 20
0.0
 30
0.0
 11
0.0
 21
-2.5
 31
0.0
  0
LINE
  5
ED
330
E7
100
AcDbEntity
  8
DIM
 62
     0
100
AcDbLine
 10
0.0
 20
0.0
 30
0.0
 11
2.5
 21
0.0
 31
0.0
  0
LINE
  5
EE
330
E7
100
AcDbEntity
  8
DIM
 62
     0
100
AcDbLine
 10
0.0
 20
5.0
 30
0.0
 11
0.0
 21
50.0843145751
 31
0.0
  0
LINE
  5
EF
330
E7
100
AcDbEntity
  8
DIM
 62
     0
100
AcDbLine
 10
-5.0
 20
0.0
 30
0.0
 11
-50.0843145751
 21
0.0
 31
0.0
  0
LINE
  5
F0
330
E7
100
AcDbEntity
  8
DIM
 62
     0
100
AcDbLine
 10
0.0
 20
-5.0
 30
0.0
 11
0.0
 21
-50.0843145751
 31
0.0
  0
LINE
  5
F1
330
E7
100
AcDbEntity
  8
DIM
 62
     0
100
AcDbLine
 10
5.0
 20
0.0
 30
0.0
 11
50.0843145751
 21
0.0
 31
0.0
  0
ENDBLK
  5
E9
330
E7
100
AcDbEntity
  8
0
100
AcDbBlockEnd
  0
BLOCK
  5
167
330
166
100
AcDbEntity
  8
0
100
AcDbBlockBegin
  2
_D
 70
     0
 10
0.0
 20
0.0
 30
0.0
  3
_D
  1
_D
  0
SOLID
  5
169
330
166
100
AcDbEntity
  8
DIM
100
AcDbTrace
 10
486.988529097
 20
210.7785297763
 30
0.0
 11
487.902929097
 21
216.7221297763
 31
0.0
 12
486.074129097
 22
216.7221297763
 32
0.0
 13
486.074129097
 23
216.7221297763
 33
0.0
  0
SOLID
  5
16A
330
166
100
AcDbEntity
  8
DIM
100
AcDbTrace
 10
486.988529097
 20
178.7785297763
 30
0.0
 11
486.074129097
 21
172.8349297763
 31
0.0
 12
487.902929097
 22
172.8349297763
 32
0.0
 13
487.902929097
 23
172.8349297763
 33
0.0
  0
LINE
  5
16B
330
166
100
AcDbEntity
  8
DIM
100
AcDbLine
 10
467.6131026164
 20
210.7785297763
 30
0.0
 11
488.788529097
 21
210.7785297763
 31
0.0
  0
LINE
  5
16C
330
166
100
AcDbEntity
  8
DIM
100
AcDbLine
 10
467.6131026164
 20
178.7785297763
 30
0.0
 11
488.788529097
 21
178.7785297763
 31
0.0
  0
LINE
  5
16D
330
166
100
AcDbEntity
  8
DIM
100
AcDbLine
 10
486.988529097
 20
210.7785297763
 30
0.0
 11
486.988529097
 21
222.2085297763
 31
0.0
  0
LINE
  5
16E
330
166
100
AcDbEntity
  8
DIM
100
AcDbLine
 10
486.988529097
 20
210.7785297763
 30
0.0
 11
486.988529097
 21
178.7785297763
 31
0.0
  0
LINE
  5
16F
330
166
100
AcDbEntity
  8
DIM
100
AcDbLine
 10
486.988529097
 20
178.7785297763
 30
0.0
 11
486.988529097
 21
167.3485297763
 31
0.0
  0
MTEXT
  5
170
330
166
100
AcDbEntity
  8
DIM
100
AcDbMText
 10
480.2354250561
 20
187.1869503875
 30
0.0
 40
5.23875
 41
0.0
 71
     1
 72
     1
  1
%%c
  7
SLDTEXTSTYLE0
 11
-7.044195017643634E-15
 21
1.0
 31
0.0
 73
     1
 44
1.0
  0
MTEXT
  5
171
330
166
100
AcDbEntity
  8
DIM
100
AcDbMText
 10
480.2354250561
 20
195.2880950068
 30
0.0
 40
5.23875
 41
0.0
 71
     1
 72
     1
  1
32
  7
SLDTEXTSTYLE0
 11
-7.044195017643634E-15
 21
1.0
 31
0.0
 73
     1
 44
1.0
  0
ENDBLK
  5
168
330
166
100
AcDbEntity
  8
0
100
AcDbBlockEnd
  0
BLOCK
  5
175
330
174
100
AcDbEntity
  8
0
100
AcDbBlockBegin
  2
_D_1
 70
     0
 10
0.0
 20
0.0
 30
0.0
  3
_D_1
  1
_D_1
  0
SOLID
  5
177
330
174
100
AcDbEntity
  8
DIM
100
AcDbTrace
 10
468.988529097
 20
137.1216325525
 30
0.0
 11
463.044929097
 21
138.0360325525
 31
0.0
 12
463.044929097
 22
136.2072325525
 32
0.0
 13
463.044929097
 23
136.2072325525
 33
0.0
  0
SOLID
  5
178
330
174
100
AcDbEntity
  8
DIM
100
AcDbTrace
 10
308.988529097
 20
137.1216325525
 30
0.0
 11
314.932129097
 21
136.2072325525
 31
0.0
 12
314.932129097
 22
138.0360325525
 32
0.0
 13
314.932129097
 23
138.0360325525
 33
0.0
  0
LINE
  5
179
330
174
100
AcDbEntity
  8
DIM
100
AcDbLine
 10
468.988529097
 20
182.4785297763
 30
0.0
 11
468.988529097
 21
135.3216325525
 31
0.0
  0
LINE
  5
17A
330
174
100
AcDbEntity
  8
DIM
100
AcDbLine
 10
308.988529097
 20
158.0535297763
 30
0.0
 11
308.988529097
 21
135.3216325525
 31
0.0
  0
LINE
  5
17B
330
174
100
AcDbEntity
  8
DIM
100
AcDbLine
 10
468.988529097
 20
137.1216325525
 30
0.0
 11
308.988529097
 21
137.1216325525
 31
0.0
  0
MTEXT
  5
17C
330
174
100
AcDbEntity
  8
DIM
100
AcDbMText
 10
383.6770184782
 20
143.8747365933
 30
0.0
 40
5.23875
 41
0.0
 71
     1
 72
     1
  1
160
  7
SLDTEXTSTYLE0
 73
     1
 44
1.0
  0
ENDBLK
  5
176
330
174
100
AcDbEntity
  8
0
100
AcDbBlockEnd
  0
BLOCK
  5
17F
330
17E
100
AcDbEntity
  8
0
100
AcDbBlockBegin
  2
_D_2
 70
     0
 10
0.0
 20
0.0
 30
0.0
  3
_D_2
  1
_D_2
  0
SOLID
  5
181
330
17E
100
AcDbEntity
  8
DIM
100
AcDbTrace
 10
468.988529097
 20
124.161893784
 30
0.0
 11
463.044929097
 21
125.076293784
 31
0.0
 12
463.044929097
 22
123.247493784
 32
0.0
 13
463.044929097
 23
123.247493784
 33
0.0
  0
SOLID
  5
182
330
17E
100
AcDbEntity
  8
DIM
100
AcDbTrace
 10
207.238529097
 20
124.161893784
 30
0.0
 11
213.182129097
 21
123.247493784
 31
0.0
 12
213.182129097
 22
125.076293784
 32
0.0
 13
213.182129097
 23
125.076293784
 33
0.0
  0
LINE
  5
183
330
17E
100
AcDbEntity
  8
DIM
100
AcDbLine
 10
468.988529097
 20
182.4785297763
 30
0.0
 11
468.988529097
 21
122.361893784
 31
0.0
  0
LINE
  5
184
330
17E
100
AcDbEntity
  8
DIM
100
AcDbLine
 10
207.238529097
 20
192.9785297763
 30
0.0
 11
207.238529097
 21
122.361893784
 31
0.0
  0
LINE
  5
185
330
17E
100
AcDbEntity
  8
DIM
100
AcDbLine
 10
468.988529097
 20
124.161893784
 30
0.0
 11
207.238529097
 21
124.161893784
 31
0.0
  0
MTEXT
  5
186
330
17E
100
AcDbEntity
  8
DIM
100
AcDbMText
 10
328.3296780211
 20
130.9149978248
 30
0.0
 40
5.23875
 41
0.0
 71
     1
 72
     1
  1
261.75
  7
SLDTEXTSTYLE0
 73
     1
 44
1.0
  0
ENDBLK
  5
180
330
17E
100
AcDbEntity
  8
0
100
AcDbBlockEnd
  0
BLOCK
  5
18A
330
189
100
AcDbEntity
  8
0
100
AcDbBlockBegin
  2
_D_3
 70
     0
 10
0.0
 20
0.0
 30
0.0
  3
_D_3
  1
_D_3
  0
SOLID
  5
18C
330
189
100
AcDbEntity
  8
DIM
100
AcDbTrace
 10
195.3118578111
 20
243.5285297763
 30
0.0
 11
194.3974578111
 21
237.5849297763
 31
0.0
 12
196.2262578111
 22
237.5849297763
 32
0.0
 13
196.2262578111
 23
237.5849297763
 33
0.0
  0
SOLID
  5
18D
330
189
100
AcDbEntity
  8
DIM
100
AcDbTrace
 10
195.3118578111
 20
146.0285297763
 30
0.0
 11
196.2262578111
 21
151.9721297763
 31
0.0
 12
194.3974578111
 22
151.9721297763
 32
0.0
 13
194.3974578111
 23
151.9721297763
 33
0.0
  0
LINE
  5
18E
330
189
100
AcDbEntity
  8
DIM
100
AcDbLine
 10
311.5542145219
 20
243.5285297763
 30
0.0
 11
193.5118578111
 21
243.5285297763
 31
0.0
  0
LINE
  5
18F
330
189
100
AcDbEntity
  8
DIM
100
AcDbLine
 10
311.5542145219
 20
146.0285297763
 30
0.0
 11
193.5118578111
 21
146.0285297763
 31
0.0
  0
LINE
  5
190
330
189
100
AcDbEntity
  8
DIM
100
AcDbLine
 10
195.3118578111
 20
243.5285297763
 30
0.0
 11
195.3118578111
 21
146.0285297763
 31
0.0
  0
MTEXT
  5
191
330
189
100
AcDbEntity
  8
DIM
100
AcDbMText
 10
188.5587537703
 20
182.7146099304
 30
0.0
 40
5.23875
 41
0.0
 71
     1
 72
     1
  1
%%c
  7
SLDTEXTSTYLE0
 11
-7.044195017643634E-15
 21
1.0
 31
0.0
 73
     1
 44
1.0
  0
MTEXT
  5
192
330
189
100
AcDbEntity
  8
DIM
100
AcDbMText
 10
188.5587537703
 20
190.8157545497
 30
0.0
 40
5.23875
 41
0.0
 71
     1
 72
     1
  1
97.50
  7
SLDTEXTSTYLE0
 11
-7.044195017643634E-15
 21
1.0
 31
0.0
 73
     1
 44
1.0
  0
ENDBLK
  5
18B
330
189
100
AcDbEntity
  8
0
100
AcDbBlockEnd
  0
BLOCK
  5
195
330
194
100
AcDbEntity
  8
0
100
AcDbBlockBegin
  2
_D_4
 70
     0
 10
0.0
 20
0.0
 30
0.0
  3
_D_4
  1
_D_4
  0
SOLID
  5
197
330
194
100
AcDbEntity
  8
DIM
100
AcDbTrace
 10
477.8617228076
 20
209.7785297763
 30
0.0
 11
478.7761228076
 21
215.7221297763
 31
0.0
 12
476.9473228076
 22
215.7221297763
 32
0.0
 13
476.9473228076
 23
215.7221297763
 33
0.0
  0
SOLID
  5
198
330
194
100
AcDbEntity
  8
DIM
100
AcDbTrace
 10
477.8617228076
 20
179.7785297763
 30
0.0
 11
476.9473228076
 21
173.8349297763
 31
0.0
 12
478.7761228076
 22
173.8349297763
 32
0.0
 13
478.7761228076
 23
173.8349297763
 33
0.0
  0
LINE
  5
199
330
194
100
AcDbEntity
  8
DIM
100
AcDbLine
 10
429.7572118385
 20
209.7785297763
 30
0.0
 11
479.6617228076
 21
209.7785297763
 31
0.0
  0
LINE
  5
19A
330
194
100
AcDbEntity
  8
DIM
100
AcDbLine
 10
429.7572118385
 20
179.7785297763
 30
0.0
 11
479.6617228076
 21
179.7785297763
 31
0.0
  0
LINE
  5
19B
330
194
100
AcDbEntity
  8
DIM
100
AcDbLine
 10
477.8617228076
 20
209.7785297763
 30
0.0
 11
477.8617228076
 21
221.2085297763
 31
0.0
  0
LINE
  5
19C
330
194
100
AcDbEntity
  8
DIM
100
AcDbLine
 10
477.8617228076
 20
209.7785297763
 30
0.0
 11
477.8617228076
 21
179.7785297763
 31
0.0
  0
LINE
  5
19D
330
194
100
AcDbEntity
  8
DIM
100
AcDbLine
 10
477.8617228076
 20
179.7785297763
 30
0.0
 11
477.8617228076
 21
168.3485297763
 31
0.0
  0
MTEXT
  5
19E
330
194
100
AcDbEntity
  8
DIM
100
AcDbMText
 10
471.1086187668
 20
187.1869503875
 30
0.0
 40
5.23875
 41
0.0
 71
     1
 72
     1
  1
%%c
  7
SLDTEXTSTYLE0
 11
-7.044195017643634E-15
 21
1.0
 31
0.0
 73
     1
 44
1.0
  0
MTEXT
  5
19F
330
194
100
AcDbEntity
  8
DIM
100
AcDbMText
 10
471.1086187668
 20
195.2880950068
 30
0.0
 40
5.23875
 41
0.0
 71
     1
 72
     1
  1
30
  7
SLDTEXTSTYLE0
 11
-7.044195017643634E-15
 21
1.0
 31
0.0
 73
     1
 44
1.0
  0
ENDBLK
  5
196
330
194
100
AcDbEntity
  8
0
100
AcDbBlockEnd
  0
ENDSEC
  0
SECTION
  2
ENTITIES
  0
LINE
  5
76
330
1F
100
AcDbEntity
  8
DIM
100
AcDbLine
 10
188.4679644402
 20
17.6237846223
 30
0.0
 11
188.4679644402
 21
8.6237846223
 31
0.0
  0
LINE
  5
77
330
1F
100
AcDbEntity
  8
DIM
100
AcDbLine
 10
458.0452830515
 20
17.6237846223
 30
0.0
 11
458.0452830515
 21
8.6237846223
 31
0.0
  0
LINE
  5
78
330
1F
100
AcDbEntity
  8
DIM
100
AcDbLine
 10
427.4130778768
 20
17.6237846223
 30
0.0
 11
427.4130778768
 21
8.6237846223
 31
0.0
  0
LINE
  5
79
330
1F
100
AcDbEntity
  8
DIM
100
AcDbLine
 10
502.0279644402
 20
8.6237846223
 30
0.0
 11
502.0279644402
 21
17.6237846223
 31
0.0
  0
LINE
  5
7A
330
1F
100
AcDbEntity
  8
DIM
100
AcDbLine
 10
202.5079644402
 20
17.6237846223
 30
0.0
 11
202.5079644402
 21
8.6237846223
 31
0.0
  0
LINE
  5
7B
330
1F
100
AcDbEntity
  8
DIM
100
AcDbLine
 10
237.051678821
 20
17.6237846223
 30
0.0
 11
237.051678821
 21
8.6237846223
 31
0.0
  0
LINE
  5
7C
330
1F
100
AcDbEntity
  8
DIM
100
AcDbLine
 10
525.4279644402
 20
8.6237846223
 30
0.0
 11
525.4279644402
 21
138.6737846223
 31
0.0
  0
LINE
  5
7D
330
1F
100
AcDbEntity
  8
DIM
100
AcDbLine
 10
514.4742084504
 20
108.0737846223
 30
0.0
 11
525.4279644402
 21
108.0737846223
 31
0.0
  0
LINE
  5
7E
330
1F
100
AcDbEntity
  8
DIM
100
AcDbLine
 10
268.3860315346
 20
16.2737846223
 30
0.0
 11
268.3860315346
 21
8.6237846223
 31
0.0
  0
LINE
  5
7F
330
1F
100
AcDbEntity
  8
DIM
100
AcDbLine
 10
354.1751084888
 20
17.6237846223
 30
0.0
 11
354.1751084888
 21
8.6237846223
 31
0.0
  0
LINE
  5
80
330
1F
100
AcDbEntity
  8
DIM
100
AcDbLine
 10
268.3860315346
 20
17.6237846223
 30
0.0
 11
268.3860315346
 21
16.2737846223
 31
0.0
  0
LINE
  5
81
330
1F
100
AcDbEntity
  8
DIM
100
AcDbLine
 10
516.4279644402
 20
31.5736550223
 30
0.0
 11
525.4279644402
 21
31.5736550223
 31
0.0
  0
LINE
  5
82
330
1F
100
AcDbEntity
  8
DIM
100
AcDbLine
 10
516.4279644402
 20
359.6237846223
 30
0.0
 11
17.8279644402
 21
359.6237846223
 31
0.0
  0
LINE
  5
83
330
1F
100
AcDbEntity
  8
DIM
100
AcDbLine
 10
525.4279644402
 20
368.6237846223
 30
0.0
 11
8.8279644402
 21
368.6237846223
 31
0.0
  0
LINE
  5
84
330
1F
100
AcDbEntity
  8
DIM
100
AcDbLine
 10
17.8279644402
 20
359.6237846223
 30
0.0
 11
17.8279644402
 21
17.6237846223
 31
0.0
  0
LINE
  5
85
330
1F
100
AcDbEntity
  8
DIM
100
AcDbLine
 10
8.8279644402
 20
368.6237846223
 30
0.0
 11
8.8279644402
 21
8.6237846223
 31
0.0
  0
LINE
  5
86
330
1F
100
AcDbEntity
  8
DIM
100
AcDbLine
 10
17.8279644402
 20
98.6237846223
 30
0.0
 11
8.8279644402
 21
98.6237846223
 31
0.0
  0
LINE
  5
87
330
1F
100
AcDbEntity
  8
DIM
100
AcDbLine
 10
8.8279644402
 20
188.6237846223
 30
0.0
 11
17.8279644402
 21
188.6237846223
 31
0.0
  0
LINE
  5
88
330
1F
100
AcDbEntity
  8
DIM
100
AcDbLine
 10
8.8279644402
 20
8.6237846223
 30
0.0
 11
525.4279644402
 21
8.6237846223
 31
0.0
  0
LINE
  5
89
330
1F
100
AcDbEntity
  8
DIM
100
AcDbLine
 10
17.8279644402
 20
17.6237846223
 30
0.0
 11
525.4279644402
 21
17.6237846223
 31
0.0
  0
LINE
  5
8A
330
1F
100
AcDbEntity
  8
DIM
100
AcDbLine
 10
87.1279644402
 20
8.6237846223
 30
0.0
 11
87.1279644402
 21
17.6237846223
 31
0.0
  0
LINE
  5
8B
330
1F
100
AcDbEntity
  8
DIM
100
AcDbLine
 10
177.1279644402
 20
17.6237846223
 30
0.0
 11
177.1279644402
 21
8.6237846223
 31
0.0
  0
LINE
  5
8C
330
1F
100
AcDbEntity
  8
DIM
100
AcDbLine
 10
17.8279644402
 20
278.6237846223
 30
0.0
 11
8.8279644402
 21
278.6237846223
 31
0.0
  0
LINE
  5
8D
330
1F
100
AcDbEntity
  8
DIM
100
AcDbLine
 10
87.1279644402
 20
359.6237846223
 30
0.0
 11
87.1279644402
 21
368.6237846223
 31
0.0
  0
LINE
  5
8E
330
1F
100
AcDbEntity
  8
DIM
100
AcDbLine
 10
177.1279644402
 20
368.6237846223
 30
0.0
 11
177.1279644402
 21
359.6237846223
 31
0.0
  0
LINE
  5
8F
330
1F
100
AcDbEntity
  8
DIM
100
AcDbLine
 10
267.1279644402
 20
368.6237846223
 30
0.0
 11
267.1279644402
 21
359.6237846223
 31
0.0
  0
LINE
  5
90
330
1F
100
AcDbEntity
  8
DIM
100
AcDbLine
 10
516.4279644402
 20
17.6237846223
 30
0.0
 11
516.4279644402
 21
359.6237846223
 31
0.0
  0
LINE
  5
91
330
1F
100
AcDbEntity
  8
DIM
100
AcDbLine
 10
525.4279644402
 20
138.6737846223
 30
0.0
 11
525.4279644402
 21
368.6237846223
 31
0.0
  0
LINE
  5
92
330
1F
100
AcDbEntity
  8
DIM
100
AcDbLine
 10
525.4279644402
 20
188.6237846223
 30
0.0
 11
516.4279644402
 21
188.6237846223
 31
0.0
  0
LINE
  5
93
330
1F
100
AcDbEntity
  8
DIM
100
AcDbLine
 10
357.1279644402
 20
368.6237846223
 30
0.0
 11
357.1279644402
 21
359.6237846223
 31
0.0
  0
LINE
  5
94
330
1F
100
AcDbEntity
  8
DIM
100
AcDbLine
 10
447.1279644402
 20
359.6237846223
 30
0.0
 11
447.1279644402
 21
368.6237846223
 31
0.0
  0
LINE
  5
95
330
1F
100
AcDbEntity
  8
DIM
100
AcDbLine
 10
516.4279644402
 20
278.6237846223
 30
0.0
 11
525.4279644402
 21
278.6237846223
 31
0.0
  0
MTEXT
  5
97
330
1F
100
AcDbEntity
  8
DIM
100
AcDbMText
 10
23.8693578155
 20
349.4211447127
 30
0.0
 40
7.62
 41
0.0
 71
     1
 72
     1
  1
SK 50 ER 16 160 AD+B/6.3G15000 SL
  7
SLDTEXTSTYLE0
 73
     1
 44
1.0
  0
MTEXT
  5
99
330
1F
100
AcDbEntity
  8
DIM
 62
     7
100
AcDbMText
 10
355.9190015639
 20
14.0435127473
 30
0.0
 40
2.69748
 41
0.0
 71
     1
 72
     1
  1
WEIGHT:
  7
SLDTEXTSTYLE1
 73
     1
 44
1.0
  0
MTEXT
  5
9A
330
1F
100
AcDbEntity
  8
DIM
 62
     7
100
AcDbMText
 10
519.4747381586
 20
147.4931043148
 30
0.0
 40
3.33375
 41
0.0
 71
     1
 72
     1
  1
C
  7
SLDTEXTSTYLE1
 73
     1
 44
1.0
  0
MTEXT
  5
9B
330
1F
100
AcDbEntity
  8
DIM
 62
     7
100
AcDbMText
 10
509.478445115
 20
26.7371675705
 30
0.0
 40
5.23875
 41
0.0
 71
     1
 72
     1
  1
A4
  7
SLDTEXTSTYLE1
 73
     1
 44
1.0
  0
MTEXT
  5
9C
330
1F
100
AcDbEntity
  8
DIM
 62
     7
100
AcDbMText
 10
490.6279716402
 20
366.2262141487
 30
0.0
 40
3.33375
 41
0.0
 71
     1
 72
     1
  1
6
  7
SLDTEXTSTYLE1
 73
     1
 44
1.0
  0
MTEXT
  5
9D
330
1F
100
AcDbEntity
  8
DIM
 62
     7
100
AcDbMText
 10
400.6279716402
 20
366.2262141487
 30
0.0
 40
3.33375
 41
0.0
 71
     1
 72
     1
  1
5
  7
SLDTEXTSTYLE1
 73
     1
 44
1.0
  0
MTEXT
  5
9E
330
1F
100
AcDbEntity
  8
DIM
 62
     7
100
AcDbMText
 10
519.4279788402
 20
325.7262141487
 30
0.0
 40
3.33375
 41
0.0
 71
     1
 72
     1
  1
A
  7
SLDTEXTSTYLE1
 73
     1
 44
1.0
  0
MTEXT
  5
9F
330
1F
100
AcDbEntity
  8
DIM
 62
     7
100
AcDbMText
 10
519.4279788402
 20
235.7262141487
 30
0.0
 40
3.33375
 41
0.0
 71
     1
 72
     1
  1
B
  7
SLDTEXTSTYLE1
 73
     1
 44
1.0
  0
MTEXT
  5
A0
330
1F
100
AcDbEntity
  8
DIM
 62
     7
100
AcDbMText
 10
310.6279716402
 20
366.2262141487
 30
0.0
 40
3.33375
 41
0.0
 71
     1
 72
     1
  1
4
  7
SLDTEXTSTYLE1
 73
     1
 44
1.0
  0
MTEXT
  5
A1
330
1F
100
AcDbEntity
  8
DIM
 62
     7
100
AcDbMText
 10
41.3779716402
 20
366.2262141487
 30
0.0
 40
3.33375
 41
0.0
 71
     1
 72
     1
  1
1
  7
SLDTEXTSTYLE1
 73
     1
 44
1.0
  0
MTEXT
  5
A2
330
1F
100
AcDbEntity
  8
DIM
 62
     7
100
AcDbMText
 10
130.6279716402
 20
366.2262141487
 30
0.0
 40
3.33375
 41
0.0
 71
     1
 72
     1
  1
2
  7
SLDTEXTSTYLE1
 73
     1
 44
1.0
  0
MTEXT
  5
A3
330
1F
100
AcDbEntity
  8
DIM
 62
     7
100
AcDbMText
 10
220.6279716402
 20
366.2262141487
 30
0.0
 40
3.33375
 41
0.0
 71
     1
 72
     1
  1
3
  7
SLDTEXTSTYLE1
 73
     1
 44
1.0
  0
MTEXT
  5
A4
330
1F
100
AcDbEntity
  8
DIM
 62
     7
100
AcDbMText
 10
11.8279644402
 20
325.7262141487
 30
0.0
 40
3.33375
 41
0.0
 71
     1
 72
     1
  1
A
  7
SLDTEXTSTYLE1
 73
     1
 44
1.0
  0
MTEXT
  5
A5
330
1F
100
AcDbEntity
  8
DIM
 62
     7
100
AcDbMText
 10
130.6279716402
 20
15.2262141487
 30
0.0
 40
3.33375
 41
0.0
 71
     1
 72
     1
  1
2
  7
SLDTEXTSTYLE1
 73
     1
 44
1.0
  0
MTEXT
  5
A6
330
1F
100
AcDbEntity
  8
DIM
 62
     7
100
AcDbMText
 10
41.3779716402
 20
15.2262141487
 30
0.0
 40
3.33375
 41
0.0
 71
     1
 72
     1
  1
1
  7
SLDTEXTSTYLE1
 73
     1
 44
1.0
  0
MTEXT
  5
A7
330
1F
100
AcDbEntity
  8
DIM
 62
     7
100
AcDbMText
 10
11.8279644402
 20
55.7262141487
 30
0.0
 40
3.33375
 41
0.0
 71
     1
 72
     1
  1
D
  7
SLDTEXTSTYLE1
 73
     1
 44
1.0
  0
MTEXT
  5
A8
330
1F
100
AcDbEntity
  8
DIM
 62
     7
100
AcDbMText
 10
11.8279644402
 20
145.7262141487
 30
0.0
 40
3.33375
 41
0.0
 71
     1
 72
     1
  1
C
  7
SLDTEXTSTYLE1
 73
     1
 44
1.0
  0
MTEXT
  5
A9
330
1F
100
AcDbEntity
  8
DIM
 62
     7
100
AcDbMText
 10
11.8279644402
 20
235.7262141487
 30
0.0
 40
3.33375
 41
0.0
 71
     1
 72
     1
  1
B
  7
SLDTEXTSTYLE1
 73
     1
 44
1.0
  0
MTEXT
  5
AA
330
1F
100
AcDbEntity
  8
DIM
 62
     7
100
AcDbMText
 10
519.4747381586
 20
147.4931043148
 30
0.0
 40
3.33375
 41
0.0
 71
     1
 72
     1
  1
C
  7
SLDTEXTSTYLE1
 73
     1
 44
1.0
  0
MTEXT
  5
AC
330
1F
100
AcDbEntity
  8
DIM
 62
     7
100
AcDbMText
 10
461.7456584625
 20
13.8439417165
 30
0.0
 40
2.7
 41
0.0
 71
     1
 72
     1
  1
SHEET 1 OF 1
  7
SLDTEXTSTYLE2
 73
     1
 44
1.0
  0
MTEXT
  5
AD
330
1F
100
AcDbEntity
  8
DIM
 62
     7
100
AcDbMText
 10
270.6692046902
 20
14.1360614706
 30
0.0
 40
2.7
 41
0.0
 71
     1
 72
     1
  1
MATERIAL:
  7
SLDTEXTSTYLE1
 73
     1
 44
1.0
  0
MTEXT
  5
AE
330
1F
100
AcDbEntity
  8
DIM
 62
     7
100
AcDbMText
 10
490.6279716402
 20
366.2262141487
 30
0.0
 40
3.33375
 41
0.0
 71
     1
 72
     1
  1
6
  7
SLDTEXTSTYLE1
 73
     1
 44
1.0
  0
MTEXT
  5
AF
330
1F
100
AcDbEntity
  8
DIM
 62
     7
100
AcDbMText
 10
400.6279716402
 20
366.2262141487
 30
0.0
 40
3.33375
 41
0.0
 71
     1
 72
     1
  1
5
  7
SLDTEXTSTYLE1
 73
     1
 44
1.0
  0
MTEXT
  5
B0
330
1F
100
AcDbEntity
  8
DIM
 62
     7
100
AcDbMText
 10
519.4279788402
 20
325.7262141487
 30
0.0
 40
3.33375
 41
0.0
 71
     1
 72
     1
  1
A
  7
SLDTEXTSTYLE1
 73
     1
 44
1.0
  0
MTEXT
  5
B1
330
1F
100
AcDbEntity
  8
DIM
 62
     7
100
AcDbMText
 10
519.4279788402
 20
235.7262141487
 30
0.0
 40
3.33375
 41
0.0
 71
     1
 72
     1
  1
B
  7
SLDTEXTSTYLE1
 73
     1
 44
1.0
  0
MTEXT
  5
B2
330
1F
100
AcDbEntity
  8
DIM
 62
     7
100
AcDbMText
 10
310.6279716402
 20
366.2262141487
 30
0.0
 40
3.33375
 41
0.0
 71
     1
 72
     1
  1
4
  7
SLDTEXTSTYLE1
 73
     1
 44
1.0
  0
MTEXT
  5
B3
330
1F
100
AcDbEntity
  8
DIM
 62
     7
100
AcDbMText
 10
41.3779716402
 20
366.2262141487
 30
0.0
 40
3.33375
 41
0.0
 71
     1
 72
     1
  1
1
  7
SLDTEXTSTYLE1
 73
     1
 44
1.0
  0
MTEXT
  5
B4
330
1F
100
AcDbEntity
  8
DIM
 62
     7
100
AcDbMText
 10
130.6279716402
 20
366.2262141487
 30
0.0
 40
3.33375
 41
0.0
 71
     1
 72
     1
  1
2
  7
SLDTEXTSTYLE1
 73
     1
 44
1.0
  0
MTEXT
  5
B5
330
1F
100
AcDbEntity
  8
DIM
 62
     7
100
AcDbMText
 10
220.6279716402
 20
366.2262141487
 30
0.0
 40
3.33375
 41
0.0
 71
     1
 72
     1
  1
3
  7
SLDTEXTSTYLE1
 73
     1
 44
1.0
  0
MTEXT
  5
B6
330
1F
100
AcDbEntity
  8
DIM
 62
     7
100
AcDbMText
 10
11.8279644402
 20
325.7262141487
 30
0.0
 40
3.33375
 41
0.0
 71
     1
 72
     1
  1
A
  7
SLDTEXTSTYLE1
 73
     1
 44
1.0
  0
MTEXT
  5
B7
330
1F
100
AcDbEntity
  8
DIM
 62
     7
100
AcDbMText
 10
130.6279716402
 20
15.2262141487
 30
0.0
 40
3.33375
 41
0.0
 71
     1
 72
     1
  1
2
  7
SLDTEXTSTYLE1
 73
     1
 44
1.0
  0
MTEXT
  5
B8
330
1F
100
AcDbEntity
  8
DIM
 62
     7
100
AcDbMText
 10
41.3779716402
 20
15.2262141487
 30
0.0
 40
3.33375
 41
0.0
 71
     1
 72
     1
  1
1
  7
SLDTEXTSTYLE1
 73
     1
 44
1.0
  0
MTEXT
  5
B9
330
1F
100
AcDbEntity
  8
DIM
 62
     7
100
AcDbMText
 10
11.8279644402
 20
55.7262141487
 30
0.0
 40
3.33375
 41
0.0
 71
     1
 72
     1
  1
D
  7
SLDTEXTSTYLE1
 73
     1
 44
1.0
  0
MTEXT
  5
BA
330
1F
100
AcDbEntity
  8
DIM
 62
     7
100
AcDbMText
 10
11.8279644402
 20
145.7262141487
 30
0.0
 40
3.33375
 41
0.0
 71
     1
 72
     1
  1
C
  7
SLDTEXTSTYLE1
 73
     1
 44
1.0
  0
MTEXT
  5
BB
330
1F
100
AcDbEntity
  8
DIM
 62
     7
100
AcDbMText
 10
11.8279644402
 20
235.7262141487
 30
0.0
 40
3.33375
 41
0.0
 71
     1
 72
     1
  1
B
  7
SLDTEXTSTYLE1
 73
     1
 44
1.0
  0
SPLINE
  5
BC
330
1F
100
AcDbEntity
  8
0
  6
Continuous
 62
     7
370
    15
100
AcDbSpline
210
0.0
220
0.0
230
1.0
 70
     8
 71
     3
 72
    14
 73
    10
 74
     0
 42
0.000000001
 43
0.00000001
 40
0.0
 40
0.0
 40
0.0
 40
0.0
 40
0.25
 40
0.25
 40
0.5
 40
0.5
 40
0.75
 40
0.75
 40
1.0
 40
1.0
 40
1.0
 40
1.0
 10
120.894916207757
 20
194.7785297763433
 30
0.0
 10
120.894916207757
 20
189.6807953995689
 30
0.0
 10
118.8696897816881
 20
184.7914662948769
 30
0.0
 10
111.6604046886781
 20
177.5821812018669
 30
0.0
 10
106.771075583986
 20
175.5569547757979
 30
0.0
 10
96.57560683043717
 20
175.5569547757979
 30
0.0
 10
91.68627772574513
 20
177.5821812018669
 30
0.0
 10
84.47699263273516
 20
184.7914662948769
 30
0.0
 10
82.45176620666622
 20
189.6807953995689
 30
0.0
 10
82.4517662066662
 20
194.7785297763433
 30
0.0
  0
SPLINE
  5
BD
330
1F
100
AcDbEntity
  8
0
  6
Continuous
 62
     7
370
    15
100
AcDbSpline
210
0.0
220
0.0
230
1.0
 70
     8
 71
     3
 72
    14
 73
    10
 74
     0
 42
0.000000001
 43
0.00000001
 40
0.0
 40
0.0
 40
0.0
 40
0.0
 40
0.25
 40
0.25
 40
0.5
 40
0.5
 40
0.75
 40
0.75
 40
1.0
 40
1.0
 40
1.0
 40
1.0
 10
82.4517662066662
 20
194.7785297763433
 30
0.0
 10
82.4517662066662
 20
199.8762641531178
 30
0.0
 10
84.47699263273515
 20
204.7655932578098
 30
0.0
 10
91.68627772574513
 20
211.9748783508198
 30
0.0
 10
96.57560683043717
 20
214.0001047768887
 30
0.0
 10
106.771075583986
 20
214.0001047768887
 30
0.0
 10
111.6604046886781
 20
211.9748783508198
 30
0.0
 10
118.8696897816881
 20
204.7655932578098
 30
0.0
 10
120.894916207757
 20
199.8762641531178
 30
0.0
 10
120.894916207757
 20
194.7785297763433
 30
0.0
  0
CIRCLE
  5
BE
330
1F
100
AcDbEntity
  8
0
  6
Continuous
 62
     7
370
    15
100
AcDbCircle
 10
101.6733412072
 20
194.7785297763
 30
0.0
 40
20.21110778703756
  0
CIRCLE
  5
BF
330
1F
100
AcDbEntity
  8
0
  6
Continuous
 62
     7
370
    15
100
AcDbCircle
 10
101.6733412072
 20
194.7785297763
 30
0.0
 40
34.925
  0
SPLINE
  5
C0
330
1F
100
AcDbEntity
  8
0
  6
Continuous
 62
     7
370
    15
100
AcDbSpline
210
0.0
220
0.0
230
1.0
 70
     8
 71
     3
 72
    52
 73
    48
 74
     0
 42
0.000000001
 43
0.00000001
 40
0.0
 40
0.0
 40
0.0
 40
0.0
 40
0.0053074994726554
 40
0.0106084744807156
 40
0.0159043870752884
 40
0.0211967035030982
 40
0.0264868930010475
 40
0.031776426578386
 40
0.0370667757915106
 40
0.0423594115164833
 40
0.0476558027243854
 40
0.0529574152645906
 40
0.0582657106609693
 40
0.0891348494758177
 40
0.1200087595578935
 40
0.1521645941108524
 40
0.1843252192282218
 40
0.2171652710885947
 40
0.2500102154523581
 40
0.2828502674523063
 40
0.3156952119562962
 40
0.3478510468948057
 40
0.380011672397905
 40
0.4108808109142898
 40
0.4417547207534483
 40
0.470875333637603
 40
0.5000007798720159
 40
0.5291213927975412
 40
0.5582468390472084
 40
0.5891159778617261
 40
0.6199898879441322
 40
0.652145722497098
 40
0.6843063476144644
 40
0.7171463994755694
 40
0.7499913438386044
 40
0.7828313958395676
 40
0.8156763403425417
 40
0.8478321752819549
 40
0.8799928007841501
 40
0.9108619393016738
 40
0.941735849139696
 40
0.9514609652020397
 40
0.9611682412334405
 40
0.9708667191333772
 40
0.9805654654081966
 40
0.9902735458123287
 40
1.0
 40
1.0
 40
1.0
 40
1.0
 10
66.67334120721159
 20
194.7785297763433
 30
0.0
 10
66.67426923812204
 20
194.9729919343963
 30
0.0
 10
66.67612415912237
 20
195.361677199802
 30
0.0
 10
66.691153193474
 20
195.9442401698235
 30
0.0
 10
66.71515182250836
 20
196.5259260571929
 30
0.0
 10
66.74899612659148
 20
197.10673475201
 30
0.0
 10
66.79245166832509
 20
197.6866661004292
 30
0.0
 10
66.84558122939113
 20
198.2657200208538
 30
0.0
 10
66.90836789911333
 20
198.8438961849905
 30
0.0
 10
66.9808164916299
 20
199.4211951823589
 30
0.0
 10
67.06292452912291
 20
199.9976141825064
 30
0.0
 10
67.15469693111658
 20
200.5731631440845
 30
0.0
 10
67.41883643274997
 20
202.0697757475982
 30
0.0
 10
67.98260418565538
 20
204.4654826087663
 30
0.0
 10
69.0952213659941
 20
207.7263537148187
 30
0.0
 10
70.5423875815347
 20
210.9062425971125
 30
0.0
 10
72.34156321094142
 20
213.9847415288682
 30
0.0
 10
74.45798378650176
 20
216.8862014369051
 30
0.0
 10
76.88086898001688
 20
219.570748412899
 30
0.0
 10
79.56552945863535
 20
221.9937735878455
 30
0.0
 10
82.46682959819563
 20
224.1101128239226
 30
0.0
 10
85.54548269622262
 20
225.9094050160416
 30
0.0
 10
88.72514613023095
 20
227.3565131492489
 30
0.0
 10
91.98638242823728
 20
228.4692429662539
 30
0.0
 10
95.23212672697129
 20
229.23313045165
 30
0.0
 10
98.4709928451272
 20
229.6814084516604
 30
0.0
 10
101.6731642350571
 20
229.8270863165006
 30
0.0
 10
104.8755117057033
 20
229.6814249390521
 30
0.0
 10
108.1142099654172
 20
229.2331947465911
 30
0.0
 10
111.3601305749903
 20
228.4692926874683
 30
0.0
 10
114.6212109755497
 20
227.3566423581096
 30
0.0
 10
117.8010415440048
 20
225.9094853830542
 30
0.0
 10
120.8795563842148
 20
224.1103072158251
 30
0.0
 10
123.7810119403414
 20
221.9938873989776
 30
0.0
 10
126.4655600983509
 20
219.5710017578672
 30
0.0
 10
128.8885849279337
 20
216.8863423053817
 30
0.0
 10
131.0049243620987
 20
213.9850385340289
 30
0.0
 10
132.8042161147368
 20
210.9063986714468
 30
0.0
 10
134.2513257840964
 20
207.726686726023
 30
0.0
 10
135.3640501077597
 20
204.4656245163477
 30
0.0
 10
135.9648960398025
 20
201.9122104309935
 30
0.0
 10
136.2728361193216
 20
200.0947907253918
 30
0.0
 10
136.4189752302441
 20
199.0373439871633
 30
0.0
 10
136.5327812575052
 20
197.9769067337885
 30
0.0
 10
136.6134765783118
 20
196.9134527596364
 30
0.0
 10
136.6639981137275
 20
195.846992390902
 30
0.0
 10
136.6702248804152
 20
195.1349083871763
 30
0.0
 10
136.6733412072116
 20
194.7785297763433
 30
0.0
  0
SPLINE
  5
C1
330
1F
100
AcDbEntity
  8
0
  6
Continuous
 62
     7
370
    15
100
AcDbSpline
210
0.0
220
0.0
230
1.0
 70
     8
 71
     3
 72
    52
 73
    48
 74
     0
 42
0.000000001
 43
0.00000001
 40
0.0
 40
0.0
 40
0.0
 40
0.0
 40
0.0053074994726554
 40
0.0106084744807156
 40
0.0159043870752884
 40
0.0211967035030983
 40
0.0264868930010475
 40
0.0317764265783861
 40
0.0370667757915106
 40
0.0423594115164834
 40
0.0476558027243854
 40
0.0529574152645907
 40
0.0582657106609694
 40
0.0891348494759667
 40
0.1200087595578951
 40
0.1521645941111445
 40
0.1843252192282232
 40
0.2171652710889209
 40
0.25001021545236
 40
0.2828502674525652
 40
0.315695211956297
 40
0.3478510468951538
 40
0.3800116723979077
 40
0.41088081091547
 40
0.4417547207534571
 40
0.4708753336379863
 40
0.5000007798720127
 40
0.5291213927971703
 40
0.5582468390472111
 40
0.5891159778626601
 40
0.6199898879441411
 40
0.6521457224976949
 40
0.6843063476144631
 40
0.7171463994753853
 40
0.7499913438386053
 40
0.7828313958393156
 40
0.8156763403425399
 40
0.8478321752809374
 40
0.8799928007841432
 40
0.9108619393011222
 40
0.9417358491396983
 40
0.9514609652021586
 40
0.9611682412336295
 40
0.9708667191335897
 40
0.9805654654083855
 40
0.9902735458124469
 40
1.0
 40
1.0
 40
1.0
 40
1.0
 10
136.6733412072116
 20
194.7785297763433
 30
0.0
 10
136.6724131763011
 20
194.5840676182904
 30
0.0
 10
136.6705582553008
 20
194.1953823528847
 30
0.0
 10
136.6555292209492
 20
193.6128193828632
 30
0.0
 10
136.6315305919148
 20
193.0311334954938
 30
0.0
 10
136.5976862878317
 20
192.4503248006767
 30
0.0
 10
136.5542307460981
 20
191.8703934522575
 30
0.0
 10
136.5011011850321
 20
191.2913395318328
 30
0.0
 10
136.4383145153099
 20
190.7131633676962
 30
0.0
 10
136.3658659227933
 20
190.1358643703278
 30
0.0
 10
136.2837578853003
 20
189.5594453701803
 30
0.0
 10
136.1919854833066
 20
188.9838964086022
 30
0.0
 10
135.9278459816722
 20
187.4872838050831
 30
0.0
 10
135.3640782287691
 20
185.0915769439143
 30
0.0
 10
134.2514610484227
 20
181.8307058378532
 30
0.0
 10
132.8042948328837
 20
178.6508169555646
 30
0.0
 10
131.0051192034693
 20
175.5723180237997
 30
0.0
 10
128.8886986279144
 20
172.6708581157719
 30
0.0
 10
126.4658134343914
 20
169.9863111397725
 30
0.0
 10
123.7811529557793
 20
167.5632859648365
 30
0.0
 10
120.8798528162089
 20
165.4469467287525
 30
0.0
 10
117.8011997181911
 20
163.6476545366353
 30
0.0
 10
114.6215362841397
 20
162.2005464034192
 30
0.0
 10
111.3602999861473
 20
161.0878165864112
 30
0.0
 10
108.1145556873961
 20
160.3239291010238
 30
0.0
 10
104.8756895692799
 20
159.8756511010481
 30
0.0
 10
101.6735181793661
 20
159.7299732361842
 30
0.0
 10
98.47117070873217
 20
159.8756346136227
 30
0.0
 10
95.23247244898647
 20
160.3238648061026
 30
0.0
 10
91.98655183939711
 20
161.087766865217
 30
0.0
 10
88.72547143882116
 20
162.2004171945972
 30
0.0
 10
85.545640870407
 20
163.647574169658
 30
0.0
 10
82.46712603019454
 20
165.4467523368676
 30
0.0
 10
79.56567047408572
 20
167.5631721537034
 30
0.0
 10
76.88112231608301
 20
169.9860577948077
 30
0.0
 10
74.45809748649965
 20
172.6707172473011
 30
0.0
 10
72.34175805234807
 20
175.5720210186179
 30
0.0
 10
70.54246629971139
 20
178.6506608812109
 30
0.0
 10
69.09535663034941
 20
181.8303728266108
 30
0.0
 10
67.9826323066527
 20
185.0914350363147
 30
0.0
 10
67.3817863746222
 20
187.6448491216773
 30
0.0
 10
67.07384629510197
 20
189.4622688273062
 30
0.0
 10
66.92770718417937
 20
190.5197155655425
 30
0.0
 10
66.81390115691819
 20
191.5801528189199
 30
0.0
 10
66.73320583611157
 20
192.6436067930694
 30
0.0
 10
66.68268430069575
 20
193.710067161796
 30
0.0
 10
66.67645753400805
 20
194.4221511655147
 30
0.0
 10
66.67334120721159
 20
194.7785297763433
 30
0.0
  0
ARC
  5
C2
330
1F
100
AcDbEntity
  8
0
  6
Continuous
 62
     7
370
    15
100
AcDbCircle
 10
101.6733412072
 20
194.7785297763
 30
0.0
 40
47.58431457505075
100
AcDbArc
 50
253.4556342686
 51
286.5443657314
  0
SPLINE
  5
C3
330
1F
100
AcDbEntity
  8
0
  6
Continuous
 62
     7
370
    15
100
AcDbSpline
210
0.0
220
0.0
230
1.0
 70
     8
 71
     3
 72
    10
 73
     6
 74
     0
 42
0.000000001
 43
0.00000001
 40
0.0
 40
0.0
 40
0.0
 40
0.0
 40
0.5
 40
0.5
 40
1.0
 40
1.0
 40
1.0
 40
1.0
 10
115.2233412072116
 20
149.1642283613552
 30
0.0
 10
115.2233412072116
 20
149.1002766725121
 30
0.0
 10
115.2094953311868
 20
149.038712334061
 30
0.0
 10
115.1673295549994
 20
148.928086983212
 30
0.0
 10
115.1388388547363
 20
148.8784002915425
 30
0.0
 10
115.1061839196862
 20
148.8348307148767
 30
0.0
  0
ARC
  5
C4
330
1F
100
AcDbEntity
  8
0
  6
Continuous
 62
     7
370
    15
100
AcDbCircle
 10
101.6733412072
 20
194.7785297763
 30
0.0
 40
47.86715728752537
100
AcDbArc
 50
253.7023380383
 51
286.2976619617
  0
SPLINE
  5
C5
330
1F
100
AcDbEntity
  8
0
  6
Continuous
 62
     7
370
    15
100
AcDbSpline
210
0.0
220
0.0
230
1.0
 70
     8
 71
     3
 72
    10
 73
     6
 74
     0
 42
0.000000001
 43
0.00000001
 40
0.0
 40
0.0
 40
0.0
 40
0.0
 40
0.5
 40
0.5
 40
1.0
 40
1.0
 40
1.0
 40
1.0
 10
88.24049849473694
 20
148.8348307148767
 30
0.0
 10
88.20786543371963
 20
148.8783711062954
 30
0.0
 10
88.17988454745345
 20
148.9269257104132
 30
0.0
 10
88.13722769707843
 20
149.0383752461751
 30
0.0
 10
88.12334120721158
 20
149.1003334987642
 30
0.0
 10
88.12334120721158
 20
149.1642283613552
 30
0.0
  0
ARC
  5
C6
330
1F
100
AcDbEntity
  8
0
  6
Continuous
 62
     7
370
    15
100
AcDbCircle
 10
101.6733412072
 20
194.7785297763
 30
0.0
 40
47.58431457505078
100
AcDbArc
 50
73.4556342686
 51
106.5443657314
  0
SPLINE
  5
C7
330
1F
100
AcDbEntity
  8
0
  6
Continuous
 62
     7
370
    15
100
AcDbSpline
210
0.0
220
0.0
230
1.0
 70
     8
 71
     3
 72
    10
 73
     6
 74
     0
 42
0.000000001
 43
0.00000001
 40
0.0
 40
0.0
 40
0.0
 40
0.0
 40
0.5
 40
0.5
 40
1.0
 40
1.0
 40
1.0
 40
1.0
 10
88.12334120721157
 20
240.3928311913315
 30
0.0
 10
88.12334120721157
 20
240.4567828801746
 30
0.0
 10
88.13718708323641
 20
240.5183472186257
 30
0.0
 10
88.17935285942376
 20
240.6289725694748
 30
0.0
 10
88.20784355968682
 20
240.6786592611442
 30
0.0
 10
88.24049849473691
 20
240.72222883781
 30
0.0
  0
ARC
  5
C8
330
1F
100
AcDbEntity
  8
0
  6
Continuous
 62
     7
370
    15
100
AcDbCircle
 10
101.6733412072
 20
194.7785297763
 30
0.0
 40
47.86715728752539
100
AcDbArc
 50
73.7023380383
 51
106.2976619617
  0
SPLINE
  5
C9
330
1F
100
AcDbEntity
  8
0
  6
Continuous
 62
     7
370
    15
100
AcDbSpline
210
0.0
220
0.0
230
1.0
 70
     8
 71
     3
 72
    10
 73
     6
 74
     0
 42
0.000000001
 43
0.00000001
 40
0.0
 40
0.0
 40
0.0
 40
0.0
 40
0.5
 40
0.5
 40
1.0
 40
1.0
 40
1.0
 40
1.0
 10
115.1061839196863
 20
240.72222883781
 30
0.0
 10
115.1388169807036
 20
240.6786884463912
 30
0.0
 10
115.1667978669698
 20
240.6301338422735
 30
0.0
 10
115.2094547173448
 20
240.5186843065116
 30
0.0
 10
115.2233412072116
 20
240.4567260539225
 30
0.0
 10
115.2233412072116
 20
240.3928311913315
 30
0.0
  0
ARC
  5
CA
330
1F
100
AcDbEntity
  8
0
  6
Continuous
 62
     7
370
    15
100
AcDbCircle
 10
101.6733412072
 20
194.7785297763
 30
0.0
 40
47.86715728752536
100
AcDbArc
 50
218.8096103904
 51
231.1903896096
  0
SPLINE
  5
CB
330
1F
100
AcDbEntity
  8
0
  6
Continuous
 62
     7
370
    15
100
AcDbSpline
210
0.0
220
0.0
230
1.0
 70
    24
 71
     3
 72
     8
 73
     4
 74
     0
 42
0.000000001
 43
0.00000001
 40
0.0
 40
0.0
 40
0.0
 40
0.0
 40
1.0
 40
1.0
 40
1.0
 40
1.0
 10
64.73735613063096
 20
164.7785297763434
 30
0.0
 10
64.60665198102409
 20
164.7785297763434
 30
0.0
 10
64.47711501400791
 20
164.7785297763433
 30
0.0
 10
64.37367972364457
 20
164.7785297763433
 30
0.0
  0
ARC
  5
CC
330
1F
100
AcDbEntity
  8
0
  6
Continuous
 62
     7
370
    15
100
AcDbCircle
 10
101.6733412072
 20
194.7785297763
 30
0.0
 40
47.58431457505075
100
AcDbArc
 50
219.0840578538
 51
230.9159421462
  0
SPLINE
  5
CD
330
1F
100
AcDbEntity
  8
0
  6
Continuous
 62
     7
370
    15
100
AcDbSpline
210
0.0
220
0.0
230
1.0
 70
    24
 71
     3
 72
     8
 73
     4
 74
     0
 42
0.000000001
 43
0.00000001
 40
0.0
 40
0.0
 40
0.0
 40
0.0
 40
1.0
 40
1.0
 40
1.0
 40
1.0
 10
71.6733412072116
 20
157.8425446997627
 30
0.0
 10
71.6733412072116
 20
157.7118405501558
 30
0.0
 10
71.67334120721159
 20
157.5823035831397
 30
0.0
 10
71.67334120721159
 20
157.4788682927763
 30
0.0
  0
SPLINE
  5
CE
330
1F
100
AcDbEntity
  8
0
  6
Continuous
 62
     7
370
    15
100
AcDbSpline
210
0.0
220
0.0
230
1.0
 70
     8
 71
     3
 72
    40
 73
    36
 74
     0
 42
0.000000001
 43
0.00000001
 40
0.0
 40
0.0
 40
0.0
 40
0.0
 40
0.007613809608902
 40
0.0152227036963301
 40
0.0228283796618503
 40
0.0304325370600756
 40
0.0380368764638096
 40
0.0456430983237794
 40
0.0532529018287779
 40
0.0608679837700306
 40
0.0919930035870102
 40
0.1231236538966487
 40
0.154732188130718
 40
0.1863461940165434
 40
0.2182020912730336
 40
0.2500635030030731
 40
0.3137495787501941
 40
0.376941608659038
 40
0.4391681485651253
 40
0.5000004350472864
 40
0.5608327215294477
 40
0.6230592614355351
 40
0.6862512913443788
 40
0.7499373670915
 40
0.7817932643686987
 40
0.8136546761204115
 40
0.8452632104142143
 40
0.8768772163635343
 40
0.9080022357770201
 40
0.9391328857746166
 40
0.9513123423164738
 40
0.9634818178556117
 40
0.9756482751520439
 40
0.9878186821460476
 40
0.9999999999999999
 40
0.9999999999999999
 40
0.9999999999999999
 40
0.9999999999999999
 10
88.12334120721155
 20
240.3928311913315
 30
0.0
 10
87.89632844949392
 20
240.3243317805007
 30
0.0
 10
87.44244949486628
 20
240.1873771824725
 30
0.0
 10
86.76578227370682
 20
239.9691470933386
 30
0.0
 10
86.0925115731464
 20
239.741651471945
 30
0.0
 10
85.42291204235833
 20
239.5039665077775
 30
0.0
 10
84.75690990200586
 20
239.256339361735
 30
0.0
 10
84.09452636698055
 20
238.9987049316817
 30
0.0
 10
83.43575093195696
 20
238.7310767513306
 30
0.0
 10
82.10664719674331
 20
238.1678841013571
 30
0.0
 10
80.13534642532989
 20
237.242865429186
 30
0.0
 10
77.56850134585632
 20
235.8404527167019
 30
0.0
 10
75.07955151939397
 20
234.2749131086043
 30
0.0
 10
72.6745221072753
 20
232.544401653282
 30
0.0
 10
70.37541174961956
 20
230.662747216126
 30
0.0
 10
67.46681787563114
 20
227.9609174490699
 30
0.0
 10
64.16623902923169
 20
224.2615537115712
 30
0.0
 10
60.81418971165091
 20
219.4012768064397
 30
0.0
 10
58.12587892267593
 20
214.2449891055832
 30
0.0
 10
56.10525025540275
 20
208.8718252900726
 30
0.0
 10
54.73960385410685
 20
203.2960886168058
 30
0.0
 10
54.04749712355611
 20
197.522415069671
 30
0.0
 10
54.07035105627752
 20
191.6183484149968
 30
0.0
 10
54.70610206833328
 20
186.7017206896273
 30
0.0
 10
55.58147709454438
 20
182.8295748976734
 30
0.0
 10
56.41678287986804
 20
179.9786474462126
 30
0.0
 10
57.42494887057592
 20
177.1923496280746
 30
0.0
 10
58.59538926505311
 20
174.4951641981715
 30
0.0
 10
59.92237457783084
 20
171.8883214666421
 30
0.0
 10
61.09939460538552
 20
169.8893495409444
 30
0.0
 10
62.03846829105696
 20
168.4388853070217
 30
0.0
 10
62.67911009440274
 20
167.4991530490138
 30
0.0
 10
63.34229183569748
 20
166.5755909725173
 30
0.0
 10
64.0261070235968
 20
165.66663448842
 30
0.0
 10
64.50020228837323
 20
165.0746530933545
 30
0.0
 10
64.73735613063094
 20
164.7785297763434
 30
0.0
  0
SPLINE
  5
CF
330
1F
100
AcDbEntity
  8
0
  6
Continuous
 62
     7
370
    15
100
AcDbSpline
210
0.0
220
0.0
230
1.0
 70
     8
 71
     3
 72
    36
 73
    32
 74
     0
 42
0.000000001
 43
0.00000001
 40
0.0
 40
0.0
 40
0.0
 40
0.0
 40
0.0108670927972102
 40
0.0217248651287689
 40
0.0325754130147298
 40
0.0434208366638035
 40
0.054263239262445
 40
0.0651047257553089
 40
0.0759474016205952
 40
0.0867933716438414
 40
0.0976447386937312
 40
0.1085036025034721
 40
0.1193720584612587
 40
0.1813968118519611
 40
0.243429965651617
 40
0.3071319153790351
 40
0.3708424926864586
 40
0.4354174331843808
 40
0.5000011195034878
 40
0.5645760601031748
 40
0.6291597465272367
 40
0.6928616965440341
 40
0.7565722741492533
 40
0.81859702797498
 40
0.8806301822188908
 40
0.9005456108403473
 40
0.9204355762662808
 40
0.9403130274597372
 40
0.96019093784002
 40
0.9800822799279673
 40
0.9999999999999999
 40
0.9999999999999999
 40
0.9999999999999999
 40
0.9999999999999999
 10
149.2576557822624
 20
194.7785297763433
 30
0.0
 10
149.2567724549656
 20
194.9994675765807
 30
0.0
 10
149.2550065579824
 20
195.4411536835805
 30
0.0
 10
149.2407061799435
 20
196.1033138114552
 30
0.0
 10
149.2178733561769
 20
196.7647780461069
 30
0.0
 10
149.1856736653145
 20
197.4255463272661
 30
0.0
 10
149.1443304878975
 20
198.0856185665143
 30
0.0
 10
149.0937839916556
 20
198.744994730066
 30
0.0
 10
149.0340502675261
 20
199.4036745931292
 30
0.0
 10
148.9651248002763
 20
200.0616586416499
 30
0.0
 10
148.8870096215747
 20
200.7189447109888
 30
0.0
 10
148.7997012028986
 20
201.3755405409838
 30
0.0
 10
148.5518685794925
 20
203.0601552301037
 30
0.0
 10
148.0262225593399
 20
205.7558838951891
 30
0.0
 10
146.9978319137261
 20
209.4360315637082
 30
0.0
 10
145.6658820012215
 20
213.0546041854761
 30
0.0
 10
144.0199561133755
 20
216.5986074466247
 30
0.0
 10
142.0809350537966
 20
220.0119778363596
 30
0.0
 10
139.854960073273
 20
223.2668562607819
 30
0.0
 10
137.3686047966062
 20
226.3276776077345
 30
0.0
 10
134.6488370027521
 20
229.1582946974633
 30
0.0
 10
131.7201286647178
 20
231.745396513208
 30
0.0
 10
128.6308026655763
 20
234.0525265792738
 30
0.0
 10
125.3957016173875
 20
236.086430893972
 30
0.0
 10
122.7980897476695
 20
237.4431350025435
 30
0.0
 10
120.9152023176715
 20
238.3045689979814
 30
0.0
 10
119.7991473433057
 20
238.7811157915517
 30
0.0
 10
118.6720532083107
 20
239.2288623209407
 30
0.0
 10
117.5336882846273
 20
239.6471014616867
 30
0.0
 10
116.3848568032738
 20
240.0385146660231
 30
0.0
 10
115.6106840647558
 20
240.2746735222882
 30
0.0
 10
115.2233412072116
 20
240.3928311913315
 30
0.0
  0
SPLINE
  5
D0
330
1F
100
AcDbEntity
  8
0
  6
Continuous
 62
     7
370
    15
100
AcDbSpline
210
0.0
220
0.0
230
1.0
 70
     8
 71
     3
 72
    36
 73
    32
 74
     0
 42
0.000000001
 43
0.00000001
 40
0.0
 40
0.0
 40
0.0
 40
0.0
 40
0.0108670927968047
 40
0.0217248651280391
 40
0.0325754130137569
 40
0.0434208366626686
 40
0.0542632392612291
 40
0.0651047257540931
 40
0.0759474016194601
 40
0.0867933716428677
 40
0.0976447386929992
 40
0.1085036025030616
 40
0.1193720584612495
 40
0.1813968118476298
 40
0.2434299656515955
 40
0.3071319153745773
 40
0.3708424926864486
 40
0.4354174331830838
 40
0.5000011195034877
 40
0.5645760601022732
 40
0.62915974652723
 40
0.6928616965438961
 40
0.7565722741492582
 40
0.81859702797572
 40
0.8806301822188898
 40
0.9005456108403029
 40
0.9204355762662103
 40
0.9403130274596581
 40
0.9601909378399496
 40
0.9800822799279234
 40
1.0
 40
1.0
 40
1.0
 40
1.0
 10
115.2233412072116
 20
149.1642283613552
 30
0.0
 10
115.4348805436219
 20
149.2279888584384
 30
0.0
 10
115.857777783824
 20
149.3554551666341
 30
0.0
 10
116.4884520260095
 20
149.5577186976443
 30
0.0
 10
117.1160295056604
 20
149.7679632661354
 30
0.0
 10
117.7402725570922
 20
149.9869887308735
 30
0.0
 10
118.3612447048763
 20
150.2145809341996
 30
0.0
 10
118.9789288789264
 20
150.4507972216792
 30
0.0
 10
119.5933294457751
 20
150.695622104536
 30
0.0
 10
120.2044455855028
 20
150.9490600494468
 30
0.0
 10
120.8122758016204
 20
151.2111084924575
 30
0.0
 10
121.4168265087591
 20
151.4817730199869
 30
0.0
 10
122.9611251038698
 20
152.1990522605292
 30
0.0
 10
125.3955675734862
 20
153.4705657824533
 30
0.0
 10
128.6305132299951
 20
155.5043309559259
 30
0.0
 10
131.7199922371814
 20
157.8115539302536
 30
0.0
 10
134.6485820137221
 20
160.3985199261367
 30
0.0
 10
137.3684860745591
 20
163.2292480988089
 30
0.0
 10
139.8547474737252
 20
166.2899183565414
 30
0.0
 10
142.0808405559737
 20
169.5449297957129
 30
0.0
 10
144.0197939345978
 20
172.9581379283424
 30
0.0
 10
145.6658162580219
 20
176.5022935182168
 30
0.0
 10
146.997720678928
 20
180.1206930103139
 30
0.0
 10
148.0262004562181
 20
183.8010292586835
 30
0.0
 10
148.5870463892367
 20
186.6774307089899
 30
0.0
 10
148.8766499143378
 20
188.7276656713104
 30
0.0
 10
149.0156621967817
 20
189.9332158102903
 30
0.0
 10
149.123923073625
 20
191.1411469864192
 30
0.0
 10
149.2006887378201
 20
192.3514798791089
 30
0.0
 10
149.2487586391835
 20
193.5642071170584
 30
0.0
 10
149.2546887581123
 20
194.3735767904146
 30
0.0
 10
149.2576557822624
 20
194.7785297763433
 30
0.0
  0
SPLINE
  5
D1
330
1F
100
AcDbEntity
  8
0
  6
Continuous
 62
     7
370
    15
100
AcDbSpline
210
0.0
220
0.0
230
1.0
 70
     8
 71
     3
 72
    27
 73
    23
 74
     0
 42
0.000000001
 43
0.00000001
 40
0.0
 40
0.0
 40
0.0
 40
0.0
 40
0.0385569892883497
 40
0.0770658329259385
 40
0.1155353026487834
 40
0.1539741971482325
 40
0.1923913361236033
 40
0.2307955542629753
 40
0.2691956951724858
 40
0.3076006052748974
 40
0.3460191276984456
 40
0.3844600961770537
 40
0.4229323289829135
 40
0.4614446229121708
 40
0.5000057473440261
 40
0.5715713334552508
 40
0.6429967682626136
 40
0.71433845726273
 40
0.7856530046661064
 40
0.8569970792855047
 40
0.9284272796578882
 40
1.0
 40
1.0
 40
1.0
 40
1.0
 10
71.67334120721159
 20
157.8425446997627
 30
0.0
 10
71.86074639140055
 20
157.6916753639189
 30
0.0
 10
72.23532274916937
 20
157.3901250809641
 30
0.0
 10
72.80543344262965
 20
156.9488394014235
 30
0.0
 10
73.3810752780351
 20
156.5160522801102
 30
0.0
 10
73.96286911360141
 20
156.092528263927
 30
0.0
 10
74.55064872429747
 20
155.6780628856535
 30
0.0
 10
75.14445849338671
 20
155.2727109678273
 30
0.0
 10
75.74428641982438
 20
154.8764579204378
 30
0.0
 10
76.35013560701503
 20
154.4893077308468
 30
0.0
 10
76.96200506456988
 20
154.1112594111076
 30
0.0
 10
77.57989505625368
 20
153.7423132674448
 30
0.0
 10
78.20380490362585
 20
153.3824693677152
 30
0.0
 10
78.83373642988137
 20
153.031727399702
 30
0.0
 10
79.65078757886994
 20
152.5927966417868
 30
0.0
 10
80.66014317167165
 20
152.0781554166595
 30
0.0
 10
81.86830657275556
 20
151.5042641983835
 30
0.0
 10
83.09073125166952
 20
150.9652869150834
 30
0.0
 10
84.3273406796925
 20
150.4609953440651
 30
0.0
 10
85.57839212132623
 20
149.9922590350708
 30
0.0
 10
86.8429176634566
 20
149.5558291425359
 30
0.0
 10
87.69624987584999
 20
149.2948486547827
 30
0.0
 10
88.12334120721155
 20
149.1642283613552
 30
0.0
  0
ARC
  5
D2
330
1F
100
AcDbEntity
  8
0
  6
Continuous
 62
     7
370
    15
100
AcDbCircle
 10
101.6733412072
 20
194.7785297763
 30
0.0
 40
47.86715728752538
100
AcDbArc
 50
106.2976619617
 51
218.8096103904
  0
ARC
  5
D3
330
1F
100
AcDbEntity
  8
0
  6
Continuous
 62
     7
370
    15
100
AcDbCircle
 10
101.6733412072
 20
194.7785297763
 30
0.0
 40
47.86715728752539
100
AcDbArc
 50
286.2976619617
 51
73.7023380383
  0
ARC
  5
D4
330
1F
100
AcDbEntity
  8
0
  6
Continuous
 62
     7
370
    15
100
AcDbCircle
 10
101.6733412072
 20
194.7785297763
 30
0.0
 40
47.86715728752536
100
AcDbArc
 50
231.1903896096
 51
253.7023380383
  0
ARC
  5
D5
330
1F
100
AcDbEntity
  8
0
  6
Continuous
 62
     7
370
    15
100
AcDbCircle
 10
101.6733412072
 20
194.7785297763
 30
0.0
 40
48.63284271247463
100
AcDbArc
 50
231.9122882504
 51
254.1258902834
  0
ARC
  5
D6
330
1F
100
AcDbEntity
  8
0
  6
Continuous
 62
     7
370
    15
100
AcDbCircle
 10
101.6733412072
 20
194.7785297763
 30
0.0
 40
48.63284271247463
100
AcDbArc
 50
218.0877117496
 51
231.9122882504
  0
ARC
  5
D7
330
1F
100
AcDbEntity
  8
0
  6
Continuous
 62
     7
370
    15
100
AcDbCircle
 10
101.6733412072
 20
194.7785297763
 30
0.0
 40
48.63284271247466
100
AcDbArc
 50
105.9657859825
 51
218.0877117496
  0
ARC
  5
D8
330
1F
100
AcDbEntity
  8
0
  6
Continuous
 62
     7
370
    15
100
AcDbCircle
 10
101.6733412072
 20
194.7785297763
 30
0.0
 40
48.63284271247466
100
AcDbArc
 50
74.1258902834
 51
105.9657859825
  0
ARC
  5
D9
330
1F
100
AcDbEntity
  8
0
  6
Continuous
 62
     7
370
    15
100
AcDbCircle
 10
101.6733412072
 20
194.7785297763
 30
0.0
 40
48.63284271247463
100
AcDbArc
 50
285.9657859825
 51
74.1258902834
  0
ARC
  5
DA
330
1F
100
AcDbEntity
  8
0
  6
Continuous
 62
     7
370
    15
100
AcDbCircle
 10
101.6733412072
 20
194.7785297763
 30
0.0
 40
48.63284271247462
100
AcDbArc
 50
254.1258902834
 51
285.9657859825
  0
SPLINE
  5
DB
330
1F
100
AcDbEntity
  8
0
  6
Continuous
 62
     7
370
    15
100
AcDbSpline
210
0.0
220
0.0
230
1.0
 70
    24
 71
     3
 72
    10
 73
     6
 74
     0
 42
0.000000001
 43
0.00000001
 40
0.0
 40
0.0
 40
0.0
 40
0.0
 40
0.5
 40
0.5
 40
1.0
 40
1.0
 40
1.0
 40
1.0
 10
88.2962313951035
 20
241.5354150807678
 30
0.0
 10
88.25603806284028
 20
241.5583566010048
 30
0.0
 10
88.22078609800366
 20
241.5784776912244
 30
0.0
 10
88.16950659929998
 20
241.607746965281
 30
0.0
 10
88.15418264097428
 20
241.6164935627947
 30
0.0
 10
88.15418264097428
 20
241.6164935627947
 30
0.0
  0
ARC
  5
DC
330
1F
100
AcDbEntity
  8
0
  6
Continuous
 62
     7
370
    15
100
AcDbCircle
 10
101.6733412072
 20
194.7785297763
 30
0.0
 40
48.75000000000004
100
AcDbArc
 50
74.0491974398
 51
106.1000846724
  0
SPLINE
  5
DD
330
1F
100
AcDbEntity
  8
0
  6
Continuous
 62
     7
370
    15
100
AcDbSpline
210
0.0
220
0.0
230
1.0
 70
    24
 71
     3
 72
     8
 73
     4
 74
     0
 42
0.000000001
 43
0.00000001
 40
0.0
 40
0.0
 40
0.0
 40
0.0
 40
1.0
 40
1.0
 40
1.0
 40
1.0
 10
115.0704193786243
 20
241.651558230552
 30
0.0
 10
115.0704193786243
 20
241.651558230552
 30
0.0
 10
115.0333227855581
 20
241.6144616374858
 30
0.0
 10
114.9756204474611
 20
241.5567592993888
 30
0.0
  0
SPLINE
  5
DE
330
1F
100
AcDbEntity
  8
0
  6
Continuous
 62
     7
370
    15
100
AcDbSpline
210
0.0
220
0.0
230
1.0
 70
    24
 71
     3
 72
    10
 73
     6
 74
     0
 42
0.000000001
 43
0.00000001
 40
0.0
 40
0.0
 40
0.0
 40
0.0
 40
0.5
 40
0.5
 40
1.0
 40
1.0
 40
1.0
 40
1.0
 10
115.0504510193197
 20
148.021644471919
 30
0.0
 10
115.090644351583
 20
147.9987029516818
 30
0.0
 10
115.1258963164196
 20
147.9785818614623
 30
0.0
 10
115.1771758151233
 20
147.9493125874058
 30
0.0
 10
115.192499773449
 20
147.940565989892
 30
0.0
 10
115.192499773449
 20
147.940565989892
 30
0.0
  0
ARC
  5
DF
330
1F
100
AcDbEntity
  8
0
  6
Continuous
 62
     7
370
    15
100
AcDbCircle
 10
101.6733412072
 20
194.7785297763
 30
0.0
 40
48.75000000000001
100
AcDbArc
 50
254.0491974398
 51
286.1000846724
  0
SPLINE
  5
E0
330
1F
100
AcDbEntity
  8
0
  6
Continuous
 62
     7
370
    15
100
AcDbSpline
210
0.0
220
0.0
230
1.0
 70
    24
 71
     3
 72
     8
 73
     4
 74
     0
 42
0.000000001
 43
0.00000001
 40
0.0
 40
0.0
 40
0.0
 40
0.0
 40
1.0
 40
1.0
 40
1.0
 40
1.0
 10
88.27626303579895
 20
147.9055013221346
 30
0.0
 10
88.27626303579895
 20
147.9055013221346
 30
0.0
 10
88.31335962886516
 20
147.9425979152009
 30
0.0
 10
88.37106196696213
 20
148.0003002532979
 30
0.0
  0
ARC
  5
E1
330
1F
100
AcDbEntity
  8
0
  6
Continuous
 62
     7
370
    15
100
AcDbCircle
 10
101.6733412072
 20
194.7785297763
 30
0.0
 40
48.75000000000001
100
AcDbArc
 50
217.9798724449
 51
232.0201275551
  0
SPLINE
  5
E2
330
1F
100
AcDbEntity
  8
0
  6
Continuous
 62
     7
370
    15
100
AcDbSpline
210
0.0
220
0.0
230
1.0
 70
    24
 71
     3
 72
     8
 73
     4
 74
     0
 42
0.000000001
 43
0.00000001
 40
0.0
 40
0.0
 40
0.0
 40
0.0
 40
1.0
 40
1.0
 40
1.0
 40
1.0
 10
63.24727583486307
 20
164.7785297763434
 30
0.0
 10
63.24727583486307
 20
164.7785297763434
 30
0.0
 10
63.30879138329452
 20
164.7785297763434
 30
0.0
 10
63.39601906607566
 20
164.7785297763434
 30
0.0
  0
SPLINE
  5
E3
330
1F
100
AcDbEntity
  8
0
  6
Continuous
 62
     7
370
    15
100
AcDbSpline
210
0.0
220
0.0
230
1.0
 70
    24
 71
     3
 72
     8
 73
     4
 74
     0
 42
0.000000001
 43
0.00000001
 40
0.0
 40
0.0
 40
0.0
 40
0.0
 40
1.0
 40
1.0
 40
1.0
 40
1.0
 10
71.67334120721164
 20
156.5012076352074
 30
0.0
 10
71.67334120721164
 20
156.4139332189931
 30
0.0
 10
71.67334120721162
 20
156.3524644039945
 30
0.0
 10
71.67334120721162
 20
156.3524644039948
 30
0.0
  0
ARC
  5
E4
330
1F
100
AcDbEntity
  8
0
  6
Continuous
 62
     7
370
    15
100
AcDbCircle
 10
101.6733412072
 20
194.7785297763
 30
0.0
 40
48.75000000000001
100
AcDbArc
 50
232.0201275551
 51
254.0491974398
  0
ARC
  5
E5
330
1F
100
AcDbEntity
  8
0
  6
Continuous
 62
     7
370
    15
100
AcDbCircle
 10
101.6733412072
 20
194.7785297763
 30
0.0
 40
48.74999999999999
100
AcDbArc
 50
106.1000846724
 51
217.9798724449
  0
ARC
  5
E6
330
1F
100
AcDbEntity
  8
0
  6
Continuous
 62
     7
370
    15
100
AcDbCircle
 10
101.6733412072
 20
194.7785297763
 30
0.0
 40
48.75000000000004
100
AcDbArc
 50
286.1000846724
 51
74.0491974398
  0
INSERT
  5
F2
330
1F
100
AcDbEntity
  8
DIM
100
AcDbBlockReference
  2
SW_CENTERMARKSYMBOL_0
 10
101.6733412072
 20
194.7785297763
 30
0.0
  0
LINE
  5
F3
330
1F
100
AcDbEntity
  8
0
  6
Continuous
 62
     7
370
    15
100
AcDbLine
 10
323.3361243612
 20
146.0285297763
 30
0.0
 11
326.922843672
 21
146.0285297763
 31
0.0
  0
LINE
  5
F4
330
1F
100
AcDbEntity
  8
0
  6
Continuous
 62
     7
370
    15
100
AcDbLine
 10
326.922843672
 20
243.5285297763
 30
0.0
 11
323.3361243612
 21
243.5285297763
 31
0.0
  0
LINE
  5
F5
330
1F
100
AcDbEntity
  8
0
  6
Continuous
 62
     7
370
    15
100
AcDbLine
 10
323.3361243612
 20
243.5285297763
 30
0.0
 11
321.988529097
 21
241.1944263107
 31
0.0
  0
LINE
  5
F6
330
1F
100
AcDbEntity
  8
0
  6
Continuous
 62
     7
370
    15
100
AcDbLine
 10
321.988529097
 20
148.362633242
 30
0.0
 11
323.3361243612
 21
146.0285297763
 31
0.0
  0
LINE
  5
F7
330
1F
100
AcDbEntity
  8
0
  6
Continuous
 62
     7
370
    15
100
AcDbLine
 10
316.8409338328
 20
146.0285297763
 30
0.0
 11
318.188529097
 21
148.362633242
 31
0.0
  0
LINE
  5
F8
330
1F
100
AcDbEntity
  8
0
  6
Continuous
 62
     7
370
    15
100
AcDbLine
 10
318.188529097
 20
241.1944263107
 30
0.0
 11
316.8409338328
 21
243.5285297763
 31
0.0
  0
LINE
  5
F9
330
1F
100
AcDbEntity
  8
0
  6
Continuous
 62
     7
370
    15
100
AcDbLine
 10
313.3542145219
 20
146.0285297763
 30
0.0
 11
316.8409338328
 21
146.0285297763
 31
0.0
  0
LINE
  5
FA
330
1F
100
AcDbEntity
  8
0
  6
Continuous
 62
     7
370
    15
100
AcDbLine
 10
316.8409338328
 20
243.5285297763
 30
0.0
 11
313.3542145219
 21
243.5285297763
 31
0.0
  0
LINE
  5
FB
330
1F
100
AcDbEntity
  8
0
  6
Continuous
 62
     7
370
    15
100
AcDbLine
 10
327.2056863845
 20
146.1456870639
 30
0.0
 11
327.9713718094
 21
146.9113724888
 31
0.0
  0
LINE
  5
FC
330
1F
100
AcDbEntity
  8
0
  6
Continuous
 62
     7
370
    15
100
AcDbLine
 10
327.9713718094
 20
242.6456870639
 30
0.0
 11
327.2056863845
 21
243.4113724888
 31
0.0
  0
LINE
  5
FD
330
1F
100
AcDbEntity
  8
0
  6
Continuous
 62
     7
370
    15
100
AcDbLine
 10
313.0713718094
 20
243.4113724888
 30
0.0
 11
312.3056863845
 21
242.6456870639
 31
0.0
  0
LINE
  5
FE
330
1F
100
AcDbEntity
  8
0
  6
Continuous
 62
     7
370
    15
100
AcDbLine
 10
312.3056863845
 20
146.9113724888
 30
0.0
 11
313.0713718094
 21
146.1456870639
 31
0.0
  0
LINE
  5
FF
330
1F
100
AcDbEntity
  8
0
  6
Continuous
 62
     7
370
    15
100
AcDbLine
 10
318.188529097
 20
149.2785297763
 30
0.0
 11
321.988529097
 21
149.2785297763
 31
0.0
  0
LINE
  5
100
330
1F
100
AcDbEntity
  8
0
  6
Continuous
 62
     7
370
    15
100
AcDbLine
 10
321.988529097
 20
240.2785297763
 30
0.0
 11
318.188529097
 21
240.2785297763
 31
0.0
  0
ARC
  5
101
330
1F
100
AcDbEntity
  8
0
  6
Continuous
 62
     7
370
    15
100
AcDbCircle
 10
311.688529097
 20
159.7785297763
 30
0.0
 40
0.5000000000000568
100
AcDbArc
 50
0.0
 51
90.0
  0
ARC
  5
102
330
1F
100
AcDbEntity
  8
0
  6
Continuous
 62
     7
370
    15
100
AcDbCircle
 10
311.688529097
 20
229.7785297763
 30
0.0
 40
0.5000000000000568
100
AcDbArc
 50
270.0
 51
0.0
  0
LINE
  5
103
330
1F
100
AcDbEntity
  8
0
  6
Continuous
 62
     7
370
    15
100
AcDbLine
 10
308.988529097
 20
229.7035297763
 30
0.0
 11
208.0942208697
 21
214.9896375634
 31
0.0
  0
LINE
  5
104
330
1F
100
AcDbEntity
  8
0
  6
Continuous
 62
     7
370
    15
100
AcDbLine
 10
208.0942208697
 20
174.5674219893
 30
0.0
 11
308.988529097
 21
159.8535297763
 31
0.0
  0
LINE
  5
105
330
1F
100
AcDbEntity
  8
0
  6
Continuous
 62
     7
370
    15
100
AcDbLine
 10
308.988529097
 20
159.8535297763
 30
0.0
 11
309.8999445382
 21
160.2785297763
 31
0.0
  0
LINE
  5
106
330
1F
100
AcDbEntity
  8
0
  6
Continuous
 62
     7
370
    15
100
AcDbLine
 10
309.8999445382
 20
229.2785297763
 30
0.0
 11
308.988529097
 21
229.7035297763
 31
0.0
  0
LINE
  5
107
330
1F
100
AcDbEntity
  8
0
  6
Continuous
 62
     7
370
    15
100
AcDbLine
 10
309.8999445382
 20
160.2785297763
 30
0.0
 11
311.688529097
 21
160.2785297763
 31
0.0
  0
LINE
  5
108
330
1F
100
AcDbEntity
  8
0
  6
Continuous
 62
     7
370
    15
100
AcDbLine
 10
311.688529097
 20
229.2785297763
 30
0.0
 11
309.8999445382
 21
229.2785297763
 31
0.0
  0
ARC
  5
109
330
1F
100
AcDbEntity
  8
0
  6
Continuous
 62
     7
370
    15
100
AcDbCircle
 10
208.238529097
 20
175.5569547758
 30
0.0
 40
1.0
100
AcDbArc
 50
180.0
 51
261.7027777778
  0
ARC
  5
10A
330
1F
100
AcDbEntity
  8
0
  6
Continuous
 62
     7
370
    15
100
AcDbCircle
 10
208.238529097
 20
214.0001047769
 30
0.0
 40
1.0
100
AcDbArc
 50
98.2972222222
 51
180.0
  0
ARC
  5
10B
330
1F
100
AcDbEntity
  8
0
  6
Continuous
 62
     7
370
    15
100
AcDbCircle
 10
330.088529097
 20
211.7785297763
 30
0.0
 40
2.0
100
AcDbArc
 50
180.0
 51
270.0
  0
ARC
  5
10C
330
1F
100
AcDbEntity
  8
0
  6
Continuous
 62
     7
370
    15
100
AcDbCircle
 10
330.088529097
 20
177.7785297763
 30
0.0
 40
2.0
100
AcDbArc
 50
90.0
 51
180.0
  0
LINE
  5
10D
330
1F
100
AcDbEntity
  8
0
  6
Continuous
 62
     7
370
    15
100
AcDbLine
 10
465.8131026164
 20
178.7785297763
 30
0.0
 11
468.988529097
 21
184.2785297763
 31
0.0
  0
LINE
  5
10E
330
1F
100
AcDbEntity
  8
0
  6
Continuous
 62
     7
370
    15
100
AcDbLine
 10
468.988529097
 20
205.2785297763
 30
0.0
 11
465.8131026164
 21
210.7785297763
 31
0.0
  0
LINE
  5
10F
330
1F
100
AcDbEntity
  8
0
  6
Continuous
 62
     7
370
    15
100
AcDbLine
 10
452.988529097
 20
178.7785297763
 30
0.0
 11
465.8131026164
 21
178.7785297763
 31
0.0
  0
LINE
  5
110
330
1F
100
AcDbEntity
  8
0
  6
Continuous
 62
     7
370
    15
100
AcDbLine
 10
465.8131026164
 20
210.7785297763
 30
0.0
 11
452.988529097
 21
210.7785297763
 31
0.0
  0
LINE
  5
111
330
1F
100
AcDbEntity
  8
0
  6
Continuous
 62
     7
370
    15
100
AcDbLine
 10
452.988529097
 20
210.7785297763
 30
0.0
 11
451.488529097
 21
209.2785297763
 31
0.0
  0
LINE
  5
112
330
1F
100
AcDbEntity
  8
0
  6
Continuous
 62
     7
370
    15
100
AcDbLine
 10
451.488529097
 20
180.2785297763
 30
0.0
 11
452.988529097
 21
178.7785297763
 31
0.0
  0
LINE
  5
113
330
1F
100
AcDbEntity
  8
0
  6
Continuous
 62
     7
370
    15
100
AcDbLine
 10
427.9572118385
 20
179.7785297763
 30
0.0
 11
434.4524023668
 21
183.5285297763
 31
0.0
  0
LINE
  5
114
330
1F
100
AcDbEntity
  8
0
  6
Continuous
 62
     7
370
    15
100
AcDbLine
 10
434.4524023668
 20
206.0285297763
 30
0.0
 11
427.9572118385
 21
209.7785297763
 31
0.0
  0
LINE
  5
115
330
1F
100
AcDbEntity
  8
0
  6
Continuous
 62
     7
370
    15
100
AcDbLine
 10
330.088529097
 20
179.7785297763
 30
0.0
 11
427.9572118385
 21
179.7785297763
 31
0.0
  0
LINE
  5
116
330
1F
100
AcDbEntity
  8
0
  6
Continuous
 62
     7
370
    15
100
AcDbLine
 10
427.9572118385
 20
209.7785297763
 30
0.0
 11
330.088529097
 21
209.7785297763
 31
0.0
  0
ARC
  5
117
330
1F
100
AcDbEntity
  8
0
  6
Continuous
 62
     7
370
    15
100
AcDbCircle
 10
312.588529097
 20
242.3628443514
 30
0.0
 40
0.4000000000000394
100
AcDbArc
 50
135.0
 51
180.0
  0
ARC
  5
118
330
1F
100
AcDbEntity
  8
0
  6
Continuous
 62
     7
370
    15
100
AcDbCircle
 10
327.688529097
 20
242.3628443514
 30
0.0
 40
0.4000000000000394
100
AcDbArc
 50
0.0
 51
45.0
  0
ARC
  5
119
330
1F
100
AcDbEntity
  8
0
  6
Continuous
 62
     7
370
    15
100
AcDbCircle
 10
312.588529097
 20
147.1942152013
 30
0.0
 40
0.4000000000000193
100
AcDbArc
 50
180.0
 51
225.0
  0
ARC
  5
11A
330
1F
100
AcDbEntity
  8
0
  6
Continuous
 62
     7
370
    15
100
AcDbCircle
 10
327.688529097
 20
147.1942152013
 30
0.0
 40
0.4000000000000341
100
AcDbArc
 50
315.0
 51
0.0
  0
ARC
  5
11B
330
1F
100
AcDbEntity
  8
0
  6
Continuous
 62
     7
370
    15
100
AcDbCircle
 10
313.3542145219
 20
146.4285297763
 30
0.0
 40
0.4000000000000193
100
AcDbArc
 50
225.0
 51
270.0
  0
ARC
  5
11C
330
1F
100
AcDbEntity
  8
0
  6
Continuous
 62
     7
370
    15
100
AcDbCircle
 10
326.922843672
 20
146.4285297763
 30
0.0
 40
0.4000000000000057
100
AcDbArc
 50
270.0
 51
315.0
  0
ARC
  5
11D
330
1F
100
AcDbEntity
  8
0
  6
Continuous
 62
     7
370
    15
100
AcDbCircle
 10
326.922843672
 20
243.1285297763
 30
0.0
 40
0.4000000000000057
100
AcDbArc
 50
45.0
 51
90.0
  0
ARC
  5
11E
330
1F
100
AcDbEntity
  8
0
  6
Continuous
 62
     7
370
    15
100
AcDbCircle
 10
313.3542145219
 20
243.1285297763
 30
0.0
 40
0.4000000000000193
100
AcDbArc
 50
90.0
 51
135.0
  0
LINE
  5
11F
330
1F
100
AcDbEntity
  8
0
  6
Continuous
 62
     7
370
    15
100
AcDbLine
 10
437.488529097
 20
183.2785297763
 30
0.0
 11
451.488529097
 21
183.2785297763
 31
0.0
  0
LINE
  5
120
330
1F
100
AcDbEntity
  8
0
  6
Continuous
 62
     7
370
    15
100
AcDbLine
 10
451.488529097
 20
206.2785297763
 30
0.0
 11
437.488529097
 21
206.2785297763
 31
0.0
  0
LINE
  5
121
330
1F
100
AcDbEntity
  8
0
  6
Continuous
 62
     7
370
    15
100
AcDbLine
 10
437.488529097
 20
206.2785297763
 30
0.0
 11
436.9524023668
 21
206.0285297763
 31
0.0
  0
LINE
  5
122
330
1F
100
AcDbEntity
  8
0
  6
Continuous
 62
     7
370
    15
100
AcDbLine
 10
436.9524023668
 20
183.5285297763
 30
0.0
 11
437.488529097
 21
183.2785297763
 31
0.0
  0
LINE
  5
123
330
1F
100
AcDbEntity
  8
0
  6
Continuous
 62
     7
370
    15
100
AcDbLine
 10
434.4524023668
 20
183.5285297763
 30
0.0
 11
436.9524023668
 21
183.5285297763
 31
0.0
  0
LINE
  5
124
330
1F
100
AcDbEntity
  8
0
  6
Continuous
 62
     7
370
    15
100
AcDbLine
 10
436.9524023668
 20
206.0285297763
 30
0.0
 11
434.4524023668
 21
206.0285297763
 31
0.0
  0
SPLINE
  5
125
330
1F
100
AcDbEntity
  8
0
  6
Continuous
 62
     7
370
    15
100
AcDbSpline
210
0.0
220
0.0
230
1.0
 70
     8
 71
     3
 72
     8
 73
     4
 74
     0
 42
0.000000001
 43
0.00000001
 40
0.0
 40
0.0
 40
0.0
 40
0.0
 40
1.0
 40
1.0
 40
1.0
 40
1.0
 10
327.2056863844933
 20
241.5567592993888
 30
0.0
 10
327.1343705723114
 20
241.6144866846615
 30
0.0
 10
327.0314694146746
 20
241.651558230552
 30
0.0
 10
326.9228436720187
 20
241.651558230552
 30
0.0
  0
LINE
  5
126
330
1F
100
AcDbEntity
  8
0
  6
Continuous
 62
     7
370
    15
100
AcDbLine
 10
327.2056863845
 20
241.5567592994
 30
0.0
 11
327.2056863845
 21
148.0216444719
 31
0.0
  0
SPLINE
  5
127
330
1F
100
AcDbEntity
  8
0
  6
Continuous
 62
     7
370
    15
100
AcDbSpline
210
0.0
220
0.0
230
1.0
 70
     8
 71
     3
 72
    10
 73
     6
 74
     0
 42
0.000000001
 43
0.00000001
 40
0.0
 40
0.0
 40
0.0
 40
0.0
 40
0.5
 40
0.5
 40
1.0
 40
1.0
 40
1.0
 40
1.0
 10
326.9228436720187
 20
147.940565989892
 30
0.0
 10
326.9800337817694
 20
147.940565989892
 30
0.0
 10
327.0354991074598
 20
147.9492818045094
 30
0.0
 10
327.1317306213779
 20
147.9784998817557
 30
0.0
 10
327.1725596464598
 20
147.9986929394879
 30
0.0
 10
327.2056863844933
 20
148.021644471919
 30
0.0
  0
LINE
  5
128
330
1F
100
AcDbEntity
  8
0
  6
Continuous
 62
     7
370
    15
100
AcDbLine
 10
326.922843672
 20
147.9405659899
 30
0.0
 11
326.922843672
 21
241.6515582306
 31
0.0
  0
LINE
  5
129
330
1F
100
AcDbEntity
  8
0
  6
Continuous
 62
     7
370
    15
100
AcDbLine
 10
313.3542145219
 20
147.9405659899
 30
0.0
 11
313.3542145219
 21
241.6515582306
 31
0.0
  0
SPLINE
  5
12A
330
1F
100
AcDbEntity
  8
0
  6
Continuous
 62
     7
370
    15
100
AcDbSpline
210
0.0
220
0.0
230
1.0
 70
     8
 71
     3
 72
    10
 73
     6
 74
     0
 42
0.000000001
 43
0.00000001
 40
0.0
 40
0.0
 40
0.0
 40
0.0
 40
0.5
 40
0.5
 40
1.0
 40
1.0
 40
1.0
 40
1.0
 10
313.0713718094425
 20
148.021644471919
 30
0.0
 10
313.1044840965313
 20
147.9987029516818
 30
0.0
 10
313.1451240556449
 20
147.9785818614623
 30
0.0
 10
313.2413914687074
 20
147.9493125874058
 30
0.0
 10
313.2970261631707
 20
147.940565989892
 30
0.0
 10
313.3542145219172
 20
147.940565989892
 30
0.0
  0
LINE
  5
12B
330
1F
100
AcDbEntity
  8
0
  6
Continuous
 62
     7
370
    15
100
AcDbLine
 10
313.0713718094
 20
148.0216444719
 30
0.0
 11
313.0713718094
 21
241.5567592994
 31
0.0
  0
SPLINE
  5
12C
330
1F
100
AcDbEntity
  8
0
  6
Continuous
 62
     7
370
    15
100
AcDbSpline
210
0.0
220
0.0
230
1.0
 70
     8
 71
     3
 72
     8
 73
     4
 74
     0
 42
0.000000001
 43
0.00000001
 40
0.0
 40
0.0
 40
0.0
 40
0.0
 40
1.0
 40
1.0
 40
1.0
 40
1.0
 10
313.3542145219172
 20
241.651558230552
 30
0.0
 10
313.2456975304661
 20
241.651558230552
 30
0.0
 10
313.1426566786038
 20
241.6144616374858
 30
0.0
 10
313.0713718094426
 20
241.5567592993888
 30
0.0
  0
LINE
  5
12D
330
1F
100
AcDbEntity
  8
0
  6
Continuous
 62
     7
370
    15
100
AcDbLine
 10
323.3361243612
 20
147.9405659899
 30
0.0
 11
323.3361243612
 21
146.0285297763
 31
0.0
  0
LINE
  5
12E
330
1F
100
AcDbEntity
  8
0
  6
Continuous
 62
     7
370
    15
100
AcDbLine
 10
323.3361243612
 20
243.5285297763
 30
0.0
 11
323.3361243612
 21
147.9405659899
 31
0.0
  0
LINE
  5
12F
330
1F
100
AcDbEntity
  8
0
  6
Continuous
 62
     7
370
    15
100
AcDbLine
 10
321.988529097
 20
241.1944263107
 30
0.0
 11
321.988529097
 21
148.362633242
 31
0.0
  0
LINE
  5
130
330
1F
100
AcDbEntity
  8
0
  6
Continuous
 62
     7
370
    15
100
AcDbLine
 10
318.188529097
 20
194.7785297763
 30
0.0
 11
318.188529097
 21
241.1944263107
 31
0.0
  0
LINE
  5
131
330
1F
100
AcDbEntity
  8
0
  6
Continuous
 62
     7
370
    15
100
AcDbLine
 10
318.188529097
 20
148.362633242
 30
0.0
 11
318.188529097
 21
194.7785297763
 31
0.0
  0
LINE
  5
132
330
1F
100
AcDbEntity
  8
0
  6
Continuous
 62
     7
370
    15
100
AcDbLine
 10
316.8409338328
 20
241.6515582306
 30
0.0
 11
316.8409338328
 21
146.0285297763
 31
0.0
  0
LINE
  5
133
330
1F
100
AcDbEntity
  8
0
  6
Continuous
 62
     7
370
    15
100
AcDbLine
 10
316.8409338328
 20
243.5285297763
 30
0.0
 11
316.8409338328
 21
241.6515582306
 31
0.0
  0
LINE
  5
134
330
1F
100
AcDbEntity
  8
0
  6
Continuous
 62
     7
370
    15
100
AcDbLine
 10
327.9713718094
 20
240.7222288378
 30
0.0
 11
327.9713718094
 21
148.8348307149
 31
0.0
  0
LINE
  5
135
330
1F
100
AcDbEntity
  8
0
  6
Continuous
 62
     7
370
    15
100
AcDbLine
 10
312.3056863845
 20
148.8348307149
 30
0.0
 11
312.3056863845
 21
240.7222288378
 31
0.0
  0
SPLINE
  5
136
330
1F
100
AcDbEntity
  8
0
  6
Continuous
 62
     7
370
    15
100
AcDbSpline
210
0.0
220
0.0
230
1.0
 70
     8
 71
     3
 72
    10
 73
     6
 74
     0
 42
0.000000001
 43
0.00000001
 40
0.0
 40
0.0
 40
0.0
 40
0.0
 40
0.5
 40
0.5
 40
1.0
 40
1.0
 40
1.0
 40
1.0
 10
312.188529096968
 20
149.1642283613552
 30
0.0
 10
312.188529096968
 20
149.1002766725121
 30
0.0
 10
312.2023749729927
 20
149.038712334061
 30
0.0
 10
312.2445407491801
 20
148.928086983212
 30
0.0
 10
312.2730314494432
 20
148.8784002915425
 30
0.0
 10
312.3056863844933
 20
148.8348307148767
 30
0.0
  0
SPLINE
  5
137
330
1F
100
AcDbEntity
  8
0
  6
Continuous
 62
     7
370
    15
100
AcDbSpline
210
0.0
220
0.0
230
1.0
 70
    24
 71
     3
 72
    36
 73
    32
 74
     0
 42
0.000000001
 43
0.00000001
 40
0.0
 40
0.0
 40
0.0
 40
0.0
 40
0.0108670927968047
 40
0.0217248651280391
 40
0.0325754130137569
 40
0.0434208366626686
 40
0.0542632392612291
 40
0.0651047257540931
 40
0.0759474016194601
 40
0.0867933716428677
 40
0.0976447386929992
 40
0.1085036025030616
 40
0.1193720584612495
 40
0.1813968118476298
 40
0.2434299656515955
 40
0.3071319153745773
 40
0.3708424926864486
 40
0.4354174331830838
 40
0.5000011195034877
 40
0.5645760601022732
 40
0.62915974652723
 40
0.6928616965438961
 40
0.7565722741492582
 40
0.81859702797572
 40
0.8806301822188898
 40
0.9005456108403029
 40
0.9204355762662103
 40
0.9403130274596581
 40
0.9601909378399496
 40
0.9800822799279234
 40
1.0
 40
1.0
 40
1.0
 40
1.0
 10
312.188529096968
 20
149.1642283613552
 30
0.0
 10
312.188529096968
 20
149.2279888584384
 30
0.0
 10
312.188529096968
 20
149.3554551666341
 30
0.0
 10
312.188529096968
 20
149.5577186976443
 30
0.0
 10
312.188529096968
 20
149.7679632661354
 30
0.0
 10
312.188529096968
 20
149.9869887308735
 30
0.0
 10
312.188529096968
 20
150.2145809341996
 30
0.0
 10
312.188529096968
 20
150.4507972216792
 30
0.0
 10
312.188529096968
 20
150.695622104536
 30
0.0
 10
312.188529096968
 20
150.9490600494468
 30
0.0
 10
312.188529096968
 20
151.2111084924575
 30
0.0
 10
312.188529096968
 20
151.4817730199869
 30
0.0
 10
312.188529096968
 20
152.1990522605292
 30
0.0
 10
312.188529096968
 20
153.4705657824533
 30
0.0
 10
312.188529096968
 20
155.5043309559259
 30
0.0
 10
312.188529096968
 20
157.8115539302536
 30
0.0
 10
312.188529096968
 20
160.3985199261367
 30
0.0
 10
312.188529096968
 20
163.2292480988089
 30
0.0
 10
312.188529096968
 20
166.2899183565414
 30
0.0
 10
312.188529096968
 20
169.5449297957129
 30
0.0
 10
312.188529096968
 20
172.9581379283424
 30
0.0
 10
312.188529096968
 20
176.5022935182168
 30
0.0
 10
312.188529096968
 20
180.1206930103139
 30
0.0
 10
312.188529096968
 20
183.8010292586835
 30
0.0
 10
312.188529096968
 20
186.6774307089899
 30
0.0
 10
312.188529096968
 20
188.7276656713104
 30
0.0
 10
312.188529096968
 20
189.9332158102903
 30
0.0
 10
312.188529096968
 20
191.1411469864192
 30
0.0
 10
312.188529096968
 20
192.3514798791089
 30
0.0
 10
312.188529096968
 20
193.5642071170584
 30
0.0
 10
312.188529096968
 20
194.3735767904146
 30
0.0
 10
312.188529096968
 20
194.7785297763433
 30
0.0
  0
SPLINE
  5
138
330
1F
100
AcDbEntity
  8
0
  6
Continuous
 62
     7
370
    15
100
AcDbSpline
210
0.0
220
0.0
230
1.0
 70
    24
 71
     3
 72
    36
 73
    32
 74
     0
 42
0.000000001
 43
0.00000001
 40
0.0
 40
0.0
 40
0.0
 40
0.0
 40
0.0108670927972102
 40
0.0217248651287689
 40
0.0325754130147298
 40
0.0434208366638035
 40
0.054263239262445
 40
0.0651047257553089
 40
0.0759474016205952
 40
0.0867933716438414
 40
0.0976447386937312
 40
0.1085036025034721
 40
0.1193720584612587
 40
0.1813968118519611
 40
0.243429965651617
 40
0.3071319153790351
 40
0.3708424926864586
 40
0.4354174331843808
 40
0.5000011195034878
 40
0.5645760601031748
 40
0.6291597465272367
 40
0.6928616965440341
 40
0.7565722741492533
 40
0.81859702797498
 40
0.8806301822188908
 40
0.9005456108403473
 40
0.9204355762662808
 40
0.9403130274597372
 40
0.96019093784002
 40
0.9800822799279673
 40
0.9999999999999999
 40
0.9999999999999999
 40
0.9999999999999999
 40
0.9999999999999999
 10
312.188529096968
 20
194.7785297763433
 30
0.0
 10
312.188529096968
 20
194.9994675765807
 30
0.0
 10
312.188529096968
 20
195.4411536835805
 30
0.0
 10
312.188529096968
 20
196.1033138114552
 30
0.0
 10
312.188529096968
 20
196.7647780461069
 30
0.0
 10
312.188529096968
 20
197.4255463272661
 30
0.0
 10
312.188529096968
 20
198.0856185665143
 30
0.0
 10
312.188529096968
 20
198.744994730066
 30
0.0
 10
312.188529096968
 20
199.4036745931292
 30
0.0
 10
312.188529096968
 20
200.0616586416499
 30
0.0
 10
312.188529096968
 20
200.7189447109888
 30
0.0
 10
312.188529096968
 20
201.3755405409838
 30
0.0
 10
312.188529096968
 20
203.0601552301037
 30
0.0
 10
312.188529096968
 20
205.7558838951891
 30
0.0
 10
312.188529096968
 20
209.4360315637082
 30
0.0
 10
312.188529096968
 20
213.0546041854761
 30
0.0
 10
312.188529096968
 20
216.5986074466247
 30
0.0
 10
312.188529096968
 20
220.0119778363596
 30
0.0
 10
312.188529096968
 20
223.2668562607819
 30
0.0
 10
312.188529096968
 20
226.3276776077345
 30
0.0
 10
312.188529096968
 20
229.1582946974633
 30
0.0
 10
312.188529096968
 20
231.745396513208
 30
0.0
 10
312.188529096968
 20
234.0525265792738
 30
0.0
 10
312.188529096968
 20
236.086430893972
 30
0.0
 10
312.188529096968
 20
237.4431350025435
 30
0.0
 10
312.188529096968
 20
238.3045689979814
 30
0.0
 10
312.188529096968
 20
238.7811157915517
 30
0.0
 10
312.188529096968
 20
239.2288623209407
 30
0.0
 10
312.188529096968
 20
239.6471014616867
 30
0.0
 10
312.188529096968
 20
240.0385146660231
 30
0.0
 10
312.188529096968
 20
240.2746735222882
 30
0.0
 10
312.188529096968
 20
240.3928311913315
 30
0.0
  0
SPLINE
  5
139
330
1F
100
AcDbEntity
  8
0
  6
Continuous
 62
     7
370
    15
100
AcDbSpline
210
0.0
220
0.0
230
1.0
 70
     8
 71
     3
 72
    10
 73
     6
 74
     0
 42
0.000000001
 43
0.00000001
 40
0.0
 40
0.0
 40
0.0
 40
0.0
 40
0.5
 40
0.5
 40
1.0
 40
1.0
 40
1.0
 40
1.0
 10
312.3056863844933
 20
240.72222883781
 30
0.0
 10
312.273053323476
 20
240.6786884463912
 30
0.0
 10
312.2450724372098
 20
240.6301338422735
 30
0.0
 10
312.2024155868348
 20
240.5186843065116
 30
0.0
 10
312.188529096968
 20
240.4567260539225
 30
0.0
 10
312.188529096968
 20
240.3928311913315
 30
0.0
  0
SPLINE
  5
13A
330
1F
100
AcDbEntity
  8
0
  6
Continuous
 62
     7
370
    15
100
AcDbSpline
210
0.0
220
0.0
230
1.0
 70
     8
 71
     3
 72
    10
 73
     6
 74
     0
 42
0.000000001
 43
0.00000001
 40
0.0
 40
0.0
 40
0.0
 40
0.0
 40
0.5
 40
0.5
 40
1.0
 40
1.0
 40
1.0
 40
1.0
 10
328.0885290969679
 20
240.3928311913315
 30
0.0
 10
328.0885290969679
 20
240.4567828801746
 30
0.0
 10
328.0746832209431
 20
240.5183472186257
 30
0.0
 10
328.0325174447557
 20
240.6289725694748
 30
0.0
 10
328.0040267444925
 20
240.6786592611442
 30
0.0
 10
327.9713718094425
 20
240.72222883781
 30
0.0
  0
SPLINE
  5
13B
330
1F
100
AcDbEntity
  8
0
  6
Continuous
 62
     7
370
    15
100
AcDbSpline
210
0.0
220
0.0
230
1.0
 70
    24
 71
     3
 72
    36
 73
    32
 74
     0
 42
0.000000001
 43
0.00000001
 40
0.0
 40
0.0
 40
0.0
 40
0.0
 40
0.0108670927974384
 40
0.0217248651291798
 40
0.0325754130152777
 40
0.0434208366644426
 40
0.0542632392631296
 40
0.0651047257559936
 40
0.0759474016212344
 40
0.0867933716443898
 40
0.0976447386941436
 40
0.1085036025037034
 40
0.1193720584612641
 40
0.1813968118511817
 40
0.2434299656516087
 40
0.3071319153740888
 40
0.3708424926864372
 40
0.4354174331793317
 40
0.5000011195034795
 40
0.5645760601008035
 40
0.6291597465272337
 40
0.6928616965418848
 40
0.7565722741492467
 40
0.8185970279753207
 40
0.8806301822189037
 40
0.9005456108412903
 40
0.9204355762677837
 40
0.9403130274614273
 40
0.9601909378415224
 40
0.9800822799289066
 40
1.0
 40
1.0
 40
1.0
 40
1.0
 10
328.0885290969679
 20
240.3928311913315
 30
0.0
 10
328.0885290969679
 20
240.3290706942446
 30
0.0
 10
328.0885290969679
 20
240.2016043860423
 30
0.0
 10
328.0885290969679
 20
239.9993408550234
 30
0.0
 10
328.0885290969679
 20
239.7890962865257
 30
0.0
 10
328.0885290969679
 20
239.5700708217833
 30
0.0
 10
328.0885290969679
 20
239.342478618455
 30
0.0
 10
328.0885290969679
 20
239.1062623309755
 30
0.0
 10
328.0885290969679
 20
238.861437448121
 30
0.0
 10
328.0885290969679
 20
238.6079995032146
 30
0.0
 10
328.0885290969679
 20
238.3459510602105
 30
0.0
 10
328.0885290969679
 20
238.0752865326901
 30
0.0
 10
328.0885290969679
 20
237.3580072921118
 30
0.0
 10
328.0885290969679
 20
236.0864937701973
 30
0.0
 10
328.0885290969679
 20
234.0527285967293
 30
0.0
 10
328.0885290969679
 20
231.7455056224146
 30
0.0
 10
328.0885290969679
 20
229.158539626613
 30
0.0
 10
328.0885290969679
 20
226.3278114539367
 30
0.0
 10
328.0885290969679
 20
223.2671411962288
 30
0.0
 10
328.0885290969679
 20
220.0121297570071
 30
0.0
 10
328.0885290969679
 20
216.598921624407
 30
0.0
 10
328.0885290969679
 20
213.0547660345012
 30
0.0
 10
328.0885290969679
 20
209.4363665424189
 30
0.0
 10
328.0885290969679
 20
205.7560302940181
 30
0.0
 10
328.0885290969679
 20
202.8796288436864
 30
0.0
 10
328.0885290969679
 20
200.829393881324
 30
0.0
 10
328.0885290969679
 20
199.6238437423082
 30
0.0
 10
328.0885290969679
 20
198.4159125661675
 30
0.0
 10
328.0885290969679
 20
197.2055796734898
 30
0.0
 10
328.0885290969679
 20
195.9928524355763
 30
0.0
 10
328.0885290969679
 20
195.1834827622521
 30
0.0
 10
328.0885290969679
 20
194.7785297763433
 30
0.0
  0
SPLINE
  5
13C
330
1F
100
AcDbEntity
  8
0
  6
Continuous
 62
     7
370
    15
100
AcDbSpline
210
0.0
220
0.0
230
1.0
 70
    24
 71
     3
 72
    36
 73
    32
 74
     0
 42
0.000000001
 43
0.00000001
 40
0.0
 40
0.0
 40
0.0
 40
0.0
 40
0.0108670927973531
 40
0.0217248651290262
 40
0.032575413015073
 40
0.0434208366642038
 40
0.0542632392628738
 40
0.0651047257557378
 40
0.0759474016209956
 40
0.086793371644185
 40
0.0976447386939897
 40
0.1085036025036172
 40
0.1193720584612624
 40
0.1813968118502226
 40
0.2434299656516038
 40
0.3071319153752938
 40
0.3708424926864493
 40
0.4354174331815617
 40
0.5000011195034808
 40
0.5645760600998804
 40
0.6291597465272244
 40
0.6928616965435912
 40
0.7565722741492649
 40
0.8185970279775658
 40
0.8806301822188982
 40
0.9005456108408953
 40
0.9204355762671544
 40
0.9403130274607197
 40
0.9601909378408933
 40
0.9800822799285132
 40
0.9999999999999999
 40
0.9999999999999999
 40
0.9999999999999999
 40
0.9999999999999999
 10
328.0885290969679
 20
194.7785297763433
 30
0.0
 10
328.0885290969679
 20
194.557591976103
 30
0.0
 10
328.0885290969679
 20
194.1159058690981
 30
0.0
 10
328.0885290969679
 20
193.4537457412164
 30
0.0
 10
328.0885290969679
 20
192.7922815065594
 30
0.0
 10
328.0885290969679
 20
192.1315132253967
 30
0.0
 10
328.0885290969679
 20
191.4714409861468
 30
0.0
 10
328.0885290969679
 20
190.8120648225951
 30
0.0
 10
328.0885290969679
 20
190.1533849595336
 30
0.0
 10
328.0885290969679
 20
189.4954009110164
 30
0.0
 10
328.0885290969679
 20
188.8381148416828
 30
0.0
 10
328.0885290969679
 20
188.1815190116947
 30
0.0
 10
328.0885290969679
 20
186.4969043226154
 30
0.0
 10
328.0885290969679
 20
183.801175657537
 30
0.0
 10
328.0885290969679
 20
180.1210279890834
 30
0.0
 10
328.0885290969679
 20
176.5024553672794
 30
0.0
 10
328.0885290969679
 20
172.9584521061806
 30
0.0
 10
328.0885290969679
 20
169.5450817163745
 30
0.0
 10
328.0885290969679
 20
166.2902032920041
 30
0.0
 10
328.0885290969679
 20
163.2293819450053
 30
0.0
 10
328.0885290969679
 20
160.398764855279
 30
0.0
 10
328.0885290969679
 20
157.8116630394607
 30
0.0
 10
328.0885290969679
 20
155.5045329733911
 30
0.0
 10
328.0885290969679
 20
153.470628658693
 30
0.0
 10
328.0885290969679
 20
152.1139245501117
 30
0.0
 10
328.0885290969679
 20
151.2524905546982
 30
0.0
 10
328.0885290969679
 20
150.7759437611217
 30
0.0
 10
328.0885290969679
 20
150.3281972317307
 30
0.0
 10
328.0885290969679
 20
149.9099580909864
 30
0.0
 10
328.0885290969679
 20
149.5185448866555
 30
0.0
 10
328.0885290969679
 20
149.2823860303953
 30
0.0
 10
328.0885290969679
 20
149.1642283613552
 30
0.0
  0
SPLINE
  5
13D
330
1F
100
AcDbEntity
  8
0
  6
Continuous
 62
     7
370
    15
100
AcDbSpline
210
0.0
220
0.0
230
1.0
 70
     8
 71
     3
 72
    10
 73
     6
 74
     0
 42
0.000000001
 43
0.00000001
 40
0.0
 40
0.0
 40
0.0
 40
0.0
 40
0.5
 40
0.5
 40
1.0
 40
1.0
 40
1.0
 40
1.0
 10
328.0885290969679
 20
149.1642283613552
 30
0.0
 10
328.0885290969679
 20
149.1002766725121
 30
0.0
 10
328.0746832209431
 20
149.038712334061
 30
0.0
 10
328.0325174447557
 20
148.9280869832119
 30
0.0
 10
328.0040267444926
 20
148.8784002915425
 30
0.0
 10
327.9713718094425
 20
148.8348307148767
 30
0.0
  0
LINE
  5
13E
330
1F
100
AcDbEntity
  8
0
  6
Continuous
 62
     7
370
    15
100
AcDbLine
 10
308.988529097
 20
159.8535297763
 30
0.0
 11
308.988529097
 21
229.7035297763
 31
0.0
  0
LINE
  5
13F
330
1F
100
AcDbEntity
  8
0
  6
Continuous
 62
     7
370
    15
100
AcDbLine
 10
309.8999445382
 20
194.7785297763
 30
0.0
 11
309.8999445382
 21
229.2785297763
 31
0.0
  0
LINE
  5
140
330
1F
100
AcDbEntity
  8
0
  6
Continuous
 62
     7
370
    15
100
AcDbLine
 10
309.8999445382
 20
160.2785297763
 30
0.0
 11
309.8999445382
 21
194.7785297763
 31
0.0
  0
SPLINE
  5
141
330
1F
100
AcDbEntity
  8
0
  6
Continuous
 62
     7
370
    15
100
AcDbSpline
210
0.0
220
0.0
230
1.0
 70
    24
 71
     3
 72
    10
 73
     6
 74
     0
 42
0.000000001
 43
0.00000001
 40
0.0
 40
0.0
 40
0.0
 40
0.0
 40
0.4999999999999997
 40
0.4999999999999997
 40
0.9999999999999999
 40
0.9999999999999999
 40
0.9999999999999999
 40
0.9999999999999999
 10
207.2385290969679
 20
214.0001047768887
 30
0.0
 10
207.2385290969679
 20
214.0001047768886
 30
0.0
 10
207.2385290969679
 20
211.9748783508197
 30
0.0
 10
207.2385290969679
 20
204.7655932578096
 30
0.0
 10
207.2385290969679
 20
199.8762641531178
 30
0.0
 10
207.2385290969679
 20
194.7785297763433
 30
0.0
  0
SPLINE
  5
142
330
1F
100
AcDbEntity
  8
0
  6
Continuous
 62
     7
370
    15
100
AcDbSpline
210
0.0
220
0.0
230
1.0
 70
    24
 71
     3
 72
    10
 73
     6
 74
     0
 42
0.000000001
 43
0.00000001
 40
0.0
 40
0.0
 40
0.0
 40
0.0
 40
0.4999999999999999
 40
0.4999999999999999
 40
0.9999999999999999
 40
0.9999999999999999
 40
0.9999999999999999
 40
0.9999999999999999
 10
207.2385290969679
 20
194.7785297763433
 30
0.0
 10
207.2385290969679
 20
189.6807953995689
 30
0.0
 10
207.2385290969679
 20
184.7914662948767
 30
0.0
 10
207.2385290969679
 20
177.5821812018668
 30
0.0
 10
207.2385290969679
 20
175.5569547757978
 30
0.0
 10
207.2385290969679
 20
175.5569547757979
 30
0.0
  0
LINE
  5
143
330
1F
100
AcDbEntity
  8
0
  6
Continuous
 62
     7
370
    15
100
AcDbLine
 10
465.8131026164
 20
194.7785297763
 30
0.0
 11
465.8131026164
 21
210.7785297763
 31
0.0
  0
LINE
  5
144
330
1F
100
AcDbEntity
  8
0
  6
Continuous
 62
     7
370
    15
100
AcDbLine
 10
465.8131026164
 20
178.7785297763
 30
0.0
 11
465.8131026164
 21
194.7785297763
 31
0.0
  0
LINE
  5
145
330
1F
100
AcDbEntity
  8
0
  6
Continuous
 62
     7
370
    15
100
AcDbLine
 10
468.988529097
 20
194.7785297763
 30
0.0
 11
468.988529097
 21
205.2785297763
 31
0.0
  0
LINE
  5
146
330
1F
100
AcDbEntity
  8
0
  6
Continuous
 62
     7
370
    15
100
AcDbLine
 10
468.988529097
 20
184.2785297763
 30
0.0
 11
468.988529097
 21
194.7785297763
 31
0.0
  0
LINE
  5
147
330
1F
100
AcDbEntity
  8
0
  6
Continuous
 62
     7
370
    15
100
AcDbLine
 10
452.988529097
 20
178.7785297763
 30
0.0
 11
452.988529097
 21
210.7785297763
 31
0.0
  0
LINE
  5
148
330
1F
100
AcDbEntity
  8
0
  6
Continuous
 62
     7
370
    15
100
AcDbLine
 10
451.488529097
 20
209.2785297763
 30
0.0
 11
451.488529097
 21
180.2785297763
 31
0.0
  0
LINE
  5
149
330
1F
100
AcDbEntity
  8
0
  6
Continuous
 62
     7
370
    15
100
AcDbLine
 10
434.4524023668
 20
194.7785297763
 30
0.0
 11
434.4524023668
 21
206.0285297763
 31
0.0
  0
LINE
  5
14A
330
1F
100
AcDbEntity
  8
0
  6
Continuous
 62
     7
370
    15
100
AcDbLine
 10
434.4524023668
 20
183.5285297763
 30
0.0
 11
434.4524023668
 21
194.7785297763
 31
0.0
  0
LINE
  5
14B
330
1F
100
AcDbEntity
  8
0
  6
Continuous
 62
     7
370
    15
100
AcDbLine
 10
427.9572118385
 20
194.7785297763
 30
0.0
 11
427.9572118385
 21
209.7785297763
 31
0.0
  0
LINE
  5
14C
330
1F
100
AcDbEntity
  8
0
  6
Continuous
 62
     7
370
    15
100
AcDbLine
 10
427.9572118385
 20
179.7785297763
 30
0.0
 11
427.9572118385
 21
194.7785297763
 31
0.0
  0
LINE
  5
14D
330
1F
100
AcDbEntity
  8
0
  6
Continuous
 62
     7
370
    15
100
AcDbLine
 10
312.188529097
 20
240.3928311913
 30
0.0
 11
312.188529097
 21
242.3628443514
 31
0.0
  0
LINE
  5
14E
330
1F
100
AcDbEntity
  8
0
  6
Continuous
 62
     7
370
    15
100
AcDbLine
 10
328.088529097
 20
240.3928311913
 30
0.0
 11
328.088529097
 21
242.3628443514
 31
0.0
  0
LINE
  5
14F
330
1F
100
AcDbEntity
  8
0
  6
Continuous
 62
     7
370
    15
100
AcDbLine
 10
312.188529097
 20
147.1942152013
 30
0.0
 11
312.188529097
 21
149.1642283614
 31
0.0
  0
LINE
  5
150
330
1F
100
AcDbEntity
  8
0
  6
Continuous
 62
     7
370
    15
100
AcDbLine
 10
328.088529097
 20
147.1942152013
 30
0.0
 11
328.088529097
 21
149.1642283614
 31
0.0
  0
LINE
  5
151
330
1F
100
AcDbEntity
  8
0
  6
Continuous
 62
     7
370
    15
100
AcDbLine
 10
437.488529097
 20
183.2785297763
 30
0.0
 11
437.488529097
 21
206.2785297763
 31
0.0
  0
LINE
  5
152
330
1F
100
AcDbEntity
  8
0
  6
Continuous
 62
     7
370
    15
100
AcDbLine
 10
436.9524023668
 20
194.7785297763
 30
0.0
 11
436.9524023668
 21
206.0285297763
 31
0.0
  0
LINE
  5
153
330
1F
100
AcDbEntity
  8
0
  6
Continuous
 62
     7
370
    15
100
AcDbLine
 10
436.9524023668
 20
183.5285297763
 30
0.0
 11
436.9524023668
 21
194.7785297763
 31
0.0
  0
LINE
  5
154
330
1F
100
AcDbEntity
  8
0
  6
Continuous
 62
     8
370
    15
100
AcDbLine
 10
326.922843672
 20
241.6515582306
 30
0.0
 11
326.922843672
 21
243.5285297763
 31
0.0
  0
LINE
  5
155
330
1F
100
AcDbEntity
  8
0
  6
Continuous
 62
     8
370
    15
100
AcDbLine
 10
326.922843672
 20
146.0285297763
 30
0.0
 11
326.922843672
 21
147.9405659899
 31
0.0
  0
LINE
  5
156
330
1F
100
AcDbEntity
  8
0
  6
Continuous
 62
     8
370
    15
100
AcDbLine
 10
313.3542145219
 20
241.6515582306
 30
0.0
 11
313.3542145219
 21
243.5285297763
 31
0.0
  0
LINE
  5
157
330
1F
100
AcDbEntity
  8
0
  6
Continuous
 62
     8
370
    15
100
AcDbLine
 10
313.3542145219
 20
146.0285297763
 30
0.0
 11
313.3542145219
 21
147.9405659899
 31
0.0
  0
LINE
  5
158
330
1F
100
AcDbEntity
  8
0
  6
Continuous
 62
     8
370
    15
100
AcDbLine
 10
327.9713718094
 20
146.9113724888
 30
0.0
 11
327.9713718094
 21
148.8348307149
 31
0.0
  0
LINE
  5
159
330
1F
100
AcDbEntity
  8
0
  6
Continuous
 62
     8
370
    15
100
AcDbLine
 10
327.9713718094
 20
240.7222288378
 30
0.0
 11
327.9713718094
 21
242.6456870639
 31
0.0
  0
LINE
  5
15A
330
1F
100
AcDbEntity
  8
0
  6
Continuous
 62
     8
370
    15
100
AcDbLine
 10
327.2056863845
 20
241.5567592994
 30
0.0
 11
327.2056863845
 21
243.4113724888
 31
0.0
  0
LINE
  5
15B
330
1F
100
AcDbEntity
  8
0
  6
Continuous
 62
     8
370
    15
100
AcDbLine
 10
327.2056863845
 20
146.1456870639
 30
0.0
 11
327.2056863845
 21
148.0216444719
 31
0.0
  0
LINE
  5
15C
330
1F
100
AcDbEntity
  8
0
  6
Continuous
 62
     8
370
    15
100
AcDbLine
 10
312.3056863845
 20
146.9113724888
 30
0.0
 11
312.3056863845
 21
148.8348307149
 31
0.0
  0
LINE
  5
15D
330
1F
100
AcDbEntity
  8
0
  6
Continuous
 62
     8
370
    15
100
AcDbLine
 10
312.3056863845
 20
240.7222288378
 30
0.0
 11
312.3056863845
 21
242.6456870639
 31
0.0
  0
LINE
  5
15E
330
1F
100
AcDbEntity
  8
0
  6
Continuous
 62
     8
370
    15
100
AcDbLine
 10
313.0713718094
 20
241.5567592994
 30
0.0
 11
313.0713718094
 21
243.4113724888
 31
0.0
  0
LINE
  5
15F
330
1F
100
AcDbEntity
  8
0
  6
Continuous
 62
     8
370
    15
100
AcDbLine
 10
313.0713718094
 20
146.1456870639
 30
0.0
 11
313.0713718094
 21
148.0216444719
 31
0.0
  0
LINE
  5
160
330
1F
100
AcDbEntity
  8
0
  6
Continuous
 62
     8
370
    15
100
AcDbLine
 10
311.688529097
 20
194.7785297763
 30
0.0
 11
311.688529097
 21
229.2785297763
 31
0.0
  0
LINE
  5
161
330
1F
100
AcDbEntity
  8
0
  6
Continuous
 62
     8
370
    15
100
AcDbLine
 10
311.688529097
 20
160.2785297763
 30
0.0
 11
311.688529097
 21
194.7785297763
 31
0.0
  0
LINE
  5
162
330
1F
100
AcDbEntity
  8
0
  6
Continuous
 62
     8
370
    15
100
AcDbLine
 10
208.0942208697
 20
214.9896375634
 30
0.0
 11
208.0942208697
 21
174.5674219893
 31
0.0
  0
LINE
  5
163
330
1F
100
AcDbEntity
  8
0
  6
Continuous
 62
     8
370
    15
100
AcDbLine
 10
330.088529097
 20
209.7785297763
 30
0.0
 11
330.088529097
 21
179.7785297763
 31
0.0
  0
DIMENSION
  5
164
330
1F
100
AcDbEntity
  8
DIM
100
AcDbDimension
  2
_D
 10
486.988529097
 20
178.7785297763
 30
0.0
 11
486.988529097
 21
194.7785297763
 31
0.0
 70
   160
  1
%%c<>
 71
     2
 42
-1.0
  3
SLDDIMSTYLE0
100
AcDbAlignedDimension
 13
465.8131026164
 23
210.7785297763
 33
0.0
 14
465.8131026164
 24
178.7785297763
 34
0.0
 50
90.0
100
AcDbRotatedDimension
  0
DIMENSION
  5
172
330
1F
100
AcDbEntity
  8
DIM
100
AcDbDimension
  2
_D_1
 10
308.988529097
 20
137.1216325525
 30
0.0
 11
388.988529097
 21
137.1216325525
 31
0.0
 70
   160
  1
<>
 71
     2
 42
-1.0
  3
SLDDIMSTYLE1
100
AcDbAlignedDimension
 13
468.988529097
 23
184.2785297763
 33
0.0
 14
308.988529097
 24
159.8535297763
 34
0.0
100
AcDbRotatedDimension
  0
DIMENSION
  5
17D
330
1F
100
AcDbEntity
  8
DIM
100
AcDbDimension
  2
_D_2
 10
207.238529097
 20
124.161893784
 30
0.0
 11
338.113529097
 21
124.161893784
 31
0.0
 70
   160
  1
<>
 71
     2
 42
-1.0
  3
SLDDIMSTYLE1
100
AcDbAlignedDimension
 13
468.988529097
 23
184.2785297763
 33
0.0
 14
207.238529097
 24
194.7785297763
 34
0.0
 50
0.0
100
AcDbRotatedDimension
  0
DIMENSION
  5
187
330
1F
100
AcDbEntity
  8
DIM
100
AcDbDimension
  2
_D_3
 10
195.3118578111
 20
146.0285297763
 30
0.0
 11
195.3118578111
 21
194.7785297763
 31
0.0
 70
   160
  1
%%c<>
 71
     2
 42
-1.0
  3
SLDDIMSTYLE2
100
AcDbAlignedDimension
 13
313.3542145219
 23
243.5285297763
 33
0.0
 14
313.3542145219
 24
146.0285297763
 34
0.0
 50
90.0
100
AcDbRotatedDimension
  0
DIMENSION
  5
193
330
1F
100
AcDbEntity
  8
DIM
100
AcDbDimension
  2
_D_4
 10
477.8617228076
 20
179.7785297763
 30
0.0
 11
477.8617228076
 21
194.7785297763
 31
0.0
 70
   160
  1
%%c<>
 71
     2
 42
-1.0
  3
SLDDIMSTYLE0
100
AcDbAlignedDimension
 13
427.9572118385
 23
209.7785297763
 33
0.0
 14
427.9572118385
 24
179.7785297763
 34
0.0
 50
90.0
100
AcDbRotatedDimension
  0
LINE
  5
1A0
330
1F
100
AcDbEntity
  8
DIM
  6
CENTERX2
 48
1.1111111111
370
     0
100
AcDbLine
 10
204.2451792813
 20
194.7785297763
 30
0.0
 11
471.5817228667
 21
194.7785297763
 31
0.0
  0
ENDSEC
  0
SECTION
  2
OBJECTS
  0
DICTIONARY
  5
C
330
0
100
AcDbDictionary
281
     1
  3
ACAD_GROUP
350
D
  3
ACAD_LAYOUT
350
1A
  3
ACAD_MLINESTYLE
350
17
  3
ACAD_PLOTSETTINGS
350
19
  3
ACAD_PLOTSTYLENAME
350
E
  3
ACAD_SCALELIST
350
47
  0
DICTIONARY
  5
D
102
{ACAD_REACTORS
330
C
102
}
330
C
100
AcDbDictionary
281
     1
  0
DICTIONARY
  5
1A
102
{ACAD_REACTORS
330
C
102
}
330
C
100
AcDbDictionary
281
     1
  3
Layout1
350
1E
  3
Layout2
350
26
  3
Model
350
22
  0
DICTIONARY
  5
17
102
{ACAD_REACTORS
330
C
102
}
330
C
100
AcDbDictionary
281
     1
  3
Standard
350
18
  0
DICTIONARY
  5
19
102
{ACAD_REACTORS
330
C
102
}
330
C
100
AcDbDictionary
281
     1
  0
ACDBDICTIONARYWDFLT
  5
E
102
{ACAD_REACTORS
330
C
102
}
330
C
100
AcDbDictionary
281
     1
  3
Normal
350
F
100
AcDbDictionaryWithDefault
340
F
  0
DICTIONARY
  5
47
102
{ACAD_REACTORS
330
C
102
}
330
C
100
AcDbDictionary
281
     1
  3
A0
350
48
  3
A1
350
49
  3
A2
350
4A
  3
A3
350
4B
  3
A4
350
4C
  3
A5
350
4D
  3
A6
350
4E
  3
A7
350
4F
  3
A8
350
50
  3
A9
350
51
  3
B0
350
52
  3
B1
350
53
  3
B2
350
54
  3
B3
350
55
  3
B4
350
56
  3
B5
350
57
  3
B6
350
58
  3
B7
350
59
  3
B8
350
5A
  3
B9
350
5B
  3
C0
350
5C
  3
C1
350
5D
  3
C2
350
5E
  3
C3
350
5F
  3
C4
350
60
  3
C5
350
61
  3
C6
350
62
  3
C7
350
63
  3
C8
350
64
  3
C9
350
65
  3
D0
350
66
  3
D1
350
67
  3
D2
350
68
  0
LAYOUT
  5
1E
102
{ACAD_REACTORS
330
1A
102
}
330
1A
100
AcDbPlotSettings
  1

  2
none_device
  4

  6

 40
0.0
 41
0.0
 42
0.0
 43
0.0
 44
0.0
 45
0.0
 46
0.0
 47
0.0
 48
0.0
 49
0.0
140
0.0
141
0.0
142
1.0
143
1.0
 70
   688
 72
     1
 73
     0
 74
     5
  7

 75
    16
147
1.0
148
0.0
149
0.0
100
AcDbLayout
  1
Layout1
 70
     1
 71
     1
 10
0.0
 20
0.0
 11
420.0
 21
297.0
 12
0.0
 22
0.0
 32
0.0
 14
1.0000000000E+20
 24
1.0000000000E+20
 34
1.0000000000E+20
 15
-1.0000000000E+20
 25
-1.0000000000E+20
 35
-1.0000000000E+20
146
0.0
 13
0.0
 23
0.0
 33
0.0
 16
1.0
 26
0.0
 36
0.0
 17
0.0
 27
1.0
 37
0.0
 76
     0
330
1B
  0
LAYOUT
  5
26
102
{ACAD_REACTORS
330
1A
102
}
330
1A
100
AcDbPlotSettings
  1

  2
none_device
  4

  6

 40
0.0
 41
0.0
 42
0.0
 43
0.0
 44
0.0
 45
0.0
 46
0.0
 47
0.0
 48
0.0
 49
0.0
140
0.0
141
0.0
142
1.0
143
1.0
 70
   688
 72
     1
 73
     0
 74
     5
  7

 75
    16
147
1.0
148
0.0
149
0.0
100
AcDbLayout
  1
Layout2
 70
     1
 71
     2
 10
0.0
 20
0.0
 11
0.0
 21
0.0
 12
0.0
 22
0.0
 32
0.0
 14
0.0
 24
0.0
 34
0.0
 15
0.0
 25
0.0
 35
0.0
146
0.0
 13
0.0
 23
0.0
 33
0.0
 16
1.0
 26
0.0
 36
0.0
 17
0.0
 27
1.0
 37
0.0
 76
     0
330
23
  0
LAYOUT
  5
22
102
{ACAD_REACTORS
330
1A
102
}
330
1A
100
AcDbPlotSettings
  1

  2
none_device
  4
Letter_(8.50_x_11.00_Inches)
  6

 40
6.35
 41
6.35
 42
6.35000508
 43
6.35000508
 44
215.9
 45
279.4
 46
0.0
 47
0.0
 48
0.0
 49
0.0
140
0.0
141
0.0
142
1.0
143
1.0
 70
  1712
 72
     1
 73
     0
 74
     0
  7

 75
     0
147
1.0
148
0.0
149
0.0
100
AcDbLayout
  1
Model
 70
     1
 71
     0
 10
0.0
 20
0.0
 11
534.6
 21
378.0
 12
0.0
 22
0.0
 32
0.0
 14
0.0
 24
0.0
 34
0.0
 15
534.6
 25
378.0
 35
0.0
146
0.0
 13
0.0
 23
0.0
 33
0.0
 16
1.0
 26
0.0
 36
0.0
 17
0.0
 27
1.0
 37
0.0
 76
     0
330
1F
331
29
  0
MLINESTYLE
  5
18
102
{ACAD_REACTORS
330
17
102
}
330
17
100
AcDbMlineStyle
  2
Standard
 70
     0
  3

 62
   256
 51
90.0
 52
90.0
 71
     2
 49
0.5
 62
   256
  6
BYLAYER
 49
-0.5
 62
   256
  6
BYLAYER
  0
ACDBPLACEHOLDER
  5
F
102
{ACAD_REACTORS
330
E
102
}
330
E
  0
SCALE
  5
48
102
{ACAD_REACTORS
330
47
102
}
330
47
100
AcDbScale
 70
     0
300
1:1
140
1.0
141
1.0
290
     1
  0
SCALE
  5
49
102
{ACAD_REACTORS
330
47
102
}
330
47
100
AcDbScale
 70
     0
300
1:2
140
1.0
141
2.0
290
     0
  0
SCALE
  5
4A
102
{ACAD_REACTORS
330
47
102
}
330
47
100
AcDbScale
 70
     0
300
1:4
140
1.0
141
4.0
290
     0
  0
SCALE
  5
4B
102
{ACAD_REACTORS
330
47
102
}
330
47
100
AcDbScale
 70
     0
300
1:5
140
1.0
141
5.0
290
     0
  0
SCALE
  5
4C
102
{ACAD_REACTORS
330
47
102
}
330
47
100
AcDbScale
 70
     0
300
1:8
140
1.0
141
8.0
290
     0
  0
SCALE
  5
4D
102
{ACAD_REACTORS
330
47
102
}
330
47
100
AcDbScale
 70
     0
300
1:10
140
1.0
141
10.0
290
     0
  0
SCALE
  5
4E
102
{ACAD_REACTORS
330
47
102
}
330
47
100
AcDbScale
 70
     0
300
1:16
140
1.0
141
16.0
290
     0
  0
SCALE
  5
4F
102
{ACAD_REACTORS
330
47
102
}
330
47
100
AcDbScale
 70
     0
300
1:20
140
1.0
141
20.0
290
     0
  0
SCALE
  5
50
102
{ACAD_REACTORS
330
47
102
}
330
47
100
AcDbScale
 70
     0
300
1:30
140
1.0
141
30.0
290
     0
  0
SCALE
  5
51
102
{ACAD_REACTORS
330
47
102
}
330
47
100
AcDbScale
 70
     0
300
1:40
140
1.0
141
40.0
290
     0
  0
SCALE
  5
52
102
{ACAD_REACTORS
330
47
102
}
330
47
100
AcDbScale
 70
     0
300
1:50
140
1.0
141
50.0
290
     0
  0
SCALE
  5
53
102
{ACAD_REACTORS
330
47
102
}
330
47
100
AcDbScale
 70
     0
300
1:100
140
1.0
141
100.0
290
     0
  0
SCALE
  5
54
102
{ACAD_REACTORS
330
47
102
}
330
47
100
AcDbScale
 70
     0
300
2:1
140
2.0
141
1.0
290
     0
  0
SCALE
  5
55
102
{ACAD_REACTORS
330
47
102
}
330
47
100
AcDbScale
 70
     0
300
4:1
140
4.0
141
1.0
290
     0
  0
SCALE
  5
56
102
{ACAD_REACTORS
330
47
102
}
330
47
100
AcDbScale
 70
     0
300
8:1
140
8.0
141
1.0
290
     0
  0
SCALE
  5
57
102
{ACAD_REACTORS
330
47
102
}
330
47
100
AcDbScale
 70
     0
300
10:1
140
10.0
141
1.0
290
     0
  0
SCALE
  5
58
102
{ACAD_REACTORS
330
47
102
}
330
47
100
AcDbScale
 70
     0
300
100:1
140
100.0
141
1.0
290
     0
  0
SCALE
  5
59
102
{ACAD_REACTORS
330
47
102
}
330
47
100
AcDbScale
 70
     0
300
1/128" = 1'-0"
140
0.0078125
141
12.0
290
     0
  0
SCALE
  5
5A
102
{ACAD_REACTORS
330
47
102
}
330
47
100
AcDbScale
 70
     0
300
1/64" = 1'-0"
140
0.015625
141
12.0
290
     0
  0
SCALE
  5
5B
102
{ACAD_REACTORS
330
47
102
}
330
47
100
AcDbScale
 70
     0
300
1/32" = 1'-0"
140
0.03125
141
12.0
290
     0
  0
SCALE
  5
5C
102
{ACAD_REACTORS
330
47
102
}
330
47
100
AcDbScale
 70
     0
300
1/16" = 1'-0"
140
0.0625
141
12.0
290
     0
  0
SCALE
  5
5D
102
{ACAD_REACTORS
330
47
102
}
330
47
100
AcDbScale
 70
     0
300
3/32" = 1'-0"
140
0.09375
141
12.0
290
     0
  0
SCALE
  5
5E
102
{ACAD_REACTORS
330
47
102
}
330
47
100
AcDbScale
 70
     0
300
1/8" = 1'-0"
140
0.125
141
12.0
290
     0
  0
SCALE
  5
5F
102
{ACAD_REACTORS
330
47
102
}
330
47
100
AcDbScale
 70
     0
300
3/16" = 1'-0"
140
0.1875
141
12.0
290
     0
  0
SCALE
  5
60
102
{ACAD_REACTORS
330
47
102
}
330
47
100
AcDbScale
 70
     0
300
1/4" = 1'-0"
140
0.25
141
12.0
290
     0
  0
SCALE
  5
61
102
{ACAD_REACTORS
330
47
102
}
330
47
100
AcDbScale
 70
     0
300
3/8" = 1'-0"
140
0.375
141
12.0
290
     0
  0
SCALE
  5
62
102
{ACAD_REACTORS
330
47
102
}
330
47
100
AcDbScale
 70
     0
300
1/2" = 1'-0"
140
0.5
141
12.0
290
     0
  0
SCALE
  5
63
102
{ACAD_REACTORS
330
47
102
}
330
47
100
AcDbScale
 70
     0
300
3/4" = 1'-0"
140
0.75
141
12.0
290
     0
  0
SCALE
  5
64
102
{ACAD_REACTORS
330
47
102
}
330
47
100
AcDbScale
 70
     0
300
1" = 1'-0"
140
1.0
141
12.0
290
     0
  0
SCALE
  5
65
102
{ACAD_REACTORS
330
47
102
}
330
47
100
AcDbScale
 70
     0
300
1-1/2" = 1'-0"
140
1.5
141
12.0
290
     0
  0
SCALE
  5
66
102
{ACAD_REACTORS
330
47
102
}
330
47
100
AcDbScale
 70
     0
300
3" = 1'-0"
140
3.0
141
12.0
290
     0
  0
SCALE
  5
67
102
{ACAD_REACTORS
330
47
102
}
330
47
100
AcDbScale
 70
     0
300
6" = 1'-0"
140
6.0
141
12.0
290
     0
  0
SCALE
  5
68
102
{ACAD_REACTORS
330
47
102
}
330
47
100
AcDbScale
 70
     0
300
1'-0" = 1'-0"
140
12.0
141
12.0
290
     0
  0
ENDSEC
  0
EOF
