  0
SECTION
  2
HEADER
  9
$ACADVER
  1
AC1015
  9
$ACADMAINTVER
 70
     6
  9
$DWGCODEPAGE
  3
ANSI_1252
  9
$INSBASE
 10
0.0
 20
0.0
 30
0.0
  9
$EXTMIN
 10
0.0
 20
0.0
 30
0.0
  9
$EXTMAX
 10
534.6
 20
378.0
 30
0.0
  9
$LIMMIN
 10
0.0
 20
0.0
  9
$LIMMAX
 10
534.6
 20
378.0
  9
$ORTHOMODE
 70
     0
  9
$REGENMODE
 70
     1
  9
$FILLMODE
 70
     1
  9
$QTEXTMODE
 70
     0
  9
$MIRRTEXT
 70
     1
  9
$LTSCALE
 40
1.8
  9
$ATTMODE
 70
     1
  9
$TEXTSIZE
 40
6.985
  9
$TRACEWID
 40
1.0
  9
$TEXTSTYLE
  7
Standard
  9
$CLAYER
  8
0
  9
$CELTYPE
  6
ByLayer
  9
$CECOLOR
 62
   256
  9
$CELTSCALE
 40
1.0
  9
$DISPSILH
 70
     0
  9
$DIMSCALE
 40
1.0
  9
$DIMASZ
 40
5.9436
  9
$DIMEXO
 40
1.8
  9
$DIMDLI
 40
3.75
  9
$DIMRND
 40
0.0
  9
$DIMDLE
 40
0.0
  9
$DIMEXE
 40
1.8
  9
$DIMTP
 40
0.0
  9
$DIMTM
 40
0.0
  9
$DIMTXT
 40
6.985
  9
$DIMCEN
 40
2.5
  9
$DIMTSZ
 40
0.0
  9
$DIMTOL
 70
     0
  9
$DIMLIM
 70
     0
  9
$DIMTIH
 70
     1
  9
$DIMTOH
 70
     1
  9
$DIMSE1
 70
     0
  9
$DIMSE2
 70
     0
  9
$DIMTAD
 70
     1
  9
$DIMZIN
 70
     0
  9
$DIMBLK
  1

  9
$DIMASO
 70
     1
  9
$DIMSHO
 70
     1
  9
$DIMPOST
  1

  9
$DIMAPOST
  1

  9
$DIMALT
 70
     0
  9
$DIMALTD
 70
     3
  9
$DIMALTF
 40
0.0393700787
  9
$DIMLFAC
 40
1.0
  9
$DIMTOFL
 70
     1
  9
$DIMTVP
 40
0.0
  9
$DIMTIX
 70
     0
  9
$DIMSOXD
 70
     0
  9
$DIMSAH
 70
     0
  9
$DIMBLK1
  1

  9
$DIMBLK2
  1

  9
$DIMSTYLE
  2
ISO-25
  9
$DIMCLRD
 70
     0
  9
$DIMCLRE
 70
     0
  9
$DIMCLRT
 70
     0
  9
$DIMTFAC
 40
1.0
  9
$DIMGAP
 40
2.7432
  9
$DIMJUST
 70
     0
  9
$DIMSD1
 70
     0
  9
$DIMSD2
 70
     0
  9
$DIMTOLJ
 70
     0
  9
$DIMTZIN
 70
     0
  9
$DIMALTZ
 70
     0
  9
$DIMALTTZ
 70
     0
  9
$DIMUPT
 70
     0
  9
$DIMDEC
 70
     2
  9
$DIMTDEC
 70
     2
  9
$DIMALTU
 70
     2
  9
$DIMALTTD
 70
     3
  9
$DIMTXSTY
  7
Standard
  9
$DIMAUNIT
 70
     0
  9
$DIMADEC
 70
     2
  9
$DIMALTRND
 40
0.0
  9
$DIMAZIN
 70
     0
  9
$DIMDSEP
 70
    44
  9
$DIMATFIT
 70
     3
  9
$DIMFRAC
 70
     0
  9
$DIMLDRBLK
  1

  9
$DIMLUNIT
 70
     2
  9
$DIMLWD
 70
    -2
  9
$DIMLWE
 70
    -2
  9
$DIMTMOVE
 70
     0
  9
$LUNITS
 70
     2
  9
$LUPREC
 70
     2
  9
$SKETCHINC
 40
1.0
  9
$FILLETRAD
 40
10.0
  9
$AUNITS
 70
     1
  9
$AUPREC
 70
     2
  9
$MENU
  1
.
  9
$ELEVATION
 40
0.0
  9
$PELEVATION
 40
0.0
  9
$THICKNESS
 40
0.0
  9
$LIMCHECK
 70
     0
  9
$CHAMFERA
 40
0.0
  9
$CHAMFERB
 40
0.0
  9
$CHAMFERC
 40
0.0
  9
$CHAMFERD
 40
0.0
  9
$SKPOLY
 70
     0
  9
$TDCREATE
 40
2458600.653978762
  9
$TDUCREATE
 40
2458600.424812095
  9
$TDUPDATE
 40
2458600.653979803
  9
$TDUUPDATE
 40
2458600.424813136
  9
$TDINDWG
 40
0.0000000116
  9
$TDUSRTIMER
 40
0.0000000116
  9
$USRTIMER
 70
     1
  9
$ANGBASE
 50
0.0
  9
$ANGDIR
 70
     0
  9
$PDMODE
 70
     0
  9
$PDSIZE
 40
-1.0
  9
$PLINEWID
 40
0.0
  9
$SPLFRAME
 70
     0
  9
$SPLINETYPE
 70
     6
  9
$SPLINESEGS
 70
     8
  9
$HANDSEED
  5
19C
  9
$SURFTAB1
 70
     6
  9
$SURFTAB2
 70
     6
  9
$SURFTYPE
 70
     6
  9
$SURFU
 70
     6
  9
$SURFV
 70
     6
  9
$UCSBASE
  2

  9
$UCSNAME
  2

  9
$UCSORG
 10
0.0
 20
0.0
 30
0.0
  9
$UCSXDIR
 10
1.0
 20
0.0
 30
0.0
  9
$UCSYDIR
 10
0.0
 20
1.0
 30
0.0
  9
$UCSORTHOREF
  2

  9
$UCSORTHOVIEW
 70
     0
  9
$UCSORGTOP
 10
0.0
 20
0.0
 30
0.0
  9
$UCSORGBOTTOM
 10
0.0
 20
0.0
 30
0.0
  9
$UCSORGLEFT
 10
0.0
 20
0.0
 30
0.0
  9
$UCSORGRIGHT
 10
0.0
 20
0.0
 30
0.0
  9
$UCSORGFRONT
 10
0.0
 20
0.0
 30
0.0
  9
$UCSORGBACK
 10
0.0
 20
0.0
 30
0.0
  9
$PUCSBASE
  2

  9
$PUCSNAME
  2

  9
$PUCSORG
 10
0.0
 20
0.0
 30
0.0
  9
$PUCSXDIR
 10
1.0
 20
0.0
 30
0.0
  9
$PUCSYDIR
 10
0.0
 20
1.0
 30
0.0
  9
$PUCSORTHOREF
  2

  9
$PUCSORTHOVIEW
 70
     0
  9
$PUCSORGTOP
 10
0.0
 20
0.0
 30
0.0
  9
$PUCSORGBOTTOM
 10
0.0
 20
0.0
 30
0.0
  9
$PUCSORGLEFT
 10
0.0
 20
0.0
 30
0.0
  9
$PUCSORGRIGHT
 10
0.0
 20
0.0
 30
0.0
  9
$PUCSORGFRONT
 10
0.0
 20
0.0
 30
0.0
  9
$PUCSORGBACK
 10
0.0
 20
0.0
 30
0.0
  9
$USERI1
 70
     0
  9
$USERI2
 70
     0
  9
$USERI3
 70
     0
  9
$USERI4
 70
     0
  9
$USERI5
 70
     0
  9
$USERR1
 40
0.0
  9
$USERR2
 40
0.0
  9
$USERR3
 40
0.0
  9
$USERR4
 40
0.0
  9
$USERR5
 40
0.0
  9
$WORLDVIEW
 70
     1
  9
$SHADEDGE
 70
     3
  9
$SHADEDIF
 70
    70
  9
$TILEMODE
 70
     1
  9
$MAXACTVP
 70
    64
  9
$PINSBASE
 10
0.0
 20
0.0
 30
0.0
  9
$PLIMCHECK
 70
     0
  9
$PEXTMIN
 10
1.0000000000E+20
 20
1.0000000000E+20
 30
1.0000000000E+20
  9
$PEXTMAX
 10
-1.0000000000E+20
 20
-1.0000000000E+20
 30
-1.0000000000E+20
  9
$PLIMMIN
 10
0.0
 20
0.0
  9
$PLIMMAX
 10
420.0
 20
297.0
  9
$UNITMODE
 70
     0
  9
$VISRETAIN
 70
     1
  9
$PLINEGEN
 70
     0
  9
$PSLTSCALE
 70
     1
  9
$TREEDEPTH
 70
  3020
  9
$CMLSTYLE
  2
Standard
  9
$CMLJUST
 70
     0
  9
$CMLSCALE
 40
20.0
  9
$PROXYGRAPHICS
 70
     1
  9
$MEASUREMENT
 70
     1
  9
$CELWEIGHT
370
    -1
  9
$ENDCAPS
280
     0
  9
$JOINSTYLE
280
     0
  9
$LWDISPLAY
290
     1
  9
$INSUNITS
 70
     4
  9
$HYPERLINKBASE
  1

  9
$STYLESHEET
  1

  9
$XEDIT
290
     1
  9
$CEPSNTYPE
380
     0
  9
$PSTYLEMODE
290
     1
  9
$FINGERPRINTGUID
  2
{04422D4B-C317-4C0B-B10B-E66D6B158EDA}
  9
$VERSIONGUID
  2
{FAEB1C32-E019-11D5-929B-00C0DF256EC4}
  9
$EXTNAMES
290
     1
  9
$PSVPSCALE
 40
0.0
  9
$OLESTARTUP
290
     0
  0
ENDSEC
  0
SECTION
  2
CLASSES
  0
CLASS
  1
ACDBDICTIONARYWDFLT
  2
AcDbDictionaryWithDefault
  3
ObjectDBX Classes
 90
        0
280
     0
281
     0
  0
CLASS
  1
VISUALSTYLE
  2
AcDbVisualStyle
  3
ObjectDBX Classes
 90
     4095
280
     0
281
     0
  0
CLASS
  1
MATERIAL
  2
AcDbMaterial
  3
ObjectDBX Classes
 90
     1153
280
     0
281
     0
  0
CLASS
  1
SCALE
  2
AcDbScale
  3
ObjectDBX Classes
 90
     1153
280
     0
281
     0
  0
CLASS
  1
SUN
  2
AcDbSun
  3
SCENEOE
 90
     1153
280
     0
281
     0
  0
CLASS
  1
ACDBPLACEHOLDER
  2
AcDbPlaceHolder
  3
ObjectDBX Classes
 90
        0
280
     0
281
     0
  0
CLASS
  1
LAYOUT
  2
AcDbLayout
  3
ObjectDBX Classes
 90
        0
280
     0
281
     0
  0
ENDSEC
  0
SECTION
  2
TABLES
  0
TABLE
  2
VPORT
  5
8
330
0
100
AcDbSymbolTable
 70
     1
  0
VPORT
  5
29
330
8
100
AcDbSymbolTableRecord
100
AcDbViewportTableRecord
  2
*Active
 70
     0
 10
0.0
 20
0.0
 11
1.0
 21
1.0
 12
267.3
 22
189.0
 13
0.0
 23
0.0
 14
10.0
 24
10.0
 15
10.0
 25
10.0
 16
0.0
 26
0.0
 36
1.0
 17
0.0
 27
0.0
 37
0.0
 40
378.0
 41
1.4142857143
 42
50.0
 43
0.0
 44
0.0
 50
0.0
 51
0.0
 71
     0
 72
  2000
 73
     1
 74
     3
 75
     0
 76
     0
 77
     0
 78
     0
281
     0
 65
     1
110
0.0
120
0.0
130
0.0
111
1.0
121
0.0
131
0.0
112
0.0
122
1.0
132
0.0
 79
     0
146
0.0
  0
ENDTAB
  0
TABLE
  2
LTYPE
  5
5
330
0
100
AcDbSymbolTable
 70
     6
  0
LTYPE
  5
14
330
5
100
AcDbSymbolTableRecord
100
AcDbLinetypeTableRecord
  2
ByBlock
 70
     0
  3

 72
    65
 73
     0
 40
0.0
  0
LTYPE
  5
15
330
5
100
AcDbSymbolTableRecord
100
AcDbLinetypeTableRecord
  2
ByLayer
 70
     0
  3

 72
    65
 73
     0
 40
0.0
  0
LTYPE
  5
16
330
5
100
AcDbSymbolTableRecord
100
AcDbLinetypeTableRecord
  2
Continuous
 70
     0
  3
Solid line
 72
    65
 73
     0
 40
0.0
  0
LTYPE
  5
6A
330
5
100
AcDbSymbolTableRecord
100
AcDbLinetypeTableRecord
  2
HIDDEN
 70
     0
  3
Hidden __ __ __ __ __ __ __ __ __ __ __ __ __ __
 72
    65
 73
     2
 40
1.905
 49
1.27
 74
     0
 49
-0.635
 74
     0
  0
LTYPE
  5
6B
330
5
100
AcDbSymbolTableRecord
100
AcDbLinetypeTableRecord
  2
PHANTOM
 70
     0
  3
Phantom ______  __  __  ______  __  __  ______
 72
    65
 73
     6
 40
12.7
 49
6.35
 74
     0
 49
-1.27
 74
     0
 49
1.27
 74
     0
 49
-1.27
 74
     0
 49
1.27
 74
     0
 49
-1.27
 74
     0
  0
LTYPE
  5
6C
330
5
100
AcDbSymbolTableRecord
100
AcDbLinetypeTableRecord
  2
CENTER
 70
     0
  3
Center ____ _ ____ _ ____ _ ____ _ ____ _ ____
 72
    65
 73
     4
 40
10.16
 49
6.35
 74
     0
 49
-1.27
 74
     0
 49
1.27
 74
     0
 49
-1.27
 74
     0
  0
LTYPE
  5
6D
330
5
100
AcDbSymbolTableRecord
100
AcDbLinetypeTableRecord
  2
CENTERX2
 70
     0
  3
Center (2x) ________  __  ________  __  _____
 72
    65
 73
     4
 40
20.32
 49
12.7
 74
     0
 49
-2.54
 74
     0
 49
2.54
 74
     0
 49
-2.54
 74
     0
  0
LTYPE
  5
6E
330
5
100
AcDbSymbolTableRecord
100
AcDbLinetypeTableRecord
  2
DOT2
 70
     0
  3
Dot (.5x) ........................................
 72
    65
 73
     2
 40
0.635
 49
0.0
 74
     0
 49
-0.635
 74
     0
  0
ENDTAB
  0
TABLE
  2
LAYER
  5
2
330
0
100
AcDbSymbolTable
 70
     8
  0
LAYER
  5
10
330
2
100
AcDbSymbolTableRecord
100
AcDbLayerTableRecord
  2
0
 70
     0
 62
     7
  6
Continuous
370
    -3
390
F
  0
LAYER
  5
6F
330
2
100
AcDbSymbolTableRecord
100
AcDbLayerTableRecord
  2
FORMAT
 70
     0
 62
     7
  6
Continuous
370
    -3
390
F
  0
LAYER
  5
70
330
2
100
AcDbSymbolTableRecord
100
AcDbLayerTableRecord
  2
SLD-0
 70
     0
 62
     2
  6
Continuous
370
    -3
390
F
  0
LAYER
  5
71
330
2
100
AcDbSymbolTableRecord
100
AcDbLayerTableRecord
  2
DIM
 70
     0
 62
   179
  6
Continuous
370
    -3
390
F
  0
LAYER
  5
72
330
2
100
AcDbSymbolTableRecord
100
AcDbLayerTableRecord
  2
SLD-DEFPOINTS
 70
     0
 62
   179
  6
Continuous
370
    -3
390
F
  0
LAYER
  5
73
330
2
100
AcDbSymbolTableRecord
100
AcDbLayerTableRecord
  2
HAT
 70
     0
 62
   135
  6
Continuous
370
    -3
390
F
  0
LAYER
  5
74
330
2
100
AcDbSymbolTableRecord
100
AcDbLayerTableRecord
  2
JOB
 70
     0
 62
   201
  6
Continuous
370
    -3
390
F
  0
LAYER
  5
75
330
2
100
AcDbSymbolTableRecord
100
AcDbLayerTableRecord
  2
INSPECTION_REPORT
 70
     0
 62
   255
  6
Continuous
370
    -3
390
F
  0
ENDTAB
  0
TABLE
  2
STYLE
  5
3
330
0
100
AcDbSymbolTable
 70
     4
  0
STYLE
  5
11
330
3
100
AcDbSymbolTableRecord
100
AcDbTextStyleTableRecord
  2
Standard
 70
     0
 40
0.0
 41
1.0
 50
0.0
 71
     0
 42
6.985
  3
txt
  4

  0
STYLE
  5
96
330
3
100
AcDbSymbolTableRecord
100
AcDbTextStyleTableRecord
  2
SLDTEXTSTYLE0
 70
     0
 40
0.0
 41
0.7
 50
0.0
 71
     0
 42
6.985
  3
TXT
  4

  0
STYLE
  5
98
330
3
100
AcDbSymbolTableRecord
100
AcDbTextStyleTableRecord
  2
SLDTEXTSTYLE1
 70
     0
 40
0.0
 41
0.75
 50
0.0
 71
     0
 42
6.985
  3
TXT
  4

  0
STYLE
  5
AB
330
3
100
AcDbSymbolTableRecord
100
AcDbTextStyleTableRecord
  2
SLDTEXTSTYLE2
 70
     0
 40
0.0
 41
0.6875
 50
0.0
 71
     0
 42
6.985
  3
TXT
  4

  0
ENDTAB
  0
TABLE
  2
VIEW
  5
6
330
0
100
AcDbSymbolTable
 70
     0
  0
ENDTAB
  0
TABLE
  2
UCS
  5
7
330
0
100
AcDbSymbolTable
 70
     0
  0
ENDTAB
  0
TABLE
  2
APPID
  5
9
330
0
100
AcDbSymbolTable
 70
     1
  0
APPID
  5
12
330
9
100
AcDbSymbolTableRecord
100
AcDbRegAppTableRecord
  2
ACAD
 70
     0
  0
ENDTAB
  0
TABLE
  2
DIMSTYLE
  5
A
330
0
100
AcDbSymbolTable
 70
     3
100
AcDbDimStyleTable
  0
DIMSTYLE
105
27
330
A
100
AcDbSymbolTableRecord
100
AcDbDimStyleTableRecord
  2
ISO-25
 70
     0
 41
2.5
 42
0.625
 43
3.75
 44
1.25
 73
     0
 74
     0
 77
     1
 78
     8
140
2.5
141
2.5
143
0.0393700787
147
0.625
171
     3
172
     1
178
     0
271
     2
272
     2
274
     3
278
    44
283
     0
284
     8
340
11
  0
DIMSTYLE
105
165
102
{ACAD_REACTORS
330
164
330
170
330
17A
330
190
102
}
330
A
100
AcDbSymbolTableRecord
100
AcDbDimStyleTableRecord
  2
SLDDIMSTYLE0
 70
     0
 41
5.9436
 44
0.0
 45
0.000000001
 73
     0
 74
     0
 77
     1
 78
    12
 79
     3
140
5.23875
144
1.0
147
1.3096875
173
     1
178
     0
271
     2
272
     2
276
     2
284
    12
340
96
  0
DIMSTYLE
105
185
102
{ACAD_REACTORS
330
184
102
}
330
A
100
AcDbSymbolTableRecord
100
AcDbDimStyleTableRecord
  2
SLDDIMSTYLE1
 70
     0
 41
5.9436
 44
0.0
 45
0.000000001
 73
     0
 74
     0
 77
     1
 78
     4
 79
     1
140
5.23875
144
1.0
147
1.3096875
173
     1
178
     0
271
     2
272
     2
276
     2
284
    12
340
96
  0
ENDTAB
  0
TABLE
  2
BLOCK_RECORD
  5
1
330
0
100
AcDbSymbolTable
 70
     7
  0
BLOCK_RECORD
  5
1F
330
1
100
AcDbSymbolTableRecord
100
AcDbBlockTableRecord
  2
*Model_Space
340
22
  0
BLOCK_RECORD
  5
1B
330
1
100
AcDbSymbolTableRecord
100
AcDbBlockTableRecord
  2
*Paper_Space
340
1E
  0
BLOCK_RECORD
  5
23
330
1
100
AcDbSymbolTableRecord
100
AcDbBlockTableRecord
  2
*Paper_Space0
340
26
  0
BLOCK_RECORD
  5
E7
330
1
100
AcDbSymbolTableRecord
100
AcDbBlockTableRecord
  2
SW_CENTERMARKSYMBOL_0
340
0
102
{BLKREFS
331
F2
102
}
  0
BLOCK_RECORD
  5
166
330
1
100
AcDbSymbolTableRecord
100
AcDbBlockTableRecord
  2
_D
340
0
  0
BLOCK_RECORD
  5
171
330
1
100
AcDbSymbolTableRecord
100
AcDbBlockTableRecord
  2
_D_1
340
0
  0
BLOCK_RECORD
  5
17B
330
1
100
AcDbSymbolTableRecord
100
AcDbBlockTableRecord
  2
_D_2
340
0
  0
BLOCK_RECORD
  5
186
330
1
100
AcDbSymbolTableRecord
100
AcDbBlockTableRecord
  2
_D_3
340
0
  0
BLOCK_RECORD
  5
191
330
1
100
AcDbSymbolTableRecord
100
AcDbBlockTableRecord
  2
_D_4
340
0
  0
ENDTAB
  0
ENDSEC
  0
SECTION
  2
BLOCKS
  0
BLOCK
  5
20
330
1F
100
AcDbEntity
  8
0
100
AcDbBlockBegin
  2
*Model_Space
 70
     0
 10
0.0
 20
0.0
 30
0.0
  3
*Model_Space
  1
*Model_Space
  0
ENDBLK
  5
21
330
1F
100
AcDbEntity
  8
0
100
AcDbBlockEnd
  0
BLOCK
  5
1C
330
1B
100
AcDbEntity
 67
     1
  8
0
100
AcDbBlockBegin
  2
*Paper_Space
 70
     0
 10
0.0
 20
0.0
 30
0.0
  3
*Paper_Space
  1
*Paper_Space
  0
ENDBLK
  5
1D
330
1B
100
AcDbEntity
 67
     1
  8
0
100
AcDbBlockEnd
  0
BLOCK
  5
24
330
23
100
AcDbEntity
  8
0
100
AcDbBlockBegin
  2
*Paper_Space0
 70
     0
 10
0.0
 20
0.0
 30
0.0
  3
*Paper_Space0
  1
*Paper_Space0
  0
ENDBLK
  5
25
330
23
100
AcDbEntity
  8
0
100
AcDbBlockEnd
  0
BLOCK
  5
E8
330
E7
100
AcDbEntity
  8
0
100
AcDbBlockBegin
  2
SW_CENTERMARKSYMBOL_0
 70
     0
 10
0.0
 20
0.0
 30
0.0
  3
SW_CENTERMARKSYMBOL_0
  1
SW_CENTERMARKSYMBOL_0
  0
LINE
  5
EA
330
E7
100
AcDbEntity
  8
DIM
 62
     0
100
AcDbLine
 10
0.0
 20
0.0
 30
0.0
 11
0.0
 21
2.5
 31
0.0
  0
LINE
  5
EB
330
E7
100
AcDbEntity
  8
DIM
 62
     0
100
AcDbLine
 10
0.0
 20
0.0
 30
0.0
 11
-2.5
 21
0.0
 31
0.0
  0
LINE
  5
EC
330
E7
100
AcDbEntity
  8
DIM
 62
     0
100
AcDbLine
 10
0.0
 20
0.0
 30
0.0
 11
0.0
 21
-2.5
 31
0.0
  0
LINE
  5
ED
330
E7
100
AcDbEntity
  8
DIM
 62
     0
100
AcDbLine
 10
0.0
 20
0.0
 30
0.0
 11
2.5
 21
0.0
 31
0.0
  0
LINE
  5
EE
330
E7
100
AcDbEntity
  8
DIM
 62
     0
100
AcDbLine
 10
0.0
 20
5.0
 30
0.0
 11
0.0
 21
50.3671572875
 31
0.0
  0
LINE
  5
EF
330
E7
100
AcDbEntity
  8
DIM
 62
     0
100
AcDbLine
 10
-5.0
 20
0.0
 30
0.0
 11
-50.3671572875
 21
0.0
 31
0.0
  0
LINE
  5
F0
330
E7
100
AcDbEntity
  8
DIM
 62
     0
100
AcDbLine
 10
0.0
 20
-5.0
 30
0.0
 11
0.0
 21
-50.3671572875
 31
0.0
  0
LINE
  5
F1
330
E7
100
AcDbEntity
  8
DIM
 62
     0
100
AcDbLine
 10
5.0
 20
0.0
 30
0.0
 11
50.3671572875
 21
0.0
 31
0.0
  0
ENDBLK
  5
E9
330
E7
100
AcDbEntity
  8
0
100
AcDbBlockEnd
  0
BLOCK
  5
167
330
166
100
AcDbEntity
  8
0
100
AcDbBlockBegin
  2
_D
 70
     0
 10
0.0
 20
0.0
 30
0.0
  3
_D
  1
_D
  0
SOLID
  5
169
330
166
100
AcDbEntity
  8
DIM
100
AcDbTrace
 10
485.31759304
 20
219.7785297763
 30
0.0
 11
484.40319304
 21
213.8349297763
 31
0.0
 12
486.23199304
 22
213.8349297763
 32
0.0
 13
486.23199304
 23
213.8349297763
 33
0.0
  0
SOLID
  5
16A
330
166
100
AcDbEntity
  8
DIM
100
AcDbTrace
 10
485.31759304
 20
169.7785297763
 30
0.0
 11
486.23199304
 21
175.7221297763
 31
0.0
 12
484.40319304
 22
175.7221297763
 32
0.0
 13
484.40319304
 23
175.7221297763
 33
0.0
  0
LINE
  5
16B
330
166
100
AcDbEntity
  8
DIM
100
AcDbLine
 10
462.3097019284
 20
219.7785297763
 30
0.0
 11
487.11759304
 21
219.7785297763
 31
0.0
  0
LINE
  5
16C
330
166
100
AcDbEntity
  8
DIM
100
AcDbLine
 10
462.3097019284
 20
169.7785297763
 30
0.0
 11
487.11759304
 21
169.7785297763
 31
0.0
  0
LINE
  5
16D
330
166
100
AcDbEntity
  8
DIM
100
AcDbLine
 10
485.31759304
 20
219.7785297763
 30
0.0
 11
485.31759304
 21
169.7785297763
 31
0.0
  0
MTEXT
  5
16E
330
166
100
AcDbEntity
  8
DIM
100
AcDbMText
 10
478.5644889992
 20
187.1869503875
 30
0.0
 40
5.23875
 41
0.0
 71
     1
 72
     1
  1
%%c
  7
SLDTEXTSTYLE0
 11
-7.044195017643634E-15
 21
1.0
 31
0.0
 73
     1
 44
1.0
  0
MTEXT
  5
16F
330
166
100
AcDbEntity
  8
DIM
100
AcDbMText
 10
478.5644889992
 20
195.2880950068
 30
0.0
 40
5.23875
 41
0.0
 71
     1
 72
     1
  1
50
  7
SLDTEXTSTYLE0
 11
-7.044195017643634E-15
 21
1.0
 31
0.0
 73
     1
 44
1.0
  0
ENDBLK
  5
168
330
166
100
AcDbEntity
  8
0
100
AcDbBlockEnd
  0
BLOCK
  5
172
330
171
100
AcDbEntity
  8
0
100
AcDbBlockBegin
  2
_D_1
 70
     0
 10
0.0
 20
0.0
 30
0.0
  3
_D_1
  1
_D_1
  0
SOLID
  5
174
330
171
100
AcDbEntity
  8
DIM
100
AcDbTrace
 10
463.3964532744
 20
117.2285297763
 30
0.0
 11
457.4528532744
 21
118.1429297763
 31
0.0
 12
457.4528532744
 22
116.3141297763
 32
0.0
 13
457.4528532744
 23
116.3141297763
 33
0.0
  0
SOLID
  5
175
330
171
100
AcDbEntity
  8
DIM
100
AcDbTrace
 10
201.6464532744
 20
117.2285297763
 30
0.0
 11
207.5900532744
 21
116.3141297763
 31
0.0
 12
207.5900532744
 22
118.1429297763
 32
0.0
 13
207.5900532744
 23
118.1429297763
 33
0.0
  0
LINE
  5
176
330
171
100
AcDbEntity
  8
DIM
100
AcDbLine
 10
463.3964532744
 20
172.9785297763
 30
0.0
 11
463.3964532744
 21
115.4285297763
 31
0.0
  0
LINE
  5
177
330
171
100
AcDbEntity
  8
DIM
100
AcDbLine
 10
201.6464532744
 20
192.9785297763
 30
0.0
 11
201.6464532744
 21
115.4285297763
 31
0.0
  0
LINE
  5
178
330
171
100
AcDbEntity
  8
DIM
100
AcDbLine
 10
463.3964532744
 20
117.2285297763
 30
0.0
 11
201.6464532744
 21
117.2285297763
 31
0.0
  0
MTEXT
  5
179
330
171
100
AcDbEntity
  8
DIM
100
AcDbMText
 10
322.7376021985
 20
123.9816338172
 30
0.0
 40
5.23875
 41
0.0
 71
     1
 72
     1
  1
261.75
  7
SLDTEXTSTYLE0
 73
     1
 44
1.0
  0
ENDBLK
  5
173
330
171
100
AcDbEntity
  8
0
100
AcDbBlockEnd
  0
BLOCK
  5
17C
330
17B
100
AcDbEntity
  8
0
100
AcDbBlockBegin
  2
_D_2
 70
     0
 10
0.0
 20
0.0
 30
0.0
  3
_D_2
  1
_D_2
  0
SOLID
  5
17E
330
17B
100
AcDbEntity
  8
DIM
100
AcDbTrace
 10
303.3964532744
 20
129.6532911109
 30
0.0
 11
309.3400532744
 21
128.7388911109
 31
0.0
 12
309.3400532744
 22
130.5676911109
 32
0.0
 13
309.3400532744
 23
130.5676911109
 33
0.0
  0
SOLID
  5
17F
330
17B
100
AcDbEntity
  8
DIM
100
AcDbTrace
 10
463.3964532744
 20
129.6532911109
 30
0.0
 11
457.4528532744
 21
130.5676911109
 31
0.0
 12
457.4528532744
 22
128.7388911109
 32
0.0
 13
457.4528532744
 23
128.7388911109
 33
0.0
  0
LINE
  5
180
330
17B
100
AcDbEntity
  8
DIM
100
AcDbLine
 10
303.3964532744
 20
158.0535297763
 30
0.0
 11
303.3964532744
 21
127.8532911109
 31
0.0
  0
LINE
  5
181
330
17B
100
AcDbEntity
  8
DIM
100
AcDbLine
 10
463.3964532744
 20
172.9785297763
 30
0.0
 11
463.3964532744
 21
127.8532911109
 31
0.0
  0
LINE
  5
182
330
17B
100
AcDbEntity
  8
DIM
100
AcDbLine
 10
303.3964532744
 20
129.6532911109
 30
0.0
 11
463.3964532744
 21
129.6532911109
 31
0.0
  0
MTEXT
  5
183
330
17B
100
AcDbEntity
  8
DIM
100
AcDbMText
 10
378.0849426556
 20
136.4063951517
 30
0.0
 40
5.23875
 41
0.0
 71
     1
 72
     1
  1
160
  7
SLDTEXTSTYLE0
 73
     1
 44
1.0
  0
ENDBLK
  5
17D
330
17B
100
AcDbEntity
  8
0
100
AcDbBlockEnd
  0
BLOCK
  5
187
330
186
100
AcDbEntity
  8
0
100
AcDbBlockBegin
  2
_D_3
 70
     0
 10
0.0
 20
0.0
 30
0.0
  3
_D_3
  1
_D_3
  0
SOLID
  5
189
330
186
100
AcDbEntity
  8
DIM
100
AcDbTrace
 10
195.4133364987
 20
243.5285297763
 30
0.0
 11
194.4989364987
 21
237.5849297763
 31
0.0
 12
196.3277364987
 22
237.5849297763
 32
0.0
 13
196.3277364987
 23
237.5849297763
 33
0.0
  0
SOLID
  5
18A
330
186
100
AcDbEntity
  8
DIM
100
AcDbTrace
 10
195.4133364987
 20
146.0285297763
 30
0.0
 11
196.3277364987
 21
151.9721297763
 31
0.0
 12
194.4989364987
 22
151.9721297763
 32
0.0
 13
194.4989364987
 23
151.9721297763
 33
0.0
  0
LINE
  5
18B
330
186
100
AcDbEntity
  8
DIM
100
AcDbLine
 10
305.9621386993
 20
243.5285297763
 30
0.0
 11
193.6133364987
 21
243.5285297763
 31
0.0
  0
LINE
  5
18C
330
186
100
AcDbEntity
  8
DIM
100
AcDbLine
 10
305.9621386993
 20
146.0285297763
 30
0.0
 11
193.6133364987
 21
146.0285297763
 31
0.0
  0
LINE
  5
18D
330
186
100
AcDbEntity
  8
DIM
100
AcDbLine
 10
195.4133364987
 20
243.5285297763
 30
0.0
 11
195.4133364987
 21
146.0285297763
 31
0.0
  0
MTEXT
  5
18E
330
186
100
AcDbEntity
  8
DIM
100
AcDbMText
 10
188.6602324579
 20
182.7146099304
 30
0.0
 40
5.23875
 41
0.0
 71
     1
 72
     1
  1
%%c
  7
SLDTEXTSTYLE0
 11
-7.044195017643634E-15
 21
1.0
 31
0.0
 73
     1
 44
1.0
  0
MTEXT
  5
18F
330
186
100
AcDbEntity
  8
DIM
100
AcDbMText
 10
188.6602324579
 20
190.8157545497
 30
0.0
 40
5.23875
 41
0.0
 71
     1
 72
     1
  1
97.50
  7
SLDTEXTSTYLE0
 11
-7.044195017643634E-15
 21
1.0
 31
0.0
 73
     1
 44
1.0
  0
ENDBLK
  5
188
330
186
100
AcDbEntity
  8
0
100
AcDbBlockEnd
  0
BLOCK
  5
192
330
191
100
AcDbEntity
  8
0
100
AcDbBlockBegin
  2
_D_4
 70
     0
 10
0.0
 20
0.0
 30
0.0
  3
_D_4
  1
_D_4
  0
SOLID
  5
194
330
191
100
AcDbEntity
  8
DIM
100
AcDbTrace
 10
473.8139633745
 20
217.2785297763
 30
0.0
 11
472.8995633745
 21
211.3349297763
 31
0.0
 12
474.7283633745
 22
211.3349297763
 32
0.0
 13
474.7283633745
 23
211.3349297763
 33
0.0
  0
SOLID
  5
195
330
191
100
AcDbEntity
  8
DIM
100
AcDbTrace
 10
473.8139633745
 20
172.2785297763
 30
0.0
 11
474.7283633745
 21
178.2221297763
 31
0.0
 12
472.8995633745
 22
178.2221297763
 32
0.0
 13
472.8995633745
 23
178.2221297763
 33
0.0
  0
LINE
  5
196
330
191
100
AcDbEntity
  8
DIM
100
AcDbLine
 10
417.0044121695
 20
217.2785297763
 30
0.0
 11
475.6139633745
 21
217.2785297763
 31
0.0
  0
LINE
  5
197
330
191
100
AcDbEntity
  8
DIM
100
AcDbLine
 10
417.0044121695
 20
172.2785297763
 30
0.0
 11
475.6139633745
 21
172.2785297763
 31
0.0
  0
LINE
  5
198
330
191
100
AcDbEntity
  8
DIM
100
AcDbLine
 10
473.8139633745
 20
217.2785297763
 30
0.0
 11
473.8139633745
 21
172.2785297763
 31
0.0
  0
MTEXT
  5
199
330
191
100
AcDbEntity
  8
DIM
100
AcDbMText
 10
467.0608593337
 20
187.1869503875
 30
0.0
 40
5.23875
 41
0.0
 71
     1
 72
     1
  1
%%c
  7
SLDTEXTSTYLE0
 11
-7.044195017643634E-15
 21
1.0
 31
0.0
 73
     1
 44
1.0
  0
MTEXT
  5
19A
330
191
100
AcDbEntity
  8
DIM
100
AcDbMText
 10
467.0608593337
 20
195.2880950068
 30
0.0
 40
5.23875
 41
0.0
 71
     1
 72
     1
  1
45
  7
SLDTEXTSTYLE0
 11
-7.044195017643634E-15
 21
1.0
 31
0.0
 73
     1
 44
1.0
  0
ENDBLK
  5
193
330
191
100
AcDbEntity
  8
0
100
AcDbBlockEnd
  0
ENDSEC
  0
SECTION
  2
ENTITIES
  0
LINE
  5
76
330
1F
100
AcDbEntity
  8
DIM
100
AcDbLine
 10
188.4679644402
 20
17.6237846223
 30
0.0
 11
188.4679644402
 21
8.6237846223
 31
0.0
  0
LINE
  5
77
330
1F
100
AcDbEntity
  8
DIM
100
AcDbLine
 10
458.0452830515
 20
17.6237846223
 30
0.0
 11
458.0452830515
 21
8.6237846223
 31
0.0
  0
LINE
  5
78
330
1F
100
AcDbEntity
  8
DIM
100
AcDbLine
 10
427.4130778768
 20
17.6237846223
 30
0.0
 11
427.4130778768
 21
8.6237846223
 31
0.0
  0
LINE
  5
79
330
1F
100
AcDbEntity
  8
DIM
100
AcDbLine
 10
502.0279644402
 20
8.6237846223
 30
0.0
 11
502.0279644402
 21
17.6237846223
 31
0.0
  0
LINE
  5
7A
330
1F
100
AcDbEntity
  8
DIM
100
AcDbLine
 10
202.5079644402
 20
17.6237846223
 30
0.0
 11
202.5079644402
 21
8.6237846223
 31
0.0
  0
LINE
  5
7B
330
1F
100
AcDbEntity
  8
DIM
100
AcDbLine
 10
237.051678821
 20
17.6237846223
 30
0.0
 11
237.051678821
 21
8.6237846223
 31
0.0
  0
LINE
  5
7C
330
1F
100
AcDbEntity
  8
DIM
100
AcDbLine
 10
525.4279644402
 20
8.6237846223
 30
0.0
 11
525.4279644402
 21
138.6737846223
 31
0.0
  0
LINE
  5
7D
330
1F
100
AcDbEntity
  8
DIM
100
AcDbLine
 10
514.4742084504
 20
108.0737846223
 30
0.0
 11
525.4279644402
 21
108.0737846223
 31
0.0
  0
LINE
  5
7E
330
1F
100
AcDbEntity
  8
DIM
100
AcDbLine
 10
268.3860315346
 20
16.2737846223
 30
0.0
 11
268.3860315346
 21
8.6237846223
 31
0.0
  0
LINE
  5
7F
330
1F
100
AcDbEntity
  8
DIM
100
AcDbLine
 10
354.1751084888
 20
17.6237846223
 30
0.0
 11
354.1751084888
 21
8.6237846223
 31
0.0
  0
LINE
  5
80
330
1F
100
AcDbEntity
  8
DIM
100
AcDbLine
 10
268.3860315346
 20
17.6237846223
 30
0.0
 11
268.3860315346
 21
16.2737846223
 31
0.0
  0
LINE
  5
81
330
1F
100
AcDbEntity
  8
DIM
100
AcDbLine
 10
516.4279644402
 20
31.5736550223
 30
0.0
 11
525.4279644402
 21
31.5736550223
 31
0.0
  0
LINE
  5
82
330
1F
100
AcDbEntity
  8
DIM
100
AcDbLine
 10
516.4279644402
 20
359.6237846223
 30
0.0
 11
17.8279644402
 21
359.6237846223
 31
0.0
  0
LINE
  5
83
330
1F
100
AcDbEntity
  8
DIM
100
AcDbLine
 10
525.4279644402
 20
368.6237846223
 30
0.0
 11
8.8279644402
 21
368.6237846223
 31
0.0
  0
LINE
  5
84
330
1F
100
AcDbEntity
  8
DIM
100
AcDbLine
 10
17.8279644402
 20
359.6237846223
 30
0.0
 11
17.8279644402
 21
17.6237846223
 31
0.0
  0
LINE
  5
85
330
1F
100
AcDbEntity
  8
DIM
100
AcDbLine
 10
8.8279644402
 20
368.6237846223
 30
0.0
 11
8.8279644402
 21
8.6237846223
 31
0.0
  0
LINE
  5
86
330
1F
100
AcDbEntity
  8
DIM
100
AcDbLine
 10
17.8279644402
 20
98.6237846223
 30
0.0
 11
8.8279644402
 21
98.6237846223
 31
0.0
  0
LINE
  5
87
330
1F
100
AcDbEntity
  8
DIM
100
AcDbLine
 10
8.8279644402
 20
188.6237846223
 30
0.0
 11
17.8279644402
 21
188.6237846223
 31
0.0
  0
LINE
  5
88
330
1F
100
AcDbEntity
  8
DIM
100
AcDbLine
 10
8.8279644402
 20
8.6237846223
 30
0.0
 11
525.4279644402
 21
8.6237846223
 31
0.0
  0
LINE
  5
89
330
1F
100
AcDbEntity
  8
DIM
100
AcDbLine
 10
17.8279644402
 20
17.6237846223
 30
0.0
 11
525.4279644402
 21
17.6237846223
 31
0.0
  0
LINE
  5
8A
330
1F
100
AcDbEntity
  8
DIM
100
AcDbLine
 10
87.1279644402
 20
8.6237846223
 30
0.0
 11
87.1279644402
 21
17.6237846223
 31
0.0
  0
LINE
  5
8B
330
1F
100
AcDbEntity
  8
DIM
100
AcDbLine
 10
177.1279644402
 20
17.6237846223
 30
0.0
 11
177.1279644402
 21
8.6237846223
 31
0.0
  0
LINE
  5
8C
330
1F
100
AcDbEntity
  8
DIM
100
AcDbLine
 10
17.8279644402
 20
278.6237846223
 30
0.0
 11
8.8279644402
 21
278.6237846223
 31
0.0
  0
LINE
  5
8D
330
1F
100
AcDbEntity
  8
DIM
100
AcDbLine
 10
87.1279644402
 20
359.6237846223
 30
0.0
 11
87.1279644402
 21
368.6237846223
 31
0.0
  0
LINE
  5
8E
330
1F
100
AcDbEntity
  8
DIM
100
AcDbLine
 10
177.1279644402
 20
368.6237846223
 30
0.0
 11
177.1279644402
 21
359.6237846223
 31
0.0
  0
LINE
  5
8F
330
1F
100
AcDbEntity
  8
DIM
100
AcDbLine
 10
267.1279644402
 20
368.6237846223
 30
0.0
 11
267.1279644402
 21
359.6237846223
 31
0.0
  0
LINE
  5
90
330
1F
100
AcDbEntity
  8
DIM
100
AcDbLine
 10
516.4279644402
 20
17.6237846223
 30
0.0
 11
516.4279644402
 21
359.6237846223
 31
0.0
  0
LINE
  5
91
330
1F
100
AcDbEntity
  8
DIM
100
AcDbLine
 10
525.4279644402
 20
138.6737846223
 30
0.0
 11
525.4279644402
 21
368.6237846223
 31
0.0
  0
LINE
  5
92
330
1F
100
AcDbEntity
  8
DIM
100
AcDbLine
 10
525.4279644402
 20
188.6237846223
 30
0.0
 11
516.4279644402
 21
188.6237846223
 31
0.0
  0
LINE
  5
93
330
1F
100
AcDbEntity
  8
DIM
100
AcDbLine
 10
357.1279644402
 20
368.6237846223
 30
0.0
 11
357.1279644402
 21
359.6237846223
 31
0.0
  0
LINE
  5
94
330
1F
100
AcDbEntity
  8
DIM
100
AcDbLine
 10
447.1279644402
 20
359.6237846223
 30
0.0
 11
447.1279644402
 21
368.6237846223
 31
0.0
  0
LINE
  5
95
330
1F
100
AcDbEntity
  8
DIM
100
AcDbLine
 10
516.4279644402
 20
278.6237846223
 30
0.0
 11
525.4279644402
 21
278.6237846223
 31
0.0
  0
MTEXT
  5
97
330
1F
100
AcDbEntity
  8
DIM
100
AcDbMText
 10
23.8693578155
 20
344.0089497786
 30
0.0
 40
7.62
 41
0.0
 71
     1
 72
     1
  1
SK 50 ER 32 160 AD+B/6.3G15000 SL
  7
SLDTEXTSTYLE0
 73
     1
 44
1.0
  0
MTEXT
  5
99
330
1F
100
AcDbEntity
  8
DIM
 62
     7
100
AcDbMText
 10
355.9190015639
 20
14.0435127473
 30
0.0
 40
2.69748
 41
0.0
 71
     1
 72
     1
  1
WEIGHT:
  7
SLDTEXTSTYLE1
 73
     1
 44
1.0
  0
MTEXT
  5
9A
330
1F
100
AcDbEntity
  8
DIM
 62
     7
100
AcDbMText
 10
519.4747381586
 20
147.4931043148
 30
0.0
 40
3.33375
 41
0.0
 71
     1
 72
     1
  1
C
  7
SLDTEXTSTYLE1
 73
     1
 44
1.0
  0
MTEXT
  5
9B
330
1F
100
AcDbEntity
  8
DIM
 62
     7
100
AcDbMText
 10
509.478445115
 20
26.7371675705
 30
0.0
 40
5.23875
 41
0.0
 71
     1
 72
     1
  1
A4
  7
SLDTEXTSTYLE1
 73
     1
 44
1.0
  0
MTEXT
  5
9C
330
1F
100
AcDbEntity
  8
DIM
 62
     7
100
AcDbMText
 10
490.6279716402
 20
366.2262141487
 30
0.0
 40
3.33375
 41
0.0
 71
     1
 72
     1
  1
6
  7
SLDTEXTSTYLE1
 73
     1
 44
1.0
  0
MTEXT
  5
9D
330
1F
100
AcDbEntity
  8
DIM
 62
     7
100
AcDbMText
 10
400.6279716402
 20
366.2262141487
 30
0.0
 40
3.33375
 41
0.0
 71
     1
 72
     1
  1
5
  7
SLDTEXTSTYLE1
 73
     1
 44
1.0
  0
MTEXT
  5
9E
330
1F
100
AcDbEntity
  8
DIM
 62
     7
100
AcDbMText
 10
519.4279788402
 20
325.7262141487
 30
0.0
 40
3.33375
 41
0.0
 71
     1
 72
     1
  1
A
  7
SLDTEXTSTYLE1
 73
     1
 44
1.0
  0
MTEXT
  5
9F
330
1F
100
AcDbEntity
  8
DIM
 62
     7
100
AcDbMText
 10
519.4279788402
 20
235.7262141487
 30
0.0
 40
3.33375
 41
0.0
 71
     1
 72
     1
  1
B
  7
SLDTEXTSTYLE1
 73
     1
 44
1.0
  0
MTEXT
  5
A0
330
1F
100
AcDbEntity
  8
DIM
 62
     7
100
AcDbMText
 10
310.6279716402
 20
366.2262141487
 30
0.0
 40
3.33375
 41
0.0
 71
     1
 72
     1
  1
4
  7
SLDTEXTSTYLE1
 73
     1
 44
1.0
  0
MTEXT
  5
A1
330
1F
100
AcDbEntity
  8
DIM
 62
     7
100
AcDbMText
 10
41.3779716402
 20
366.2262141487
 30
0.0
 40
3.33375
 41
0.0
 71
     1
 72
     1
  1
1
  7
SLDTEXTSTYLE1
 73
     1
 44
1.0
  0
MTEXT
  5
A2
330
1F
100
AcDbEntity
  8
DIM
 62
     7
100
AcDbMText
 10
130.6279716402
 20
366.2262141487
 30
0.0
 40
3.33375
 41
0.0
 71
     1
 72
     1
  1
2
  7
SLDTEXTSTYLE1
 73
     1
 44
1.0
  0
MTEXT
  5
A3
330
1F
100
AcDbEntity
  8
DIM
 62
     7
100
AcDbMText
 10
220.6279716402
 20
366.2262141487
 30
0.0
 40
3.33375
 41
0.0
 71
     1
 72
     1
  1
3
  7
SLDTEXTSTYLE1
 73
     1
 44
1.0
  0
MTEXT
  5
A4
330
1F
100
AcDbEntity
  8
DIM
 62
     7
100
AcDbMText
 10
11.8279644402
 20
325.7262141487
 30
0.0
 40
3.33375
 41
0.0
 71
     1
 72
     1
  1
A
  7
SLDTEXTSTYLE1
 73
     1
 44
1.0
  0
MTEXT
  5
A5
330
1F
100
AcDbEntity
  8
DIM
 62
     7
100
AcDbMText
 10
130.6279716402
 20
15.2262141487
 30
0.0
 40
3.33375
 41
0.0
 71
     1
 72
     1
  1
2
  7
SLDTEXTSTYLE1
 73
     1
 44
1.0
  0
MTEXT
  5
A6
330
1F
100
AcDbEntity
  8
DIM
 62
     7
100
AcDbMText
 10
41.3779716402
 20
15.2262141487
 30
0.0
 40
3.33375
 41
0.0
 71
     1
 72
     1
  1
1
  7
SLDTEXTSTYLE1
 73
     1
 44
1.0
  0
MTEXT
  5
A7
330
1F
100
AcDbEntity
  8
DIM
 62
     7
100
AcDbMText
 10
11.8279644402
 20
55.7262141487
 30
0.0
 40
3.33375
 41
0.0
 71
     1
 72
     1
  1
D
  7
SLDTEXTSTYLE1
 73
     1
 44
1.0
  0
MTEXT
  5
A8
330
1F
100
AcDbEntity
  8
DIM
 62
     7
100
AcDbMText
 10
11.8279644402
 20
145.7262141487
 30
0.0
 40
3.33375
 41
0.0
 71
     1
 72
     1
  1
C
  7
SLDTEXTSTYLE1
 73
     1
 44
1.0
  0
MTEXT
  5
A9
330
1F
100
AcDbEntity
  8
DIM
 62
     7
100
AcDbMText
 10
11.8279644402
 20
235.7262141487
 30
0.0
 40
3.33375
 41
0.0
 71
     1
 72
     1
  1
B
  7
SLDTEXTSTYLE1
 73
     1
 44
1.0
  0
MTEXT
  5
AA
330
1F
100
AcDbEntity
  8
DIM
 62
     7
100
AcDbMText
 10
519.4747381586
 20
147.4931043148
 30
0.0
 40
3.33375
 41
0.0
 71
     1
 72
     1
  1
C
  7
SLDTEXTSTYLE1
 73
     1
 44
1.0
  0
MTEXT
  5
AC
330
1F
100
AcDbEntity
  8
DIM
 62
     7
100
AcDbMText
 10
461.7456584625
 20
13.8439417165
 30
0.0
 40
2.7
 41
0.0
 71
     1
 72
     1
  1
SHEET 1 OF 1
  7
SLDTEXTSTYLE2
 73
     1
 44
1.0
  0
MTEXT
  5
AD
330
1F
100
AcDbEntity
  8
DIM
 62
     7
100
AcDbMText
 10
270.6692046902
 20
14.1360614706
 30
0.0
 40
2.7
 41
0.0
 71
     1
 72
     1
  1
MATERIAL:
  7
SLDTEXTSTYLE1
 73
     1
 44
1.0
  0
MTEXT
  5
AE
330
1F
100
AcDbEntity
  8
DIM
 62
     7
100
AcDbMText
 10
490.6279716402
 20
366.2262141487
 30
0.0
 40
3.33375
 41
0.0
 71
     1
 72
     1
  1
6
  7
SLDTEXTSTYLE1
 73
     1
 44
1.0
  0
MTEXT
  5
AF
330
1F
100
AcDbEntity
  8
DIM
 62
     7
100
AcDbMText
 10
400.6279716402
 20
366.2262141487
 30
0.0
 40
3.33375
 41
0.0
 71
     1
 72
     1
  1
5
  7
SLDTEXTSTYLE1
 73
     1
 44
1.0
  0
MTEXT
  5
B0
330
1F
100
AcDbEntity
  8
DIM
 62
     7
100
AcDbMText
 10
519.4279788402
 20
325.7262141487
 30
0.0
 40
3.33375
 41
0.0
 71
     1
 72
     1
  1
A
  7
SLDTEXTSTYLE1
 73
     1
 44
1.0
  0
MTEXT
  5
B1
330
1F
100
AcDbEntity
  8
DIM
 62
     7
100
AcDbMText
 10
519.4279788402
 20
235.7262141487
 30
0.0
 40
3.33375
 41
0.0
 71
     1
 72
     1
  1
B
  7
SLDTEXTSTYLE1
 73
     1
 44
1.0
  0
MTEXT
  5
B2
330
1F
100
AcDbEntity
  8
DIM
 62
     7
100
AcDbMText
 10
310.6279716402
 20
366.2262141487
 30
0.0
 40
3.33375
 41
0.0
 71
     1
 72
     1
  1
4
  7
SLDTEXTSTYLE1
 73
     1
 44
1.0
  0
MTEXT
  5
B3
330
1F
100
AcDbEntity
  8
DIM
 62
     7
100
AcDbMText
 10
41.3779716402
 20
366.2262141487
 30
0.0
 40
3.33375
 41
0.0
 71
     1
 72
     1
  1
1
  7
SLDTEXTSTYLE1
 73
     1
 44
1.0
  0
MTEXT
  5
B4
330
1F
100
AcDbEntity
  8
DIM
 62
     7
100
AcDbMText
 10
130.6279716402
 20
366.2262141487
 30
0.0
 40
3.33375
 41
0.0
 71
     1
 72
     1
  1
2
  7
SLDTEXTSTYLE1
 73
     1
 44
1.0
  0
MTEXT
  5
B5
330
1F
100
AcDbEntity
  8
DIM
 62
     7
100
AcDbMText
 10
220.6279716402
 20
366.2262141487
 30
0.0
 40
3.33375
 41
0.0
 71
     1
 72
     1
  1
3
  7
SLDTEXTSTYLE1
 73
     1
 44
1.0
  0
MTEXT
  5
B6
330
1F
100
AcDbEntity
  8
DIM
 62
     7
100
AcDbMText
 10
11.8279644402
 20
325.7262141487
 30
0.0
 40
3.33375
 41
0.0
 71
     1
 72
     1
  1
A
  7
SLDTEXTSTYLE1
 73
     1
 44
1.0
  0
MTEXT
  5
B7
330
1F
100
AcDbEntity
  8
DIM
 62
     7
100
AcDbMText
 10
130.6279716402
 20
15.2262141487
 30
0.0
 40
3.33375
 41
0.0
 71
     1
 72
     1
  1
2
  7
SLDTEXTSTYLE1
 73
     1
 44
1.0
  0
MTEXT
  5
B8
330
1F
100
AcDbEntity
  8
DIM
 62
     7
100
AcDbMText
 10
41.3779716402
 20
15.2262141487
 30
0.0
 40
3.33375
 41
0.0
 71
     1
 72
     1
  1
1
  7
SLDTEXTSTYLE1
 73
     1
 44
1.0
  0
MTEXT
  5
B9
330
1F
100
AcDbEntity
  8
DIM
 62
     7
100
AcDbMText
 10
11.8279644402
 20
55.7262141487
 30
0.0
 40
3.33375
 41
0.0
 71
     1
 72
     1
  1
D
  7
SLDTEXTSTYLE1
 73
     1
 44
1.0
  0
MTEXT
  5
BA
330
1F
100
AcDbEntity
  8
DIM
 62
     7
100
AcDbMText
 10
11.8279644402
 20
145.7262141487
 30
0.0
 40
3.33375
 41
0.0
 71
     1
 72
     1
  1
C
  7
SLDTEXTSTYLE1
 73
     1
 44
1.0
  0
MTEXT
  5
BB
330
1F
100
AcDbEntity
  8
DIM
 62
     7
100
AcDbMText
 10
11.8279644402
 20
235.7262141487
 30
0.0
 40
3.33375
 41
0.0
 71
     1
 72
     1
  1
B
  7
SLDTEXTSTYLE1
 73
     1
 44
1.0
  0
SPLINE
  5
BC
330
1F
100
AcDbEntity
  8
0
  6
Continuous
 62
     7
370
    15
100
AcDbSpline
210
0.0
220
0.0
230
1.0
 70
     8
 71
     3
 72
    14
 73
    10
 74
     0
 42
0.000000001
 43
0.00000001
 40
0.0
 40
0.0
 40
0.0
 40
0.0
 40
0.25
 40
0.25
 40
0.5
 40
0.5
 40
0.75
 40
0.75
 40
1.0
 40
1.0
 40
1.0
 40
1.0
 10
120.894916207757
 20
194.7785297763433
 30
0.0
 10
120.894916207757
 20
189.6807953995689
 30
0.0
 10
118.8696897816881
 20
184.7914662948769
 30
0.0
 10
111.6604046886781
 20
177.5821812018669
 30
0.0
 10
106.771075583986
 20
175.5569547757979
 30
0.0
 10
96.57560683043717
 20
175.5569547757979
 30
0.0
 10
91.68627772574513
 20
177.5821812018669
 30
0.0
 10
84.47699263273516
 20
184.7914662948769
 30
0.0
 10
82.45176620666622
 20
189.6807953995689
 30
0.0
 10
82.4517662066662
 20
194.7785297763433
 30
0.0
  0
SPLINE
  5
BD
330
1F
100
AcDbEntity
  8
0
  6
Continuous
 62
     7
370
    15
100
AcDbSpline
210
0.0
220
0.0
230
1.0
 70
     8
 71
     3
 72
    14
 73
    10
 74
     0
 42
0.000000001
 43
0.00000001
 40
0.0
 40
0.0
 40
0.0
 40
0.0
 40
0.25
 40
0.25
 40
0.5
 40
0.5
 40
0.75
 40
0.75
 40
1.0
 40
1.0
 40
1.0
 40
1.0
 10
82.4517662066662
 20
194.7785297763433
 30
0.0
 10
82.4517662066662
 20
199.8762641531178
 30
0.0
 10
84.47699263273515
 20
204.7655932578098
 30
0.0
 10
91.68627772574513
 20
211.9748783508198
 30
0.0
 10
96.57560683043717
 20
214.0001047768887
 30
0.0
 10
106.771075583986
 20
214.0001047768887
 30
0.0
 10
111.6604046886781
 20
211.9748783508198
 30
0.0
 10
118.8696897816881
 20
204.7655932578098
 30
0.0
 10
120.894916207757
 20
199.8762641531178
 30
0.0
 10
120.894916207757
 20
194.7785297763433
 30
0.0
  0
CIRCLE
  5
BE
330
1F
100
AcDbEntity
  8
0
  6
Continuous
 62
     7
370
    15
100
AcDbCircle
 10
101.6733412072
 20
194.7785297763
 30
0.0
 40
20.21110778703756
  0
CIRCLE
  5
BF
330
1F
100
AcDbEntity
  8
0
  6
Continuous
 62
     7
370
    15
100
AcDbCircle
 10
101.6733412072
 20
194.7785297763
 30
0.0
 40
34.925
  0
SPLINE
  5
C0
330
1F
100
AcDbEntity
  8
0
  6
Continuous
 62
     7
370
    15
100
AcDbSpline
210
0.0
220
0.0
230
1.0
 70
     8
 71
     3
 72
    52
 73
    48
 74
     0
 42
0.000000001
 43
0.00000001
 40
0.0
 40
0.0
 40
0.0
 40
0.0
 40
0.0053074994726554
 40
0.0106084744807156
 40
0.0159043870752884
 40
0.0211967035030982
 40
0.0264868930010475
 40
0.031776426578386
 40
0.0370667757915106
 40
0.0423594115164833
 40
0.0476558027243854
 40
0.0529574152645906
 40
0.0582657106609693
 40
0.0891348494758177
 40
0.1200087595578935
 40
0.1521645941108524
 40
0.1843252192282218
 40
0.2171652710885947
 40
0.2500102154523581
 40
0.2828502674523063
 40
0.3156952119562962
 40
0.3478510468948057
 40
0.380011672397905
 40
0.4108808109142898
 40
0.4417547207534483
 40
0.470875333637603
 40
0.5000007798720159
 40
0.5291213927975412
 40
0.5582468390472084
 40
0.5891159778617261
 40
0.6199898879441322
 40
0.652145722497098
 40
0.6843063476144644
 40
0.7171463994755694
 40
0.7499913438386044
 40
0.7828313958395676
 40
0.8156763403425417
 40
0.8478321752819549
 40
0.8799928007841501
 40
0.9108619393016738
 40
0.941735849139696
 40
0.9514609652020397
 40
0.9611682412334405
 40
0.9708667191333772
 40
0.9805654654081966
 40
0.9902735458123287
 40
1.0
 40
1.0
 40
1.0
 40
1.0
 10
66.67334120721159
 20
194.7785297763433
 30
0.0
 10
66.67426923812204
 20
194.9729919343963
 30
0.0
 10
66.67612415912237
 20
195.361677199802
 30
0.0
 10
66.691153193474
 20
195.9442401698235
 30
0.0
 10
66.71515182250836
 20
196.5259260571929
 30
0.0
 10
66.74899612659148
 20
197.10673475201
 30
0.0
 10
66.79245166832509
 20
197.6866661004292
 30
0.0
 10
66.84558122939113
 20
198.2657200208538
 30
0.0
 10
66.90836789911333
 20
198.8438961849905
 30
0.0
 10
66.9808164916299
 20
199.4211951823589
 30
0.0
 10
67.06292452912291
 20
199.9976141825064
 30
0.0
 10
67.15469693111658
 20
200.5731631440845
 30
0.0
 10
67.41883643274997
 20
202.0697757475982
 30
0.0
 10
67.98260418565538
 20
204.4654826087663
 30
0.0
 10
69.0952213659941
 20
207.7263537148187
 30
0.0
 10
70.5423875815347
 20
210.9062425971125
 30
0.0
 10
72.34156321094142
 20
213.9847415288682
 30
0.0
 10
74.45798378650176
 20
216.8862014369051
 30
0.0
 10
76.88086898001688
 20
219.570748412899
 30
0.0
 10
79.56552945863535
 20
221.9937735878455
 30
0.0
 10
82.46682959819563
 20
224.1101128239226
 30
0.0
 10
85.54548269622262
 20
225.9094050160416
 30
0.0
 10
88.72514613023095
 20
227.3565131492489
 30
0.0
 10
91.98638242823728
 20
228.4692429662539
 30
0.0
 10
95.23212672697129
 20
229.23313045165
 30
0.0
 10
98.4709928451272
 20
229.6814084516604
 30
0.0
 10
101.6731642350571
 20
229.8270863165006
 30
0.0
 10
104.8755117057033
 20
229.6814249390521
 30
0.0
 10
108.1142099654172
 20
229.2331947465911
 30
0.0
 10
111.3601305749903
 20
228.4692926874683
 30
0.0
 10
114.6212109755497
 20
227.3566423581096
 30
0.0
 10
117.8010415440048
 20
225.9094853830542
 30
0.0
 10
120.8795563842148
 20
224.1103072158251
 30
0.0
 10
123.7810119403414
 20
221.9938873989776
 30
0.0
 10
126.4655600983509
 20
219.5710017578672
 30
0.0
 10
128.8885849279337
 20
216.8863423053817
 30
0.0
 10
131.0049243620987
 20
213.9850385340289
 30
0.0
 10
132.8042161147368
 20
210.9063986714468
 30
0.0
 10
134.2513257840964
 20
207.726686726023
 30
0.0
 10
135.3640501077597
 20
204.4656245163477
 30
0.0
 10
135.9648960398025
 20
201.9122104309935
 30
0.0
 10
136.2728361193216
 20
200.0947907253918
 30
0.0
 10
136.4189752302441
 20
199.0373439871633
 30
0.0
 10
136.5327812575052
 20
197.9769067337885
 30
0.0
 10
136.6134765783118
 20
196.9134527596364
 30
0.0
 10
136.6639981137275
 20
195.846992390902
 30
0.0
 10
136.6702248804152
 20
195.1349083871763
 30
0.0
 10
136.6733412072116
 20
194.7785297763433
 30
0.0
  0
SPLINE
  5
C1
330
1F
100
AcDbEntity
  8
0
  6
Continuous
 62
     7
370
    15
100
AcDbSpline
210
0.0
220
0.0
230
1.0
 70
     8
 71
     3
 72
    52
 73
    48
 74
     0
 42
0.000000001
 43
0.00000001
 40
0.0
 40
0.0
 40
0.0
 40
0.0
 40
0.0053074994726554
 40
0.0106084744807156
 40
0.0159043870752884
 40
0.0211967035030983
 40
0.0264868930010475
 40
0.0317764265783861
 40
0.0370667757915106
 40
0.0423594115164834
 40
0.0476558027243854
 40
0.0529574152645907
 40
0.0582657106609694
 40
0.0891348494759667
 40
0.1200087595578951
 40
0.1521645941111445
 40
0.1843252192282232
 40
0.2171652710889209
 40
0.25001021545236
 40
0.2828502674525652
 40
0.315695211956297
 40
0.3478510468951538
 40
0.3800116723979077
 40
0.41088081091547
 40
0.4417547207534571
 40
0.4708753336379863
 40
0.5000007798720127
 40
0.5291213927971703
 40
0.5582468390472111
 40
0.5891159778626601
 40
0.6199898879441411
 40
0.6521457224976949
 40
0.6843063476144631
 40
0.7171463994753853
 40
0.7499913438386053
 40
0.7828313958393156
 40
0.8156763403425399
 40
0.8478321752809374
 40
0.8799928007841432
 40
0.9108619393011222
 40
0.9417358491396983
 40
0.9514609652021586
 40
0.9611682412336295
 40
0.9708667191335897
 40
0.9805654654083855
 40
0.9902735458124469
 40
1.0
 40
1.0
 40
1.0
 40
1.0
 10
136.6733412072116
 20
194.7785297763433
 30
0.0
 10
136.6724131763011
 20
194.5840676182904
 30
0.0
 10
136.6705582553008
 20
194.1953823528847
 30
0.0
 10
136.6555292209492
 20
193.6128193828632
 30
0.0
 10
136.6315305919148
 20
193.0311334954938
 30
0.0
 10
136.5976862878317
 20
192.4503248006767
 30
0.0
 10
136.5542307460981
 20
191.8703934522575
 30
0.0
 10
136.5011011850321
 20
191.2913395318328
 30
0.0
 10
136.4383145153099
 20
190.7131633676962
 30
0.0
 10
136.3658659227933
 20
190.1358643703278
 30
0.0
 10
136.2837578853003
 20
189.5594453701803
 30
0.0
 10
136.1919854833066
 20
188.9838964086022
 30
0.0
 10
135.9278459816722
 20
187.4872838050831
 30
0.0
 10
135.3640782287691
 20
185.0915769439143
 30
0.0
 10
134.2514610484227
 20
181.8307058378532
 30
0.0
 10
132.8042948328837
 20
178.6508169555646
 30
0.0
 10
131.0051192034693
 20
175.5723180237997
 30
0.0
 10
128.8886986279144
 20
172.6708581157719
 30
0.0
 10
126.4658134343914
 20
169.9863111397725
 30
0.0
 10
123.7811529557793
 20
167.5632859648365
 30
0.0
 10
120.8798528162089
 20
165.4469467287525
 30
0.0
 10
117.8011997181911
 20
163.6476545366353
 30
0.0
 10
114.6215362841397
 20
162.2005464034192
 30
0.0
 10
111.3602999861473
 20
161.0878165864112
 30
0.0
 10
108.1145556873961
 20
160.3239291010238
 30
0.0
 10
104.8756895692799
 20
159.8756511010481
 30
0.0
 10
101.6735181793661
 20
159.7299732361842
 30
0.0
 10
98.47117070873217
 20
159.8756346136227
 30
0.0
 10
95.23247244898647
 20
160.3238648061026
 30
0.0
 10
91.98655183939711
 20
161.087766865217
 30
0.0
 10
88.72547143882116
 20
162.2004171945972
 30
0.0
 10
85.545640870407
 20
163.647574169658
 30
0.0
 10
82.46712603019454
 20
165.4467523368676
 30
0.0
 10
79.56567047408572
 20
167.5631721537034
 30
0.0
 10
76.88112231608301
 20
169.9860577948077
 30
0.0
 10
74.45809748649965
 20
172.6707172473011
 30
0.0
 10
72.34175805234807
 20
175.5720210186179
 30
0.0
 10
70.54246629971139
 20
178.6506608812109
 30
0.0
 10
69.09535663034941
 20
181.8303728266108
 30
0.0
 10
67.9826323066527
 20
185.0914350363147
 30
0.0
 10
67.3817863746222
 20
187.6448491216773
 30
0.0
 10
67.07384629510197
 20
189.4622688273062
 30
0.0
 10
66.92770718417937
 20
190.5197155655425
 30
0.0
 10
66.81390115691819
 20
191.5801528189199
 30
0.0
 10
66.73320583611157
 20
192.6436067930694
 30
0.0
 10
66.68268430069575
 20
193.710067161796
 30
0.0
 10
66.67645753400805
 20
194.4221511655147
 30
0.0
 10
66.67334120721159
 20
194.7785297763433
 30
0.0
  0
ARC
  5
C2
330
1F
100
AcDbEntity
  8
0
  6
Continuous
 62
     7
370
    15
100
AcDbCircle
 10
101.6733412072
 20
194.7785297763
 30
0.0
 40
47.58431457505075
100
AcDbArc
 50
253.4556342686
 51
286.5443657314
  0
SPLINE
  5
C3
330
1F
100
AcDbEntity
  8
0
  6
Continuous
 62
     7
370
    15
100
AcDbSpline
210
0.0
220
0.0
230
1.0
 70
     8
 71
     3
 72
    10
 73
     6
 74
     0
 42
0.000000001
 43
0.00000001
 40
0.0
 40
0.0
 40
0.0
 40
0.0
 40
0.5
 40
0.5
 40
1.0
 40
1.0
 40
1.0
 40
1.0
 10
115.2233412072116
 20
149.1642283613552
 30
0.0
 10
115.2233412072116
 20
149.1002766725121
 30
0.0
 10
115.2094953311868
 20
149.038712334061
 30
0.0
 10
115.1673295549994
 20
148.928086983212
 30
0.0
 10
115.1388388547364
 20
148.8784002915425
 30
0.0
 10
115.1061839196863
 20
148.8348307148767
 30
0.0
  0
ARC
  5
C4
330
1F
100
AcDbEntity
  8
0
  6
Continuous
 62
     7
370
    15
100
AcDbCircle
 10
101.6733412072
 20
194.7785297763
 30
0.0
 40
47.86715728752537
100
AcDbArc
 50
253.7023380383
 51
286.2976619617
  0
SPLINE
  5
C5
330
1F
100
AcDbEntity
  8
0
  6
Continuous
 62
     7
370
    15
100
AcDbSpline
210
0.0
220
0.0
230
1.0
 70
     8
 71
     3
 72
    10
 73
     6
 74
     0
 42
0.000000001
 43
0.00000001
 40
0.0
 40
0.0
 40
0.0
 40
0.0
 40
0.5
 40
0.5
 40
1.0
 40
1.0
 40
1.0
 40
1.0
 10
88.240498494737
 20
148.8348307148767
 30
0.0
 10
88.20786543371969
 20
148.8783711062954
 30
0.0
 10
88.17988454745347
 20
148.9269257104132
 30
0.0
 10
88.13722769707847
 20
149.0383752461751
 30
0.0
 10
88.12334120721162
 20
149.1003334987642
 30
0.0
 10
88.12334120721162
 20
149.1642283613552
 30
0.0
  0
ARC
  5
C6
330
1F
100
AcDbEntity
  8
0
  6
Continuous
 62
     7
370
    15
100
AcDbCircle
 10
101.6733412072
 20
194.7785297763
 30
0.0
 40
47.58431457505078
100
AcDbArc
 50
73.4556342686
 51
106.5443657314
  0
SPLINE
  5
C7
330
1F
100
AcDbEntity
  8
0
  6
Continuous
 62
     7
370
    15
100
AcDbSpline
210
0.0
220
0.0
230
1.0
 70
     8
 71
     3
 72
    10
 73
     6
 74
     0
 42
0.000000001
 43
0.00000001
 40
0.0
 40
0.0
 40
0.0
 40
0.0
 40
0.5
 40
0.5
 40
1.0
 40
1.0
 40
1.0
 40
1.0
 10
88.1233412072116
 20
240.3928311913315
 30
0.0
 10
88.1233412072116
 20
240.4567828801746
 30
0.0
 10
88.13718708323643
 20
240.5183472186257
 30
0.0
 10
88.17935285942379
 20
240.6289725694748
 30
0.0
 10
88.20784355968686
 20
240.6786592611442
 30
0.0
 10
88.24049849473695
 20
240.72222883781
 30
0.0
  0
ARC
  5
C8
330
1F
100
AcDbEntity
  8
0
  6
Continuous
 62
     7
370
    15
100
AcDbCircle
 10
101.6733412072
 20
194.7785297763
 30
0.0
 40
47.86715728752537
100
AcDbArc
 50
73.7023380383
 51
106.2976619617
  0
SPLINE
  5
C9
330
1F
100
AcDbEntity
  8
0
  6
Continuous
 62
     7
370
    15
100
AcDbSpline
210
0.0
220
0.0
230
1.0
 70
     8
 71
     3
 72
    10
 73
     6
 74
     0
 42
0.000000001
 43
0.00000001
 40
0.0
 40
0.0
 40
0.0
 40
0.0
 40
0.5
 40
0.5
 40
1.0
 40
1.0
 40
1.0
 40
1.0
 10
115.1061839196862
 20
240.72222883781
 30
0.0
 10
115.1388169807035
 20
240.6786884463913
 30
0.0
 10
115.1667978669697
 20
240.6301338422736
 30
0.0
 10
115.2094547173447
 20
240.5186843065117
 30
0.0
 10
115.2233412072116
 20
240.4567260539225
 30
0.0
 10
115.2233412072116
 20
240.3928311913315
 30
0.0
  0
ARC
  5
CA
330
1F
100
AcDbEntity
  8
0
  6
Continuous
 62
     7
370
    15
100
AcDbCircle
 10
101.6733412072
 20
194.7785297763
 30
0.0
 40
47.86715728752536
100
AcDbArc
 50
218.8096103904
 51
231.1903896096
  0
SPLINE
  5
CB
330
1F
100
AcDbEntity
  8
0
  6
Continuous
 62
     7
370
    15
100
AcDbSpline
210
0.0
220
0.0
230
1.0
 70
    24
 71
     3
 72
     8
 73
     4
 74
     0
 42
0.000000001
 43
0.00000001
 40
0.0
 40
0.0
 40
0.0
 40
0.0
 40
1.0
 40
1.0
 40
1.0
 40
1.0
 10
64.73735613063096
 20
164.7785297763434
 30
0.0
 10
64.60665198102409
 20
164.7785297763434
 30
0.0
 10
64.47711501400791
 20
164.7785297763433
 30
0.0
 10
64.37367972364457
 20
164.7785297763433
 30
0.0
  0
ARC
  5
CC
330
1F
100
AcDbEntity
  8
0
  6
Continuous
 62
     7
370
    15
100
AcDbCircle
 10
101.6733412072
 20
194.7785297763
 30
0.0
 40
47.58431457505075
100
AcDbArc
 50
219.0840578538
 51
230.9159421462
  0
SPLINE
  5
CD
330
1F
100
AcDbEntity
  8
0
  6
Continuous
 62
     7
370
    15
100
AcDbSpline
210
0.0
220
0.0
230
1.0
 70
    24
 71
     3
 72
     8
 73
     4
 74
     0
 42
0.000000001
 43
0.00000001
 40
0.0
 40
0.0
 40
0.0
 40
0.0
 40
1.0
 40
1.0
 40
1.0
 40
1.0
 10
71.6733412072116
 20
157.8425446997627
 30
0.0
 10
71.6733412072116
 20
157.7118405501558
 30
0.0
 10
71.67334120721159
 20
157.5823035831397
 30
0.0
 10
71.67334120721159
 20
157.4788682927763
 30
0.0
  0
SPLINE
  5
CE
330
1F
100
AcDbEntity
  8
0
  6
Continuous
 62
     7
370
    15
100
AcDbSpline
210
0.0
220
0.0
230
1.0
 70
     8
 71
     3
 72
    40
 73
    36
 74
     0
 42
0.000000001
 43
0.00000001
 40
0.0
 40
0.0
 40
0.0
 40
0.0
 40
0.0076138096091589
 40
0.0152227036967704
 40
0.0228283796624005
 40
0.0304325370606624
 40
0.0380368764643598
 40
0.0456430983242198
 40
0.0532529018290356
 40
0.060867983770033
 40
0.0919930035864015
 40
0.1231236538966442
 40
0.1547321881297862
 40
0.1863461940165441
 40
0.2182020912745047
 40
0.250063503003077
 40
0.3137495787501981
 40
0.3769416086590413
 40
0.4391681485651284
 40
0.5000004350472893
 40
0.5608327215294504
 40
0.6230592614355374
 40
0.6862512913443808
 40
0.7499373670915017
 40
0.7817932643678124
 40
0.8136546761204095
 40
0.8452632104141178
 40
0.8768772163635383
 40
0.9080022357785013
 40
0.9391328857746202
 40
0.9513123423169165
 40
0.9634818178562747
 40
0.9756482751527068
 40
0.9878186821464897
 40
0.9999999999999999
 40
0.9999999999999999
 40
0.9999999999999999
 40
0.9999999999999999
 10
88.1233412072116
 20
240.3928311913315
 30
0.0
 10
87.89632844948629
 20
240.3243317804984
 30
0.0
 10
87.44244949484549
 20
240.1873771824663
 30
0.0
 10
86.76578227366956
 20
239.9691470933276
 30
0.0
 10
86.09251157309926
 20
239.7416514719312
 30
0.0
 10
85.4229120423079
 20
239.5039665077627
 30
0.0
 10
84.75690990195868
 20
239.2563393617212
 30
0.0
 10
84.09452636694321
 20
238.9987049316709
 30
0.0
 10
83.43575093193601
 20
238.7310767513248
 30
0.0
 10
82.10664719675464
 20
238.1678841013587
 30
0.0
 10
80.13534642535397
 20
237.2428654291805
 30
0.0
 10
77.56850134589764
 20
235.8404527167265
 30
0.0
 10
75.07955151941009
 20
234.2749131086321
 30
0.0
 10
72.67452210726432
 20
232.5444016532689
 30
0.0
 10
70.37541174957829
 20
230.6627472161037
 30
0.0
 10
67.46681787560463
 20
227.9609174490313
 30
0.0
 10
64.16623902923035
 20
224.2615537115728
 30
0.0
 10
60.8141897116513
 20
219.4012768064393
 30
0.0
 10
58.12587892267587
 20
214.2449891055833
 30
0.0
 10
56.10525025540276
 20
208.8718252900726
 30
0.0
 10
54.73960385410697
 20
203.2960886168058
 30
0.0
 10
54.0474971235557
 20
197.5224150696709
 30
0.0
 10
54.07035105627898
 20
191.6183484149972
 30
0.0
 10
54.70610206832546
 20
186.7017206896538
 30
0.0
 10
55.58147709454481
 20
182.8295748977019
 30
0.0
 10
56.4167828798598
 20
179.9786474462423
 30
0.0
 10
57.42494887055992
 20
177.1923496280715
 30
0.0
 10
58.5953892650734
 20
174.4951641981334
 30
0.0
 10
59.92237457785396
 20
171.8883214666023
 30
0.0
 10
61.09939460541434
 20
169.8893495408919
 30
0.0
 10
62.03846829107987
 20
168.4388853069957
 30
0.0
 10
62.67911009443797
 20
167.4991530489714
 30
0.0
 10
63.34229183573263
 20
166.5755909724748
 30
0.0
 10
64.02610702361861
 20
165.6666344883934
 30
0.0
 10
64.50020228838194
 20
165.0746530933438
 30
0.0
 10
64.73735613063096
 20
164.7785297763434
 30
0.0
  0
SPLINE
  5
CF
330
1F
100
AcDbEntity
  8
0
  6
Continuous
 62
     7
370
    15
100
AcDbSpline
210
0.0
220
0.0
230
1.0
 70
     8
 71
     3
 72
    36
 73
    32
 74
     0
 42
0.000000001
 43
0.00000001
 40
0.0
 40
0.0
 40
0.0
 40
0.0
 40
0.010867092798112
 40
0.021724865130392
 40
0.0325754130168938
 40
0.0434208366663277
 40
0.0542632392651492
 40
0.065104725758013
 40
0.0759474016231196
 40
0.086793371646007
 40
0.0976447386953594
 40
0.108503602504385
 40
0.1193720584612793
 40
0.1813968118534446
 40
0.2434299656516118
 40
0.3071319153763559
 40
0.3708424926864515
 40
0.4354174331816658
 40
0.500001119503481
 40
0.5645760601028219
 40
0.6291597465272444
 40
0.6928616965449617
 40
0.7565722741492541
 40
0.8185970279746905
 40
0.880630182218889
 40
0.9005456108401859
 40
0.9204355762660236
 40
0.9403130274594478
 40
0.9601909378397625
 40
0.9800822799278064
 40
0.9999999999999999
 40
0.9999999999999999
 40
0.9999999999999999
 40
0.9999999999999999
 10
149.2576557822624
 20
194.7785297763433
 30
0.0
 10
149.2567724549656
 20
194.9994675765991
 30
0.0
 10
149.2550065579824
 20
195.4411536836318
 30
0.0
 10
149.2407061799437
 20
196.1033138115505
 30
0.0
 10
149.2178733561771
 20
196.7647780462353
 30
0.0
 10
149.1856736653148
 20
197.4255463274165
 30
0.0
 10
149.1443304878979
 20
198.0856185666757
 30
0.0
 10
149.0937839916561
 20
198.7449947302274
 30
0.0
 10
149.0340502675266
 20
199.4036745932797
 30
0.0
 10
148.9651248002769
 20
200.0616586417784
 30
0.0
 10
148.8870096215753
 20
200.7189447110842
 30
0.0
 10
148.7997012028996
 20
201.3755405410353
 30
0.0
 10
148.5518685794712
 20
203.060155230149
 30
0.0
 10
148.0262225593049
 20
205.7558838952114
 30
0.0
 10
146.9978319137383
 20
209.4360315636866
 30
0.0
 10
145.6658820012391
 20
213.0546041854245
 30
0.0
 10
144.019956113426
 20
216.5986074465274
 30
0.0
 10
142.0809350538279
 20
220.0119778363141
 30
0.0
 10
139.8549600733077
 20
223.26685626073
 30
0.0
 10
137.3686047966251
 20
226.3276776077415
 30
0.0
 10
134.6488370027423
 20
229.1582946974702
 30
0.0
 10
131.720128664699
 20
231.7453965132146
 30
0.0
 10
128.6308026655664
 20
234.0525265792822
 30
0.0
 10
125.3957016173913
 20
236.0864308939669
 30
0.0
 10
122.7980897476772
 20
237.4431350025385
 30
0.0
 10
120.9152023176798
 20
238.3045689979793
 30
0.0
 10
119.7991473433196
 20
238.7811157915477
 30
0.0
 10
118.6720532083264
 20
239.2288623209361
 30
0.0
 10
117.5336882846411
 20
239.6471014616828
 30
0.0
 10
116.3848568032819
 20
240.0385146660207
 30
0.0
 10
115.6106840647589
 20
240.2746735222873
 30
0.0
 10
115.2233412072116
 20
240.3928311913315
 30
0.0
  0
SPLINE
  5
D0
330
1F
100
AcDbEntity
  8
0
  6
Continuous
 62
     7
370
    15
100
AcDbSpline
210
0.0
220
0.0
230
1.0
 70
     8
 71
     3
 72
    36
 73
    32
 74
     0
 42
0.000000001
 43
0.00000001
 40
0.0
 40
0.0
 40
0.0
 40
0.0
 40
0.0108670927976138
 40
0.0217248651294953
 40
0.0325754130156982
 40
0.0434208366649332
 40
0.0542632392636552
 40
0.065104725756519
 40
0.0759474016217247
 40
0.0867933716448104
 40
0.0976447386944597
 40
0.1085036025038803
 40
0.1193720584612676
 40
0.1813968118522707
 40
0.2434299656516123
 40
0.3071319153785467
 40
0.3708424926864622
 40
0.4354174331848614
 40
0.5000011195034882
 40
0.5645760601040033
 40
0.6291597465272422
 40
0.6928616965456248
 40
0.7565722741492584
 40
0.8185970279756692
 40
0.8806301822188896
 40
0.9005456108402741
 40
0.9204355762661642
 40
0.9403130274596062
 40
0.9601909378399034
 40
0.9800822799278944
 40
1.0
 40
1.0
 40
1.0
 40
1.0
 10
115.2233412072116
 20
149.1642283613552
 30
0.0
 10
115.4348805436377
 20
149.2279888584431
 30
0.0
 10
115.8577777838682
 20
149.3554551666472
 30
0.0
 10
116.4884520260916
 20
149.5577186976686
 30
0.0
 10
117.1160295057708
 20
149.767963266168
 30
0.0
 10
117.7402725572216
 20
149.9869887309116
 30
0.0
 10
118.3612447050153
 20
150.2145809342405
 30
0.0
 10
118.9789288790653
 20
150.45079722172
 30
0.0
 10
119.5933294459046
 20
150.6956221045739
 30
0.0
 10
120.2044455856134
 20
150.9490600494791
 30
0.0
 10
120.8122758017027
 20
151.2111084924814
 30
0.0
 10
121.4168265088037
 20
151.4817730199992
 30
0.0
 10
122.9611251039638
 20
152.1990522605885
 30
0.0
 10
125.3955675735693
 20
153.4705657824976
 30
0.0
 10
128.630513230139
 20
155.5043309560249
 30
0.0
 10
131.7199922372414
 20
157.8115539303079
 30
0.0
 10
134.6485820138081
 20
160.3985199262152
 30
0.0
 10
137.3684860745722
 20
163.2292480988461
 30
0.0
 10
139.8547474737679
 20
166.2899183565979
 30
0.0
 10
142.0808405560033
 20
169.544929795736
 30
0.0
 10
144.0197939346303
 20
172.9581379284046
 30
0.0
 10
145.6658162580225
 20
176.5022935182546
 30
0.0
 10
146.9977206789406
 20
180.1206930103454
 30
0.0
 10
148.0262004562167
 20
183.8010292586829
 30
0.0
 10
148.5870463892363
 20
186.6774307089883
 30
0.0
 10
148.8766499143379
 20
188.7276656713088
 30
0.0
 10
149.0156621967817
 20
189.9332158102877
 30
0.0
 10
149.123923073625
 20
191.1411469864162
 30
0.0
 10
149.2006887378201
 20
192.3514798791063
 30
0.0
 10
149.2487586391835
 20
193.5642071170569
 30
0.0
 10
149.2546887581123
 20
194.373576790414
 30
0.0
 10
149.2576557822624
 20
194.7785297763433
 30
0.0
  0
SPLINE
  5
D1
330
1F
100
AcDbEntity
  8
0
  6
Continuous
 62
     7
370
    15
100
AcDbSpline
210
0.0
220
0.0
230
1.0
 70
     8
 71
     3
 72
    27
 73
    23
 74
     0
 42
0.000000001
 43
0.00000001
 40
0.0
 40
0.0
 40
0.0
 40
0.0
 40
0.0385569892849983
 40
0.077065832919795
 40
0.1155353026404071
 40
0.1539741971381828
 40
0.1923913361124393
 40
0.2307955542512547
 40
0.2691956951607651
 40
0.307600605263732
 40
0.3460191276883881
 40
0.3844600961686549
 40
0.4229323289767208
 40
0.461444622908729
 40
0.5000057473438762
 40
0.5715713334494176
 40
0.6429967682529731
 40
0.7143384572511784
 40
0.785653004654555
 40
0.8569970792758755
 40
0.9284272796521091
 40
1.0
 40
1.0
 40
1.0
 40
1.0
 10
71.67334120721159
 20
157.8425446997627
 30
0.0
 10
71.86074639138432
 20
157.6916753639321
 30
0.0
 10
72.23532274912341
 20
157.3901250810015
 30
0.0
 10
72.80543344254318
 20
156.9488394014939
 30
0.0
 10
73.38107527791621
 20
156.516052280207
 30
0.0
 10
73.96286911345823
 20
156.0925282640437
 30
0.0
 10
74.55064872413809
 20
155.6780628857834
 30
0.0
 10
75.14445849321925
 20
155.2727109679639
 30
0.0
 10
75.74428641965696
 20
154.8764579205744
 30
0.0
 10
76.35013560685576
 20
154.489307730977
 30
0.0
 10
76.96200506442683
 20
154.1112594112246
 30
0.0
 10
77.57989505613504
 20
153.7423132675422
 30
0.0
 10
78.20380490353963
 20
153.3824693677862
 30
0.0
 10
78.8337364298359
 20
153.0317273997404
 30
0.0
 10
79.65078757881862
 20
152.5927966418096
 30
0.0
 10
80.66014317157777
 20
152.0781554166838
 30
0.0
 10
81.86830657259317
 20
151.5042641984292
 30
0.0
 10
83.09073125147282
 20
150.9652869151397
 30
0.0
 10
84.3273406794961
 20
150.4609953441219
 30
0.0
 10
85.57839212116465
 20
149.9922590351177
 30
0.0
 10
86.84291766336436
 20
149.5558291425629
 30
0.0
 10
87.69624987581544
 20
149.2948486547928
 30
0.0
 10
88.12334120721162
 20
149.1642283613552
 30
0.0
  0
ARC
  5
D2
330
1F
100
AcDbEntity
  8
0
  6
Continuous
 62
     7
370
    15
100
AcDbCircle
 10
101.6733412072
 20
194.7785297763
 30
0.0
 40
47.86715728752537
100
AcDbArc
 50
106.2976619617
 51
218.8096103904
  0
ARC
  5
D3
330
1F
100
AcDbEntity
  8
0
  6
Continuous
 62
     7
370
    15
100
AcDbCircle
 10
101.6733412072
 20
194.7785297763
 30
0.0
 40
47.86715728752537
100
AcDbArc
 50
286.2976619617
 51
73.7023380383
  0
ARC
  5
D4
330
1F
100
AcDbEntity
  8
0
  6
Continuous
 62
     7
370
    15
100
AcDbCircle
 10
101.6733412072
 20
194.7785297763
 30
0.0
 40
47.86715728752537
100
AcDbArc
 50
231.1903896096
 51
253.7023380383
  0
ARC
  5
D5
330
1F
100
AcDbEntity
  8
0
  6
Continuous
 62
     7
370
    15
100
AcDbCircle
 10
101.6733412072
 20
194.7785297763
 30
0.0
 40
48.63284271247463
100
AcDbArc
 50
231.9122882504
 51
254.1258902834
  0
ARC
  5
D6
330
1F
100
AcDbEntity
  8
0
  6
Continuous
 62
     7
370
    15
100
AcDbCircle
 10
101.6733412072
 20
194.7785297763
 30
0.0
 40
48.63284271247463
100
AcDbArc
 50
218.0877117496
 51
231.9122882504
  0
ARC
  5
D7
330
1F
100
AcDbEntity
  8
0
  6
Continuous
 62
     7
370
    15
100
AcDbCircle
 10
101.6733412072
 20
194.7785297763
 30
0.0
 40
48.63284271247466
100
AcDbArc
 50
105.9657859825
 51
218.0877117496
  0
ARC
  5
D8
330
1F
100
AcDbEntity
  8
0
  6
Continuous
 62
     7
370
    15
100
AcDbCircle
 10
101.6733412072
 20
194.7785297763
 30
0.0
 40
48.63284271247466
100
AcDbArc
 50
74.1258902834
 51
105.9657859825
  0
ARC
  5
D9
330
1F
100
AcDbEntity
  8
0
  6
Continuous
 62
     7
370
    15
100
AcDbCircle
 10
101.6733412072
 20
194.7785297763
 30
0.0
 40
48.63284271247462
100
AcDbArc
 50
285.9657859825
 51
74.1258902834
  0
ARC
  5
DA
330
1F
100
AcDbEntity
  8
0
  6
Continuous
 62
     7
370
    15
100
AcDbCircle
 10
101.6733412072
 20
194.7785297763
 30
0.0
 40
48.63284271247462
100
AcDbArc
 50
254.1258902834
 51
285.9657859825
  0
SPLINE
  5
DB
330
1F
100
AcDbEntity
  8
0
  6
Continuous
 62
     7
370
    15
100
AcDbSpline
210
0.0
220
0.0
230
1.0
 70
    24
 71
     3
 72
    10
 73
     6
 74
     0
 42
0.000000001
 43
0.00000001
 40
0.0
 40
0.0
 40
0.0
 40
0.0
 40
0.5
 40
0.5
 40
1.0
 40
1.0
 40
1.0
 40
1.0
 10
115.0504510193197
 20
148.021644471919
 30
0.0
 10
115.090644351583
 20
147.9987029516818
 30
0.0
 10
115.1258963164196
 20
147.9785818614623
 30
0.0
 10
115.1771758151233
 20
147.9493125874058
 30
0.0
 10
115.192499773449
 20
147.940565989892
 30
0.0
 10
115.192499773449
 20
147.940565989892
 30
0.0
  0
ARC
  5
DC
330
1F
100
AcDbEntity
  8
0
  6
Continuous
 62
     7
370
    15
100
AcDbCircle
 10
101.6733412072
 20
194.7785297763
 30
0.0
 40
48.75000000000001
100
AcDbArc
 50
254.0491974398
 51
286.1000846724
  0
SPLINE
  5
DD
330
1F
100
AcDbEntity
  8
0
  6
Continuous
 62
     7
370
    15
100
AcDbSpline
210
0.0
220
0.0
230
1.0
 70
    24
 71
     3
 72
     8
 73
     4
 74
     0
 42
0.000000001
 43
0.00000001
 40
0.0
 40
0.0
 40
0.0
 40
0.0
 40
1.0
 40
1.0
 40
1.0
 40
1.0
 10
88.27626303579895
 20
147.9055013221346
 30
0.0
 10
88.27626303579895
 20
147.9055013221346
 30
0.0
 10
88.3133596288652
 20
147.9425979152009
 30
0.0
 10
88.37106196696219
 20
148.0003002532979
 30
0.0
  0
SPLINE
  5
DE
330
1F
100
AcDbEntity
  8
0
  6
Continuous
 62
     7
370
    15
100
AcDbSpline
210
0.0
220
0.0
230
1.0
 70
    24
 71
     3
 72
    10
 73
     6
 74
     0
 42
0.000000001
 43
0.00000001
 40
0.0
 40
0.0
 40
0.0
 40
0.0
 40
0.5
 40
0.5
 40
1.0
 40
1.0
 40
1.0
 40
1.0
 10
88.2962313951035
 20
241.5354150807678
 30
0.0
 10
88.25603806284028
 20
241.5583566010048
 30
0.0
 10
88.22078609800366
 20
241.5784776912244
 30
0.0
 10
88.16950659929998
 20
241.607746965281
 30
0.0
 10
88.15418264097428
 20
241.6164935627947
 30
0.0
 10
88.15418264097428
 20
241.6164935627947
 30
0.0
  0
ARC
  5
DF
330
1F
100
AcDbEntity
  8
0
  6
Continuous
 62
     7
370
    15
100
AcDbCircle
 10
101.6733412072
 20
194.7785297763
 30
0.0
 40
48.75000000000003
100
AcDbArc
 50
74.0491974398
 51
106.1000846724
  0
SPLINE
  5
E0
330
1F
100
AcDbEntity
  8
0
  6
Continuous
 62
     7
370
    15
100
AcDbSpline
210
0.0
220
0.0
230
1.0
 70
    24
 71
     3
 72
     8
 73
     4
 74
     0
 42
0.000000001
 43
0.00000001
 40
0.0
 40
0.0
 40
0.0
 40
0.0
 40
1.0
 40
1.0
 40
1.0
 40
1.0
 10
115.0704193786243
 20
241.651558230552
 30
0.0
 10
115.0704193786243
 20
241.651558230552
 30
0.0
 10
115.0333227855581
 20
241.6144616374858
 30
0.0
 10
114.9756204474611
 20
241.5567592993888
 30
0.0
  0
ARC
  5
E1
330
1F
100
AcDbEntity
  8
0
  6
Continuous
 62
     7
370
    15
100
AcDbCircle
 10
101.6733412072
 20
194.7785297763
 30
0.0
 40
48.75000000000001
100
AcDbArc
 50
217.9798724449
 51
232.0201275551
  0
SPLINE
  5
E2
330
1F
100
AcDbEntity
  8
0
  6
Continuous
 62
     7
370
    15
100
AcDbSpline
210
0.0
220
0.0
230
1.0
 70
    24
 71
     3
 72
     8
 73
     4
 74
     0
 42
0.000000001
 43
0.00000001
 40
0.0
 40
0.0
 40
0.0
 40
0.0
 40
1.0
 40
1.0
 40
1.0
 40
1.0
 10
63.24727583486307
 20
164.7785297763434
 30
0.0
 10
63.24727583486307
 20
164.7785297763434
 30
0.0
 10
63.30879138329452
 20
164.7785297763434
 30
0.0
 10
63.39601906607566
 20
164.7785297763434
 30
0.0
  0
SPLINE
  5
E3
330
1F
100
AcDbEntity
  8
0
  6
Continuous
 62
     7
370
    15
100
AcDbSpline
210
0.0
220
0.0
230
1.0
 70
    24
 71
     3
 72
     8
 73
     4
 74
     0
 42
0.000000001
 43
0.00000001
 40
0.0
 40
0.0
 40
0.0
 40
0.0
 40
1.0
 40
1.0
 40
1.0
 40
1.0
 10
71.67334120721164
 20
156.5012076352074
 30
0.0
 10
71.67334120721164
 20
156.4139332189931
 30
0.0
 10
71.67334120721162
 20
156.3524644039945
 30
0.0
 10
71.67334120721162
 20
156.3524644039948
 30
0.0
  0
ARC
  5
E4
330
1F
100
AcDbEntity
  8
0
  6
Continuous
 62
     7
370
    15
100
AcDbCircle
 10
101.6733412072
 20
194.7785297763
 30
0.0
 40
48.75000000000001
100
AcDbArc
 50
232.0201275551
 51
254.0491974398
  0
ARC
  5
E5
330
1F
100
AcDbEntity
  8
0
  6
Continuous
 62
     7
370
    15
100
AcDbCircle
 10
101.6733412072
 20
194.7785297763
 30
0.0
 40
48.74999999999999
100
AcDbArc
 50
106.1000846724
 51
217.9798724449
  0
ARC
  5
E6
330
1F
100
AcDbEntity
  8
0
  6
Continuous
 62
     7
370
    15
100
AcDbCircle
 10
101.6733412072
 20
194.7785297763
 30
0.0
 40
48.75000000000003
100
AcDbArc
 50
286.1000846724
 51
74.0491974398
  0
INSERT
  5
F2
330
1F
100
AcDbEntity
  8
DIM
100
AcDbBlockReference
  2
SW_CENTERMARKSYMBOL_0
 10
101.6733412072
 20
194.7785297763
 30
0.0
  0
LINE
  5
F3
330
1F
100
AcDbEntity
  8
0
  6
Continuous
 62
     7
370
    15
100
AcDbLine
 10
317.7440485386
 20
146.0285297763
 30
0.0
 11
321.3307678494
 21
146.0285297763
 31
0.0
  0
LINE
  5
F4
330
1F
100
AcDbEntity
  8
0
  6
Continuous
 62
     7
370
    15
100
AcDbLine
 10
321.3307678494
 20
243.5285297763
 30
0.0
 11
317.7440485386
 21
243.5285297763
 31
0.0
  0
LINE
  5
F5
330
1F
100
AcDbEntity
  8
0
  6
Continuous
 62
     7
370
    15
100
AcDbLine
 10
317.7440485386
 20
243.5285297763
 30
0.0
 11
316.3964532744
 21
241.1944263107
 31
0.0
  0
LINE
  5
F6
330
1F
100
AcDbEntity
  8
0
  6
Continuous
 62
     7
370
    15
100
AcDbLine
 10
316.3964532744
 20
148.362633242
 30
0.0
 11
317.7440485386
 21
146.0285297763
 31
0.0
  0
LINE
  5
F7
330
1F
100
AcDbEntity
  8
0
  6
Continuous
 62
     7
370
    15
100
AcDbLine
 10
311.2488580102
 20
146.0285297763
 30
0.0
 11
312.5964532744
 21
148.362633242
 31
0.0
  0
LINE
  5
F8
330
1F
100
AcDbEntity
  8
0
  6
Continuous
 62
     7
370
    15
100
AcDbLine
 10
312.5964532744
 20
241.1944263107
 30
0.0
 11
311.2488580102
 21
243.5285297763
 31
0.0
  0
LINE
  5
F9
330
1F
100
AcDbEntity
  8
0
  6
Continuous
 62
     7
370
    15
100
AcDbLine
 10
307.7621386993
 20
146.0285297763
 30
0.0
 11
311.2488580102
 21
146.0285297763
 31
0.0
  0
LINE
  5
FA
330
1F
100
AcDbEntity
  8
0
  6
Continuous
 62
     7
370
    15
100
AcDbLine
 10
311.2488580102
 20
243.5285297763
 30
0.0
 11
307.7621386993
 21
243.5285297763
 31
0.0
  0
LINE
  5
FB
330
1F
100
AcDbEntity
  8
0
  6
Continuous
 62
     7
370
    15
100
AcDbLine
 10
321.6136105619
 20
146.1456870639
 30
0.0
 11
322.3792959869
 21
146.9113724888
 31
0.0
  0
LINE
  5
FC
330
1F
100
AcDbEntity
  8
0
  6
Continuous
 62
     7
370
    15
100
AcDbLine
 10
322.3792959869
 20
242.6456870639
 30
0.0
 11
321.6136105619
 21
243.4113724888
 31
0.0
  0
LINE
  5
FD
330
1F
100
AcDbEntity
  8
0
  6
Continuous
 62
     7
370
    15
100
AcDbLine
 10
307.4792959869
 20
243.4113724888
 30
0.0
 11
306.7136105619
 21
242.6456870639
 31
0.0
  0
LINE
  5
FE
330
1F
100
AcDbEntity
  8
0
  6
Continuous
 62
     7
370
    15
100
AcDbLine
 10
306.7136105619
 20
146.9113724888
 30
0.0
 11
307.4792959869
 21
146.1456870639
 31
0.0
  0
LINE
  5
FF
330
1F
100
AcDbEntity
  8
0
  6
Continuous
 62
     7
370
    15
100
AcDbLine
 10
312.5964532744
 20
149.2785297763
 30
0.0
 11
316.3964532744
 21
149.2785297763
 31
0.0
  0
LINE
  5
100
330
1F
100
AcDbEntity
  8
0
  6
Continuous
 62
     7
370
    15
100
AcDbLine
 10
316.3964532744
 20
240.2785297763
 30
0.0
 11
312.5964532744
 21
240.2785297763
 31
0.0
  0
ARC
  5
101
330
1F
100
AcDbEntity
  8
0
  6
Continuous
 62
     7
370
    15
100
AcDbCircle
 10
306.0964532744
 20
159.7785297763
 30
0.0
 40
0.5000000000000568
100
AcDbArc
 50
0.0
 51
90.0
  0
ARC
  5
102
330
1F
100
AcDbEntity
  8
0
  6
Continuous
 62
     7
370
    15
100
AcDbCircle
 10
306.0964532744
 20
229.7785297763
 30
0.0
 40
0.5000000000000568
100
AcDbArc
 50
270.0
 51
0.0
  0
LINE
  5
103
330
1F
100
AcDbEntity
  8
0
  6
Continuous
 62
     7
370
    15
100
AcDbLine
 10
303.3964532744
 20
229.7035297763
 30
0.0
 11
202.5021450471
 21
214.9896375634
 31
0.0
  0
LINE
  5
104
330
1F
100
AcDbEntity
  8
0
  6
Continuous
 62
     7
370
    15
100
AcDbLine
 10
202.5021450471
 20
174.5674219893
 30
0.0
 11
303.3964532744
 21
159.8535297763
 31
0.0
  0
LINE
  5
105
330
1F
100
AcDbEntity
  8
0
  6
Continuous
 62
     7
370
    15
100
AcDbLine
 10
303.3964532744
 20
159.8535297763
 30
0.0
 11
304.3078687156
 21
160.2785297763
 31
0.0
  0
LINE
  5
106
330
1F
100
AcDbEntity
  8
0
  6
Continuous
 62
     7
370
    15
100
AcDbLine
 10
304.3078687156
 20
229.2785297763
 30
0.0
 11
303.3964532744
 21
229.7035297763
 31
0.0
  0
LINE
  5
107
330
1F
100
AcDbEntity
  8
0
  6
Continuous
 62
     7
370
    15
100
AcDbLine
 10
304.3078687156
 20
160.2785297763
 30
0.0
 11
306.0964532744
 21
160.2785297763
 31
0.0
  0
LINE
  5
108
330
1F
100
AcDbEntity
  8
0
  6
Continuous
 62
     7
370
    15
100
AcDbLine
 10
306.0964532744
 20
229.2785297763
 30
0.0
 11
304.3078687156
 21
229.2785297763
 31
0.0
  0
LINE
  5
109
330
1F
100
AcDbEntity
  8
0
  6
Continuous
 62
     7
370
    15
100
AcDbLine
 10
460.5097019284
 20
169.7785297763
 30
0.0
 11
463.3964532744
 21
174.7785297763
 31
0.0
  0
LINE
  5
10A
330
1F
100
AcDbEntity
  8
0
  6
Continuous
 62
     7
370
    15
100
AcDbLine
 10
463.3964532744
 20
214.7785297763
 30
0.0
 11
460.5097019284
 21
219.7785297763
 31
0.0
  0
LINE
  5
10B
330
1F
100
AcDbEntity
  8
0
  6
Continuous
 62
     7
370
    15
100
AcDbLine
 10
442.3964532744
 20
169.7785297763
 30
0.0
 11
460.5097019284
 21
169.7785297763
 31
0.0
  0
LINE
  5
10C
330
1F
100
AcDbEntity
  8
0
  6
Continuous
 62
     7
370
    15
100
AcDbLine
 10
460.5097019284
 20
219.7785297763
 30
0.0
 11
442.3964532744
 21
219.7785297763
 31
0.0
  0
LINE
  5
10D
330
1F
100
AcDbEntity
  8
0
  6
Continuous
 62
     7
370
    15
100
AcDbLine
 10
442.3964532744
 20
219.7785297763
 30
0.0
 11
440.3964532744
 21
217.7785297763
 31
0.0
  0
LINE
  5
10E
330
1F
100
AcDbEntity
  8
0
  6
Continuous
 62
     7
370
    15
100
AcDbLine
 10
440.3964532744
 20
171.7785297763
 30
0.0
 11
442.3964532744
 21
169.7785297763
 31
0.0
  0
ARC
  5
10F
330
1F
100
AcDbEntity
  8
0
  6
Continuous
 62
     7
370
    15
100
AcDbCircle
 10
324.4964532744
 20
219.2785297763
 30
0.0
 40
2.0
100
AcDbArc
 50
180.0
 51
270.0
  0
ARC
  5
110
330
1F
100
AcDbEntity
  8
0
  6
Continuous
 62
     7
370
    15
100
AcDbCircle
 10
324.4964532744
 20
170.2785297763
 30
0.0
 40
2.0
100
AcDbArc
 50
90.0
 51
180.0
  0
LINE
  5
111
330
1F
100
AcDbEntity
  8
0
  6
Continuous
 62
     7
370
    15
100
AcDbLine
 10
415.2044121695
 20
172.2785297763
 30
0.0
 11
419.9675518903
 21
175.0285297763
 31
0.0
  0
LINE
  5
112
330
1F
100
AcDbEntity
  8
0
  6
Continuous
 62
     7
370
    15
100
AcDbLine
 10
419.9675518903
 20
214.5285297763
 30
0.0
 11
415.2044121695
 21
217.2785297763
 31
0.0
  0
LINE
  5
113
330
1F
100
AcDbEntity
  8
0
  6
Continuous
 62
     7
370
    15
100
AcDbLine
 10
324.4964532744
 20
172.2785297763
 30
0.0
 11
415.2044121695
 21
172.2785297763
 31
0.0
  0
LINE
  5
114
330
1F
100
AcDbEntity
  8
0
  6
Continuous
 62
     7
370
    15
100
AcDbLine
 10
415.2044121695
 20
217.2785297763
 30
0.0
 11
324.4964532744
 21
217.2785297763
 31
0.0
  0
ARC
  5
115
330
1F
100
AcDbEntity
  8
0
  6
Continuous
 62
     7
370
    15
100
AcDbCircle
 10
202.6464532744
 20
175.5569547758
 30
0.0
 40
1.000000000000028
100
AcDbArc
 50
180.0
 51
261.7027777778
  0
ARC
  5
116
330
1F
100
AcDbEntity
  8
0
  6
Continuous
 62
     7
370
    15
100
AcDbCircle
 10
202.6464532744
 20
214.0001047769
 30
0.0
 40
1.000000000000028
100
AcDbArc
 50
98.2972222222
 51
180.0
  0
LINE
  5
117
330
1F
100
AcDbEntity
  8
0
  6
Continuous
 62
     7
370
    15
100
AcDbLine
 10
423.3964532744
 20
174.8285297763
 30
0.0
 11
440.3964532744
 21
174.8285297763
 31
0.0
  0
LINE
  5
118
330
1F
100
AcDbEntity
  8
0
  6
Continuous
 62
     7
370
    15
100
AcDbLine
 10
440.3964532744
 20
214.7285297763
 30
0.0
 11
423.3964532744
 21
214.7285297763
 31
0.0
  0
LINE
  5
119
330
1F
100
AcDbEntity
  8
0
  6
Continuous
 62
     7
370
    15
100
AcDbLine
 10
423.3964532744
 20
214.7285297763
 30
0.0
 11
422.9675518903
 21
214.5285297763
 31
0.0
  0
LINE
  5
11A
330
1F
100
AcDbEntity
  8
0
  6
Continuous
 62
     7
370
    15
100
AcDbLine
 10
422.9675518903
 20
175.0285297763
 30
0.0
 11
423.3964532744
 21
174.8285297763
 31
0.0
  0
LINE
  5
11B
330
1F
100
AcDbEntity
  8
0
  6
Continuous
 62
     7
370
    15
100
AcDbLine
 10
419.9675518903
 20
175.0285297763
 30
0.0
 11
422.9675518903
 21
175.0285297763
 31
0.0
  0
LINE
  5
11C
330
1F
100
AcDbEntity
  8
0
  6
Continuous
 62
     7
370
    15
100
AcDbLine
 10
422.9675518903
 20
214.5285297763
 30
0.0
 11
419.9675518903
 21
214.5285297763
 31
0.0
  0
ARC
  5
11D
330
1F
100
AcDbEntity
  8
0
  6
Continuous
 62
     7
370
    15
100
AcDbCircle
 10
306.9964532744
 20
242.3628443514
 30
0.0
 40
0.4000000000000394
100
AcDbArc
 50
135.0
 51
180.0
  0
ARC
  5
11E
330
1F
100
AcDbEntity
  8
0
  6
Continuous
 62
     7
370
    15
100
AcDbCircle
 10
322.0964532744
 20
147.1942152013
 30
0.0
 40
0.4000000000000595
100
AcDbArc
 50
315.0
 51
0.0
  0
ARC
  5
11F
330
1F
100
AcDbEntity
  8
0
  6
Continuous
 62
     7
370
    15
100
AcDbCircle
 10
306.9964532744
 20
147.1942152013
 30
0.0
 40
0.4000000000000193
100
AcDbArc
 50
180.0
 51
225.0
  0
ARC
  5
120
330
1F
100
AcDbEntity
  8
0
  6
Continuous
 62
     7
370
    15
100
AcDbCircle
 10
322.0964532744
 20
242.3628443514
 30
0.0
 40
0.4000000000000796
100
AcDbArc
 50
0.0
 51
45.0
  0
ARC
  5
121
330
1F
100
AcDbEntity
  8
0
  6
Continuous
 62
     7
370
    15
100
AcDbCircle
 10
307.7621386993
 20
146.4285297763
 30
0.0
 40
0.4000000000000057
100
AcDbArc
 50
225.0
 51
270.0
  0
ARC
  5
122
330
1F
100
AcDbEntity
  8
0
  6
Continuous
 62
     7
370
    15
100
AcDbCircle
 10
321.3307678494
 20
146.4285297763
 30
0.0
 40
0.4000000000000193
100
AcDbArc
 50
270.0
 51
315.0
  0
ARC
  5
123
330
1F
100
AcDbEntity
  8
0
  6
Continuous
 62
     7
370
    15
100
AcDbCircle
 10
321.3307678494
 20
243.1285297763
 30
0.0
 40
0.4000000000000057
100
AcDbArc
 50
45.0
 51
90.0
  0
ARC
  5
124
330
1F
100
AcDbEntity
  8
0
  6
Continuous
 62
     7
370
    15
100
AcDbCircle
 10
307.7621386993
 20
243.1285297763
 30
0.0
 40
0.4000000000000057
100
AcDbArc
 50
90.0
 51
135.0
  0
SPLINE
  5
125
330
1F
100
AcDbEntity
  8
0
  6
Continuous
 62
     7
370
    15
100
AcDbSpline
210
0.0
220
0.0
230
1.0
 70
     8
 71
     3
 72
     8
 73
     4
 74
     0
 42
0.000000001
 43
0.00000001
 40
0.0
 40
0.0
 40
0.0
 40
0.0
 40
1.0
 40
1.0
 40
1.0
 40
1.0
 10
321.6136105619167
 20
241.5567592993888
 30
0.0
 10
321.5422947497348
 20
241.6144866846615
 30
0.0
 10
321.439393592098
 20
241.651558230552
 30
0.0
 10
321.3307678494421
 20
241.651558230552
 30
0.0
  0
LINE
  5
126
330
1F
100
AcDbEntity
  8
0
  6
Continuous
 62
     7
370
    15
100
AcDbLine
 10
321.6136105619
 20
241.5567592994
 30
0.0
 11
321.6136105619
 21
148.0216444719
 31
0.0
  0
SPLINE
  5
127
330
1F
100
AcDbEntity
  8
0
  6
Continuous
 62
     7
370
    15
100
AcDbSpline
210
0.0
220
0.0
230
1.0
 70
     8
 71
     3
 72
    10
 73
     6
 74
     0
 42
0.000000001
 43
0.00000001
 40
0.0
 40
0.0
 40
0.0
 40
0.0
 40
0.5
 40
0.5
 40
1.0
 40
1.0
 40
1.0
 40
1.0
 10
321.3307678494421
 20
147.940565989892
 30
0.0
 10
321.3879579591927
 20
147.940565989892
 30
0.0
 10
321.4434232848831
 20
147.9492818045094
 30
0.0
 10
321.5396547988012
 20
147.9784998817557
 30
0.0
 10
321.5804838238833
 20
147.9986929394879
 30
0.0
 10
321.6136105619167
 20
148.021644471919
 30
0.0
  0
LINE
  5
128
330
1F
100
AcDbEntity
  8
0
  6
Continuous
 62
     7
370
    15
100
AcDbLine
 10
321.3307678494
 20
147.9405659899
 30
0.0
 11
321.3307678494
 21
241.6515582306
 31
0.0
  0
LINE
  5
129
330
1F
100
AcDbEntity
  8
0
  6
Continuous
 62
     7
370
    15
100
AcDbLine
 10
307.7621386993
 20
147.9405659899
 30
0.0
 11
307.7621386993
 21
241.6515582306
 31
0.0
  0
SPLINE
  5
12A
330
1F
100
AcDbEntity
  8
0
  6
Continuous
 62
     7
370
    15
100
AcDbSpline
210
0.0
220
0.0
230
1.0
 70
     8
 71
     3
 72
    10
 73
     6
 74
     0
 42
0.000000001
 43
0.00000001
 40
0.0
 40
0.0
 40
0.0
 40
0.0
 40
0.5
 40
0.5
 40
1.0
 40
1.0
 40
1.0
 40
1.0
 10
307.4792959868659
 20
148.021644471919
 30
0.0
 10
307.5124082739546
 20
147.9987029516818
 30
0.0
 10
307.5530482330683
 20
147.9785818614623
 30
0.0
 10
307.6493156461308
 20
147.9493125874058
 30
0.0
 10
307.7049503405941
 20
147.940565989892
 30
0.0
 10
307.7621386993405
 20
147.940565989892
 30
0.0
  0
LINE
  5
12B
330
1F
100
AcDbEntity
  8
0
  6
Continuous
 62
     7
370
    15
100
AcDbLine
 10
307.4792959869
 20
148.0216444719
 30
0.0
 11
307.4792959869
 21
241.5567592994
 31
0.0
  0
SPLINE
  5
12C
330
1F
100
AcDbEntity
  8
0
  6
Continuous
 62
     7
370
    15
100
AcDbSpline
210
0.0
220
0.0
230
1.0
 70
     8
 71
     3
 72
     8
 73
     4
 74
     0
 42
0.000000001
 43
0.00000001
 40
0.0
 40
0.0
 40
0.0
 40
0.0
 40
1.0
 40
1.0
 40
1.0
 40
1.0
 10
307.7621386993405
 20
241.651558230552
 30
0.0
 10
307.6536217078896
 20
241.651558230552
 30
0.0
 10
307.5505808560272
 20
241.6144616374858
 30
0.0
 10
307.479295986866
 20
241.5567592993888
 30
0.0
  0
LINE
  5
12D
330
1F
100
AcDbEntity
  8
0
  6
Continuous
 62
     7
370
    15
100
AcDbLine
 10
317.7440485386
 20
147.9405659899
 30
0.0
 11
317.7440485386
 21
146.0285297763
 31
0.0
  0
LINE
  5
12E
330
1F
100
AcDbEntity
  8
0
  6
Continuous
 62
     7
370
    15
100
AcDbLine
 10
317.7440485386
 20
243.5285297763
 30
0.0
 11
317.7440485386
 21
147.9405659899
 31
0.0
  0
LINE
  5
12F
330
1F
100
AcDbEntity
  8
0
  6
Continuous
 62
     7
370
    15
100
AcDbLine
 10
316.3964532744
 20
241.1944263107
 30
0.0
 11
316.3964532744
 21
148.362633242
 31
0.0
  0
LINE
  5
130
330
1F
100
AcDbEntity
  8
0
  6
Continuous
 62
     7
370
    15
100
AcDbLine
 10
312.5964532744
 20
194.7785297763
 30
0.0
 11
312.5964532744
 21
241.1944263107
 31
0.0
  0
LINE
  5
131
330
1F
100
AcDbEntity
  8
0
  6
Continuous
 62
     7
370
    15
100
AcDbLine
 10
312.5964532744
 20
148.362633242
 30
0.0
 11
312.5964532744
 21
194.7785297763
 31
0.0
  0
LINE
  5
132
330
1F
100
AcDbEntity
  8
0
  6
Continuous
 62
     7
370
    15
100
AcDbLine
 10
311.2488580102
 20
241.6515582306
 30
0.0
 11
311.2488580102
 21
146.0285297763
 31
0.0
  0
LINE
  5
133
330
1F
100
AcDbEntity
  8
0
  6
Continuous
 62
     7
370
    15
100
AcDbLine
 10
311.2488580102
 20
243.5285297763
 30
0.0
 11
311.2488580102
 21
241.6515582306
 31
0.0
  0
LINE
  5
134
330
1F
100
AcDbEntity
  8
0
  6
Continuous
 62
     7
370
    15
100
AcDbLine
 10
322.3792959869
 20
240.7222288378
 30
0.0
 11
322.3792959869
 21
148.8348307149
 31
0.0
  0
LINE
  5
135
330
1F
100
AcDbEntity
  8
0
  6
Continuous
 62
     7
370
    15
100
AcDbLine
 10
306.7136105619
 20
148.8348307149
 30
0.0
 11
306.7136105619
 21
240.7222288378
 31
0.0
  0
SPLINE
  5
136
330
1F
100
AcDbEntity
  8
0
  6
Continuous
 62
     7
370
    15
100
AcDbSpline
210
0.0
220
0.0
230
1.0
 70
     8
 71
     3
 72
    10
 73
     6
 74
     0
 42
0.000000001
 43
0.00000001
 40
0.0
 40
0.0
 40
0.0
 40
0.0
 40
0.5
 40
0.5
 40
1.0
 40
1.0
 40
1.0
 40
1.0
 10
306.5964532743913
 20
149.1642283613552
 30
0.0
 10
306.5964532743913
 20
149.1002766725121
 30
0.0
 10
306.6102991504161
 20
149.038712334061
 30
0.0
 10
306.6524649266034
 20
148.928086983212
 30
0.0
 10
306.6809556268666
 20
148.8784002915425
 30
0.0
 10
306.7136105619167
 20
148.8348307148767
 30
0.0
  0
SPLINE
  5
137
330
1F
100
AcDbEntity
  8
0
  6
Continuous
 62
     7
370
    15
100
AcDbSpline
210
0.0
220
0.0
230
1.0
 70
    24
 71
     3
 72
    36
 73
    32
 74
     0
 42
0.000000001
 43
0.00000001
 40
0.0
 40
0.0
 40
0.0
 40
0.0
 40
0.0108670927976138
 40
0.0217248651294953
 40
0.0325754130156982
 40
0.0434208366649332
 40
0.0542632392636552
 40
0.065104725756519
 40
0.0759474016217247
 40
0.0867933716448104
 40
0.0976447386944597
 40
0.1085036025038803
 40
0.1193720584612676
 40
0.1813968118522707
 40
0.2434299656516123
 40
0.3071319153785467
 40
0.3708424926864622
 40
0.4354174331848614
 40
0.5000011195034882
 40
0.5645760601040033
 40
0.6291597465272422
 40
0.6928616965456248
 40
0.7565722741492584
 40
0.8185970279756692
 40
0.8806301822188896
 40
0.9005456108402741
 40
0.9204355762661642
 40
0.9403130274596062
 40
0.9601909378399034
 40
0.9800822799278944
 40
1.0
 40
1.0
 40
1.0
 40
1.0
 10
306.5964532743913
 20
149.1642283613552
 30
0.0
 10
306.5964532743913
 20
149.2279888584431
 30
0.0
 10
306.5964532743913
 20
149.3554551666472
 30
0.0
 10
306.5964532743913
 20
149.5577186976686
 30
0.0
 10
306.5964532743913
 20
149.767963266168
 30
0.0
 10
306.5964532743913
 20
149.9869887309116
 30
0.0
 10
306.5964532743913
 20
150.2145809342405
 30
0.0
 10
306.5964532743913
 20
150.45079722172
 30
0.0
 10
306.5964532743913
 20
150.6956221045739
 30
0.0
 10
306.5964532743913
 20
150.9490600494791
 30
0.0
 10
306.5964532743913
 20
151.2111084924814
 30
0.0
 10
306.5964532743913
 20
151.4817730199992
 30
0.0
 10
306.5964532743913
 20
152.1990522605885
 30
0.0
 10
306.5964532743913
 20
153.4705657824976
 30
0.0
 10
306.5964532743913
 20
155.5043309560249
 30
0.0
 10
306.5964532743913
 20
157.8115539303079
 30
0.0
 10
306.5964532743913
 20
160.3985199262152
 30
0.0
 10
306.5964532743913
 20
163.2292480988461
 30
0.0
 10
306.5964532743913
 20
166.2899183565979
 30
0.0
 10
306.5964532743913
 20
169.544929795736
 30
0.0
 10
306.5964532743913
 20
172.9581379284046
 30
0.0
 10
306.5964532743913
 20
176.5022935182546
 30
0.0
 10
306.5964532743913
 20
180.1206930103454
 30
0.0
 10
306.5964532743913
 20
183.8010292586829
 30
0.0
 10
306.5964532743913
 20
186.6774307089883
 30
0.0
 10
306.5964532743913
 20
188.7276656713088
 30
0.0
 10
306.5964532743913
 20
189.9332158102877
 30
0.0
 10
306.5964532743913
 20
191.1411469864162
 30
0.0
 10
306.5964532743913
 20
192.3514798791063
 30
0.0
 10
306.5964532743913
 20
193.5642071170569
 30
0.0
 10
306.5964532743913
 20
194.373576790414
 30
0.0
 10
306.5964532743913
 20
194.7785297763433
 30
0.0
  0
SPLINE
  5
138
330
1F
100
AcDbEntity
  8
0
  6
Continuous
 62
     7
370
    15
100
AcDbSpline
210
0.0
220
0.0
230
1.0
 70
    24
 71
     3
 72
    36
 73
    32
 74
     0
 42
0.000000001
 43
0.00000001
 40
0.0
 40
0.0
 40
0.0
 40
0.0
 40
0.010867092798112
 40
0.021724865130392
 40
0.0325754130168938
 40
0.0434208366663277
 40
0.0542632392651492
 40
0.065104725758013
 40
0.0759474016231196
 40
0.086793371646007
 40
0.0976447386953594
 40
0.108503602504385
 40
0.1193720584612793
 40
0.1813968118534446
 40
0.2434299656516118
 40
0.3071319153763559
 40
0.3708424926864515
 40
0.4354174331816658
 40
0.500001119503481
 40
0.5645760601028219
 40
0.6291597465272444
 40
0.6928616965449617
 40
0.7565722741492541
 40
0.8185970279746905
 40
0.880630182218889
 40
0.9005456108401859
 40
0.9204355762660236
 40
0.9403130274594478
 40
0.9601909378397625
 40
0.9800822799278064
 40
0.9999999999999999
 40
0.9999999999999999
 40
0.9999999999999999
 40
0.9999999999999999
 10
306.5964532743913
 20
194.7785297763433
 30
0.0
 10
306.5964532743913
 20
194.9994675765991
 30
0.0
 10
306.5964532743913
 20
195.4411536836318
 30
0.0
 10
306.5964532743913
 20
196.1033138115505
 30
0.0
 10
306.5964532743913
 20
196.7647780462353
 30
0.0
 10
306.5964532743913
 20
197.4255463274165
 30
0.0
 10
306.5964532743913
 20
198.0856185666757
 30
0.0
 10
306.5964532743913
 20
198.7449947302274
 30
0.0
 10
306.5964532743913
 20
199.4036745932797
 30
0.0
 10
306.5964532743913
 20
200.0616586417784
 30
0.0
 10
306.5964532743913
 20
200.7189447110842
 30
0.0
 10
306.5964532743913
 20
201.3755405410353
 30
0.0
 10
306.5964532743913
 20
203.060155230149
 30
0.0
 10
306.5964532743913
 20
205.7558838952114
 30
0.0
 10
306.5964532743913
 20
209.4360315636866
 30
0.0
 10
306.5964532743913
 20
213.0546041854245
 30
0.0
 10
306.5964532743913
 20
216.5986074465274
 30
0.0
 10
306.5964532743913
 20
220.0119778363141
 30
0.0
 10
306.5964532743913
 20
223.26685626073
 30
0.0
 10
306.5964532743913
 20
226.3276776077415
 30
0.0
 10
306.5964532743913
 20
229.1582946974702
 30
0.0
 10
306.5964532743913
 20
231.7453965132146
 30
0.0
 10
306.5964532743913
 20
234.0525265792822
 30
0.0
 10
306.5964532743913
 20
236.0864308939669
 30
0.0
 10
306.5964532743913
 20
237.4431350025385
 30
0.0
 10
306.5964532743913
 20
238.3045689979793
 30
0.0
 10
306.5964532743913
 20
238.7811157915477
 30
0.0
 10
306.5964532743913
 20
239.2288623209361
 30
0.0
 10
306.5964532743913
 20
239.6471014616828
 30
0.0
 10
306.5964532743913
 20
240.0385146660207
 30
0.0
 10
306.5964532743913
 20
240.2746735222873
 30
0.0
 10
306.5964532743913
 20
240.3928311913315
 30
0.0
  0
SPLINE
  5
139
330
1F
100
AcDbEntity
  8
0
  6
Continuous
 62
     7
370
    15
100
AcDbSpline
210
0.0
220
0.0
230
1.0
 70
     8
 71
     3
 72
    10
 73
     6
 74
     0
 42
0.000000001
 43
0.00000001
 40
0.0
 40
0.0
 40
0.0
 40
0.0
 40
0.5
 40
0.5
 40
1.0
 40
1.0
 40
1.0
 40
1.0
 10
306.7136105619167
 20
240.72222883781
 30
0.0
 10
306.6809775008994
 20
240.6786884463913
 30
0.0
 10
306.6529966146331
 20
240.6301338422736
 30
0.0
 10
306.6103397642581
 20
240.5186843065117
 30
0.0
 10
306.5964532743913
 20
240.4567260539225
 30
0.0
 10
306.5964532743913
 20
240.3928311913315
 30
0.0
  0
SPLINE
  5
13A
330
1F
100
AcDbEntity
  8
0
  6
Continuous
 62
     7
370
    15
100
AcDbSpline
210
0.0
220
0.0
230
1.0
 70
     8
 71
     3
 72
    10
 73
     6
 74
     0
 42
0.000000001
 43
0.00000001
 40
0.0
 40
0.0
 40
0.0
 40
0.0
 40
0.5
 40
0.5
 40
1.0
 40
1.0
 40
1.0
 40
1.0
 10
322.4964532743913
 20
240.3928311913315
 30
0.0
 10
322.4964532743913
 20
240.4567828801746
 30
0.0
 10
322.4826073983665
 20
240.5183472186257
 30
0.0
 10
322.4404416221791
 20
240.6289725694748
 30
0.0
 10
322.411950921916
 20
240.6786592611442
 30
0.0
 10
322.3792959868659
 20
240.72222883781
 30
0.0
  0
SPLINE
  5
13B
330
1F
100
AcDbEntity
  8
0
  6
Continuous
 62
     7
370
    15
100
AcDbSpline
210
0.0
220
0.0
230
1.0
 70
    24
 71
     3
 72
    36
 73
    32
 74
     0
 42
0.000000001
 43
0.00000001
 40
0.0
 40
0.0
 40
0.0
 40
0.0
 40
0.0108670927965337
 40
0.0217248651275513
 40
0.0325754130131067
 40
0.04342083666191
 40
0.0542632392604165
 40
0.0651047257532805
 40
0.0759474016187015
 40
0.0867933716422169
 40
0.0976447386925098
 40
0.1085036025027872
 40
0.1193720584612432
 40
0.1813968118477016
 40
0.2434299656516007
 40
0.3071319153751988
 40
0.3708424926864468
 40
0.4354174331836081
 40
0.5000011195034932
 40
0.564576060103226
 40
0.6291597465272312
 40
0.6928616965420838
 40
0.7565722741492458
 40
0.8185970279741822
 40
0.8806301822188932
 40
0.9005456108405436
 40
0.920435576266594
 40
0.9403130274600895
 40
0.9601909378403332
 40
0.9800822799281632
 40
1.0
 40
1.0
 40
1.0
 40
1.0
 10
322.4964532743913
 20
240.3928311913315
 30
0.0
 10
322.4964532743913
 20
240.3290706942499
 30
0.0
 10
322.4964532743913
 20
240.201604386057
 30
0.0
 10
322.4964532743913
 20
239.9993408550505
 30
0.0
 10
322.4964532743913
 20
239.7890962865622
 30
0.0
 10
322.4964532743913
 20
239.570070821826
 30
0.0
 10
322.4964532743913
 20
239.3424786185008
 30
0.0
 10
322.4964532743913
 20
239.1062623310212
 30
0.0
 10
322.4964532743913
 20
238.8614374481635
 30
0.0
 10
322.4964532743913
 20
238.6079995032507
 30
0.0
 10
322.4964532743913
 20
238.3459510602372
 30
0.0
 10
322.4964532743913
 20
238.0752865327039
 30
0.0
 10
322.4964532743913
 20
237.358007292163
 30
0.0
 10
322.4964532743913
 20
236.0864937702435
 30
0.0
 10
322.4964532743913
 20
234.0527285967522
 30
0.0
 10
322.4964532743913
 20
231.7455056224186
 30
0.0
 10
322.4964532743913
 20
229.158539626534
 30
0.0
 10
322.4964532743913
 20
226.3278114538751
 30
0.0
 10
322.4964532743913
 20
223.2671411961211
 30
0.0
 10
322.4964532743913
 20
220.0121297569543
 30
0.0
 10
322.4964532743913
 20
216.5989216243614
 30
0.0
 10
322.4964532743913
 20
213.0547660344971
 30
0.0
 10
322.4964532743913
 20
209.4363665424376
 30
0.0
 10
322.4964532743913
 20
205.756030294038
 30
0.0
 10
322.4964532743913
 20
202.8796288437231
 30
0.0
 10
322.4964532743913
 20
200.8293938813636
 30
0.0
 10
322.4964532743913
 20
199.6238437423749
 30
0.0
 10
322.4964532743913
 20
198.4159125662431
 30
0.0
 10
322.4964532743913
 20
197.2055796735563
 30
0.0
 10
322.4964532743913
 20
195.9928524356156
 30
0.0
 10
322.4964532743913
 20
195.1834827622672
 30
0.0
 10
322.4964532743913
 20
194.7785297763433
 30
0.0
  0
SPLINE
  5
13C
330
1F
100
AcDbEntity
  8
0
  6
Continuous
 62
     7
370
    15
100
AcDbSpline
210
0.0
220
0.0
230
1.0
 70
    24
 71
     3
 72
    36
 73
    32
 74
     0
 42
0.000000001
 43
0.00000001
 40
0.0
 40
0.0
 40
0.0
 40
0.0
 40
0.0108670927969108
 40
0.02172486512823
 40
0.0325754130140115
 40
0.0434208366629656
 40
0.0542632392615474
 40
0.0651047257544114
 40
0.0759474016197573
 40
0.0867933716431228
 40
0.0976447386931911
 40
0.1085036025031695
 40
0.1193720584612525
 40
0.1813968118489844
 40
0.2434299656516035
 40
0.3071319153753932
 40
0.3708424926864487
 40
0.4354174331829652
 40
0.5000011195034905
 40
0.5645760601049141
 40
0.6291597465272492
 40
0.6928616965461417
 40
0.7565722741492588
 40
0.8185970279777104
 40
0.8806301822189077
 40
0.9005456108415782
 40
0.9204355762682427
 40
0.9403130274619435
 40
0.9601909378419813
 40
0.9800822799291935
 40
1.0
 40
1.0
 40
1.0
 40
1.0
 10
322.4964532743913
 20
194.7785297763433
 30
0.0
 10
322.4964532743913
 20
194.557591976112
 30
0.0
 10
322.4964532743913
 20
194.1159058691233
 30
0.0
 10
322.4964532743913
 20
193.4537457412632
 30
0.0
 10
322.4964532743913
 20
192.7922815066224
 30
0.0
 10
322.4964532743913
 20
192.1315132254705
 30
0.0
 10
322.4964532743913
 20
191.4714409862259
 30
0.0
 10
322.4964532743913
 20
190.8120648226743
 30
0.0
 10
322.4964532743913
 20
190.1533849596074
 30
0.0
 10
322.4964532743913
 20
189.4954009110794
 30
0.0
 10
322.4964532743913
 20
188.8381148417296
 30
0.0
 10
322.4964532743913
 20
188.18151901172
 30
0.0
 10
322.4964532743913
 20
186.4969043226479
 30
0.0
 10
322.4964532743913
 20
183.8011756575591
 30
0.0
 10
322.4964532743913
 20
180.1210279891058
 30
0.0
 10
322.4964532743913
 20
176.5024553672772
 30
0.0
 10
322.4964532743913
 20
172.9584521061548
 30
0.0
 10
322.4964532743913
 20
169.5450817163429
 30
0.0
 10
322.4964532743913
 20
166.2902032919023
 30
0.0
 10
322.4964532743913
 20
163.2293819449172
 30
0.0
 10
322.4964532743913
 20
160.39876485517
 30
0.0
 10
322.4964532743913
 20
157.8116630394574
 30
0.0
 10
322.4964532743913
 20
155.5045329733577
 30
0.0
 10
322.4964532743913
 20
153.4706286586784
 30
0.0
 10
322.4964532743913
 20
152.1139245501
 30
0.0
 10
322.4964532743913
 20
151.2524905546891
 30
0.0
 10
322.4964532743913
 20
150.7759437611051
 30
0.0
 10
322.4964532743913
 20
150.3281972317116
 30
0.0
 10
322.4964532743913
 20
149.9099580909695
 30
0.0
 10
322.4964532743913
 20
149.5185448866454
 30
0.0
 10
322.4964532743913
 20
149.2823860303914
 30
0.0
 10
322.4964532743913
 20
149.1642283613552
 30
0.0
  0
SPLINE
  5
13D
330
1F
100
AcDbEntity
  8
0
  6
Continuous
 62
     7
370
    15
100
AcDbSpline
210
0.0
220
0.0
230
1.0
 70
     8
 71
     3
 72
    10
 73
     6
 74
     0
 42
0.000000001
 43
0.00000001
 40
0.0
 40
0.0
 40
0.0
 40
0.0
 40
0.5
 40
0.5
 40
1.0
 40
1.0
 40
1.0
 40
1.0
 10
322.4964532743913
 20
149.1642283613552
 30
0.0
 10
322.4964532743913
 20
149.1002766725121
 30
0.0
 10
322.4826073983664
 20
149.038712334061
 30
0.0
 10
322.4404416221791
 20
148.928086983212
 30
0.0
 10
322.411950921916
 20
148.8784002915425
 30
0.0
 10
322.3792959868659
 20
148.8348307148767
 30
0.0
  0
LINE
  5
13E
330
1F
100
AcDbEntity
  8
0
  6
Continuous
 62
     7
370
    15
100
AcDbLine
 10
303.3964532744
 20
159.8535297763
 30
0.0
 11
303.3964532744
 21
229.7035297763
 31
0.0
  0
LINE
  5
13F
330
1F
100
AcDbEntity
  8
0
  6
Continuous
 62
     7
370
    15
100
AcDbLine
 10
304.3078687156
 20
194.7785297763
 30
0.0
 11
304.3078687156
 21
229.2785297763
 31
0.0
  0
LINE
  5
140
330
1F
100
AcDbEntity
  8
0
  6
Continuous
 62
     7
370
    15
100
AcDbLine
 10
304.3078687156
 20
160.2785297763
 30
0.0
 11
304.3078687156
 21
194.7785297763
 31
0.0
  0
LINE
  5
141
330
1F
100
AcDbEntity
  8
0
  6
Continuous
 62
     7
370
    15
100
AcDbLine
 10
460.5097019284
 20
194.7785297763
 30
0.0
 11
460.5097019284
 21
219.7785297763
 31
0.0
  0
LINE
  5
142
330
1F
100
AcDbEntity
  8
0
  6
Continuous
 62
     7
370
    15
100
AcDbLine
 10
460.5097019284
 20
169.7785297763
 30
0.0
 11
460.5097019284
 21
194.7785297763
 31
0.0
  0
LINE
  5
143
330
1F
100
AcDbEntity
  8
0
  6
Continuous
 62
     7
370
    15
100
AcDbLine
 10
463.3964532744
 20
194.7785297763
 30
0.0
 11
463.3964532744
 21
214.7785297763
 31
0.0
  0
LINE
  5
144
330
1F
100
AcDbEntity
  8
0
  6
Continuous
 62
     7
370
    15
100
AcDbLine
 10
463.3964532744
 20
174.7785297763
 30
0.0
 11
463.3964532744
 21
194.7785297763
 31
0.0
  0
LINE
  5
145
330
1F
100
AcDbEntity
  8
0
  6
Continuous
 62
     7
370
    15
100
AcDbLine
 10
442.3964532744
 20
169.7785297763
 30
0.0
 11
442.3964532744
 21
219.7785297763
 31
0.0
  0
LINE
  5
146
330
1F
100
AcDbEntity
  8
0
  6
Continuous
 62
     7
370
    15
100
AcDbLine
 10
440.3964532744
 20
217.7785297763
 30
0.0
 11
440.3964532744
 21
171.7785297763
 31
0.0
  0
LINE
  5
147
330
1F
100
AcDbEntity
  8
0
  6
Continuous
 62
     7
370
    15
100
AcDbLine
 10
419.9675518903
 20
194.7785297763
 30
0.0
 11
419.9675518903
 21
214.5285297763
 31
0.0
  0
LINE
  5
148
330
1F
100
AcDbEntity
  8
0
  6
Continuous
 62
     7
370
    15
100
AcDbLine
 10
419.9675518903
 20
175.0285297763
 30
0.0
 11
419.9675518903
 21
194.7785297763
 31
0.0
  0
LINE
  5
149
330
1F
100
AcDbEntity
  8
0
  6
Continuous
 62
     7
370
    15
100
AcDbLine
 10
415.2044121695
 20
194.7785297763
 30
0.0
 11
415.2044121695
 21
217.2785297763
 31
0.0
  0
LINE
  5
14A
330
1F
100
AcDbEntity
  8
0
  6
Continuous
 62
     7
370
    15
100
AcDbLine
 10
415.2044121695
 20
172.2785297763
 30
0.0
 11
415.2044121695
 21
194.7785297763
 31
0.0
  0
SPLINE
  5
14B
330
1F
100
AcDbEntity
  8
0
  6
Continuous
 62
     7
370
    15
100
AcDbSpline
210
0.0
220
0.0
230
1.0
 70
    24
 71
     3
 72
    10
 73
     6
 74
     0
 42
0.000000001
 43
0.00000001
 40
0.0
 40
0.0
 40
0.0
 40
0.0
 40
0.4999999999999997
 40
0.4999999999999997
 40
0.9999999999999999
 40
0.9999999999999999
 40
0.9999999999999999
 40
0.9999999999999999
 10
201.6464532743913
 20
214.0001047768887
 30
0.0
 10
201.6464532743913
 20
214.0001047768886
 30
0.0
 10
201.6464532743913
 20
211.9748783508197
 30
0.0
 10
201.6464532743913
 20
204.7655932578096
 30
0.0
 10
201.6464532743913
 20
199.8762641531178
 30
0.0
 10
201.6464532743913
 20
194.7785297763433
 30
0.0
  0
SPLINE
  5
14C
330
1F
100
AcDbEntity
  8
0
  6
Continuous
 62
     7
370
    15
100
AcDbSpline
210
0.0
220
0.0
230
1.0
 70
    24
 71
     3
 72
    10
 73
     6
 74
     0
 42
0.000000001
 43
0.00000001
 40
0.0
 40
0.0
 40
0.0
 40
0.0
 40
0.4999999999999999
 40
0.4999999999999999
 40
0.9999999999999999
 40
0.9999999999999999
 40
0.9999999999999999
 40
0.9999999999999999
 10
201.6464532743913
 20
194.7785297763433
 30
0.0
 10
201.6464532743913
 20
189.6807953995689
 30
0.0
 10
201.6464532743913
 20
184.7914662948767
 30
0.0
 10
201.6464532743913
 20
177.5821812018668
 30
0.0
 10
201.6464532743913
 20
175.5569547757978
 30
0.0
 10
201.6464532743913
 20
175.5569547757979
 30
0.0
  0
LINE
  5
14D
330
1F
100
AcDbEntity
  8
0
  6
Continuous
 62
     7
370
    15
100
AcDbLine
 10
423.3964532744
 20
174.8285297763
 30
0.0
 11
423.3964532744
 21
214.7285297763
 31
0.0
  0
LINE
  5
14E
330
1F
100
AcDbEntity
  8
0
  6
Continuous
 62
     7
370
    15
100
AcDbLine
 10
422.9675518903
 20
194.7785297763
 30
0.0
 11
422.9675518903
 21
214.5285297763
 31
0.0
  0
LINE
  5
14F
330
1F
100
AcDbEntity
  8
0
  6
Continuous
 62
     7
370
    15
100
AcDbLine
 10
422.9675518903
 20
175.0285297763
 30
0.0
 11
422.9675518903
 21
194.7785297763
 31
0.0
  0
LINE
  5
150
330
1F
100
AcDbEntity
  8
0
  6
Continuous
 62
     7
370
    15
100
AcDbLine
 10
306.5964532744
 20
240.3928311913
 30
0.0
 11
306.5964532744
 21
242.3628443514
 31
0.0
  0
LINE
  5
151
330
1F
100
AcDbEntity
  8
0
  6
Continuous
 62
     7
370
    15
100
AcDbLine
 10
322.4964532744
 20
147.1942152013
 30
0.0
 11
322.4964532744
 21
149.1642283614
 31
0.0
  0
LINE
  5
152
330
1F
100
AcDbEntity
  8
0
  6
Continuous
 62
     7
370
    15
100
AcDbLine
 10
306.5964532744
 20
147.1942152013
 30
0.0
 11
306.5964532744
 21
149.1642283614
 31
0.0
  0
LINE
  5
153
330
1F
100
AcDbEntity
  8
0
  6
Continuous
 62
     7
370
    15
100
AcDbLine
 10
322.4964532744
 20
240.3928311913
 30
0.0
 11
322.4964532744
 21
242.3628443514
 31
0.0
  0
LINE
  5
154
330
1F
100
AcDbEntity
  8
0
  6
Continuous
 62
     8
370
    15
100
AcDbLine
 10
321.3307678494
 20
241.6515582306
 30
0.0
 11
321.3307678494
 21
243.5285297763
 31
0.0
  0
LINE
  5
155
330
1F
100
AcDbEntity
  8
0
  6
Continuous
 62
     8
370
    15
100
AcDbLine
 10
321.3307678494
 20
146.0285297763
 30
0.0
 11
321.3307678494
 21
147.9405659899
 31
0.0
  0
LINE
  5
156
330
1F
100
AcDbEntity
  8
0
  6
Continuous
 62
     8
370
    15
100
AcDbLine
 10
307.7621386993
 20
241.6515582306
 30
0.0
 11
307.7621386993
 21
243.5285297763
 31
0.0
  0
LINE
  5
157
330
1F
100
AcDbEntity
  8
0
  6
Continuous
 62
     8
370
    15
100
AcDbLine
 10
307.7621386993
 20
146.0285297763
 30
0.0
 11
307.7621386993
 21
147.9405659899
 31
0.0
  0
LINE
  5
158
330
1F
100
AcDbEntity
  8
0
  6
Continuous
 62
     8
370
    15
100
AcDbLine
 10
322.3792959869
 20
146.9113724888
 30
0.0
 11
322.3792959869
 21
148.8348307149
 31
0.0
  0
LINE
  5
159
330
1F
100
AcDbEntity
  8
0
  6
Continuous
 62
     8
370
    15
100
AcDbLine
 10
322.3792959869
 20
240.7222288378
 30
0.0
 11
322.3792959869
 21
242.6456870639
 31
0.0
  0
LINE
  5
15A
330
1F
100
AcDbEntity
  8
0
  6
Continuous
 62
     8
370
    15
100
AcDbLine
 10
321.6136105619
 20
241.5567592994
 30
0.0
 11
321.6136105619
 21
243.4113724888
 31
0.0
  0
LINE
  5
15B
330
1F
100
AcDbEntity
  8
0
  6
Continuous
 62
     8
370
    15
100
AcDbLine
 10
321.6136105619
 20
146.1456870639
 30
0.0
 11
321.6136105619
 21
148.0216444719
 31
0.0
  0
LINE
  5
15C
330
1F
100
AcDbEntity
  8
0
  6
Continuous
 62
     8
370
    15
100
AcDbLine
 10
306.7136105619
 20
146.9113724888
 30
0.0
 11
306.7136105619
 21
148.8348307149
 31
0.0
  0
LINE
  5
15D
330
1F
100
AcDbEntity
  8
0
  6
Continuous
 62
     8
370
    15
100
AcDbLine
 10
306.7136105619
 20
240.7222288378
 30
0.0
 11
306.7136105619
 21
242.6456870639
 31
0.0
  0
LINE
  5
15E
330
1F
100
AcDbEntity
  8
0
  6
Continuous
 62
     8
370
    15
100
AcDbLine
 10
307.4792959869
 20
241.5567592994
 30
0.0
 11
307.4792959869
 21
243.4113724888
 31
0.0
  0
LINE
  5
15F
330
1F
100
AcDbEntity
  8
0
  6
Continuous
 62
     8
370
    15
100
AcDbLine
 10
307.4792959869
 20
146.1456870639
 30
0.0
 11
307.4792959869
 21
148.0216444719
 31
0.0
  0
LINE
  5
160
330
1F
100
AcDbEntity
  8
0
  6
Continuous
 62
     8
370
    15
100
AcDbLine
 10
306.0964532744
 20
194.7785297763
 30
0.0
 11
306.0964532744
 21
229.2785297763
 31
0.0
  0
LINE
  5
161
330
1F
100
AcDbEntity
  8
0
  6
Continuous
 62
     8
370
    15
100
AcDbLine
 10
306.0964532744
 20
160.2785297763
 30
0.0
 11
306.0964532744
 21
194.7785297763
 31
0.0
  0
LINE
  5
162
330
1F
100
AcDbEntity
  8
0
  6
Continuous
 62
     8
370
    15
100
AcDbLine
 10
202.5021450471
 20
214.9896375634
 30
0.0
 11
202.5021450471
 21
174.5674219893
 31
0.0
  0
LINE
  5
163
330
1F
100
AcDbEntity
  8
0
  6
Continuous
 62
     8
370
    15
100
AcDbLine
 10
324.4964532744
 20
217.2785297763
 30
0.0
 11
324.4964532744
 21
172.2785297763
 31
0.0
  0
DIMENSION
  5
164
330
1F
100
AcDbEntity
  8
DIM
100
AcDbDimension
  2
_D
 10
485.31759304
 20
169.7785297763
 30
0.0
 11
485.31759304
 21
194.7785297763
 31
0.0
 70
   160
  1
%%c<>
 71
     2
 42
-1.0
  3
SLDDIMSTYLE0
100
AcDbAlignedDimension
 13
460.5097019284
 23
219.7785297763
 33
0.0
 14
460.5097019284
 24
169.7785297763
 34
0.0
 50
90.0
100
AcDbRotatedDimension
  0
DIMENSION
  5
170
330
1F
100
AcDbEntity
  8
DIM
100
AcDbDimension
  2
_D_1
 10
201.6464532744
 20
117.2285297763
 30
0.0
 11
332.5214532744
 21
117.2285297763
 31
0.0
 70
   160
  1
<>
 71
     2
 42
-1.0
  3
SLDDIMSTYLE0
100
AcDbAlignedDimension
 13
463.3964532744
 23
174.7785297763
 33
0.0
 14
201.6464532744
 24
194.7785297763
 34
0.0
 50
0.0
100
AcDbRotatedDimension
  0
DIMENSION
  5
17A
330
1F
100
AcDbEntity
  8
DIM
100
AcDbDimension
  2
_D_2
 10
463.3964532744
 20
129.6532911109
 30
0.0
 11
383.3964532744
 21
129.6532911109
 31
0.0
 70
   160
  1
<>
 71
     2
 42
-1.0
  3
SLDDIMSTYLE0
100
AcDbAlignedDimension
 13
303.3964532744
 23
159.8535297763
 33
0.0
 14
463.3964532744
 24
174.7785297763
 34
0.0
100
AcDbRotatedDimension
  0
DIMENSION
  5
184
330
1F
100
AcDbEntity
  8
DIM
100
AcDbDimension
  2
_D_3
 10
195.4133364987
 20
146.0285297763
 30
0.0
 11
195.4133364987
 21
194.7785297763
 31
0.0
 70
   160
  1
%%c<>
 71
     2
 42
-1.0
  3
SLDDIMSTYLE1
100
AcDbAlignedDimension
 13
307.7621386993
 23
243.5285297763
 33
0.0
 14
307.7621386993
 24
146.0285297763
 34
0.0
 50
90.0
100
AcDbRotatedDimension
  0
DIMENSION
  5
190
330
1F
100
AcDbEntity
  8
DIM
100
AcDbDimension
  2
_D_4
 10
473.8139633745
 20
172.2785297763
 30
0.0
 11
473.8139633745
 21
194.7785297763
 31
0.0
 70
   160
  1
%%c<>
 71
     2
 42
-1.0
  3
SLDDIMSTYLE0
100
AcDbAlignedDimension
 13
415.2044121695
 23
217.2785297763
 33
0.0
 14
415.2044121695
 24
172.2785297763
 34
0.0
 50
90.0
100
AcDbRotatedDimension
  0
LINE
  5
19B
330
1F
100
AcDbEntity
  8
DIM
  6
CENTERX2
 48
1.1111111111
370
     0
100
AcDbLine
 10
198.1278347728
 20
194.7785297763
 30
0.0
 11
462.2269464079
 21
194.7785297763
 31
0.0
  0
ENDSEC
  0
SECTION
  2
OBJECTS
  0
DICTIONARY
  5
C
330
0
100
AcDbDictionary
281
     1
  3
ACAD_GROUP
350
D
  3
ACAD_LAYOUT
350
1A
  3
ACAD_MLINESTYLE
350
17
  3
ACAD_PLOTSETTINGS
350
19
  3
ACAD_PLOTSTYLENAME
350
E
  3
ACAD_SCALELIST
350
47
  0
DICTIONARY
  5
D
102
{ACAD_REACTORS
330
C
102
}
330
C
100
AcDbDictionary
281
     1
  0
DICTIONARY
  5
1A
102
{ACAD_REACTORS
330
C
102
}
330
C
100
AcDbDictionary
281
     1
  3
Layout1
350
1E
  3
Layout2
350
26
  3
Model
350
22
  0
DICTIONARY
  5
17
102
{ACAD_REACTORS
330
C
102
}
330
C
100
AcDbDictionary
281
     1
  3
Standard
350
18
  0
DICTIONARY
  5
19
102
{ACAD_REACTORS
330
C
102
}
330
C
100
AcDbDictionary
281
     1
  0
ACDBDICTIONARYWDFLT
  5
E
102
{ACAD_REACTORS
330
C
102
}
330
C
100
AcDbDictionary
281
     1
  3
Normal
350
F
100
AcDbDictionaryWithDefault
340
F
  0
DICTIONARY
  5
47
102
{ACAD_REACTORS
330
C
102
}
330
C
100
AcDbDictionary
281
     1
  3
A0
350
48
  3
A1
350
49
  3
A2
350
4A
  3
A3
350
4B
  3
A4
350
4C
  3
A5
350
4D
  3
A6
350
4E
  3
A7
350
4F
  3
A8
350
50
  3
A9
350
51
  3
B0
350
52
  3
B1
350
53
  3
B2
350
54
  3
B3
350
55
  3
B4
350
56
  3
B5
350
57
  3
B6
350
58
  3
B7
350
59
  3
B8
350
5A
  3
B9
350
5B
  3
C0
350
5C
  3
C1
350
5D
  3
C2
350
5E
  3
C3
350
5F
  3
C4
350
60
  3
C5
350
61
  3
C6
350
62
  3
C7
350
63
  3
C8
350
64
  3
C9
350
65
  3
D0
350
66
  3
D1
350
67
  3
D2
350
68
  0
LAYOUT
  5
1E
102
{ACAD_REACTORS
330
1A
102
}
330
1A
100
AcDbPlotSettings
  1

  2
none_device
  4

  6

 40
0.0
 41
0.0
 42
0.0
 43
0.0
 44
0.0
 45
0.0
 46
0.0
 47
0.0
 48
0.0
 49
0.0
140
0.0
141
0.0
142
1.0
143
1.0
 70
   688
 72
     1
 73
     0
 74
     5
  7

 75
    16
147
1.0
148
0.0
149
0.0
100
AcDbLayout
  1
Layout1
 70
     1
 71
     1
 10
0.0
 20
0.0
 11
420.0
 21
297.0
 12
0.0
 22
0.0
 32
0.0
 14
1.0000000000E+20
 24
1.0000000000E+20
 34
1.0000000000E+20
 15
-1.0000000000E+20
 25
-1.0000000000E+20
 35
-1.0000000000E+20
146
0.0
 13
0.0
 23
0.0
 33
0.0
 16
1.0
 26
0.0
 36
0.0
 17
0.0
 27
1.0
 37
0.0
 76
     0
330
1B
  0
LAYOUT
  5
26
102
{ACAD_REACTORS
330
1A
102
}
330
1A
100
AcDbPlotSettings
  1

  2
none_device
  4

  6

 40
0.0
 41
0.0
 42
0.0
 43
0.0
 44
0.0
 45
0.0
 46
0.0
 47
0.0
 48
0.0
 49
0.0
140
0.0
141
0.0
142
1.0
143
1.0
 70
   688
 72
     1
 73
     0
 74
     5
  7

 75
    16
147
1.0
148
0.0
149
0.0
100
AcDbLayout
  1
Layout2
 70
     1
 71
     2
 10
0.0
 20
0.0
 11
0.0
 21
0.0
 12
0.0
 22
0.0
 32
0.0
 14
0.0
 24
0.0
 34
0.0
 15
0.0
 25
0.0
 35
0.0
146
0.0
 13
0.0
 23
0.0
 33
0.0
 16
1.0
 26
0.0
 36
0.0
 17
0.0
 27
1.0
 37
0.0
 76
     0
330
23
  0
LAYOUT
  5
22
102
{ACAD_REACTORS
330
1A
102
}
330
1A
100
AcDbPlotSettings
  1

  2
none_device
  4
Letter_(8.50_x_11.00_Inches)
  6

 40
6.35
 41
6.35
 42
6.35000508
 43
6.35000508
 44
215.9
 45
279.4
 46
0.0
 47
0.0
 48
0.0
 49
0.0
140
0.0
141
0.0
142
1.0
143
1.0
 70
  1712
 72
     1
 73
     0
 74
     0
  7

 75
     0
147
1.0
148
0.0
149
0.0
100
AcDbLayout
  1
Model
 70
     1
 71
     0
 10
0.0
 20
0.0
 11
534.6
 21
378.0
 12
0.0
 22
0.0
 32
0.0
 14
0.0
 24
0.0
 34
0.0
 15
534.6
 25
378.0
 35
0.0
146
0.0
 13
0.0
 23
0.0
 33
0.0
 16
1.0
 26
0.0
 36
0.0
 17
0.0
 27
1.0
 37
0.0
 76
     0
330
1F
331
29
  0
MLINESTYLE
  5
18
102
{ACAD_REACTORS
330
17
102
}
330
17
100
AcDbMlineStyle
  2
Standard
 70
     0
  3

 62
   256
 51
90.0
 52
90.0
 71
     2
 49
0.5
 62
   256
  6
BYLAYER
 49
-0.5
 62
   256
  6
BYLAYER
  0
ACDBPLACEHOLDER
  5
F
102
{ACAD_REACTORS
330
E
102
}
330
E
  0
SCALE
  5
48
102
{ACAD_REACTORS
330
47
102
}
330
47
100
AcDbScale
 70
     0
300
1:1
140
1.0
141
1.0
290
     1
  0
SCALE
  5
49
102
{ACAD_REACTORS
330
47
102
}
330
47
100
AcDbScale
 70
     0
300
1:2
140
1.0
141
2.0
290
     0
  0
SCALE
  5
4A
102
{ACAD_REACTORS
330
47
102
}
330
47
100
AcDbScale
 70
     0
300
1:4
140
1.0
141
4.0
290
     0
  0
SCALE
  5
4B
102
{ACAD_REACTORS
330
47
102
}
330
47
100
AcDbScale
 70
     0
300
1:5
140
1.0
141
5.0
290
     0
  0
SCALE
  5
4C
102
{ACAD_REACTORS
330
47
102
}
330
47
100
AcDbScale
 70
     0
300
1:8
140
1.0
141
8.0
290
     0
  0
SCALE
  5
4D
102
{ACAD_REACTORS
330
47
102
}
330
47
100
AcDbScale
 70
     0
300
1:10
140
1.0
141
10.0
290
     0
  0
SCALE
  5
4E
102
{ACAD_REACTORS
330
47
102
}
330
47
100
AcDbScale
 70
     0
300
1:16
140
1.0
141
16.0
290
     0
  0
SCALE
  5
4F
102
{ACAD_REACTORS
330
47
102
}
330
47
100
AcDbScale
 70
     0
300
1:20
140
1.0
141
20.0
290
     0
  0
SCALE
  5
50
102
{ACAD_REACTORS
330
47
102
}
330
47
100
AcDbScale
 70
     0
300
1:30
140
1.0
141
30.0
290
     0
  0
SCALE
  5
51
102
{ACAD_REACTORS
330
47
102
}
330
47
100
AcDbScale
 70
     0
300
1:40
140
1.0
141
40.0
290
     0
  0
SCALE
  5
52
102
{ACAD_REACTORS
330
47
102
}
330
47
100
AcDbScale
 70
     0
300
1:50
140
1.0
141
50.0
290
     0
  0
SCALE
  5
53
102
{ACAD_REACTORS
330
47
102
}
330
47
100
AcDbScale
 70
     0
300
1:100
140
1.0
141
100.0
290
     0
  0
SCALE
  5
54
102
{ACAD_REACTORS
330
47
102
}
330
47
100
AcDbScale
 70
     0
300
2:1
140
2.0
141
1.0
290
     0
  0
SCALE
  5
55
102
{ACAD_REACTORS
330
47
102
}
330
47
100
AcDbScale
 70
     0
300
4:1
140
4.0
141
1.0
290
     0
  0
SCALE
  5
56
102
{ACAD_REACTORS
330
47
102
}
330
47
100
AcDbScale
 70
     0
300
8:1
140
8.0
141
1.0
290
     0
  0
SCALE
  5
57
102
{ACAD_REACTORS
330
47
102
}
330
47
100
AcDbScale
 70
     0
300
10:1
140
10.0
141
1.0
290
     0
  0
SCALE
  5
58
102
{ACAD_REACTORS
330
47
102
}
330
47
100
AcDbScale
 70
     0
300
100:1
140
100.0
141
1.0
290
     0
  0
SCALE
  5
59
102
{ACAD_REACTORS
330
47
102
}
330
47
100
AcDbScale
 70
     0
300
1/128" = 1'-0"
140
0.0078125
141
12.0
290
     0
  0
SCALE
  5
5A
102
{ACAD_REACTORS
330
47
102
}
330
47
100
AcDbScale
 70
     0
300
1/64" = 1'-0"
140
0.015625
141
12.0
290
     0
  0
SCALE
  5
5B
102
{ACAD_REACTORS
330
47
102
}
330
47
100
AcDbScale
 70
     0
300
1/32" = 1'-0"
140
0.03125
141
12.0
290
     0
  0
SCALE
  5
5C
102
{ACAD_REACTORS
330
47
102
}
330
47
100
AcDbScale
 70
     0
300
1/16" = 1'-0"
140
0.0625
141
12.0
290
     0
  0
SCALE
  5
5D
102
{ACAD_REACTORS
330
47
102
}
330
47
100
AcDbScale
 70
     0
300
3/32" = 1'-0"
140
0.09375
141
12.0
290
     0
  0
SCALE
  5
5E
102
{ACAD_REACTORS
330
47
102
}
330
47
100
AcDbScale
 70
     0
300
1/8" = 1'-0"
140
0.125
141
12.0
290
     0
  0
SCALE
  5
5F
102
{ACAD_REACTORS
330
47
102
}
330
47
100
AcDbScale
 70
     0
300
3/16" = 1'-0"
140
0.1875
141
12.0
290
     0
  0
SCALE
  5
60
102
{ACAD_REACTORS
330
47
102
}
330
47
100
AcDbScale
 70
     0
300
1/4" = 1'-0"
140
0.25
141
12.0
290
     0
  0
SCALE
  5
61
102
{ACAD_REACTORS
330
47
102
}
330
47
100
AcDbScale
 70
     0
300
3/8" = 1'-0"
140
0.375
141
12.0
290
     0
  0
SCALE
  5
62
102
{ACAD_REACTORS
330
47
102
}
330
47
100
AcDbScale
 70
     0
300
1/2" = 1'-0"
140
0.5
141
12.0
290
     0
  0
SCALE
  5
63
102
{ACAD_REACTORS
330
47
102
}
330
47
100
AcDbScale
 70
     0
300
3/4" = 1'-0"
140
0.75
141
12.0
290
     0
  0
SCALE
  5
64
102
{ACAD_REACTORS
330
47
102
}
330
47
100
AcDbScale
 70
     0
300
1" = 1'-0"
140
1.0
141
12.0
290
     0
  0
SCALE
  5
65
102
{ACAD_REACTORS
330
47
102
}
330
47
100
AcDbScale
 70
     0
300
1-1/2" = 1'-0"
140
1.5
141
12.0
290
     0
  0
SCALE
  5
66
102
{ACAD_REACTORS
330
47
102
}
330
47
100
AcDbScale
 70
     0
300
3" = 1'-0"
140
3.0
141
12.0
290
     0
  0
SCALE
  5
67
102
{ACAD_REACTORS
330
47
102
}
330
47
100
AcDbScale
 70
     0
300
6" = 1'-0"
140
6.0
141
12.0
290
     0
  0
SCALE
  5
68
102
{ACAD_REACTORS
330
47
102
}
330
47
100
AcDbScale
 70
     0
300
1'-0" = 1'-0"
140
12.0
141
12.0
290
     0
  0
ENDSEC
  0
EOF
