  0
SECTION
  2
HEADER
  9
$ACADVER
  1
AC1015
  9
$ACADMAINTVER
 70
     6
  9
$DWGCODEPAGE
  3
ANSI_1252
  9
$INSBASE
 10
0.0
 20
0.0
 30
0.0
  9
$EXTMIN
 10
0.0
 20
0.0
 30
0.0
  9
$EXTMAX
 10
534.6
 20
378.0
 30
0.0
  9
$LIMMIN
 10
0.0
 20
0.0
  9
$LIMMAX
 10
534.6
 20
378.0
  9
$ORTHOMODE
 70
     0
  9
$REGENMODE
 70
     1
  9
$FILLMODE
 70
     1
  9
$QTEXTMODE
 70
     0
  9
$MIRRTEXT
 70
     1
  9
$LTSCALE
 40
1.8
  9
$ATTMODE
 70
     1
  9
$TEXTSIZE
 40
6.985
  9
$TRACEWID
 40
1.0
  9
$TEXTSTYLE
  7
Standard
  9
$CLAYER
  8
0
  9
$CELTYPE
  6
ByLayer
  9
$CECOLOR
 62
   256
  9
$CELTSCALE
 40
1.0
  9
$DISPSILH
 70
     0
  9
$DIMSCALE
 40
1.0
  9
$DIMASZ
 40
5.9436
  9
$DIMEXO
 40
1.8
  9
$DIMDLI
 40
3.75
  9
$DIMRND
 40
0.0
  9
$DIMDLE
 40
0.0
  9
$DIMEXE
 40
1.8
  9
$DIMTP
 40
0.0
  9
$DIMTM
 40
0.0
  9
$DIMTXT
 40
6.985
  9
$DIMCEN
 40
2.5
  9
$DIMTSZ
 40
0.0
  9
$DIMTOL
 70
     0
  9
$DIMLIM
 70
     0
  9
$DIMTIH
 70
     1
  9
$DIMTOH
 70
     1
  9
$DIMSE1
 70
     0
  9
$DIMSE2
 70
     0
  9
$DIMTAD
 70
     1
  9
$DIMZIN
 70
     0
  9
$DIMBLK
  1

  9
$DIMASO
 70
     1
  9
$DIMSHO
 70
     1
  9
$DIMPOST
  1

  9
$DIMAPOST
  1

  9
$DIMALT
 70
     0
  9
$DIMALTD
 70
     3
  9
$DIMALTF
 40
0.0393700787
  9
$DIMLFAC
 40
1.0
  9
$DIMTOFL
 70
     1
  9
$DIMTVP
 40
0.0
  9
$DIMTIX
 70
     0
  9
$DIMSOXD
 70
     0
  9
$DIMSAH
 70
     0
  9
$DIMBLK1
  1

  9
$DIMBLK2
  1

  9
$DIMSTYLE
  2
ISO-25
  9
$DIMCLRD
 70
     0
  9
$DIMCLRE
 70
     0
  9
$DIMCLRT
 70
     0
  9
$DIMTFAC
 40
1.0
  9
$DIMGAP
 40
2.7432
  9
$DIMJUST
 70
     0
  9
$DIMSD1
 70
     0
  9
$DIMSD2
 70
     0
  9
$DIMTOLJ
 70
     0
  9
$DIMTZIN
 70
     0
  9
$DIMALTZ
 70
     0
  9
$DIMALTTZ
 70
     0
  9
$DIMUPT
 70
     0
  9
$DIMDEC
 70
     2
  9
$DIMTDEC
 70
     2
  9
$DIMALTU
 70
     2
  9
$DIMALTTD
 70
     3
  9
$DIMTXSTY
  7
Standard
  9
$DIMAUNIT
 70
     0
  9
$DIMADEC
 70
     2
  9
$DIMALTRND
 40
0.0
  9
$DIMAZIN
 70
     0
  9
$DIMDSEP
 70
    44
  9
$DIMATFIT
 70
     3
  9
$DIMFRAC
 70
     0
  9
$DIMLDRBLK
  1

  9
$DIMLUNIT
 70
     2
  9
$DIMLWD
 70
    -2
  9
$DIMLWE
 70
    -2
  9
$DIMTMOVE
 70
     0
  9
$LUNITS
 70
     2
  9
$LUPREC
 70
     2
  9
$SKETCHINC
 40
1.0
  9
$FILLETRAD
 40
10.0
  9
$AUNITS
 70
     1
  9
$AUPREC
 70
     2
  9
$MENU
  1
.
  9
$ELEVATION
 40
0.0
  9
$PELEVATION
 40
0.0
  9
$THICKNESS
 40
0.0
  9
$LIMCHECK
 70
     0
  9
$CHAMFERA
 40
0.0
  9
$CHAMFERB
 40
0.0
  9
$CHAMFERC
 40
0.0
  9
$CHAMFERD
 40
0.0
  9
$SKPOLY
 70
     0
  9
$TDCREATE
 40
2458606.653692327
  9
$TDUCREATE
 40
2458606.42452566
  9
$TDUPDATE
 40
2458606.653693368
  9
$TDUUPDATE
 40
2458606.424526701
  9
$TDINDWG
 40
0.0000000116
  9
$TDUSRTIMER
 40
0.0000000116
  9
$USRTIMER
 70
     1
  9
$ANGBASE
 50
0.0
  9
$ANGDIR
 70
     0
  9
$PDMODE
 70
     0
  9
$PDSIZE
 40
-1.0
  9
$PLINEWID
 40
0.0
  9
$SPLFRAME
 70
     0
  9
$SPLINETYPE
 70
     6
  9
$SPLINESEGS
 70
     8
  9
$HANDSEED
  5
1BE
  9
$SURFTAB1
 70
     6
  9
$SURFTAB2
 70
     6
  9
$SURFTYPE
 70
     6
  9
$SURFU
 70
     6
  9
$SURFV
 70
     6
  9
$UCSBASE
  2

  9
$UCSNAME
  2

  9
$UCSORG
 10
0.0
 20
0.0
 30
0.0
  9
$UCSXDIR
 10
1.0
 20
0.0
 30
0.0
  9
$UCSYDIR
 10
0.0
 20
1.0
 30
0.0
  9
$UCSORTHOREF
  2

  9
$UCSORTHOVIEW
 70
     0
  9
$UCSORGTOP
 10
0.0
 20
0.0
 30
0.0
  9
$UCSORGBOTTOM
 10
0.0
 20
0.0
 30
0.0
  9
$UCSORGLEFT
 10
0.0
 20
0.0
 30
0.0
  9
$UCSORGRIGHT
 10
0.0
 20
0.0
 30
0.0
  9
$UCSORGFRONT
 10
0.0
 20
0.0
 30
0.0
  9
$UCSORGBACK
 10
0.0
 20
0.0
 30
0.0
  9
$PUCSBASE
  2

  9
$PUCSNAME
  2

  9
$PUCSORG
 10
0.0
 20
0.0
 30
0.0
  9
$PUCSXDIR
 10
1.0
 20
0.0
 30
0.0
  9
$PUCSYDIR
 10
0.0
 20
1.0
 30
0.0
  9
$PUCSORTHOREF
  2

  9
$PUCSORTHOVIEW
 70
     0
  9
$PUCSORGTOP
 10
0.0
 20
0.0
 30
0.0
  9
$PUCSORGBOTTOM
 10
0.0
 20
0.0
 30
0.0
  9
$PUCSORGLEFT
 10
0.0
 20
0.0
 30
0.0
  9
$PUCSORGRIGHT
 10
0.0
 20
0.0
 30
0.0
  9
$PUCSORGFRONT
 10
0.0
 20
0.0
 30
0.0
  9
$PUCSORGBACK
 10
0.0
 20
0.0
 30
0.0
  9
$USERI1
 70
     0
  9
$USERI2
 70
     0
  9
$USERI3
 70
     0
  9
$USERI4
 70
     0
  9
$USERI5
 70
     0
  9
$USERR1
 40
0.0
  9
$USERR2
 40
0.0
  9
$USERR3
 40
0.0
  9
$USERR4
 40
0.0
  9
$USERR5
 40
0.0
  9
$WORLDVIEW
 70
     1
  9
$SHADEDGE
 70
     3
  9
$SHADEDIF
 70
    70
  9
$TILEMODE
 70
     1
  9
$MAXACTVP
 70
    64
  9
$PINSBASE
 10
0.0
 20
0.0
 30
0.0
  9
$PLIMCHECK
 70
     0
  9
$PEXTMIN
 10
1.0000000000E+20
 20
1.0000000000E+20
 30
1.0000000000E+20
  9
$PEXTMAX
 10
-1.0000000000E+20
 20
-1.0000000000E+20
 30
-1.0000000000E+20
  9
$PLIMMIN
 10
0.0
 20
0.0
  9
$PLIMMAX
 10
420.0
 20
297.0
  9
$UNITMODE
 70
     0
  9
$VISRETAIN
 70
     1
  9
$PLINEGEN
 70
     0
  9
$PSLTSCALE
 70
     1
  9
$TREEDEPTH
 70
  3020
  9
$CMLSTYLE
  2
Standard
  9
$CMLJUST
 70
     0
  9
$CMLSCALE
 40
20.0
  9
$PROXYGRAPHICS
 70
     1
  9
$MEASUREMENT
 70
     1
  9
$CELWEIGHT
370
    -1
  9
$ENDCAPS
280
     0
  9
$JOINSTYLE
280
     0
  9
$LWDISPLAY
290
     1
  9
$INSUNITS
 70
     4
  9
$HYPERLINKBASE
  1

  9
$STYLESHEET
  1

  9
$XEDIT
290
     1
  9
$CEPSNTYPE
380
     0
  9
$PSTYLEMODE
290
     1
  9
$FINGERPRINTGUID
  2
{5C9E3951-E7FE-4848-A678-CEE968304543}
  9
$VERSIONGUID
  2
{FAEB1C32-E019-11D5-929B-00C0DF256EC4}
  9
$EXTNAMES
290
     1
  9
$PSVPSCALE
 40
0.0
  9
$OLESTARTUP
290
     0
  0
ENDSEC
  0
SECTION
  2
CLASSES
  0
CLASS
  1
ACDBDICTIONARYWDFLT
  2
AcDbDictionaryWithDefault
  3
ObjectDBX Classes
 90
        0
280
     0
281
     0
  0
CLASS
  1
VISUALSTYLE
  2
AcDbVisualStyle
  3
ObjectDBX Classes
 90
     4095
280
     0
281
     0
  0
CLASS
  1
MATERIAL
  2
AcDbMaterial
  3
ObjectDBX Classes
 90
     1153
280
     0
281
     0
  0
CLASS
  1
SCALE
  2
AcDbScale
  3
ObjectDBX Classes
 90
     1153
280
     0
281
     0
  0
CLASS
  1
SUN
  2
AcDbSun
  3
SCENEOE
 90
     1153
280
     0
281
     0
  0
CLASS
  1
ACDBPLACEHOLDER
  2
AcDbPlaceHolder
  3
ObjectDBX Classes
 90
        0
280
     0
281
     0
  0
CLASS
  1
LAYOUT
  2
AcDbLayout
  3
ObjectDBX Classes
 90
        0
280
     0
281
     0
  0
ENDSEC
  0
SECTION
  2
TABLES
  0
TABLE
  2
VPORT
  5
8
330
0
100
AcDbSymbolTable
 70
     1
  0
VPORT
  5
29
330
8
100
AcDbSymbolTableRecord
100
AcDbViewportTableRecord
  2
*Active
 70
     0
 10
0.0
 20
0.0
 11
1.0
 21
1.0
 12
267.3
 22
189.0
 13
0.0
 23
0.0
 14
10.0
 24
10.0
 15
10.0
 25
10.0
 16
0.0
 26
0.0
 36
1.0
 17
0.0
 27
0.0
 37
0.0
 40
378.0
 41
1.4142857143
 42
50.0
 43
0.0
 44
0.0
 50
0.0
 51
0.0
 71
     0
 72
  2000
 73
     1
 74
     3
 75
     0
 76
     0
 77
     0
 78
     0
281
     0
 65
     1
110
0.0
120
0.0
130
0.0
111
1.0
121
0.0
131
0.0
112
0.0
122
1.0
132
0.0
 79
     0
146
0.0
  0
ENDTAB
  0
TABLE
  2
LTYPE
  5
5
330
0
100
AcDbSymbolTable
 70
     6
  0
LTYPE
  5
14
330
5
100
AcDbSymbolTableRecord
100
AcDbLinetypeTableRecord
  2
ByBlock
 70
     0
  3

 72
    65
 73
     0
 40
0.0
  0
LTYPE
  5
15
330
5
100
AcDbSymbolTableRecord
100
AcDbLinetypeTableRecord
  2
ByLayer
 70
     0
  3

 72
    65
 73
     0
 40
0.0
  0
LTYPE
  5
16
330
5
100
AcDbSymbolTableRecord
100
AcDbLinetypeTableRecord
  2
Continuous
 70
     0
  3
Solid line
 72
    65
 73
     0
 40
0.0
  0
LTYPE
  5
6A
330
5
100
AcDbSymbolTableRecord
100
AcDbLinetypeTableRecord
  2
HIDDEN
 70
     0
  3
Hidden __ __ __ __ __ __ __ __ __ __ __ __ __ __
 72
    65
 73
     2
 40
1.905
 49
1.27
 74
     0
 49
-0.635
 74
     0
  0
LTYPE
  5
6B
330
5
100
AcDbSymbolTableRecord
100
AcDbLinetypeTableRecord
  2
PHANTOM
 70
     0
  3
Phantom ______  __  __  ______  __  __  ______
 72
    65
 73
     6
 40
12.7
 49
6.35
 74
     0
 49
-1.27
 74
     0
 49
1.27
 74
     0
 49
-1.27
 74
     0
 49
1.27
 74
     0
 49
-1.27
 74
     0
  0
LTYPE
  5
6C
330
5
100
AcDbSymbolTableRecord
100
AcDbLinetypeTableRecord
  2
CENTER
 70
     0
  3
Center ____ _ ____ _ ____ _ ____ _ ____ _ ____
 72
    65
 73
     4
 40
10.16
 49
6.35
 74
     0
 49
-1.27
 74
     0
 49
1.27
 74
     0
 49
-1.27
 74
     0
  0
LTYPE
  5
6D
330
5
100
AcDbSymbolTableRecord
100
AcDbLinetypeTableRecord
  2
CENTERX2
 70
     0
  3
Center (2x) ________  __  ________  __  _____
 72
    65
 73
     4
 40
20.32
 49
12.7
 74
     0
 49
-2.54
 74
     0
 49
2.54
 74
     0
 49
-2.54
 74
     0
  0
LTYPE
  5
6E
330
5
100
AcDbSymbolTableRecord
100
AcDbLinetypeTableRecord
  2
DOT2
 70
     0
  3
Dot (.5x) ........................................
 72
    65
 73
     2
 40
0.635
 49
0.0
 74
     0
 49
-0.635
 74
     0
  0
ENDTAB
  0
TABLE
  2
LAYER
  5
2
330
0
100
AcDbSymbolTable
 70
     8
  0
LAYER
  5
10
330
2
100
AcDbSymbolTableRecord
100
AcDbLayerTableRecord
  2
0
 70
     0
 62
     7
  6
Continuous
370
    -3
390
F
  0
LAYER
  5
6F
330
2
100
AcDbSymbolTableRecord
100
AcDbLayerTableRecord
  2
FORMAT
 70
     0
 62
     7
  6
Continuous
370
    -3
390
F
  0
LAYER
  5
70
330
2
100
AcDbSymbolTableRecord
100
AcDbLayerTableRecord
  2
SLD-0
 70
     0
 62
     2
  6
Continuous
370
    -3
390
F
  0
LAYER
  5
71
330
2
100
AcDbSymbolTableRecord
100
AcDbLayerTableRecord
  2
DIM
 70
     0
 62
   179
  6
Continuous
370
    -3
390
F
  0
LAYER
  5
72
330
2
100
AcDbSymbolTableRecord
100
AcDbLayerTableRecord
  2
SLD-DEFPOINTS
 70
     0
 62
   179
  6
Continuous
370
    -3
390
F
  0
LAYER
  5
73
330
2
100
AcDbSymbolTableRecord
100
AcDbLayerTableRecord
  2
HAT
 70
     0
 62
   135
  6
Continuous
370
    -3
390
F
  0
LAYER
  5
74
330
2
100
AcDbSymbolTableRecord
100
AcDbLayerTableRecord
  2
JOB
 70
     0
 62
   201
  6
Continuous
370
    -3
390
F
  0
LAYER
  5
75
330
2
100
AcDbSymbolTableRecord
100
AcDbLayerTableRecord
  2
INSPECTION_REPORT
 70
     0
 62
   255
  6
Continuous
370
    -3
390
F
  0
ENDTAB
  0
TABLE
  2
STYLE
  5
3
330
0
100
AcDbSymbolTable
 70
     4
  0
STYLE
  5
11
330
3
100
AcDbSymbolTableRecord
100
AcDbTextStyleTableRecord
  2
Standard
 70
     0
 40
0.0
 41
1.0
 50
0.0
 71
     0
 42
6.985
  3
txt
  4

  0
STYLE
  5
96
330
3
100
AcDbSymbolTableRecord
100
AcDbTextStyleTableRecord
  2
SLDTEXTSTYLE0
 70
     0
 40
0.0
 41
0.7
 50
0.0
 71
     0
 42
6.985
  3
TXT
  4

  0
STYLE
  5
98
330
3
100
AcDbSymbolTableRecord
100
AcDbTextStyleTableRecord
  2
SLDTEXTSTYLE1
 70
     0
 40
0.0
 41
0.75
 50
0.0
 71
     0
 42
6.985
  3
TXT
  4

  0
STYLE
  5
AB
330
3
100
AcDbSymbolTableRecord
100
AcDbTextStyleTableRecord
  2
SLDTEXTSTYLE2
 70
     0
 40
0.0
 41
0.6875
 50
0.0
 71
     0
 42
6.985
  3
TXT
  4

  0
ENDTAB
  0
TABLE
  2
VIEW
  5
6
330
0
100
AcDbSymbolTable
 70
     0
  0
ENDTAB
  0
TABLE
  2
UCS
  5
7
330
0
100
AcDbSymbolTable
 70
     0
  0
ENDTAB
  0
TABLE
  2
APPID
  5
9
330
0
100
AcDbSymbolTable
 70
     1
  0
APPID
  5
12
330
9
100
AcDbSymbolTableRecord
100
AcDbRegAppTableRecord
  2
ACAD
 70
     0
  0
ENDTAB
  0
TABLE
  2
DIMSTYLE
  5
A
330
0
100
AcDbSymbolTable
 70
     4
100
AcDbDimStyleTable
  0
DIMSTYLE
105
27
330
A
100
AcDbSymbolTableRecord
100
AcDbDimStyleTableRecord
  2
ISO-25
 70
     0
 41
2.5
 42
0.625
 43
3.75
 44
1.25
 73
     0
 74
     0
 77
     1
 78
     8
140
2.5
141
2.5
143
0.0393700787
147
0.625
171
     3
172
     1
178
     0
271
     2
272
     2
274
     3
278
    44
283
     0
284
     8
340
11
  0
DIMSTYLE
105
178
102
{ACAD_REACTORS
330
177
330
18F
102
}
330
A
100
AcDbSymbolTableRecord
100
AcDbDimStyleTableRecord
  2
SLDDIMSTYLE0
 70
     0
 41
5.9436
 44
0.0
 45
0.000000001
 73
     0
 74
     0
 77
     1
 78
    12
 79
     3
140
5.23875
144
1.0
147
1.3096875
172
     1
173
     1
178
     0
271
     2
272
     2
276
     2
284
    12
289
     0
340
96
  0
DIMSTYLE
105
185
102
{ACAD_REACTORS
330
184
330
19C
330
1B3
102
}
330
A
100
AcDbSymbolTableRecord
100
AcDbDimStyleTableRecord
  2
SLDDIMSTYLE1
 70
     0
 41
5.9436
 44
0.0
 45
0.000000001
 73
     0
 74
     0
 77
     1
 78
    12
 79
     3
140
5.23875
144
1.0
147
1.3096875
173
     1
178
     0
271
     2
272
     2
276
     2
284
    12
340
96
  0
DIMSTYLE
105
1A8
102
{ACAD_REACTORS
330
1A7
102
}
330
A
100
AcDbSymbolTableRecord
100
AcDbDimStyleTableRecord
  2
SLDDIMSTYLE2
 70
     0
 41
5.9436
 44
0.0
 45
0.000000001
 73
     0
 74
     0
 77
     1
 78
     4
 79
     1
140
5.23875
144
1.0
147
1.3096875
173
     1
178
     0
271
     2
272
     2
276
     2
284
    12
340
96
  0
ENDTAB
  0
TABLE
  2
BLOCK_RECORD
  5
1
330
0
100
AcDbSymbolTable
 70
     8
  0
BLOCK_RECORD
  5
1F
330
1
100
AcDbSymbolTableRecord
100
AcDbBlockTableRecord
  2
*Model_Space
340
22
  0
BLOCK_RECORD
  5
1B
330
1
100
AcDbSymbolTableRecord
100
AcDbBlockTableRecord
  2
*Paper_Space
340
1E
  0
BLOCK_RECORD
  5
23
330
1
100
AcDbSymbolTableRecord
100
AcDbBlockTableRecord
  2
*Paper_Space0
340
26
  0
BLOCK_RECORD
  5
E8
330
1
100
AcDbSymbolTableRecord
100
AcDbBlockTableRecord
  2
SW_CENTERMARKSYMBOL_0
340
0
102
{BLKREFS
331
F3
102
}
  0
BLOCK_RECORD
  5
179
330
1
100
AcDbSymbolTableRecord
100
AcDbBlockTableRecord
  2
_D
340
0
  0
BLOCK_RECORD
  5
186
330
1
100
AcDbSymbolTableRecord
100
AcDbBlockTableRecord
  2
_D_1
340
0
  0
BLOCK_RECORD
  5
190
330
1
100
AcDbSymbolTableRecord
100
AcDbBlockTableRecord
  2
_D_2
340
0
  0
BLOCK_RECORD
  5
19D
330
1
100
AcDbSymbolTableRecord
100
AcDbBlockTableRecord
  2
_D_3
340
0
  0
BLOCK_RECORD
  5
1A9
330
1
100
AcDbSymbolTableRecord
100
AcDbBlockTableRecord
  2
_D_4
340
0
  0
BLOCK_RECORD
  5
1B4
330
1
100
AcDbSymbolTableRecord
100
AcDbBlockTableRecord
  2
_D_5
340
0
  0
ENDTAB
  0
ENDSEC
  0
SECTION
  2
BLOCKS
  0
BLOCK
  5
20
330
1F
100
AcDbEntity
  8
0
100
AcDbBlockBegin
  2
*Model_Space
 70
     0
 10
0.0
 20
0.0
 30
0.0
  3
*Model_Space
  1
*Model_Space
  0
ENDBLK
  5
21
330
1F
100
AcDbEntity
  8
0
100
AcDbBlockEnd
  0
BLOCK
  5
1C
330
1B
100
AcDbEntity
 67
     1
  8
0
100
AcDbBlockBegin
  2
*Paper_Space
 70
     0
 10
0.0
 20
0.0
 30
0.0
  3
*Paper_Space
  1
*Paper_Space
  0
ENDBLK
  5
1D
330
1B
100
AcDbEntity
 67
     1
  8
0
100
AcDbBlockEnd
  0
BLOCK
  5
24
330
23
100
AcDbEntity
  8
0
100
AcDbBlockBegin
  2
*Paper_Space0
 70
     0
 10
0.0
 20
0.0
 30
0.0
  3
*Paper_Space0
  1
*Paper_Space0
  0
ENDBLK
  5
25
330
23
100
AcDbEntity
  8
0
100
AcDbBlockEnd
  0
BLOCK
  5
E9
330
E8
100
AcDbEntity
  8
0
100
AcDbBlockBegin
  2
SW_CENTERMARKSYMBOL_0
 70
     0
 10
0.0
 20
0.0
 30
0.0
  3
SW_CENTERMARKSYMBOL_0
  1
SW_CENTERMARKSYMBOL_0
  0
LINE
  5
EB
330
E8
100
AcDbEntity
  8
DIM
 62
     0
100
AcDbLine
 10
0.0
 20
0.0
 30
0.0
 11
0.0
 21
2.5
 31
0.0
  0
LINE
  5
EC
330
E8
100
AcDbEntity
  8
DIM
 62
     0
100
AcDbLine
 10
0.0
 20
0.0
 30
0.0
 11
-2.5
 21
0.0
 31
0.0
  0
LINE
  5
ED
330
E8
100
AcDbEntity
  8
DIM
 62
     0
100
AcDbLine
 10
0.0
 20
0.0
 30
0.0
 11
0.0
 21
-2.5
 31
0.0
  0
LINE
  5
EE
330
E8
100
AcDbEntity
  8
DIM
 62
     0
100
AcDbLine
 10
0.0
 20
0.0
 30
0.0
 11
2.5
 21
0.0
 31
0.0
  0
LINE
  5
EF
330
E8
100
AcDbEntity
  8
DIM
 62
     0
100
AcDbLine
 10
0.0
 20
5.0
 30
0.0
 11
0.0
 21
51.1328427125
 31
0.0
  0
LINE
  5
F0
330
E8
100
AcDbEntity
  8
DIM
 62
     0
100
AcDbLine
 10
-5.0
 20
0.0
 30
0.0
 11
-51.1328427125
 21
0.0
 31
0.0
  0
LINE
  5
F1
330
E8
100
AcDbEntity
  8
DIM
 62
     0
100
AcDbLine
 10
0.0
 20
-5.0
 30
0.0
 11
0.0
 21
-51.1328427125
 31
0.0
  0
LINE
  5
F2
330
E8
100
AcDbEntity
  8
DIM
 62
     0
100
AcDbLine
 10
5.0
 20
0.0
 30
0.0
 11
51.1328427125
 21
0.0
 31
0.0
  0
ENDBLK
  5
EA
330
E8
100
AcDbEntity
  8
0
100
AcDbBlockEnd
  0
BLOCK
  5
17A
330
179
100
AcDbEntity
  8
0
100
AcDbBlockBegin
  2
_D
 70
     0
 10
0.0
 20
0.0
 30
0.0
  3
_D
  1
_D
  0
SOLID
  5
17C
330
179
100
AcDbEntity
  8
DIM
100
AcDbTrace
 10
434.3556900258
 20
150.326580467
 30
0.0
 11
428.4120900258
 21
151.240980467
 31
0.0
 12
428.4120900258
 22
149.412180467
 32
0.0
 13
428.4120900258
 23
149.412180467
 33
0.0
  0
SOLID
  5
17D
330
179
100
AcDbEntity
  8
DIM
100
AcDbTrace
 10
455.3556900258
 20
150.326580467
 30
0.0
 11
461.2992900258
 21
149.412180467
 31
0.0
 12
461.2992900258
 22
151.240980467
 32
0.0
 13
461.2992900258
 23
151.240980467
 33
0.0
  0
LINE
  5
17E
330
179
100
AcDbEntity
  8
DIM
100
AcDbLine
 10
434.3556900258
 20
181.1582772225
 30
0.0
 11
434.3556900258
 21
148.526580467
 31
0.0
  0
LINE
  5
17F
330
179
100
AcDbEntity
  8
DIM
100
AcDbLine
 10
455.3556900258
 20
196.5082772225
 30
0.0
 11
455.3556900258
 21
148.526580467
 31
0.0
  0
LINE
  5
180
330
179
100
AcDbEntity
  8
DIM
100
AcDbLine
 10
434.3556900258
 20
150.326580467
 30
0.0
 11
422.9256900258
 21
150.326580467
 31
0.0
  0
LINE
  5
181
330
179
100
AcDbEntity
  8
DIM
100
AcDbLine
 10
434.3556900258
 20
150.326580467
 30
0.0
 11
455.3556900258
 21
150.326580467
 31
0.0
  0
LINE
  5
182
330
179
100
AcDbEntity
  8
DIM
100
AcDbLine
 10
455.3556900258
 20
150.326580467
 30
0.0
 11
466.7856900258
 21
150.326580467
 31
0.0
  0
MTEXT
  5
183
330
179
100
AcDbEntity
  8
DIM
100
AcDbMText
 10
441.3146829466
 20
157.0796845079
 30
0.0
 40
5.23875
 41
0.0
 71
     1
 72
     1
  1
21
  7
SLDTEXTSTYLE0
 73
     1
 44
1.0
  0
ENDBLK
  5
17B
330
179
100
AcDbEntity
  8
0
100
AcDbBlockEnd
  0
BLOCK
  5
187
330
186
100
AcDbEntity
  8
0
100
AcDbBlockBegin
  2
_D_1
 70
     0
 10
0.0
 20
0.0
 30
0.0
  3
_D_1
  1
_D_1
  0
SOLID
  5
189
330
186
100
AcDbEntity
  8
DIM
100
AcDbTrace
 10
434.3556900258
 20
150.326580467
 30
0.0
 11
428.4120900258
 21
151.240980467
 31
0.0
 12
428.4120900258
 22
149.412180467
 32
0.0
 13
428.4120900258
 23
149.412180467
 33
0.0
  0
SOLID
  5
18A
330
186
100
AcDbEntity
  8
DIM
100
AcDbTrace
 10
274.3556900258
 20
150.326580467
 30
0.0
 11
280.2992900258
 21
149.412180467
 31
0.0
 12
280.2992900258
 22
151.240980467
 32
0.0
 13
280.2992900258
 23
151.240980467
 33
0.0
  0
LINE
  5
18B
330
186
100
AcDbEntity
  8
DIM
100
AcDbLine
 10
434.3556900258
 20
182.6582772225
 30
0.0
 11
434.3556900258
 21
148.526580467
 31
0.0
  0
LINE
  5
18C
330
186
100
AcDbEntity
  8
DIM
100
AcDbLine
 10
274.3556900258
 20
174.2332772225
 30
0.0
 11
274.3556900258
 21
148.526580467
 31
0.0
  0
LINE
  5
18D
330
186
100
AcDbEntity
  8
DIM
100
AcDbLine
 10
434.3556900258
 20
150.326580467
 30
0.0
 11
274.3556900258
 21
150.326580467
 31
0.0
  0
MTEXT
  5
18E
330
186
100
AcDbEntity
  8
DIM
100
AcDbMText
 10
349.044179407
 20
157.0796845079
 30
0.0
 40
5.23875
 41
0.0
 71
     1
 72
     1
  1
160
  7
SLDTEXTSTYLE0
 73
     1
 44
1.0
  0
ENDBLK
  5
188
330
186
100
AcDbEntity
  8
0
100
AcDbBlockEnd
  0
BLOCK
  5
191
330
190
100
AcDbEntity
  8
0
100
AcDbBlockBegin
  2
_D_2
 70
     0
 10
0.0
 20
0.0
 30
0.0
  3
_D_2
  1
_D_2
  0
SOLID
  5
193
330
190
100
AcDbEntity
  8
DIM
100
AcDbTrace
 10
478.8244013502
 20
224.4582772225
 30
0.0
 11
479.7388013502
 21
230.4018772225
 31
0.0
 12
477.9100013502
 22
230.4018772225
 32
0.0
 13
477.9100013502
 23
230.4018772225
 33
0.0
  0
SOLID
  5
194
330
190
100
AcDbEntity
  8
DIM
100
AcDbTrace
 10
478.8244013502
 20
197.4582772225
 30
0.0
 11
477.9100013502
 21
191.5146772225
 31
0.0
 12
479.7388013502
 22
191.5146772225
 32
0.0
 13
479.7388013502
 23
191.5146772225
 33
0.0
  0
LINE
  5
195
330
190
100
AcDbEntity
  8
DIM
100
AcDbLine
 10
456.664942297
 20
224.4582772225
 30
0.0
 11
480.6244013502
 21
224.4582772225
 31
0.0
  0
LINE
  5
196
330
190
100
AcDbEntity
  8
DIM
100
AcDbLine
 10
456.664942297
 20
197.4582772225
 30
0.0
 11
480.6244013502
 21
197.4582772225
 31
0.0
  0
LINE
  5
197
330
190
100
AcDbEntity
  8
DIM
100
AcDbLine
 10
478.8244013502
 20
224.4582772225
 30
0.0
 11
478.8244013502
 21
235.8882772225
 31
0.0
  0
LINE
  5
198
330
190
100
AcDbEntity
  8
DIM
100
AcDbLine
 10
478.8244013502
 20
224.4582772225
 30
0.0
 11
478.8244013502
 21
197.4582772225
 31
0.0
  0
LINE
  5
199
330
190
100
AcDbEntity
  8
DIM
100
AcDbLine
 10
478.8244013502
 20
197.4582772225
 30
0.0
 11
478.8244013502
 21
186.0282772225
 31
0.0
  0
MTEXT
  5
19A
330
190
100
AcDbEntity
  8
DIM
100
AcDbMText
 10
472.0712973093
 20
203.3666978336
 30
0.0
 40
5.23875
 41
0.0
 71
     1
 72
     1
  1
%%c
  7
SLDTEXTSTYLE0
 11
-7.044195017643634E-15
 21
1.0
 31
0.0
 73
     1
 44
1.0
  0
MTEXT
  5
19B
330
190
100
AcDbEntity
  8
DIM
100
AcDbMText
 10
472.0712973093
 20
211.4678424529
 30
0.0
 40
5.23875
 41
0.0
 71
     1
 72
     1
  1
27
  7
SLDTEXTSTYLE0
 11
-7.044195017643634E-15
 21
1.0
 31
0.0
 73
     1
 44
1.0
  0
ENDBLK
  5
192
330
190
100
AcDbEntity
  8
0
100
AcDbBlockEnd
  0
BLOCK
  5
19E
330
19D
100
AcDbEntity
  8
0
100
AcDbBlockBegin
  2
_D_3
 70
     0
 10
0.0
 20
0.0
 30
0.0
  3
_D_3
  1
_D_3
  0
SOLID
  5
1A0
330
19D
100
AcDbEntity
  8
DIM
100
AcDbTrace
 10
490.0351721944
 20
181.9582772225
 30
0.0
 11
490.9495721944
 21
187.9018772225
 31
0.0
 12
489.1207721944
 22
187.9018772225
 32
0.0
 13
489.1207721944
 23
187.9018772225
 33
0.0
  0
SOLID
  5
1A1
330
19D
100
AcDbEntity
  8
DIM
100
AcDbTrace
 10
490.0351721944
 20
239.9582772225
 30
0.0
 11
489.1207721944
 21
234.0146772225
 31
0.0
 12
490.9495721944
 22
234.0146772225
 32
0.0
 13
490.9495721944
 23
234.0146772225
 33
0.0
  0
LINE
  5
1A2
330
19D
100
AcDbEntity
  8
DIM
100
AcDbLine
 10
435.1556900258
 20
181.9582772225
 30
0.0
 11
491.8351721944
 21
181.9582772225
 31
0.0
  0
LINE
  5
1A3
330
19D
100
AcDbEntity
  8
DIM
100
AcDbLine
 10
435.1556900258
 20
239.9582772225
 30
0.0
 11
491.8351721944
 21
239.9582772225
 31
0.0
  0
LINE
  5
1A4
330
19D
100
AcDbEntity
  8
DIM
100
AcDbLine
 10
490.0351721944
 20
181.9582772225
 30
0.0
 11
490.0351721944
 21
239.9582772225
 31
0.0
  0
MTEXT
  5
1A5
330
19D
100
AcDbEntity
  8
DIM
100
AcDbMText
 10
483.2820681535
 20
203.3666978336
 30
0.0
 40
5.23875
 41
0.0
 71
     1
 72
     1
  1
%%c
  7
SLDTEXTSTYLE0
 11
6.123233995736766E-17
 21
1.0
 31
0.0
 73
     1
 44
1.0
  0
MTEXT
  5
1A6
330
19D
100
AcDbEntity
  8
DIM
100
AcDbMText
 10
483.2820681535
 20
211.4678424529
 30
0.0
 40
5.23875
 41
0.0
 71
     1
 72
     1
  1
58
  7
SLDTEXTSTYLE0
 11
6.123233995736766E-17
 21
1.0
 31
0.0
 73
     1
 44
1.0
  0
ENDBLK
  5
19F
330
19D
100
AcDbEntity
  8
0
100
AcDbBlockEnd
  0
BLOCK
  5
1AA
330
1A9
100
AcDbEntity
  8
0
100
AcDbBlockBegin
  2
_D_4
 70
     0
 10
0.0
 20
0.0
 30
0.0
  3
_D_4
  1
_D_4
  0
SOLID
  5
1AC
330
1A9
100
AcDbEntity
  8
DIM
100
AcDbTrace
 10
161.1220901556
 20
259.7082772225
 30
0.0
 11
160.2076901556
 21
253.7646772225
 31
0.0
 12
162.0364901556
 22
253.7646772225
 32
0.0
 13
162.0364901556
 23
253.7646772225
 33
0.0
  0
SOLID
  5
1AD
330
1A9
100
AcDbEntity
  8
DIM
100
AcDbTrace
 10
161.1220901556
 20
162.2082772225
 30
0.0
 11
162.0364901556
 21
168.1518772225
 31
0.0
 12
160.2076901556
 22
168.1518772225
 32
0.0
 13
160.2076901556
 23
168.1518772225
 33
0.0
  0
LINE
  5
1AE
330
1A9
100
AcDbEntity
  8
DIM
100
AcDbLine
 10
276.9213754507
 20
259.7082772225
 30
0.0
 11
159.3220901556
 21
259.7082772225
 31
0.0
  0
LINE
  5
1AF
330
1A9
100
AcDbEntity
  8
DIM
100
AcDbLine
 10
276.9213754507
 20
162.2082772225
 30
0.0
 11
159.3220901556
 21
162.2082772225
 31
0.0
  0
LINE
  5
1B0
330
1A9
100
AcDbEntity
  8
DIM
100
AcDbLine
 10
161.1220901556
 20
259.7082772225
 30
0.0
 11
161.1220901556
 21
162.2082772225
 31
0.0
  0
MTEXT
  5
1B1
330
1A9
100
AcDbEntity
  8
DIM
100
AcDbMText
 10
154.3689861148
 20
198.8943573765
 30
0.0
 40
5.23875
 41
0.0
 71
     1
 72
     1
  1
%%c
  7
SLDTEXTSTYLE0
 11
-7.044195017643634E-15
 21
1.0
 31
0.0
 73
     1
 44
1.0
  0
MTEXT
  5
1B2
330
1A9
100
AcDbEntity
  8
DIM
100
AcDbMText
 10
154.3689861148
 20
206.9955019958
 30
0.0
 40
5.23875
 41
0.0
 71
     1
 72
     1
  1
97.50
  7
SLDTEXTSTYLE0
 11
-7.044195017643634E-15
 21
1.0
 31
0.0
 73
     1
 44
1.0
  0
ENDBLK
  5
1AB
330
1A9
100
AcDbEntity
  8
0
100
AcDbBlockEnd
  0
BLOCK
  5
1B5
330
1B4
100
AcDbEntity
  8
0
100
AcDbBlockBegin
  2
_D_5
 70
     0
 10
0.0
 20
0.0
 30
0.0
  3
_D_5
  1
_D_5
  0
SOLID
  5
1B7
330
1B4
100
AcDbEntity
  8
DIM
100
AcDbTrace
 10
172.6056900258
 20
133.4081772225
 30
0.0
 11
178.5492900258
 21
132.4937772225
 31
0.0
 12
178.5492900258
 22
134.3225772225
 32
0.0
 13
178.5492900258
 23
134.3225772225
 33
0.0
  0
SOLID
  5
1B8
330
1B4
100
AcDbEntity
  8
DIM
100
AcDbTrace
 10
467.3556900258
 20
133.4081772225
 30
0.0
 11
461.4120900258
 21
134.3225772225
 31
0.0
 12
461.4120900258
 22
132.4937772225
 32
0.0
 13
461.4120900258
 23
132.4937772225
 33
0.0
  0
LINE
  5
1B9
330
1B4
100
AcDbEntity
  8
DIM
100
AcDbLine
 10
172.6056900258
 20
209.1582772225
 30
0.0
 11
172.6056900258
 21
131.6081772225
 31
0.0
  0
LINE
  5
1BA
330
1B4
100
AcDbEntity
  8
DIM
100
AcDbLine
 10
467.3556900258
 20
192.6582772225
 30
0.0
 11
467.3556900258
 21
131.6081772225
 31
0.0
  0
LINE
  5
1BB
330
1B4
100
AcDbEntity
  8
DIM
100
AcDbLine
 10
172.6056900258
 20
133.4081772225
 30
0.0
 11
467.3556900258
 21
133.4081772225
 31
0.0
  0
MTEXT
  5
1BC
330
1B4
100
AcDbEntity
  8
DIM
100
AcDbMText
 10
310.1968389499
 20
140.1612812633
 30
0.0
 40
5.23875
 41
0.0
 71
     1
 72
     1
  1
294.75
  7
SLDTEXTSTYLE0
 73
     1
 44
1.0
  0
ENDBLK
  5
1B6
330
1B4
100
AcDbEntity
  8
0
100
AcDbBlockEnd
  0
ENDSEC
  0
SECTION
  2
ENTITIES
  0
LINE
  5
76
330
1F
100
AcDbEntity
  8
DIM
100
AcDbLine
 10
188.4679644402
 20
17.6237846223
 30
0.0
 11
188.4679644402
 21
8.6237846223
 31
0.0
  0
LINE
  5
77
330
1F
100
AcDbEntity
  8
DIM
100
AcDbLine
 10
458.0452830515
 20
17.6237846223
 30
0.0
 11
458.0452830515
 21
8.6237846223
 31
0.0
  0
LINE
  5
78
330
1F
100
AcDbEntity
  8
DIM
100
AcDbLine
 10
427.4130778768
 20
17.6237846223
 30
0.0
 11
427.4130778768
 21
8.6237846223
 31
0.0
  0
LINE
  5
79
330
1F
100
AcDbEntity
  8
DIM
100
AcDbLine
 10
502.0279644402
 20
8.6237846223
 30
0.0
 11
502.0279644402
 21
17.6237846223
 31
0.0
  0
LINE
  5
7A
330
1F
100
AcDbEntity
  8
DIM
100
AcDbLine
 10
202.5079644402
 20
17.6237846223
 30
0.0
 11
202.5079644402
 21
8.6237846223
 31
0.0
  0
LINE
  5
7B
330
1F
100
AcDbEntity
  8
DIM
100
AcDbLine
 10
237.051678821
 20
17.6237846223
 30
0.0
 11
237.051678821
 21
8.6237846223
 31
0.0
  0
LINE
  5
7C
330
1F
100
AcDbEntity
  8
DIM
100
AcDbLine
 10
525.4279644402
 20
8.6237846223
 30
0.0
 11
525.4279644402
 21
138.6737846223
 31
0.0
  0
LINE
  5
7D
330
1F
100
AcDbEntity
  8
DIM
100
AcDbLine
 10
514.4742084504
 20
108.0737846223
 30
0.0
 11
525.4279644402
 21
108.0737846223
 31
0.0
  0
LINE
  5
7E
330
1F
100
AcDbEntity
  8
DIM
100
AcDbLine
 10
268.3860315346
 20
16.2737846223
 30
0.0
 11
268.3860315346
 21
8.6237846223
 31
0.0
  0
LINE
  5
7F
330
1F
100
AcDbEntity
  8
DIM
100
AcDbLine
 10
354.1751084888
 20
17.6237846223
 30
0.0
 11
354.1751084888
 21
8.6237846223
 31
0.0
  0
LINE
  5
80
330
1F
100
AcDbEntity
  8
DIM
100
AcDbLine
 10
268.3860315346
 20
17.6237846223
 30
0.0
 11
268.3860315346
 21
16.2737846223
 31
0.0
  0
LINE
  5
81
330
1F
100
AcDbEntity
  8
DIM
100
AcDbLine
 10
516.4279644402
 20
31.5736550223
 30
0.0
 11
525.4279644402
 21
31.5736550223
 31
0.0
  0
LINE
  5
82
330
1F
100
AcDbEntity
  8
DIM
100
AcDbLine
 10
516.4279644402
 20
359.6237846223
 30
0.0
 11
17.8279644402
 21
359.6237846223
 31
0.0
  0
LINE
  5
83
330
1F
100
AcDbEntity
  8
DIM
100
AcDbLine
 10
525.4279644402
 20
368.6237846223
 30
0.0
 11
8.8279644402
 21
368.6237846223
 31
0.0
  0
LINE
  5
84
330
1F
100
AcDbEntity
  8
DIM
100
AcDbLine
 10
17.8279644402
 20
359.6237846223
 30
0.0
 11
17.8279644402
 21
17.6237846223
 31
0.0
  0
LINE
  5
85
330
1F
100
AcDbEntity
  8
DIM
100
AcDbLine
 10
8.8279644402
 20
368.6237846223
 30
0.0
 11
8.8279644402
 21
8.6237846223
 31
0.0
  0
LINE
  5
86
330
1F
100
AcDbEntity
  8
DIM
100
AcDbLine
 10
17.8279644402
 20
98.6237846223
 30
0.0
 11
8.8279644402
 21
98.6237846223
 31
0.0
  0
LINE
  5
87
330
1F
100
AcDbEntity
  8
DIM
100
AcDbLine
 10
8.8279644402
 20
188.6237846223
 30
0.0
 11
17.8279644402
 21
188.6237846223
 31
0.0
  0
LINE
  5
88
330
1F
100
AcDbEntity
  8
DIM
100
AcDbLine
 10
8.8279644402
 20
8.6237846223
 30
0.0
 11
525.4279644402
 21
8.6237846223
 31
0.0
  0
LINE
  5
89
330
1F
100
AcDbEntity
  8
DIM
100
AcDbLine
 10
17.8279644402
 20
17.6237846223
 30
0.0
 11
525.4279644402
 21
17.6237846223
 31
0.0
  0
LINE
  5
8A
330
1F
100
AcDbEntity
  8
DIM
100
AcDbLine
 10
87.1279644402
 20
8.6237846223
 30
0.0
 11
87.1279644402
 21
17.6237846223
 31
0.0
  0
LINE
  5
8B
330
1F
100
AcDbEntity
  8
DIM
100
AcDbLine
 10
177.1279644402
 20
17.6237846223
 30
0.0
 11
177.1279644402
 21
8.6237846223
 31
0.0
  0
LINE
  5
8C
330
1F
100
AcDbEntity
  8
DIM
100
AcDbLine
 10
17.8279644402
 20
278.6237846223
 30
0.0
 11
8.8279644402
 21
278.6237846223
 31
0.0
  0
LINE
  5
8D
330
1F
100
AcDbEntity
  8
DIM
100
AcDbLine
 10
87.1279644402
 20
359.6237846223
 30
0.0
 11
87.1279644402
 21
368.6237846223
 31
0.0
  0
LINE
  5
8E
330
1F
100
AcDbEntity
  8
DIM
100
AcDbLine
 10
177.1279644402
 20
368.6237846223
 30
0.0
 11
177.1279644402
 21
359.6237846223
 31
0.0
  0
LINE
  5
8F
330
1F
100
AcDbEntity
  8
DIM
100
AcDbLine
 10
267.1279644402
 20
368.6237846223
 30
0.0
 11
267.1279644402
 21
359.6237846223
 31
0.0
  0
LINE
  5
90
330
1F
100
AcDbEntity
  8
DIM
100
AcDbLine
 10
516.4279644402
 20
17.6237846223
 30
0.0
 11
516.4279644402
 21
359.6237846223
 31
0.0
  0
LINE
  5
91
330
1F
100
AcDbEntity
  8
DIM
100
AcDbLine
 10
525.4279644402
 20
138.6737846223
 30
0.0
 11
525.4279644402
 21
368.6237846223
 31
0.0
  0
LINE
  5
92
330
1F
100
AcDbEntity
  8
DIM
100
AcDbLine
 10
525.4279644402
 20
188.6237846223
 30
0.0
 11
516.4279644402
 21
188.6237846223
 31
0.0
  0
LINE
  5
93
330
1F
100
AcDbEntity
  8
DIM
100
AcDbLine
 10
357.1279644402
 20
368.6237846223
 30
0.0
 11
357.1279644402
 21
359.6237846223
 31
0.0
  0
LINE
  5
94
330
1F
100
AcDbEntity
  8
DIM
100
AcDbLine
 10
447.1279644402
 20
359.6237846223
 30
0.0
 11
447.1279644402
 21
368.6237846223
 31
0.0
  0
LINE
  5
95
330
1F
100
AcDbEntity
  8
DIM
100
AcDbLine
 10
516.4279644402
 20
278.6237846223
 30
0.0
 11
525.4279644402
 21
278.6237846223
 31
0.0
  0
MTEXT
  5
97
330
1F
100
AcDbEntity
  8
DIM
100
AcDbMText
 10
29.0334066681
 20
348.9624887387
 30
0.0
 40
7.62
 41
0.0
 71
     1
 72
     1
  1
SK 50 FMH-K27 160 AD+B/6.3G15000 SL SP.S
  7
SLDTEXTSTYLE0
 73
     1
 44
1.0
  0
MTEXT
  5
99
330
1F
100
AcDbEntity
  8
DIM
 62
     7
100
AcDbMText
 10
355.9190015639
 20
14.0435127473
 30
0.0
 40
2.69748
 41
0.0
 71
     1
 72
     1
  1
WEIGHT:
  7
SLDTEXTSTYLE1
 73
     1
 44
1.0
  0
MTEXT
  5
9A
330
1F
100
AcDbEntity
  8
DIM
 62
     7
100
AcDbMText
 10
519.4747381586
 20
147.4931043148
 30
0.0
 40
3.33375
 41
0.0
 71
     1
 72
     1
  1
C
  7
SLDTEXTSTYLE1
 73
     1
 44
1.0
  0
MTEXT
  5
9B
330
1F
100
AcDbEntity
  8
DIM
 62
     7
100
AcDbMText
 10
509.478445115
 20
26.7371675705
 30
0.0
 40
5.23875
 41
0.0
 71
     1
 72
     1
  1
A4
  7
SLDTEXTSTYLE1
 73
     1
 44
1.0
  0
MTEXT
  5
9C
330
1F
100
AcDbEntity
  8
DIM
 62
     7
100
AcDbMText
 10
490.6279716402
 20
366.2262141487
 30
0.0
 40
3.33375
 41
0.0
 71
     1
 72
     1
  1
6
  7
SLDTEXTSTYLE1
 73
     1
 44
1.0
  0
MTEXT
  5
9D
330
1F
100
AcDbEntity
  8
DIM
 62
     7
100
AcDbMText
 10
400.6279716402
 20
366.2262141487
 30
0.0
 40
3.33375
 41
0.0
 71
     1
 72
     1
  1
5
  7
SLDTEXTSTYLE1
 73
     1
 44
1.0
  0
MTEXT
  5
9E
330
1F
100
AcDbEntity
  8
DIM
 62
     7
100
AcDbMText
 10
519.4279788402
 20
325.7262141487
 30
0.0
 40
3.33375
 41
0.0
 71
     1
 72
     1
  1
A
  7
SLDTEXTSTYLE1
 73
     1
 44
1.0
  0
MTEXT
  5
9F
330
1F
100
AcDbEntity
  8
DIM
 62
     7
100
AcDbMText
 10
519.4279788402
 20
235.7262141487
 30
0.0
 40
3.33375
 41
0.0
 71
     1
 72
     1
  1
B
  7
SLDTEXTSTYLE1
 73
     1
 44
1.0
  0
MTEXT
  5
A0
330
1F
100
AcDbEntity
  8
DIM
 62
     7
100
AcDbMText
 10
310.6279716402
 20
366.2262141487
 30
0.0
 40
3.33375
 41
0.0
 71
     1
 72
     1
  1
4
  7
SLDTEXTSTYLE1
 73
     1
 44
1.0
  0
MTEXT
  5
A1
330
1F
100
AcDbEntity
  8
DIM
 62
     7
100
AcDbMText
 10
41.3779716402
 20
366.2262141487
 30
0.0
 40
3.33375
 41
0.0
 71
     1
 72
     1
  1
1
  7
SLDTEXTSTYLE1
 73
     1
 44
1.0
  0
MTEXT
  5
A2
330
1F
100
AcDbEntity
  8
DIM
 62
     7
100
AcDbMText
 10
130.6279716402
 20
366.2262141487
 30
0.0
 40
3.33375
 41
0.0
 71
     1
 72
     1
  1
2
  7
SLDTEXTSTYLE1
 73
     1
 44
1.0
  0
MTEXT
  5
A3
330
1F
100
AcDbEntity
  8
DIM
 62
     7
100
AcDbMText
 10
220.6279716402
 20
366.2262141487
 30
0.0
 40
3.33375
 41
0.0
 71
     1
 72
     1
  1
3
  7
SLDTEXTSTYLE1
 73
     1
 44
1.0
  0
MTEXT
  5
A4
330
1F
100
AcDbEntity
  8
DIM
 62
     7
100
AcDbMText
 10
11.8279644402
 20
325.7262141487
 30
0.0
 40
3.33375
 41
0.0
 71
     1
 72
     1
  1
A
  7
SLDTEXTSTYLE1
 73
     1
 44
1.0
  0
MTEXT
  5
A5
330
1F
100
AcDbEntity
  8
DIM
 62
     7
100
AcDbMText
 10
130.6279716402
 20
15.2262141487
 30
0.0
 40
3.33375
 41
0.0
 71
     1
 72
     1
  1
2
  7
SLDTEXTSTYLE1
 73
     1
 44
1.0
  0
MTEXT
  5
A6
330
1F
100
AcDbEntity
  8
DIM
 62
     7
100
AcDbMText
 10
41.3779716402
 20
15.2262141487
 30
0.0
 40
3.33375
 41
0.0
 71
     1
 72
     1
  1
1
  7
SLDTEXTSTYLE1
 73
     1
 44
1.0
  0
MTEXT
  5
A7
330
1F
100
AcDbEntity
  8
DIM
 62
     7
100
AcDbMText
 10
11.8279644402
 20
55.7262141487
 30
0.0
 40
3.33375
 41
0.0
 71
     1
 72
     1
  1
D
  7
SLDTEXTSTYLE1
 73
     1
 44
1.0
  0
MTEXT
  5
A8
330
1F
100
AcDbEntity
  8
DIM
 62
     7
100
AcDbMText
 10
11.8279644402
 20
145.7262141487
 30
0.0
 40
3.33375
 41
0.0
 71
     1
 72
     1
  1
C
  7
SLDTEXTSTYLE1
 73
     1
 44
1.0
  0
MTEXT
  5
A9
330
1F
100
AcDbEntity
  8
DIM
 62
     7
100
AcDbMText
 10
11.8279644402
 20
235.7262141487
 30
0.0
 40
3.33375
 41
0.0
 71
     1
 72
     1
  1
B
  7
SLDTEXTSTYLE1
 73
     1
 44
1.0
  0
MTEXT
  5
AA
330
1F
100
AcDbEntity
  8
DIM
 62
     7
100
AcDbMText
 10
519.4747381586
 20
147.4931043148
 30
0.0
 40
3.33375
 41
0.0
 71
     1
 72
     1
  1
C
  7
SLDTEXTSTYLE1
 73
     1
 44
1.0
  0
MTEXT
  5
AC
330
1F
100
AcDbEntity
  8
DIM
 62
     7
100
AcDbMText
 10
461.7456584625
 20
13.8439417165
 30
0.0
 40
2.7
 41
0.0
 71
     1
 72
     1
  1
SHEET 1 OF 1
  7
SLDTEXTSTYLE2
 73
     1
 44
1.0
  0
MTEXT
  5
AD
330
1F
100
AcDbEntity
  8
DIM
 62
     7
100
AcDbMText
 10
270.6692046902
 20
14.1360614706
 30
0.0
 40
2.7
 41
0.0
 71
     1
 72
     1
  1
MATERIAL:
  7
SLDTEXTSTYLE1
 73
     1
 44
1.0
  0
MTEXT
  5
AE
330
1F
100
AcDbEntity
  8
DIM
 62
     7
100
AcDbMText
 10
490.6279716402
 20
366.2262141487
 30
0.0
 40
3.33375
 41
0.0
 71
     1
 72
     1
  1
6
  7
SLDTEXTSTYLE1
 73
     1
 44
1.0
  0
MTEXT
  5
AF
330
1F
100
AcDbEntity
  8
DIM
 62
     7
100
AcDbMText
 10
400.6279716402
 20
366.2262141487
 30
0.0
 40
3.33375
 41
0.0
 71
     1
 72
     1
  1
5
  7
SLDTEXTSTYLE1
 73
     1
 44
1.0
  0
MTEXT
  5
B0
330
1F
100
AcDbEntity
  8
DIM
 62
     7
100
AcDbMText
 10
519.4279788402
 20
325.7262141487
 30
0.0
 40
3.33375
 41
0.0
 71
     1
 72
     1
  1
A
  7
SLDTEXTSTYLE1
 73
     1
 44
1.0
  0
MTEXT
  5
B1
330
1F
100
AcDbEntity
  8
DIM
 62
     7
100
AcDbMText
 10
519.4279788402
 20
235.7262141487
 30
0.0
 40
3.33375
 41
0.0
 71
     1
 72
     1
  1
B
  7
SLDTEXTSTYLE1
 73
     1
 44
1.0
  0
MTEXT
  5
B2
330
1F
100
AcDbEntity
  8
DIM
 62
     7
100
AcDbMText
 10
310.6279716402
 20
366.2262141487
 30
0.0
 40
3.33375
 41
0.0
 71
     1
 72
     1
  1
4
  7
SLDTEXTSTYLE1
 73
     1
 44
1.0
  0
MTEXT
  5
B3
330
1F
100
AcDbEntity
  8
DIM
 62
     7
100
AcDbMText
 10
41.3779716402
 20
366.2262141487
 30
0.0
 40
3.33375
 41
0.0
 71
     1
 72
     1
  1
1
  7
SLDTEXTSTYLE1
 73
     1
 44
1.0
  0
MTEXT
  5
B4
330
1F
100
AcDbEntity
  8
DIM
 62
     7
100
AcDbMText
 10
130.6279716402
 20
366.2262141487
 30
0.0
 40
3.33375
 41
0.0
 71
     1
 72
     1
  1
2
  7
SLDTEXTSTYLE1
 73
     1
 44
1.0
  0
MTEXT
  5
B5
330
1F
100
AcDbEntity
  8
DIM
 62
     7
100
AcDbMText
 10
220.6279716402
 20
366.2262141487
 30
0.0
 40
3.33375
 41
0.0
 71
     1
 72
     1
  1
3
  7
SLDTEXTSTYLE1
 73
     1
 44
1.0
  0
MTEXT
  5
B6
330
1F
100
AcDbEntity
  8
DIM
 62
     7
100
AcDbMText
 10
11.8279644402
 20
325.7262141487
 30
0.0
 40
3.33375
 41
0.0
 71
     1
 72
     1
  1
A
  7
SLDTEXTSTYLE1
 73
     1
 44
1.0
  0
MTEXT
  5
B7
330
1F
100
AcDbEntity
  8
DIM
 62
     7
100
AcDbMText
 10
130.6279716402
 20
15.2262141487
 30
0.0
 40
3.33375
 41
0.0
 71
     1
 72
     1
  1
2
  7
SLDTEXTSTYLE1
 73
     1
 44
1.0
  0
MTEXT
  5
B8
330
1F
100
AcDbEntity
  8
DIM
 62
     7
100
AcDbMText
 10
41.3779716402
 20
15.2262141487
 30
0.0
 40
3.33375
 41
0.0
 71
     1
 72
     1
  1
1
  7
SLDTEXTSTYLE1
 73
     1
 44
1.0
  0
MTEXT
  5
B9
330
1F
100
AcDbEntity
  8
DIM
 62
     7
100
AcDbMText
 10
11.8279644402
 20
55.7262141487
 30
0.0
 40
3.33375
 41
0.0
 71
     1
 72
     1
  1
D
  7
SLDTEXTSTYLE1
 73
     1
 44
1.0
  0
MTEXT
  5
BA
330
1F
100
AcDbEntity
  8
DIM
 62
     7
100
AcDbMText
 10
11.8279644402
 20
145.7262141487
 30
0.0
 40
3.33375
 41
0.0
 71
     1
 72
     1
  1
C
  7
SLDTEXTSTYLE1
 73
     1
 44
1.0
  0
MTEXT
  5
BB
330
1F
100
AcDbEntity
  8
DIM
 62
     7
100
AcDbMText
 10
11.8279644402
 20
235.7262141487
 30
0.0
 40
3.33375
 41
0.0
 71
     1
 72
     1
  1
B
  7
SLDTEXTSTYLE1
 73
     1
 44
1.0
  0
SPLINE
  5
BC
330
1F
100
AcDbEntity
  8
0
  6
Continuous
 62
     7
370
    15
100
AcDbSpline
210
0.0
220
0.0
230
1.0
 70
     8
 71
     3
 72
    14
 73
    10
 74
     0
 42
0.000000001
 43
0.00000001
 40
0.0
 40
0.0
 40
0.0
 40
0.0
 40
0.25
 40
0.25
 40
0.5
 40
0.5
 40
0.75
 40
0.75
 40
1.0
 40
1.0
 40
1.0
 40
1.0
 10
114.5982831798397
 20
210.9582772224516
 30
0.0
 10
114.5982831798397
 20
205.8605428456772
 30
0.0
 10
112.5730567537708
 20
200.9712137409851
 30
0.0
 10
105.3637716607608
 20
193.7619286479752
 30
0.0
 10
100.4744425560687
 20
191.7367022219062
 30
0.0
 10
90.27897380251984
 20
191.7367022219062
 30
0.0
 10
85.38964469782782
 20
193.7619286479752
 30
0.0
 10
78.18035960481784
 20
200.9712137409852
 30
0.0
 10
76.1551331787489
 20
205.8605428456772
 30
0.0
 10
76.1551331787489
 20
210.9582772224516
 30
0.0
  0
SPLINE
  5
BD
330
1F
100
AcDbEntity
  8
0
  6
Continuous
 62
     7
370
    15
100
AcDbSpline
210
0.0
220
0.0
230
1.0
 70
     8
 71
     3
 72
    14
 73
    10
 74
     0
 42
0.000000001
 43
0.00000001
 40
0.0
 40
0.0
 40
0.0
 40
0.0
 40
0.25
 40
0.25
 40
0.5
 40
0.5
 40
0.75
 40
0.75
 40
1.0
 40
1.0
 40
1.0
 40
1.0
 10
76.1551331787489
 20
210.9582772224516
 30
0.0
 10
76.1551331787489
 20
216.0560115992261
 30
0.0
 10
78.18035960481784
 20
220.9453407039181
 30
0.0
 10
85.38964469782782
 20
228.1546257969281
 30
0.0
 10
90.27897380251984
 20
230.179852222997
 30
0.0
 10
100.4744425560687
 20
230.179852222997
 30
0.0
 10
105.3637716607608
 20
228.1546257969281
 30
0.0
 10
112.5730567537708
 20
220.9453407039181
 30
0.0
 10
114.5982831798397
 20
216.0560115992261
 30
0.0
 10
114.5982831798397
 20
210.9582772224516
 30
0.0
  0
CIRCLE
  5
BE
330
1F
100
AcDbEntity
  8
0
  6
Continuous
 62
     7
370
    15
100
AcDbCircle
 10
95.3767081793
 20
210.9582772225
 30
0.0
 40
20.21110778703759
  0
CIRCLE
  5
BF
330
1F
100
AcDbEntity
  8
0
  6
Continuous
 62
     7
370
    15
100
AcDbCircle
 10
95.3767081793
 20
210.9582772225
 30
0.0
 40
34.92500000000001
  0
SPLINE
  5
C0
330
1F
100
AcDbEntity
  8
0
  6
Continuous
 62
     7
370
    15
100
AcDbSpline
210
0.0
220
0.0
230
1.0
 70
     8
 71
     3
 72
    52
 73
    48
 74
     0
 42
0.000000001
 43
0.00000001
 40
0.0
 40
0.0
 40
0.0
 40
0.0
 40
0.0053074994726554
 40
0.0106084744807156
 40
0.0159043870752884
 40
0.0211967035030982
 40
0.0264868930010475
 40
0.031776426578386
 40
0.0370667757915106
 40
0.0423594115164833
 40
0.0476558027243854
 40
0.0529574152645906
 40
0.0582657106609693
 40
0.0891348494758177
 40
0.1200087595578935
 40
0.1521645941108524
 40
0.1843252192282218
 40
0.2171652710885947
 40
0.2500102154523581
 40
0.2828502674523063
 40
0.3156952119562962
 40
0.3478510468948057
 40
0.380011672397905
 40
0.4108808109142898
 40
0.4417547207534483
 40
0.470875333637603
 40
0.5000007798720159
 40
0.5291213927975412
 40
0.5582468390472084
 40
0.5891159778617261
 40
0.6199898879441322
 40
0.652145722497098
 40
0.6843063476144644
 40
0.7171463994755694
 40
0.7499913438386044
 40
0.7828313958395676
 40
0.8156763403425417
 40
0.8478321752819549
 40
0.8799928007841501
 40
0.9108619393016738
 40
0.941735849139696
 40
0.9514609652020397
 40
0.9611682412334405
 40
0.9708667191333772
 40
0.9805654654081966
 40
0.9902735458123287
 40
1.0
 40
1.0
 40
1.0
 40
1.0
 10
60.37670817929428
 20
210.9582772224516
 30
0.0
 10
60.37763621020475
 20
211.1527393805046
 30
0.0
 10
60.37949113120505
 20
211.5414246459102
 30
0.0
 10
60.39452016555668
 20
212.1239876159318
 30
0.0
 10
60.41851879459107
 20
212.7056735033011
 30
0.0
 10
60.45236309867418
 20
213.2864821981183
 30
0.0
 10
60.49581864040777
 20
213.8664135465375
 30
0.0
 10
60.54894820147383
 20
214.4454674669621
 30
0.0
 10
60.61173487119601
 20
215.0236436310988
 30
0.0
 10
60.68418346371259
 20
215.6009426284672
 30
0.0
 10
60.76629150120561
 20
216.1773616286147
 30
0.0
 10
60.85806390319927
 20
216.7529105901928
 30
0.0
 10
61.12220340483267
 20
218.2495231937065
 30
0.0
 10
61.68597115773807
 20
220.6452300548746
 30
0.0
 10
62.79858833807679
 20
223.9061011609271
 30
0.0
 10
64.2457545536174
 20
227.0859900432208
 30
0.0
 10
66.04493018302409
 20
230.1644889749765
 30
0.0
 10
68.16135075858446
 20
233.0659488830134
 30
0.0
 10
70.58423595209958
 20
235.7504958590073
 30
0.0
 10
73.26889643071803
 20
238.1735210339538
 30
0.0
 10
76.17019657027834
 20
240.2898602700309
 30
0.0
 10
79.24884966830533
 20
242.0891524621499
 30
0.0
 10
82.42851310231364
 20
243.5362605953572
 30
0.0
 10
85.68974940031997
 20
244.6489904123621
 30
0.0
 10
88.93549369905399
 20
245.4128778977583
 30
0.0
 10
92.1743598172099
 20
245.8611558977687
 30
0.0
 10
95.37653120713976
 20
246.0068337626089
 30
0.0
 10
98.57887867778604
 20
245.8611723851604
 30
0.0
 10
101.8175769375
 20
245.4129421926993
 30
0.0
 10
105.063497547073
 20
244.6490401335766
 30
0.0
 10
108.3245779476324
 20
243.5363898042179
 30
0.0
 10
111.5044085160875
 20
242.0892328291625
 30
0.0
 10
114.5829233562975
 20
240.2900546619334
 30
0.0
 10
117.4843789124241
 20
238.1736348450859
 30
0.0
 10
120.1689270704336
 20
235.7507492039755
 30
0.0
 10
122.5919519000164
 20
233.06608975149
 30
0.0
 10
124.7082913341814
 20
230.1647859801371
 30
0.0
 10
126.5075830868195
 20
227.0861461175551
 30
0.0
 10
127.9546927561791
 20
223.9064341721313
 30
0.0
 10
129.0674170798423
 20
220.645371962456
 30
0.0
 10
129.6682630118851
 20
218.0919578771018
 30
0.0
 10
129.9762030914043
 20
216.2745381715001
 30
0.0
 10
130.1223422023269
 20
215.2170914332716
 30
0.0
 10
130.2361482295879
 20
214.1566541798968
 30
0.0
 10
130.3168435503945
 20
213.0932002057446
 30
0.0
 10
130.3673650858102
 20
212.0267398370102
 30
0.0
 10
130.3735918524978
 20
211.3146558332845
 30
0.0
 10
130.3767081792943
 20
210.9582772224516
 30
0.0
  0
SPLINE
  5
C1
330
1F
100
AcDbEntity
  8
0
  6
Continuous
 62
     7
370
    15
100
AcDbSpline
210
0.0
220
0.0
230
1.0
 70
     8
 71
     3
 72
    52
 73
    48
 74
     0
 42
0.000000001
 43
0.00000001
 40
0.0
 40
0.0
 40
0.0
 40
0.0
 40
0.0053074994726554
 40
0.0106084744807156
 40
0.0159043870752884
 40
0.0211967035030983
 40
0.0264868930010475
 40
0.0317764265783861
 40
0.0370667757915106
 40
0.0423594115164834
 40
0.0476558027243854
 40
0.0529574152645907
 40
0.0582657106609694
 40
0.0891348494759667
 40
0.1200087595578951
 40
0.1521645941111445
 40
0.1843252192282232
 40
0.2171652710889209
 40
0.25001021545236
 40
0.2828502674525652
 40
0.315695211956297
 40
0.3478510468951538
 40
0.3800116723979077
 40
0.41088081091547
 40
0.4417547207534571
 40
0.4708753336379863
 40
0.5000007798720127
 40
0.5291213927971703
 40
0.5582468390472111
 40
0.5891159778626601
 40
0.6199898879441411
 40
0.6521457224976949
 40
0.6843063476144631
 40
0.7171463994753853
 40
0.7499913438386053
 40
0.7828313958393156
 40
0.8156763403425399
 40
0.8478321752809374
 40
0.8799928007841432
 40
0.9108619393011222
 40
0.9417358491396983
 40
0.9514609652021586
 40
0.9611682412336295
 40
0.9708667191335897
 40
0.9805654654083855
 40
0.9902735458124469
 40
1.0
 40
1.0
 40
1.0
 40
1.0
 10
130.3767081792943
 20
210.9582772224516
 30
0.0
 10
130.3757801483839
 20
210.7638150643987
 30
0.0
 10
130.3739252273836
 20
210.375129798993
 30
0.0
 10
130.3588961930319
 20
209.7925668289715
 30
0.0
 10
130.3348975639975
 20
209.2108809416021
 30
0.0
 10
130.3010532599144
 20
208.630072246785
 30
0.0
 10
130.2575977181808
 20
208.0501408983658
 30
0.0
 10
130.2044681571148
 20
207.4710869779411
 30
0.0
 10
130.1416814873926
 20
206.8929108138045
 30
0.0
 10
130.069232894876
 20
206.3156118164361
 30
0.0
 10
129.987124857383
 20
205.7391928162886
 30
0.0
 10
129.8953524553893
 20
205.1636438547104
 30
0.0
 10
129.6312129537549
 20
203.6670312511914
 30
0.0
 10
129.0674452008518
 20
201.2713243900226
 30
0.0
 10
127.9548280205054
 20
198.0104532839615
 30
0.0
 10
126.5076618049664
 20
194.8305644016729
 30
0.0
 10
124.708486175552
 20
191.752065469908
 30
0.0
 10
122.5920655999971
 20
188.8506055618801
 30
0.0
 10
120.169180406474
 20
186.1660585858808
 30
0.0
 10
117.484519927862
 20
183.7430334109448
 30
0.0
 10
114.5832197882916
 20
181.6266941748608
 30
0.0
 10
111.5045666902738
 20
179.8274019827436
 30
0.0
 10
108.3249032562224
 20
178.3802938495275
 30
0.0
 10
105.06366695823
 20
177.2675640325195
 30
0.0
 10
101.8179226594788
 20
176.503676547132
 30
0.0
 10
98.57905654136256
 20
176.0553985471564
 30
0.0
 10
95.37688515144876
 20
175.9097206822925
 30
0.0
 10
92.17453768081485
 20
176.055382059731
 30
0.0
 10
88.93583942106916
 20
176.5036122522108
 30
0.0
 10
85.6899188114798
 20
177.2675143113254
 30
0.0
 10
82.42883841090386
 20
178.3801646407055
 30
0.0
 10
79.2490078424897
 20
179.8273216157662
 30
0.0
 10
76.17049300227723
 20
181.6264997829759
 30
0.0
 10
73.26903744616841
 20
183.7429195998117
 30
0.0
 10
70.5844892881657
 20
186.165805240916
 30
0.0
 10
68.16146445858234
 20
188.8504646934094
 30
0.0
 10
66.04512502443076
 20
191.7517684647262
 30
0.0
 10
64.24583327179408
 20
194.8304083273192
 30
0.0
 10
62.79872360243213
 20
198.0101202727191
 30
0.0
 10
61.68599927873541
 20
201.2711824824231
 30
0.0
 10
61.08515334670489
 20
203.8245965677856
 30
0.0
 10
60.77721326718467
 20
205.6420162734145
 30
0.0
 10
60.63107415626205
 20
206.6994630116508
 30
0.0
 10
60.5172681290009
 20
207.7599002650282
 30
0.0
 10
60.43657280819425
 20
208.8233542391777
 30
0.0
 10
60.38605127277845
 20
209.8898146079043
 30
0.0
 10
60.37982450609075
 20
210.601898611623
 30
0.0
 10
60.37670817929428
 20
210.9582772224516
 30
0.0
  0
SPLINE
  5
C2
330
1F
100
AcDbEntity
  8
0
  6
Continuous
 62
     7
370
    15
100
AcDbSpline
210
0.0
220
0.0
230
1.0
 70
    24
 71
     3
 72
     8
 73
     4
 74
     0
 42
0.000000001
 43
0.00000001
 40
0.0
 40
0.0
 40
0.0
 40
0.0
 40
1.0
 40
1.0
 40
1.0
 40
1.0
 10
65.37670817929428
 20
248.2579387060187
 30
0.0
 10
65.37670817929428
 20
248.1544296617843
 30
0.0
 10
65.3767081792943
 20
248.0250060999522
 30
0.0
 10
65.3767081792943
 20
247.8942622990323
 30
0.0
  0
ARC
  5
C3
330
1F
100
AcDbEntity
  8
0
  6
Continuous
 62
     7
370
    15
100
AcDbCircle
 10
95.3767081793
 20
210.9582772225
 30
0.0
 40
47.58431457505077
100
AcDbArc
 50
129.0840578538
 51
140.9159421462
  0
SPLINE
  5
C4
330
1F
100
AcDbEntity
  8
0
  6
Continuous
 62
     7
370
    15
100
AcDbSpline
210
0.0
220
0.0
230
1.0
 70
    24
 71
     3
 72
     8
 73
     4
 74
     0
 42
0.000000001
 43
0.00000001
 40
0.0
 40
0.0
 40
0.0
 40
0.0
 40
1.0
 40
1.0
 40
1.0
 40
1.0
 10
58.44072310271364
 20
240.9582772224516
 30
0.0
 10
58.31001895310674
 20
240.9582772224516
 30
0.0
 10
58.18048198609058
 20
240.9582772224516
 30
0.0
 10
58.07704669572724
 20
240.9582772224516
 30
0.0
  0
ARC
  5
C5
330
1F
100
AcDbEntity
  8
0
  6
Continuous
 62
     7
370
    15
100
AcDbCircle
 10
95.3767081793
 20
210.9582772225
 30
0.0
 40
47.8671572875254
100
AcDbArc
 50
128.8096103904
 51
141.1903896096
  0
ARC
  5
C6
330
1F
100
AcDbEntity
  8
0
  6
Continuous
 62
     7
370
    15
100
AcDbCircle
 10
95.3767081793
 20
210.9582772225
 30
0.0
 40
47.86715728752538
100
AcDbArc
 50
163.7023380383
 51
196.2976619617
  0
SPLINE
  5
C7
330
1F
100
AcDbEntity
  8
0
  6
Continuous
 62
     7
370
    15
100
AcDbSpline
210
0.0
220
0.0
230
1.0
 70
     8
 71
     3
 72
    10
 73
     6
 74
     0
 42
0.000000001
 43
0.00000001
 40
0.0
 40
0.0
 40
0.0
 40
0.0
 40
0.5
 40
0.5
 40
1.0
 40
1.0
 40
1.0
 40
1.0
 10
49.43300911782763
 20
224.3911199349263
 30
0.0
 10
49.47654950924636
 20
224.4237529959436
 30
0.0
 10
49.52510411336412
 20
224.4517338822098
 30
0.0
 10
49.636553649126
 20
224.4943907325848
 30
0.0
 10
49.69851190171514
 20
224.5082772224516
 30
0.0
 10
49.76240676430615
 20
224.5082772224516
 30
0.0
  0
ARC
  5
C8
330
1F
100
AcDbEntity
  8
0
  6
Continuous
 62
     7
370
    15
100
AcDbCircle
 10
95.3767081793
 20
210.9582772225
 30
0.0
 40
47.58431457505078
100
AcDbArc
 50
163.4556342686
 51
196.5443657314
  0
SPLINE
  5
C9
330
1F
100
AcDbEntity
  8
0
  6
Continuous
 62
     7
370
    15
100
AcDbSpline
210
0.0
220
0.0
230
1.0
 70
     8
 71
     3
 72
    10
 73
     6
 74
     0
 42
0.000000001
 43
0.00000001
 40
0.0
 40
0.0
 40
0.0
 40
0.0
 40
0.5
 40
0.5
 40
1.0
 40
1.0
 40
1.0
 40
1.0
 10
49.43300911782763
 20
197.525434509977
 30
0.0
 10
49.47654950924636
 20
197.4928014489597
 30
0.0
 10
49.52510411336411
 20
197.4648205626935
 30
0.0
 10
49.63655364912599
 20
197.4221637123185
 30
0.0
 10
49.69851190171514
 20
197.4082772224516
 30
0.0
 10
49.76240676430615
 20
197.4082772224516
 30
0.0
  0
SPLINE
  5
CA
330
1F
100
AcDbEntity
  8
0
  6
Continuous
 62
     7
370
    15
100
AcDbSpline
210
0.0
220
0.0
230
1.0
 70
     8
 71
     3
 72
    10
 73
     6
 74
     0
 42
0.000000001
 43
0.00000001
 40
0.0
 40
0.0
 40
0.0
 40
0.0
 40
0.5
 40
0.5
 40
1.0
 40
1.0
 40
1.0
 40
1.0
 10
141.320407240761
 20
197.525434509977
 30
0.0
 10
141.2768668493422
 20
197.4928014489597
 30
0.0
 10
141.2283122452245
 20
197.4648205626935
 30
0.0
 10
141.1168627094626
 20
197.4221637123185
 30
0.0
 10
141.0549044568735
 20
197.4082772224516
 30
0.0
 10
140.9910095942825
 20
197.4082772224516
 30
0.0
  0
ARC
  5
CB
330
1F
100
AcDbEntity
  8
0
  6
Continuous
 62
     7
370
    15
100
AcDbCircle
 10
95.3767081793
 20
210.9582772225
 30
0.0
 40
47.58431457505078
100
AcDbArc
 50
343.4556342686
 51
16.5443657314
  0
SPLINE
  5
CC
330
1F
100
AcDbEntity
  8
0
  6
Continuous
 62
     7
370
    15
100
AcDbSpline
210
0.0
220
0.0
230
1.0
 70
     8
 71
     3
 72
    10
 73
     6
 74
     0
 42
0.000000001
 43
0.00000001
 40
0.0
 40
0.0
 40
0.0
 40
0.0
 40
0.5
 40
0.5
 40
1.0
 40
1.0
 40
1.0
 40
1.0
 10
140.9910095942824
 20
224.5082772224516
 30
0.0
 10
141.0549612831256
 20
224.5082772224516
 30
0.0
 10
141.1165256215767
 20
224.4944313464268
 30
0.0
 10
141.2271509724257
 20
224.4522655702394
 30
0.0
 10
141.2768376640952
 20
224.4237748699764
 30
0.0
 10
141.320407240761
 20
224.3911199349263
 30
0.0
  0
ARC
  5
CD
330
1F
100
AcDbEntity
  8
0
  6
Continuous
 62
     7
370
    15
100
AcDbCircle
 10
95.3767081793
 20
210.9582772225
 30
0.0
 40
47.86715728752539
100
AcDbArc
 50
343.7023380383
 51
16.2976619617
  0
SPLINE
  5
CE
330
1F
100
AcDbEntity
  8
0
  6
Continuous
 62
     7
370
    15
100
AcDbSpline
210
0.0
220
0.0
230
1.0
 70
     8
 71
     3
 72
    48
 73
    44
 74
     0
 42
0.000000001
 43
0.00000001
 40
0.0
 40
0.0
 40
0.0
 40
0.0
 40
0.0054347037870314
 40
0.0108647463485207
 40
0.0162911759177293
 40
0.0217150428226928
 40
0.0271373988806366
 40
0.0325592967880729
 40
0.0379817895083434
 40
0.0434059296583851
 40
0.0488327688965038
 40
0.0542633573129332
 40
0.059698742824938
 40
0.0907177254008823
 40
0.1217409090757531
 40
0.1535986684470912
 40
0.1854607425290452
 40
0.2177550902622351
 40
0.2500538118399259
 40
0.2823481596244854
 40
0.3146468812542022
 40
0.346504640772552
 40
0.3783667150011477
 40
0.440359683087698
 40
0.5000005600694972
 40
0.5596414370512967
 40
0.621634405137847
 40
0.6534921645093787
 40
0.6853542385911302
 40
0.7176485863248414
 40
0.749947307902022
 40
0.7822416556872713
 40
0.8145403773162883
 40
0.8463981368333431
 40
0.87826021106323
 40
0.9092791938585987
 40
0.9403023777537969
 40
0.9502622131370424
 40
0.9602093142102202
 40
0.970150156833966
 40
0.98009122909965
 40
0.9900390186493149
 40
0.9999999999999999
 40
0.9999999999999999
 40
0.9999999999999999
 40
0.9999999999999999
 10
49.76240676430615
 20
197.4082772224516
 30
0.0
 10
49.82616726139458
 20
197.1967378860237
 30
0.0
 10
49.95363356959969
 20
196.7738406457898
 30
0.0
 10
50.15589710062235
 20
196.143166403562
 30
0.0
 10
50.36614166912283
 20
195.5155889238794
 30
0.0
 10
50.58516713386709
 20
194.8913458724264
 30
0.0
 10
50.81275933719629
 20
194.2703737246316
 30
0.0
 10
51.04897562467583
 20
193.6526895505816
 30
0.0
 10
51.29380050752902
 20
193.0382889837433
 30
0.0
 10
51.5472384524351
 20
192.4271728440369
 30
0.0
 10
51.80928689543032
 20
191.8193426279503
 30
0.0
 10
52.07995142296955
 20
191.2147919208562
 30
0.0
 10
52.79723066334046
 20
189.6704933256779
 30
0.0
 10
54.06874419048034
 20
187.2360508566479
 30
0.0
 10
56.10250934082164
 20
184.0011051975627
 30
0.0
 10
58.40973240273312
 20
180.9116262000419
 30
0.0
 10
60.99669806854631
 20
177.9830363874293
 30
0.0
 10
63.82742748884959
 20
175.263132463051
 30
0.0
 10
66.88809307692124
 20
172.7768705533671
 30
0.0
 10
70.14312194027764
 20
170.5507793759731
 30
0.0
 10
73.55626533499027
 20
168.611818919884
 30
0.0
 10
77.10065936177683
 20
166.9658226635091
 30
0.0
 10
81.9008941637397
 20
165.1983367361883
 30
0.0
 10
88.0008164582828
 20
163.7529753295409
 30
0.0
 10
95.37670822113768
 20
163.1881208628542
 30
0.0
 10
102.7525997296319
 20
163.7529753992484
 30
0.0
 10
108.8523512150268
 20
165.1982958738674
 30
0.0
 10
113.6525936292907
 20
166.9657556085903
 30
0.0
 10
117.1968372489705
 20
168.6116570990014
 30
0.0
 10
120.6101423863165
 20
170.5506847819753
 30
0.0
 10
123.8650383753605
 20
172.7766579796246
 30
0.0
 10
126.925855015594
 20
175.2630137340628
 30
0.0
 10
129.7564733630332
 20
177.982781400257
 30
0.0
 10
132.3435748461243
 20
180.9114897720542
 30
0.0
 10
134.6507050005326
 20
184.0008157623057
 30
0.0
 10
136.6846092919762
 20
187.2359168128433
 30
0.0
 10
138.0413134059411
 20
189.8335286820557
 30
0.0
 10
138.9027474009035
 20
191.7164161120955
 30
0.0
 10
139.3792941945637
 20
192.8324710865204
 30
0.0
 10
139.8270407239412
 20
193.9595652215394
 30
0.0
 10
140.2452798646861
 20
195.0979301451997
 30
0.0
 10
140.6366930690021
 20
196.2467616264862
 30
0.0
 10
140.87285192525
 20
197.0209343649447
 30
0.0
 10
140.9910095942824
 20
197.4082772224516
 30
0.0
  0
SPLINE
  5
CF
330
1F
100
AcDbEntity
  8
0
  6
Continuous
 62
     7
370
    15
100
AcDbSpline
210
0.0
220
0.0
230
1.0
 70
     8
 71
     3
 72
    27
 73
    23
 74
     0
 42
0.000000001
 43
0.00000001
 40
0.0
 40
0.0
 40
0.0
 40
0.0
 40
0.0385569892848211
 40
0.0770658329194701
 40
0.1155353026399639
 40
0.1539741971376514
 40
0.1923913361118491
 40
0.2307955542506346
 40
0.2691956951601454
 40
0.3076006052631416
 40
0.3460191276878565
 40
0.3844600961682111
 40
0.4229323289763935
 40
0.461444622908547
 40
0.5000057473438686
 40
0.5715713334491092
 40
0.6429967682524639
 40
0.7143384572505677
 40
0.7856530046539444
 40
0.8569970792753662
 40
0.9284272796518032
 40
1.0
 40
1.0
 40
1.0
 40
1.0
 10
58.44072310271364
 20
240.9582772224516
 30
0.0
 10
58.28985376688371
 20
240.7708720382797
 30
0.0
 10
57.98830348395436
 20
240.3962956805422
 30
0.0
 10
57.54701780444859
 20
239.8261849871246
 30
0.0
 10
57.11423068316311
 20
239.2505431517533
 30
0.0
 10
56.69070666700085
 20
238.6687493162125
 30
0.0
 10
56.27624128874126
 20
238.0809697055336
 30
0.0
 10
55.87088937092212
 20
237.4871599364529
 30
0.0
 10
55.47463632353264
 20
236.8873320100151
 30
0.0
 10
55.08748613393481
 20
236.2814828228159
 30
0.0
 10
54.70943781418175
 20
235.6696133652439
 30
0.0
 10
54.34049167049825
 20
235.0517233735345
 30
0.0
 10
53.98064777074097
 20
234.4278135261282
 30
0.0
 10
53.62990580269341
 20
233.7978819998297
 30
0.0
 10
53.19097504476177
 20
232.9808308508474
 30
0.0
 10
52.67633381963608
 20
231.9714752580904
 30
0.0
 10
52.10244260138261
 20
230.7633118570786
 30
0.0
 10
51.5634653180936
 20
229.5408871782008
 30
0.0
 10
51.05917374707587
 20
228.3042777501775
 30
0.0
 10
50.59043743807112
 20
227.0532263085071
 30
0.0
 10
50.15400754551529
 20
225.7887007663037
 30
0.0
 10
49.89302705774432
 20
224.9353685538496
 30
0.0
 10
49.76240676430616
 20
224.5082772224517
 30
0.0
  0
SPLINE
  5
D0
330
1F
100
AcDbEntity
  8
0
  6
Continuous
 62
     7
370
    15
100
AcDbSpline
210
0.0
220
0.0
230
1.0
 70
     8
 71
     3
 72
    40
 73
    36
 74
     0
 42
0.000000001
 43
0.00000001
 40
0.0
 40
0.0
 40
0.0
 40
0.0
 40
0.0076138096090706
 40
0.015222703696619
 40
0.0228283796622113
 40
0.0304325370604607
 40
0.0380368764641707
 40
0.0456430983240686
 40
0.0532529018289472
 40
0.0608679837700325
 40
0.0919930035882894
 40
0.1231236538966525
 40
0.1547321881285151
 40
0.1863461940165317
 40
0.2182020912711853
 40
0.2500635030030784
 40
0.3137495787501998
 40
0.3769416086590435
 40
0.439168148565131
 40
0.5000004350472922
 40
0.5608327215294534
 40
0.6230592614355407
 40
0.6862512913443847
 40
0.7499373670915059
 40
0.7817932643700992
 40
0.813654676120411
 40
0.8452632104154371
 40
0.8768772163635395
 40
0.9080022357785864
 40
0.9391328857746177
 40
0.9513123423166135
 40
0.963481817855821
 40
0.9756482751522532
 40
0.9878186821461872
 40
1.0
 40
1.0
 40
1.0
 40
1.0
 10
140.9910095942824
 20
224.5082772224516
 30
0.0
 10
140.9225101834502
 20
224.7352899801743
 30
0.0
 10
140.7855555854194
 20
225.1891689348106
 30
0.0
 10
140.5673254962824
 20
225.8658361559808
 30
0.0
 10
140.3398298748869
 20
226.5391068565477
 30
0.0
 10
140.1021449107187
 20
227.2087063873379
 30
0.0
 10
139.854517764677
 20
227.8747085276883
 30
0.0
 10
139.5968833346255
 20
228.5370920627072
 30
0.0
 10
139.3292551542779
 20
229.19586749772
 30
0.0
 10
138.766062504288
 20
230.5249712329603
 30
0.0
 10
137.8410438321222
 20
232.4962720043702
 30
0.0
 10
136.4386311196715
 20
235.0631170837846
 30
0.0
 10
134.8730915115631
 20
237.552066910192
 30
0.0
 10
133.1425800563097
 20
239.9570963222875
 30
0.0
 10
131.260925619145
 20
242.2562066800268
 30
0.0
 10
128.5590958520469
 20
245.1648005539779
 30
0.0
 10
124.859732114528
 20
248.4653794004368
 30
0.0
 10
119.9994552093891
 20
251.8174287180109
 30
0.0
 10
114.8431675085345
 20
254.5057395069876
 30
0.0
 10
109.4700036930235
 20
256.5263681742604
 30
0.0
 10
103.8942670197568
 20
257.8920145755562
 30
0.0
 10
98.12059347262176
 20
258.5841213061079
 30
0.0
 10
92.21652681794846
 20
258.5612673733827
 30
0.0
 10
87.29989909253307
 20
257.9255163613329
 30
0.0
 10
83.42775330058576
 20
257.050141335093
 30
0.0
 10
80.57682584908608
 20
256.2148355497703
 30
0.0
 10
77.79052803098537
 20
255.2066695590851
 30
0.0
 10
75.09334260104393
 20
254.0362291645731
 30
0.0
 10
72.48649986955559
 20
252.7092438517993
 30
0.0
 10
70.48752794384957
 20
251.5322238242509
 30
0.0
 10
69.03706370996457
 20
250.5931501385989
 30
0.0
 10
68.09733145195136
 20
249.9525083352494
 30
0.0
 10
67.17376937545485
 20
249.2893265939546
 30
0.0
 10
66.26481289136257
 20
248.6055114060596
 30
0.0
 10
65.67283149630208
 20
248.1314161412872
 30
0.0
 10
65.3767081792943
 20
247.8942622990323
 30
0.0
  0
ARC
  5
D1
330
1F
100
AcDbEntity
  8
0
  6
Continuous
 62
     7
370
    15
100
AcDbCircle
 10
95.3767081793
 20
210.9582772225
 30
0.0
 40
47.86715728752541
100
AcDbArc
 50
196.2976619617
 51
343.7023380383
  0
ARC
  5
D2
330
1F
100
AcDbEntity
  8
0
  6
Continuous
 62
     7
370
    15
100
AcDbCircle
 10
95.3767081793
 20
210.9582772225
 30
0.0
 40
47.8671572875254
100
AcDbArc
 50
16.2976619617
 51
128.8096103904
  0
ARC
  5
D3
330
1F
100
AcDbEntity
  8
0
  6
Continuous
 62
     7
370
    15
100
AcDbCircle
 10
95.3767081793
 20
210.9582772225
 30
0.0
 40
47.86715728752538
100
AcDbArc
 50
141.1903896096
 51
163.7023380383
  0
ARC
  5
D4
330
1F
100
AcDbEntity
  8
0
  6
Continuous
 62
     7
370
    15
100
AcDbCircle
 10
95.3767081793
 20
210.9582772225
 30
0.0
 40
48.63284271247463
100
AcDbArc
 50
195.9657859825
 51
344.1258902834
  0
ARC
  5
D5
330
1F
100
AcDbEntity
  8
0
  6
Continuous
 62
     7
370
    15
100
AcDbCircle
 10
95.3767081793
 20
210.9582772225
 30
0.0
 40
48.63284271247462
100
AcDbArc
 50
164.0342140175
 51
195.9657859825
  0
ARC
  5
D6
330
1F
100
AcDbEntity
  8
0
  6
Continuous
 62
     7
370
    15
100
AcDbCircle
 10
95.3767081793
 20
210.9582772225
 30
0.0
 40
48.63284271247462
100
AcDbArc
 50
141.9122882504
 51
164.0342140175
  0
ARC
  5
D7
330
1F
100
AcDbEntity
  8
0
  6
Continuous
 62
     7
370
    15
100
AcDbCircle
 10
95.3767081793
 20
210.9582772225
 30
0.0
 40
48.63284271247461
100
AcDbArc
 50
128.0877117496
 51
141.9122882504
  0
ARC
  5
D8
330
1F
100
AcDbEntity
  8
0
  6
Continuous
 62
     7
370
    15
100
AcDbCircle
 10
95.3767081793
 20
210.9582772225
 30
0.0
 40
48.63284271247461
100
AcDbArc
 50
15.8741097166
 51
128.0877117496
  0
ARC
  5
D9
330
1F
100
AcDbEntity
  8
0
  6
Continuous
 62
     7
370
    15
100
AcDbCircle
 10
95.3767081793
 20
210.9582772225
 30
0.0
 40
48.63284271247462
100
AcDbArc
 50
344.1258902834
 51
15.8741097166
  0
SPLINE
  5
DA
330
1F
100
AcDbEntity
  8
0
  6
Continuous
 62
     7
370
    15
100
AcDbSpline
210
0.0
220
0.0
230
1.0
 70
    24
 71
     3
 72
    10
 73
     6
 74
     0
 42
0.000000001
 43
0.00000001
 40
0.0
 40
0.0
 40
0.0
 40
0.0
 40
0.5
 40
0.5
 40
1.0
 40
1.0
 40
1.0
 40
1.0
 10
48.53874439284289
 20
224.4774357886889
 30
0.0
 10
48.53874439284289
 20
224.4774357886889
 30
0.0
 10
48.54746020746027
 20
224.4621657617142
 30
0.0
 10
48.57667828470667
 20
224.4109759593506
 30
0.0
 10
48.59687134243885
 20
224.3755979080946
 30
0.0
 10
48.6198228748699
 20
224.3353870345597
 30
0.0
  0
SPLINE
  5
DB
330
1F
100
AcDbEntity
  8
0
  6
Continuous
 62
     7
370
    15
100
AcDbSpline
210
0.0
220
0.0
230
1.0
 70
    24
 71
     3
 72
    10
 73
     6
 74
     0
 42
0.000000001
 43
0.00000001
 40
0.0
 40
0.0
 40
0.0
 40
0.0
 40
0.5
 40
0.5
 40
1.0
 40
1.0
 40
1.0
 40
1.0
 10
48.61982287486989
 20
197.5811674103435
 30
0.0
 10
48.59688135463279
 20
197.5409740780803
 30
0.0
 10
48.5767602644132
 20
197.5057221132437
 30
0.0
 10
48.54749099035665
 20
197.45444261454
 30
0.0
 10
48.53874439284287
 20
197.4391186562144
 30
0.0
 10
48.53874439284289
 20
197.4391186562144
 30
0.0
  0
ARC
  5
DC
330
1F
100
AcDbEntity
  8
0
  6
Continuous
 62
     7
370
    15
100
AcDbCircle
 10
95.3767081793
 20
210.9582772225
 30
0.0
 40
48.75000000000002
100
AcDbArc
 50
163.8999153276
 51
196.1000846724
  0
SPLINE
  5
DD
330
1F
100
AcDbEntity
  8
0
  6
Continuous
 62
     7
370
    15
100
AcDbSpline
210
0.0
220
0.0
230
1.0
 70
    24
 71
     3
 72
     8
 73
     4
 74
     0
 42
0.000000001
 43
0.00000001
 40
0.0
 40
0.0
 40
0.0
 40
0.0
 40
1.0
 40
1.0
 40
1.0
 40
1.0
 10
65.3767081792943
 20
249.3843425948001
 30
0.0
 10
65.3767081792943
 20
249.3843425948001
 30
0.0
 10
65.3767081792943
 20
249.3228270463687
 30
0.0
 10
65.3767081792943
 20
249.2355993635876
 30
0.0
  0
SPLINE
  5
DE
330
1F
100
AcDbEntity
  8
0
  6
Continuous
 62
     7
370
    15
100
AcDbSpline
210
0.0
220
0.0
230
1.0
 70
    24
 71
     3
 72
     8
 73
     4
 74
     0
 42
0.000000001
 43
0.00000001
 40
0.0
 40
0.0
 40
0.0
 40
0.0
 40
1.0
 40
1.0
 40
1.0
 40
1.0
 10
57.09938603815836
 20
240.9582772224516
 30
0.0
 10
57.01211162194426
 20
240.9582772224516
 30
0.0
 10
56.95064280694579
 20
240.9582772224516
 30
0.0
 10
56.95064280694577
 20
240.9582772224516
 30
0.0
  0
ARC
  5
DF
330
1F
100
AcDbEntity
  8
0
  6
Continuous
 62
     7
370
    15
100
AcDbCircle
 10
95.3767081793
 20
210.9582772225
 30
0.0
 40
48.75000000000002
100
AcDbArc
 50
127.9798724449
 51
142.0201275551
  0
ARC
  5
E0
330
1F
100
AcDbEntity
  8
0
  6
Continuous
 62
     7
370
    15
100
AcDbCircle
 10
95.3767081793
 20
210.9582772225
 30
0.0
 40
48.75000000000002
100
AcDbArc
 50
344.0491974398
 51
15.9508025602
  0
SPLINE
  5
E1
330
1F
100
AcDbEntity
  8
0
  6
Continuous
 62
     7
370
    15
100
AcDbSpline
210
0.0
220
0.0
230
1.0
 70
    24
 71
     3
 72
     8
 73
     4
 74
     0
 42
0.000000001
 43
0.00000001
 40
0.0
 40
0.0
 40
0.0
 40
0.0
 40
1.0
 40
1.0
 40
1.0
 40
1.0
 10
142.249736633503
 20
197.5611990510389
 30
0.0
 10
142.249736633503
 20
197.5611990510389
 30
0.0
 10
142.2126400404367
 20
197.5982956441051
 30
0.0
 10
142.1549377023397
 20
197.6559979822021
 30
0.0
  0
SPLINE
  5
E2
330
1F
100
AcDbEntity
  8
0
  6
Continuous
 62
     7
370
    15
100
AcDbSpline
210
0.0
220
0.0
230
1.0
 70
    24
 71
     3
 72
     8
 73
     4
 74
     0
 42
0.000000001
 43
0.00000001
 40
0.0
 40
0.0
 40
0.0
 40
0.0
 40
1.0
 40
1.0
 40
1.0
 40
1.0
 10
142.1549377023398
 20
224.2605564627011
 30
0.0
 10
142.2126650876124
 20
224.3182838479738
 30
0.0
 10
142.249736633503
 20
224.3553553938643
 30
0.0
 10
142.249736633503
 20
224.3553553938643
 30
0.0
  0
ARC
  5
E3
330
1F
100
AcDbEntity
  8
0
  6
Continuous
 62
     7
370
    15
100
AcDbCircle
 10
95.3767081793
 20
210.9582772225
 30
0.0
 40
48.75000000000002
100
AcDbArc
 50
196.1000846724
 51
344.0491974398
  0
ARC
  5
E4
330
1F
100
AcDbEntity
  8
0
  6
Continuous
 62
     7
370
    15
100
AcDbCircle
 10
95.3767081793
 20
210.9582772225
 30
0.0
 40
48.75000000000002
100
AcDbArc
 50
15.9508025602
 51
127.9798724449
  0
ARC
  5
E5
330
1F
100
AcDbEntity
  8
0
  6
Continuous
 62
     7
370
    15
100
AcDbCircle
 10
95.3767081793
 20
210.9582772225
 30
0.0
 40
48.75000000000001
100
AcDbArc
 50
142.0201275551
 51
163.8999153276
  0
ARC
  5
E6
330
1F
100
AcDbEntity
  8
0
  6
Continuous
 62
     7
370
    15
100
AcDbCircle
 10
95.3767081793
 20
210.9582772225
 30
0.0
 40
48.75000000000002
100
AcDbArc
 50
180.0
 51
196.1000846724
  0
ARC
  5
E7
330
1F
100
AcDbEntity
  8
0
  6
Continuous
 62
     7
370
    15
100
AcDbCircle
 10
95.3767081793
 20
210.9582772225
 30
0.0
 40
48.75000000000001
100
AcDbArc
 50
163.8999153276
 51
180.0
  0
INSERT
  5
F3
330
1F
100
AcDbEntity
  8
DIM
100
AcDbBlockReference
  2
SW_CENTERMARKSYMBOL_0
 10
95.3767081793
 20
210.9582772225
 30
0.0
  0
LINE
  5
F4
330
1F
100
AcDbEntity
  8
0
  6
Continuous
 62
     7
370
    15
100
AcDbLine
 10
288.70328529
 20
162.2082772225
 30
0.0
 11
292.2900046008
 21
162.2082772225
 31
0.0
  0
LINE
  5
F5
330
1F
100
AcDbEntity
  8
0
  6
Continuous
 62
     7
370
    15
100
AcDbLine
 10
292.2900046008
 20
259.7082772225
 30
0.0
 11
288.70328529
 21
259.7082772225
 31
0.0
  0
LINE
  5
F6
330
1F
100
AcDbEntity
  8
0
  6
Continuous
 62
     7
370
    15
100
AcDbLine
 10
288.70328529
 20
259.7082772225
 30
0.0
 11
287.3556900258
 21
257.3741737568
 31
0.0
  0
LINE
  5
F7
330
1F
100
AcDbEntity
  8
0
  6
Continuous
 62
     7
370
    15
100
AcDbLine
 10
287.3556900258
 20
164.5423806881
 30
0.0
 11
288.70328529
 21
162.2082772225
 31
0.0
  0
LINE
  5
F8
330
1F
100
AcDbEntity
  8
0
  6
Continuous
 62
     7
370
    15
100
AcDbLine
 10
282.2080947616
 20
162.2082772225
 30
0.0
 11
283.5556900258
 21
164.5423806881
 31
0.0
  0
LINE
  5
F9
330
1F
100
AcDbEntity
  8
0
  6
Continuous
 62
     7
370
    15
100
AcDbLine
 10
283.5556900258
 20
257.3741737568
 30
0.0
 11
282.2080947616
 21
259.7082772225
 31
0.0
  0
LINE
  5
FA
330
1F
100
AcDbEntity
  8
0
  6
Continuous
 62
     7
370
    15
100
AcDbLine
 10
278.7213754507
 20
162.2082772225
 30
0.0
 11
282.2080947616
 21
162.2082772225
 31
0.0
  0
LINE
  5
FB
330
1F
100
AcDbEntity
  8
0
  6
Continuous
 62
     7
370
    15
100
AcDbLine
 10
282.2080947616
 20
259.7082772225
 30
0.0
 11
278.7213754507
 21
259.7082772225
 31
0.0
  0
LINE
  5
FC
330
1F
100
AcDbEntity
  8
0
  6
Continuous
 62
     7
370
    15
100
AcDbLine
 10
278.4385327383
 20
259.5911199349
 30
0.0
 11
277.6728473133
 21
258.82543451
 31
0.0
  0
LINE
  5
FD
330
1F
100
AcDbEntity
  8
0
  6
Continuous
 62
     7
370
    15
100
AcDbLine
 10
277.6728473133
 20
163.0911199349
 30
0.0
 11
278.4385327383
 21
162.32543451
 31
0.0
  0
LINE
  5
FE
330
1F
100
AcDbEntity
  8
0
  6
Continuous
 62
     7
370
    15
100
AcDbLine
 10
292.5728473133
 20
162.32543451
 30
0.0
 11
293.3385327383
 21
163.0911199349
 31
0.0
  0
LINE
  5
FF
330
1F
100
AcDbEntity
  8
0
  6
Continuous
 62
     7
370
    15
100
AcDbLine
 10
293.3385327383
 20
258.82543451
 30
0.0
 11
292.5728473133
 21
259.5911199349
 31
0.0
  0
ARC
  5
100
330
1F
100
AcDbEntity
  8
0
  6
Continuous
 62
     7
370
    15
100
AcDbCircle
 10
292.2900046008
 20
162.6082772225
 30
0.0
 40
0.4000000000000057
100
AcDbArc
 50
270.0
 51
315.0
  0
ARC
  5
101
330
1F
100
AcDbEntity
  8
0
  6
Continuous
 62
     7
370
    15
100
AcDbCircle
 10
278.7213754507
 20
162.6082772225
 30
0.0
 40
0.4000000000000057
100
AcDbArc
 50
225.0
 51
270.0
  0
ARC
  5
102
330
1F
100
AcDbEntity
  8
0
  6
Continuous
 62
     7
370
    15
100
AcDbCircle
 10
292.2900046008
 20
259.3082772225
 30
0.0
 40
0.4000000000000341
100
AcDbArc
 50
45.0
 51
90.0
  0
ARC
  5
103
330
1F
100
AcDbEntity
  8
0
  6
Continuous
 62
     7
370
    15
100
AcDbCircle
 10
278.7213754507
 20
259.3082772225
 30
0.0
 40
0.4000000000000341
100
AcDbArc
 50
90.0
 51
135.0
  0
ARC
  5
104
330
1F
100
AcDbEntity
  8
0
  6
Continuous
 62
     7
370
    15
100
AcDbCircle
 10
293.0556900258
 20
163.3739626474
 30
0.0
 40
0.3999999999999791
100
AcDbArc
 50
315.0
 51
0.0
  0
ARC
  5
105
330
1F
100
AcDbEntity
  8
0
  6
Continuous
 62
     7
370
    15
100
AcDbCircle
 10
293.0556900258
 20
258.5425917975
 30
0.0
 40
0.3999999999999773
100
AcDbArc
 50
0.0
 51
45.0
  0
ARC
  5
106
330
1F
100
AcDbEntity
  8
0
  6
Continuous
 62
     7
370
    15
100
AcDbCircle
 10
277.9556900258
 20
163.3739626474
 30
0.0
 40
0.4000000000000341
100
AcDbArc
 50
180.0
 51
225.0
  0
ARC
  5
107
330
1F
100
AcDbEntity
  8
0
  6
Continuous
 62
     7
370
    15
100
AcDbCircle
 10
277.9556900258
 20
258.5425917975
 30
0.0
 40
0.4000000000000341
100
AcDbArc
 50
135.0
 51
180.0
  0
LINE
  5
108
330
1F
100
AcDbEntity
  8
0
  6
Continuous
 62
     7
370
    15
100
AcDbLine
 10
283.5556900258
 20
165.4582772225
 30
0.0
 11
287.3556900258
 21
165.4582772225
 31
0.0
  0
LINE
  5
109
330
1F
100
AcDbEntity
  8
0
  6
Continuous
 62
     7
370
    15
100
AcDbLine
 10
287.3556900258
 20
256.4582772225
 30
0.0
 11
283.5556900258
 21
256.4582772225
 31
0.0
  0
ARC
  5
10A
330
1F
100
AcDbEntity
  8
0
  6
Continuous
 62
     7
370
    15
100
AcDbCircle
 10
277.0556900258
 20
175.9582772225
 30
0.0
 40
0.5
100
AcDbArc
 50
0.0
 51
90.0
  0
ARC
  5
10B
330
1F
100
AcDbEntity
  8
0
  6
Continuous
 62
     7
370
    15
100
AcDbCircle
 10
277.0556900258
 20
245.9582772225
 30
0.0
 40
0.5000000000000284
100
AcDbArc
 50
270.0
 51
0.0
  0
LINE
  5
10C
330
1F
100
AcDbEntity
  8
0
  6
Continuous
 62
     7
370
    15
100
AcDbLine
 10
274.3556900258
 20
176.0332772225
 30
0.0
 11
275.267105467
 21
176.4582772225
 31
0.0
  0
LINE
  5
10D
330
1F
100
AcDbEntity
  8
0
  6
Continuous
 62
     7
370
    15
100
AcDbLine
 10
275.267105467
 20
245.4582772225
 30
0.0
 11
274.3556900258
 21
245.8832772225
 31
0.0
  0
LINE
  5
10E
330
1F
100
AcDbEntity
  8
0
  6
Continuous
 62
     7
370
    15
100
AcDbLine
 10
274.3556900258
 20
245.8832772225
 30
0.0
 11
173.4613817985
 21
231.1693850095
 31
0.0
  0
LINE
  5
10F
330
1F
100
AcDbEntity
  8
0
  6
Continuous
 62
     7
370
    15
100
AcDbLine
 10
173.4613817985
 20
190.7471694354
 30
0.0
 11
274.3556900258
 21
176.0332772225
 31
0.0
  0
LINE
  5
110
330
1F
100
AcDbEntity
  8
0
  6
Continuous
 62
     7
370
    15
100
AcDbLine
 10
275.267105467
 20
176.4582772225
 30
0.0
 11
277.0556900258
 21
176.4582772225
 31
0.0
  0
LINE
  5
111
330
1F
100
AcDbEntity
  8
0
  6
Continuous
 62
     7
370
    15
100
AcDbLine
 10
277.0556900258
 20
245.4582772225
 30
0.0
 11
275.267105467
 21
245.4582772225
 31
0.0
  0
ARC
  5
112
330
1F
100
AcDbEntity
  8
0
  6
Continuous
 62
     7
370
    15
100
AcDbCircle
 10
296.4556900258
 20
242.9582772225
 30
0.0
 40
3.000000000000028
100
AcDbArc
 50
180.0
 51
270.0
  0
ARC
  5
113
330
1F
100
AcDbEntity
  8
0
  6
Continuous
 62
     7
370
    15
100
AcDbCircle
 10
296.4556900258
 20
178.9582772225
 30
0.0
 40
3.0
100
AcDbArc
 50
90.0
 51
180.0
  0
LINE
  5
114
330
1F
100
AcDbEntity
  8
0
  6
Continuous
 62
     7
370
    15
100
AcDbLine
 10
433.3556900258
 20
181.9582772225
 30
0.0
 11
434.3556900258
 21
182.9582772225
 31
0.0
  0
LINE
  5
115
330
1F
100
AcDbEntity
  8
0
  6
Continuous
 62
     7
370
    15
100
AcDbLine
 10
434.3556900258
 20
238.9582772225
 30
0.0
 11
433.3556900258
 21
239.9582772225
 31
0.0
  0
LINE
  5
116
330
1F
100
AcDbEntity
  8
0
  6
Continuous
 62
     7
370
    15
100
AcDbLine
 10
296.4556900258
 20
181.9582772225
 30
0.0
 11
433.3556900258
 21
181.9582772225
 31
0.0
  0
LINE
  5
117
330
1F
100
AcDbEntity
  8
0
  6
Continuous
 62
     7
370
    15
100
AcDbLine
 10
433.3556900258
 20
239.9582772225
 30
0.0
 11
296.4556900258
 21
239.9582772225
 31
0.0
  0
ARC
  5
118
330
1F
100
AcDbEntity
  8
0
  6
Continuous
 62
     7
370
    15
100
AcDbCircle
 10
173.6056900258
 20
191.7367022219
 30
0.0
 40
1.000000000000018
100
AcDbArc
 50
180.0
 51
261.7027777778
  0
ARC
  5
119
330
1F
100
AcDbEntity
  8
0
  6
Continuous
 62
     7
370
    15
100
AcDbCircle
 10
173.6056900258
 20
230.179852223
 30
0.0
 40
1.0
100
AcDbArc
 50
98.2972222222
 51
180.0
  0
LINE
  5
11A
330
1F
100
AcDbEntity
  8
0
  6
Continuous
 62
     7
370
    15
100
AcDbLine
 10
466.3556900258
 20
193.4582772225
 30
0.0
 11
467.3556900258
 21
194.4582772225
 31
0.0
  0
LINE
  5
11B
330
1F
100
AcDbEntity
  8
0
  6
Continuous
 62
     7
370
    15
100
AcDbLine
 10
467.3556900258
 20
227.4582772225
 30
0.0
 11
466.3556900258
 21
228.4582772225
 31
0.0
  0
LINE
  5
11C
330
1F
100
AcDbEntity
  8
0
  6
Continuous
 62
     7
370
    15
100
AcDbLine
 10
459.3556900258
 20
193.4582772225
 30
0.0
 11
466.3556900258
 21
193.4582772225
 31
0.0
  0
LINE
  5
11D
330
1F
100
AcDbEntity
  8
0
  6
Continuous
 62
     7
370
    15
100
AcDbLine
 10
466.3556900258
 20
228.4582772225
 30
0.0
 11
459.3556900258
 21
228.4582772225
 31
0.0
  0
LINE
  5
11E
330
1F
100
AcDbEntity
  8
0
  6
Continuous
 62
     7
370
    15
100
AcDbLine
 10
459.3556900258
 20
228.4582772225
 30
0.0
 11
458.3556900258
 21
227.4582772225
 31
0.0
  0
LINE
  5
11F
330
1F
100
AcDbEntity
  8
0
  6
Continuous
 62
     7
370
    15
100
AcDbLine
 10
458.3556900258
 20
194.4582772225
 30
0.0
 11
459.3556900258
 21
193.4582772225
 31
0.0
  0
LINE
  5
120
330
1F
100
AcDbEntity
  8
0
  6
Continuous
 62
     7
370
    15
100
AcDbLine
 10
454.864942297
 20
197.4582772225
 30
0.0
 11
455.3556900258
 21
198.3082772225
 31
0.0
  0
LINE
  5
121
330
1F
100
AcDbEntity
  8
0
  6
Continuous
 62
     7
370
    15
100
AcDbLine
 10
455.3556900258
 20
223.6082772225
 30
0.0
 11
454.864942297
 21
224.4582772225
 31
0.0
  0
LINE
  5
122
330
1F
100
AcDbEntity
  8
0
  6
Continuous
 62
     7
370
    15
100
AcDbLine
 10
434.3556900258
 20
197.4582772225
 30
0.0
 11
454.864942297
 21
197.4582772225
 31
0.0
  0
LINE
  5
123
330
1F
100
AcDbEntity
  8
0
  6
Continuous
 62
     7
370
    15
100
AcDbLine
 10
454.864942297
 20
224.4582772225
 30
0.0
 11
434.3556900258
 21
224.4582772225
 31
0.0
  0
ARC
  5
124
330
1F
100
AcDbEntity
  8
0
  6
Continuous
 62
     7
370
    15
100
AcDbCircle
 10
457.8556900258
 20
204.4582772225
 30
0.0
 40
0.5000000000000568
100
AcDbArc
 50
0.0
 51
90.0
  0
ARC
  5
125
330
1F
100
AcDbEntity
  8
0
  6
Continuous
 62
     7
370
    15
100
AcDbCircle
 10
457.8556900258
 20
217.4582772225
 30
0.0
 40
0.5000000000000568
100
AcDbArc
 50
270.0
 51
0.0
  0
LINE
  5
126
330
1F
100
AcDbEntity
  8
0
  6
Continuous
 62
     7
370
    15
100
AcDbLine
 10
455.3556900258
 20
204.9582772225
 30
0.0
 11
457.8556900258
 21
204.9582772225
 31
0.0
  0
LINE
  5
127
330
1F
100
AcDbEntity
  8
0
  6
Continuous
 62
     7
370
    15
100
AcDbLine
 10
457.8556900258
 20
216.9582772225
 30
0.0
 11
455.3556900258
 21
216.9582772225
 31
0.0
  0
LINE
  5
128
330
1F
100
AcDbEntity
  8
0
  6
Continuous
 62
     7
370
    15
100
AcDbLine
 10
292.2900046008
 20
197.561199051
 30
0.0
 11
292.2900046008
 21
224.3553553939
 31
0.0
  0
LINE
  5
129
330
1F
100
AcDbEntity
  8
0
  6
Continuous
 62
     7
370
    15
100
AcDbLine
 10
288.70328529
 20
162.2082772225
 30
0.0
 11
288.70328529
 21
259.7082772225
 31
0.0
  0
LINE
  5
12A
330
1F
100
AcDbEntity
  8
0
  6
Continuous
 62
     7
370
    15
100
AcDbLine
 10
292.5728473133
 20
197.6559979822
 30
0.0
 11
292.5728473133
 21
224.2605564627
 31
0.0
  0
SPLINE
  5
12B
330
1F
100
AcDbEntity
  8
0
  6
Continuous
 62
     7
370
    15
100
AcDbSpline
210
0.0
220
0.0
230
1.0
 70
     8
 71
     3
 72
     8
 73
     4
 74
     0
 42
0.000000001
 43
0.00000001
 40
0.0
 40
0.0
 40
0.0
 40
0.0
 40
1.0
 40
1.0
 40
1.0
 40
1.0
 10
292.572847313308
 20
197.6559979822021
 30
0.0
 10
292.5015315011261
 20
197.5982705969295
 30
0.0
 10
292.3986303434893
 20
197.5611990510389
 30
0.0
 10
292.2900046008334
 20
197.5611990510389
 30
0.0
  0
SPLINE
  5
12C
330
1F
100
AcDbEntity
  8
0
  6
Continuous
 62
     7
370
    15
100
AcDbSpline
210
0.0
220
0.0
230
1.0
 70
     8
 71
     3
 72
     8
 73
     4
 74
     0
 42
0.000000001
 43
0.00000001
 40
0.0
 40
0.0
 40
0.0
 40
0.0
 40
1.0
 40
1.0
 40
1.0
 40
1.0
 10
292.2900046008334
 20
224.3553553938643
 30
0.0
 10
292.3985215922845
 20
224.3553553938643
 30
0.0
 10
292.5015624441468
 20
224.3182588007981
 30
0.0
 10
292.572847313308
 20
224.2605564627011
 30
0.0
  0
LINE
  5
12D
330
1F
100
AcDbEntity
  8
0
  6
Continuous
 62
     7
370
    15
100
AcDbLine
 10
287.3556900258
 20
257.3741737568
 30
0.0
 11
287.3556900258
 21
164.5423806881
 31
0.0
  0
LINE
  5
12E
330
1F
100
AcDbEntity
  8
0
  6
Continuous
 62
     7
370
    15
100
AcDbLine
 10
283.5556900258
 20
210.9582772225
 30
0.0
 11
283.5556900258
 21
257.3741737568
 31
0.0
  0
LINE
  5
12F
330
1F
100
AcDbEntity
  8
0
  6
Continuous
 62
     7
370
    15
100
AcDbLine
 10
283.5556900258
 20
164.5423806881
 30
0.0
 11
283.5556900258
 21
210.9582772225
 31
0.0
  0
LINE
  5
130
330
1F
100
AcDbEntity
  8
0
  6
Continuous
 62
     7
370
    15
100
AcDbLine
 10
282.2080947616
 20
210.9582772225
 30
0.0
 11
282.2080947616
 21
162.2082772225
 31
0.0
  0
LINE
  5
131
330
1F
100
AcDbEntity
  8
0
  6
Continuous
 62
     7
370
    15
100
AcDbLine
 10
282.2080947616
 20
259.7082772225
 30
0.0
 11
282.2080947616
 21
210.9582772225
 31
0.0
  0
LINE
  5
132
330
1F
100
AcDbEntity
  8
0
  6
Continuous
 62
     7
370
    15
100
AcDbLine
 10
278.7213754507
 20
197.561199051
 30
0.0
 11
278.7213754507
 21
224.3553553939
 31
0.0
  0
SPLINE
  5
133
330
1F
100
AcDbEntity
  8
0
  6
Continuous
 62
     7
370
    15
100
AcDbSpline
210
0.0
220
0.0
230
1.0
 70
     8
 71
     3
 72
     8
 73
     4
 74
     0
 42
0.000000001
 43
0.00000001
 40
0.0
 40
0.0
 40
0.0
 40
0.0
 40
1.0
 40
1.0
 40
1.0
 40
1.0
 10
278.7213754507319
 20
197.5611990510389
 30
0.0
 10
278.6128584592809
 20
197.5611990510389
 30
0.0
 10
278.5098176074185
 20
197.5982956441051
 30
0.0
 10
278.4385327382573
 20
197.6559979822021
 30
0.0
  0
LINE
  5
134
330
1F
100
AcDbEntity
  8
0
  6
Continuous
 62
     7
370
    15
100
AcDbLine
 10
278.4385327383
 20
197.6559979822
 30
0.0
 11
278.4385327383
 21
224.2605564627
 31
0.0
  0
SPLINE
  5
135
330
1F
100
AcDbEntity
  8
0
  6
Continuous
 62
     7
370
    15
100
AcDbSpline
210
0.0
220
0.0
230
1.0
 70
     8
 71
     3
 72
     8
 73
     4
 74
     0
 42
0.000000001
 43
0.00000001
 40
0.0
 40
0.0
 40
0.0
 40
0.0
 40
1.0
 40
1.0
 40
1.0
 40
1.0
 10
278.4385327382573
 20
224.2605564627011
 30
0.0
 10
278.5098485504392
 20
224.3182838479738
 30
0.0
 10
278.612749708076
 20
224.3553553938643
 30
0.0
 10
278.7213754507319
 20
224.3553553938643
 30
0.0
  0
LINE
  5
136
330
1F
100
AcDbEntity
  8
0
  6
Continuous
 62
     7
370
    15
100
AcDbLine
 10
277.6728473133
 20
197.52543451
 30
0.0
 11
277.6728473133
 21
224.3911199349
 31
0.0
  0
LINE
  5
137
330
1F
100
AcDbEntity
  8
0
  6
Continuous
 62
     7
370
    15
100
AcDbLine
 10
293.3385327383
 20
198.1082772225
 30
0.0
 11
293.3385327383
 21
223.8082772225
 31
0.0
  0
LINE
  5
138
330
1F
100
AcDbEntity
  8
0
  6
Continuous
 62
     7
370
    15
100
AcDbLine
 10
293.4556900205
 20
198.1082524697
 30
0.0
 11
293.4556900205
 21
223.8083019752
 31
0.0
  0
SPLINE
  5
139
330
1F
100
AcDbEntity
  8
0
  6
Continuous
 62
     7
370
    15
100
AcDbSpline
210
0.0
220
0.0
230
1.0
 70
    24
 71
     3
 72
     8
 73
     4
 74
     0
 42
0.000000001
 43
0.00000001
 40
0.0
 40
0.0
 40
0.0
 40
0.0
 40
1.0
 40
1.0
 40
1.0
 40
1.0
 10
293.4556900257826
 20
198.1082772224516
 30
0.0
 10
293.4556900257826
 20
198.1082772224516
 30
0.0
 10
293.4141462918301
 20
198.1082772224516
 30
0.0
 10
293.3385327382572
 20
198.1082772224516
 30
0.0
  0
SPLINE
  5
13A
330
1F
100
AcDbEntity
  8
0
  6
Continuous
 62
     7
370
    15
100
AcDbSpline
210
0.0
220
0.0
230
1.0
 70
    24
 71
     3
 72
     8
 73
     4
 74
     0
 42
0.000000001
 43
0.00000001
 40
0.0
 40
0.0
 40
0.0
 40
0.0
 40
1.0
 40
1.0
 40
1.0
 40
1.0
 10
293.4556900257826
 20
223.8082772224516
 30
0.0
 10
293.4556900257826
 20
223.8082772224516
 30
0.0
 10
293.4141462918301
 20
223.8082772224516
 30
0.0
 10
293.3385327382572
 20
223.8082772224516
 30
0.0
  0
SPLINE
  5
13B
330
1F
100
AcDbEntity
  8
0
  6
Continuous
 62
     7
370
    15
100
AcDbSpline
210
0.0
220
0.0
230
1.0
 70
    24
 71
     3
 72
    10
 73
     6
 74
     0
 42
0.000000001
 43
0.00000001
 40
0.0
 40
0.0
 40
0.0
 40
0.0
 40
0.5
 40
0.5
 40
1.0
 40
1.0
 40
1.0
 40
1.0
 10
277.672847313308
 20
197.525434509977
 30
0.0
 10
277.6402142522907
 20
197.4928014489597
 30
0.0
 10
277.6122333660245
 20
197.4648205626935
 30
0.0
 10
277.5695765156495
 20
197.4221637123185
 30
0.0
 10
277.5556900257826
 20
197.4082772224516
 30
0.0
 10
277.5556900257826
 20
197.4082772224516
 30
0.0
  0
LINE
  5
13C
330
1F
100
AcDbEntity
  8
0
  6
Continuous
 62
     7
370
    15
100
AcDbLine
 10
277.5556900258
 20
197.4082772225
 30
0.0
 11
277.5556900258
 21
224.5082772225
 31
0.0
  0
SPLINE
  5
13D
330
1F
100
AcDbEntity
  8
0
  6
Continuous
 62
     7
370
    15
100
AcDbSpline
210
0.0
220
0.0
230
1.0
 70
    24
 71
     3
 72
    10
 73
     6
 74
     0
 42
0.000000001
 43
0.00000001
 40
0.0
 40
0.0
 40
0.0
 40
0.0
 40
0.5
 40
0.5
 40
1.0
 40
1.0
 40
1.0
 40
1.0
 10
277.5556900257826
 20
224.5082772224516
 30
0.0
 10
277.5556900257826
 20
224.5082772224516
 30
0.0
 10
277.5695359018075
 20
224.4944313464268
 30
0.0
 10
277.6117016779949
 20
224.4522655702394
 30
0.0
 10
277.640192378258
 20
224.4237748699764
 30
0.0
 10
277.6728473133081
 20
224.3911199349263
 30
0.0
  0
SPLINE
  5
13E
330
1F
100
AcDbEntity
  8
0
  6
Continuous
 62
     7
370
    15
100
AcDbSpline
210
0.0
220
0.0
230
1.0
 70
    24
 71
     3
 72
    36
 73
    32
 74
     0
 42
0.000000001
 43
0.00000001
 40
0.0
 40
0.0
 40
0.0
 40
0.0
 40
0.010855060115309
 40
0.021700603247601
 40
0.0325387683476148
 40
0.0433716987364442
 40
0.0542015408431699
 40
0.0650304429332853
 40
0.0758605538316704
 40
0.0866940216439018
 40
0.0975329924797007
 40
0.1083796091823073
 40
0.1192360100675244
 40
0.181247834122235
 40
0.2432679244012066
 40
0.3069990489490812
 40
0.370738668921532
 40
0.4353656024873025
 40
0.5000011508910791
 40
0.5646280845655833
 40
0.6292636330748704
 40
0.6929947579300935
 40
0.7567343782029041
 40
0.8187462027125846
 40
0.8807662934441524
 40
0.9006583299602414
 40
0.9205248324912559
 40
0.9403790153804057
 40
0.9602341175685198
 40
0.9801033761588329
 40
1.0
 40
1.0
 40
1.0
 40
1.0
 10
293.4556900257826
 20
198.1082772224516
 30
0.0
 10
293.4556900257826
 20
197.8934903480893
 30
0.0
 10
293.4556900257826
 20
197.4641049099788
 30
0.0
 10
293.4556900257826
 20
196.8236083998783
 30
0.0
 10
293.4556900257826
 20
196.1861581884496
 30
0.0
 10
293.4556900257826
 20
195.5519845339772
 30
0.0
 10
293.4556900257826
 20
194.921025901989
 30
0.0
 10
293.4556900257826
 20
194.2932988334047
 30
0.0
 10
293.4556900257826
 20
193.668799114326
 30
0.0
 10
293.4556900257826
 20
193.0475275088009
 30
0.0
 10
293.4556900257826
 20
192.4294856094961
 30
0.0
 10
293.4556900257826
 20
191.8146666973545
 30
0.0
 10
293.4556900257826
 20
190.2428090406958
 30
0.0
 10
293.4556900257826
 20
187.7631597466636
 30
0.0
 10
293.4556900257826
 20
184.4644866881906
 30
0.0
 10
293.4556900257826
 20
181.3111097630096
 30
0.0
 10
293.4556900257826
 20
178.319037054443
 30
0.0
 10
293.4556900257826
 20
175.5382908458276
 30
0.0
 10
293.4556900257826
 20
172.9949915387514
 30
0.0
 10
293.4556900257826
 20
170.7169800536831
 30
0.0
 10
293.4556900257826
 20
168.7325475579643
 30
0.0
 10
293.4556900257826
 20
167.0477943208944
 30
0.0
 10
293.4556900257826
 20
165.6849338273435
 30
0.0
 10
293.4556900257826
 20
164.6327555066878
 30
0.0
 10
293.4556900257826
 20
164.0592540546332
 30
0.0
 10
293.4556900257826
 20
163.7632266539494
 30
0.0
 10
293.4556900257826
 20
163.6212115685035
 30
0.0
 10
293.4556900257826
 20
163.5106093759418
 30
0.0
 10
293.4556900257826
 20
163.4321798467278
 30
0.0
 10
293.4556900257826
 20
163.3830637349231
 30
0.0
 10
293.4556900257826
 20
163.3769977346992
 30
0.0
 10
293.4556900257826
 20
163.3739626474009
 30
0.0
  0
SPLINE
  5
13F
330
1F
100
AcDbEntity
  8
0
  6
Continuous
 62
     7
370
    15
100
AcDbSpline
210
0.0
220
0.0
230
1.0
 70
    24
 71
     3
 72
    18
 73
    14
 74
     0
 42
0.000000001
 43
0.00000001
 40
0.0
 40
0.0
 40
0.0
 40
0.0
 40
0.049341009168767
 40
0.1443029880143528
 40
0.2371042401765801
 40
0.3299054923388072
 40
0.4248674711843931
 40
0.5213266033289872
 40
0.61855212008829
 40
0.7157776368475928
 40
0.8122367689921868
 40
0.9071987478377727
 40
1.0
 40
1.0
 40
1.0
 40
1.0
 10
293.4556900257826
 20
258.4495194121063
 30
0.0
 10
293.4556900257826
 20
258.4667343072568
 30
0.0
 10
293.4556900257826
 20
258.5170810847229
 30
0.0
 10
293.4556900257826
 20
257.8123450646139
 30
0.0
 10
293.4556900257826
 20
256.4247839169281
 30
0.0
 10
293.4556900257826
 20
254.3374921964084
 30
0.0
 10
293.4556900257826
 20
251.5839151485174
 30
0.0
 10
293.4556900257826
 20
248.1556233159249
 30
0.0
 10
293.4556900257826
 20
244.1135183403816
 30
0.0
 10
293.4556900257826
 20
239.5467780924925
 30
0.0
 10
293.4556900257826
 20
234.5643036825264
 30
0.0
 10
293.4556900257826
 20
229.3126552186302
 30
0.0
 10
293.4556900257826
 20
225.6289394981895
 30
0.0
 10
293.4556900257826
 20
223.8082772224516
 30
0.0
  0
SPLINE
  5
140
330
1F
100
AcDbEntity
  8
0
  6
Continuous
 62
     7
370
    15
100
AcDbSpline
210
0.0
220
0.0
230
1.0
 70
    24
 71
     3
 72
    36
 73
    32
 74
     0
 42
0.000000001
 43
0.00000001
 40
0.0
 40
0.0
 40
0.0
 40
0.0
 40
0.0108663901693764
 40
0.0217235992689927
 40
0.0325737239461297
 40
0.0434188649567969
 40
0.0542611259538548
 40
0.0651026122666534
 40
0.0759454296758007
 40
0.0867916831866139
 40
0.0976434758048303
 40
0.1085029073181251
 40
0.1193720730869558
 40
0.1813968254495411
 40
0.2434299782169203
 40
0.3071319268850098
 40
0.3708425031356519
 40
0.4354174425596918
 40
0.5000011278075956
 40
0.5645760673346892
 40
0.6291597526862437
 40
0.6928617016453169
 40
0.7565722781921671
 40
0.8185970309917204
 40
0.88063018420144
 40
0.9005456124940234
 40
0.9204355775907559
 40
0.9403130284544624
 40
0.9601909385042273
 40
0.9800822802606719
 40
1.0
 40
1.0
 40
1.0
 40
1.0
 10
277.5556900257826
 20
163.3739626474008
 30
0.0
 10
277.5556900257826
 20
163.3748436942827
 30
0.0
 10
277.5556900257826
 20
163.3766050436454
 30
0.0
 10
277.5556900257826
 20
163.3909002904921
 30
0.0
 10
277.5556900257826
 20
163.4137291870175
 30
0.0
 10
277.5556900257826
 20
163.4459263059527
 30
0.0
 10
277.5556900257826
 20
163.487268221522
 30
0.0
 10
277.5556900257826
 20
163.5378147794877
 30
0.0
 10
277.5556900257826
 20
163.5975498829186
 30
0.0
 10
277.5556900257826
 20
163.6664780551912
 30
0.0
 10
277.5556900257826
 20
163.7445972370492
 30
0.0
 10
277.5556900257826
 20
163.8319110580416
 30
0.0
 10
277.5556900257826
 20
164.0797477724508
 30
0.0
 10
277.5556900257826
 20
164.6053955874817
 30
0.0
 10
277.5556900257826
 20
165.6337865940051
 30
0.0
 10
277.5556900257826
 20
166.9657364072993
 30
0.0
 10
277.5556900257826
 20
168.6116623220135
 30
0.0
 10
277.5556900257826
 20
170.5506833742895
 30
0.0
 10
277.5556900257826
 20
172.7766583567884
 30
0.0
 10
277.5556900257826
 20
175.2630136329457
 30
0.0
 10
277.5556900257826
 20
177.9827814269432
 30
0.0
 10
277.5556900257826
 20
180.9114897649366
 30
0.0
 10
277.5556900257826
 20
184.0008157641615
 30
0.0
 10
277.5556900257826
 20
187.2359168123348
 30
0.0
 10
277.5556900257826
 20
189.8335286820945
 30
0.0
 10
277.5556900257826
 20
191.7164161120901
 30
0.0
 10
277.5556900257826
 20
192.8324710865218
 30
0.0
 10
277.5556900257826
 20
193.959565221539
 30
0.0
 10
277.5556900257826
 20
195.0979301451998
 30
0.0
 10
277.5556900257826
 20
196.2467616264862
 30
0.0
 10
277.5556900257826
 20
197.0209343649447
 30
0.0
 10
277.5556900257826
 20
197.4082772224516
 30
0.0
  0
SPLINE
  5
141
330
1F
100
AcDbEntity
  8
0
  6
Continuous
 62
     7
370
    15
100
AcDbSpline
210
0.0
220
0.0
230
1.0
 70
    24
 71
     3
 72
    18
 73
    14
 74
     0
 42
0.000000001
 43
0.00000001
 40
0.0
 40
0.0
 40
0.0
 40
0.0
 40
0.0932231664383691
 40
0.1885829732450733
 40
0.2854223567770079
 40
0.383018846774494
 40
0.4806153367719804
 40
0.5774547203039149
 40
0.6728145271106194
 40
0.7660376935489883
 40
0.8592608599873572
 40
0.9546206667940617
 40
0.9999999999999999
 40
0.9999999999999999
 40
0.9999999999999999
 40
0.9999999999999999
 10
277.5556900257826
 20
224.5082772224516
 30
0.0
 10
277.5556900257826
 20
226.3067431294003
 30
0.0
 10
277.5556900257826
 20
229.944895114256
 30
0.0
 10
277.5556900257826
 20
235.1195926627256
 30
0.0
 10
277.5556900257826
 20
240.0204003035797
 30
0.0
 10
277.5556900257826
 20
244.5038822894862
 30
0.0
 10
277.5556900257826
 20
248.4650460596978
 30
0.0
 10
277.5556900257826
 20
251.8179663230754
 30
0.0
 10
277.5556900257826
 20
254.5039640602368
 30
0.0
 10
277.5556900257826
 20
256.532786171942
 30
0.0
 10
277.5556900257826
 20
257.8678238353322
 30
0.0
 10
277.5556900257826
 20
258.5313718160706
 30
0.0
 10
277.5556900257826
 20
258.4708219465462
 30
0.0
 10
277.5556900257826
 20
258.4512985026452
 30
0.0
  0
LINE
  5
142
330
1F
100
AcDbEntity
  8
0
  6
Continuous
 62
     7
370
    15
100
AcDbLine
 10
274.3556900258
 20
210.9582772225
 30
0.0
 11
274.3556900258
 21
176.0332772225
 31
0.0
  0
LINE
  5
143
330
1F
100
AcDbEntity
  8
0
  6
Continuous
 62
     7
370
    15
100
AcDbLine
 10
274.3556900258
 20
245.8832772225
 30
0.0
 11
274.3556900258
 21
210.9582772225
 31
0.0
  0
LINE
  5
144
330
1F
100
AcDbEntity
  8
0
  6
Continuous
 62
     7
370
    15
100
AcDbLine
 10
275.267105467
 20
210.9582772225
 30
0.0
 11
275.267105467
 21
176.4582772225
 31
0.0
  0
LINE
  5
145
330
1F
100
AcDbEntity
  8
0
  6
Continuous
 62
     7
370
    15
100
AcDbLine
 10
275.267105467
 20
245.4582772225
 30
0.0
 11
275.267105467
 21
210.9582772225
 31
0.0
  0
LINE
  5
146
330
1F
100
AcDbEntity
  8
0
  6
Continuous
 62
     7
370
    15
100
AcDbLine
 10
434.3556900258
 20
210.9582772225
 30
0.0
 11
434.3556900258
 21
238.9582772225
 31
0.0
  0
LINE
  5
147
330
1F
100
AcDbEntity
  8
0
  6
Continuous
 62
     7
370
    15
100
AcDbLine
 10
434.3556900258
 20
182.9582772225
 30
0.0
 11
434.3556900258
 21
210.9582772225
 31
0.0
  0
LINE
  5
148
330
1F
100
AcDbEntity
  8
0
  6
Continuous
 62
     7
370
    15
100
AcDbLine
 10
433.3556900258
 20
210.9582772225
 30
0.0
 11
433.3556900258
 21
239.9582772225
 31
0.0
  0
LINE
  5
149
330
1F
100
AcDbEntity
  8
0
  6
Continuous
 62
     7
370
    15
100
AcDbLine
 10
433.3556900258
 20
181.9582772225
 30
0.0
 11
433.3556900258
 21
210.9582772225
 31
0.0
  0
SPLINE
  5
14A
330
1F
100
AcDbEntity
  8
0
  6
Continuous
 62
     7
370
    15
100
AcDbSpline
210
0.0
220
0.0
230
1.0
 70
    24
 71
     3
 72
    10
 73
     6
 74
     0
 42
0.000000001
 43
0.00000001
 40
0.0
 40
0.0
 40
0.0
 40
0.0
 40
0.4999999999999997
 40
0.4999999999999997
 40
0.9999999999999999
 40
0.9999999999999999
 40
0.9999999999999999
 40
0.9999999999999999
 10
172.6056900257826
 20
230.179852222997
 30
0.0
 10
172.6056900257826
 20
230.1798522229969
 30
0.0
 10
172.6056900257826
 20
228.1546257969279
 30
0.0
 10
172.6056900257826
 20
220.9453407039179
 30
0.0
 10
172.6056900257826
 20
216.0560115992261
 30
0.0
 10
172.6056900257826
 20
210.9582772224516
 30
0.0
  0
SPLINE
  5
14B
330
1F
100
AcDbEntity
  8
0
  6
Continuous
 62
     7
370
    15
100
AcDbSpline
210
0.0
220
0.0
230
1.0
 70
    24
 71
     3
 72
    10
 73
     6
 74
     0
 42
0.000000001
 43
0.00000001
 40
0.0
 40
0.0
 40
0.0
 40
0.0
 40
0.4999999999999999
 40
0.4999999999999999
 40
0.9999999999999999
 40
0.9999999999999999
 40
0.9999999999999999
 40
0.9999999999999999
 10
172.6056900257826
 20
210.9582772224516
 30
0.0
 10
172.6056900257826
 20
205.8605428456772
 30
0.0
 10
172.6056900257826
 20
200.971213740985
 30
0.0
 10
172.6056900257826
 20
193.7619286479751
 30
0.0
 10
172.6056900257826
 20
191.7367022219061
 30
0.0
 10
172.6056900257826
 20
191.7367022219062
 30
0.0
  0
LINE
  5
14C
330
1F
100
AcDbEntity
  8
0
  6
Continuous
 62
     7
370
    15
100
AcDbLine
 10
467.3556900258
 20
210.9582772225
 30
0.0
 11
467.3556900258
 21
227.4582772225
 31
0.0
  0
LINE
  5
14D
330
1F
100
AcDbEntity
  8
0
  6
Continuous
 62
     7
370
    15
100
AcDbLine
 10
467.3556900258
 20
194.4582772225
 30
0.0
 11
467.3556900258
 21
210.9582772225
 31
0.0
  0
LINE
  5
14E
330
1F
100
AcDbEntity
  8
0
  6
Continuous
 62
     7
370
    15
100
AcDbLine
 10
466.3556900258
 20
210.9582772225
 30
0.0
 11
466.3556900258
 21
228.4582772225
 31
0.0
  0
LINE
  5
14F
330
1F
100
AcDbEntity
  8
0
  6
Continuous
 62
     7
370
    15
100
AcDbLine
 10
466.3556900258
 20
193.4582772225
 30
0.0
 11
466.3556900258
 21
210.9582772225
 31
0.0
  0
LINE
  5
150
330
1F
100
AcDbEntity
  8
0
  6
Continuous
 62
     7
370
    15
100
AcDbLine
 10
459.3556900258
 20
193.4582772225
 30
0.0
 11
459.3556900258
 21
228.4582772225
 31
0.0
  0
LINE
  5
151
330
1F
100
AcDbEntity
  8
0
  6
Continuous
 62
     7
370
    15
100
AcDbLine
 10
458.3556900258
 20
194.4582772225
 30
0.0
 11
458.3556900258
 21
227.4582772225
 31
0.0
  0
LINE
  5
152
330
1F
100
AcDbEntity
  8
0
  6
Continuous
 62
     7
370
    15
100
AcDbLine
 10
454.864942297
 20
210.9582772225
 30
0.0
 11
454.864942297
 21
224.4582772225
 31
0.0
  0
LINE
  5
153
330
1F
100
AcDbEntity
  8
0
  6
Continuous
 62
     7
370
    15
100
AcDbLine
 10
454.864942297
 20
197.4582772225
 30
0.0
 11
454.864942297
 21
210.9582772225
 31
0.0
  0
LINE
  5
154
330
1F
100
AcDbEntity
  8
0
  6
Continuous
 62
     7
370
    15
100
AcDbLine
 10
455.3556900258
 20
210.9582772225
 30
0.0
 11
455.3556900258
 21
223.6082772225
 31
0.0
  0
LINE
  5
155
330
1F
100
AcDbEntity
  8
0
  6
Continuous
 62
     7
370
    15
100
AcDbLine
 10
455.3556900258
 20
198.3082772225
 30
0.0
 11
455.3556900258
 21
210.9582772225
 31
0.0
  0
LINE
  5
156
330
1F
100
AcDbEntity
  8
0
  6
Continuous
 62
     7
370
    15
100
AcDbLine
 10
440.6056900258
 20
196.4582772225
 30
0.0
 11
440.6056900258
 21
195.9582772225
 31
0.0
  0
LINE
  5
157
330
1F
100
AcDbEntity
  8
0
  6
Continuous
 62
     7
370
    15
100
AcDbLine
 10
434.3556900258
 20
195.9582772225
 30
0.0
 11
440.6056900258
 21
195.9582772225
 31
0.0
  0
LINE
  5
158
330
1F
100
AcDbEntity
  8
0
  6
Continuous
 62
     7
370
    15
100
AcDbLine
 10
440.6056900258
 20
196.4582772225
 30
0.0
 11
434.3556900258
 21
196.4582772225
 31
0.0
  0
LINE
  5
159
330
1F
100
AcDbEntity
  8
0
  6
Continuous
 62
     7
370
    15
100
AcDbLine
 10
440.6056900258
 20
195.9582772225
 30
0.0
 11
440.6056900258
 21
184.9582772225
 31
0.0
  0
LINE
  5
15A
330
1F
100
AcDbEntity
  8
0
  6
Continuous
 62
     7
370
    15
100
AcDbLine
 10
440.6056900258
 20
184.9582772225
 30
0.0
 11
434.3556900258
 21
184.9582772225
 31
0.0
  0
LINE
  5
15B
330
1F
100
AcDbEntity
  8
0
  6
Continuous
 62
     7
370
    15
100
AcDbLine
 10
434.3556900258
 20
184.4582772225
 30
0.0
 11
440.6056900258
 21
184.4582772225
 31
0.0
  0
LINE
  5
15C
330
1F
100
AcDbEntity
  8
0
  6
Continuous
 62
     7
370
    15
100
AcDbLine
 10
440.6056900258
 20
184.9582772225
 30
0.0
 11
440.6056900258
 21
184.4582772225
 31
0.0
  0
LINE
  5
15D
330
1F
100
AcDbEntity
  8
0
  6
Continuous
 62
     7
370
    15
100
AcDbLine
 10
434.3556900258
 20
225.4582772225
 30
0.0
 11
440.6056900258
 21
225.4582772225
 31
0.0
  0
LINE
  5
15E
330
1F
100
AcDbEntity
  8
0
  6
Continuous
 62
     7
370
    15
100
AcDbLine
 10
440.6056900258
 20
225.9582772225
 30
0.0
 11
434.3556900258
 21
225.9582772225
 31
0.0
  0
LINE
  5
15F
330
1F
100
AcDbEntity
  8
0
  6
Continuous
 62
     7
370
    15
100
AcDbLine
 10
440.6056900258
 20
225.9582772225
 30
0.0
 11
440.6056900258
 21
225.4582772225
 31
0.0
  0
LINE
  5
160
330
1F
100
AcDbEntity
  8
0
  6
Continuous
 62
     7
370
    15
100
AcDbLine
 10
434.3556900258
 20
236.9582772225
 30
0.0
 11
440.6056900258
 21
236.9582772225
 31
0.0
  0
LINE
  5
161
330
1F
100
AcDbEntity
  8
0
  6
Continuous
 62
     7
370
    15
100
AcDbLine
 10
440.6056900258
 20
236.9582772225
 30
0.0
 11
440.6056900258
 21
225.9582772225
 31
0.0
  0
LINE
  5
162
330
1F
100
AcDbEntity
  8
0
  6
Continuous
 62
     7
370
    15
100
AcDbLine
 10
440.6056900258
 20
237.4582772225
 30
0.0
 11
434.3556900258
 21
237.4582772225
 31
0.0
  0
LINE
  5
163
330
1F
100
AcDbEntity
  8
0
  6
Continuous
 62
     7
370
    15
100
AcDbLine
 10
440.6056900258
 20
237.4582772225
 30
0.0
 11
440.6056900258
 21
236.9582772225
 31
0.0
  0
LINE
  5
164
330
1F
100
AcDbEntity
  8
0
  6
Continuous
 62
     8
370
    15
100
AcDbLine
 10
292.2900046008
 20
162.2082772225
 30
0.0
 11
292.2900046008
 21
197.561199051
 31
0.0
  0
LINE
  5
165
330
1F
100
AcDbEntity
  8
0
  6
Continuous
 62
     8
370
    15
100
AcDbLine
 10
292.2900046008
 20
224.3553553939
 30
0.0
 11
292.2900046008
 21
259.7082772225
 31
0.0
  0
LINE
  5
166
330
1F
100
AcDbEntity
  8
0
  6
Continuous
 62
     8
370
    15
100
AcDbLine
 10
278.7213754507
 20
197.561199051
 30
0.0
 11
278.7213754507
 21
162.2082772225
 31
0.0
  0
LINE
  5
167
330
1F
100
AcDbEntity
  8
0
  6
Continuous
 62
     8
370
    15
100
AcDbLine
 10
278.7213754507
 20
259.7082772225
 30
0.0
 11
278.7213754507
 21
224.3553553939
 31
0.0
  0
LINE
  5
168
330
1F
100
AcDbEntity
  8
0
  6
Continuous
 62
     8
370
    15
100
AcDbLine
 10
277.6728473133
 20
224.3911199349
 30
0.0
 11
277.6728473133
 21
258.82543451
 31
0.0
  0
LINE
  5
169
330
1F
100
AcDbEntity
  8
0
  6
Continuous
 62
     8
370
    15
100
AcDbLine
 10
277.6728473133
 20
163.0911199349
 30
0.0
 11
277.6728473133
 21
197.52543451
 31
0.0
  0
LINE
  5
16A
330
1F
100
AcDbEntity
  8
0
  6
Continuous
 62
     8
370
    15
100
AcDbLine
 10
278.4385327383
 20
162.32543451
 30
0.0
 11
278.4385327383
 21
197.6559979822
 31
0.0
  0
LINE
  5
16B
330
1F
100
AcDbEntity
  8
0
  6
Continuous
 62
     8
370
    15
100
AcDbLine
 10
278.4385327383
 20
259.5911199349
 30
0.0
 11
278.4385327383
 21
224.2605564627
 31
0.0
  0
LINE
  5
16C
330
1F
100
AcDbEntity
  8
0
  6
Continuous
 62
     8
370
    15
100
AcDbLine
 10
293.3385327383
 20
258.82543451
 30
0.0
 11
293.3385327383
 21
223.8082772225
 31
0.0
  0
LINE
  5
16D
330
1F
100
AcDbEntity
  8
0
  6
Continuous
 62
     8
370
    15
100
AcDbLine
 10
293.3385327383
 20
198.1082772225
 30
0.0
 11
293.3385327383
 21
163.0911199349
 31
0.0
  0
LINE
  5
16E
330
1F
100
AcDbEntity
  8
0
  6
Continuous
 62
     8
370
    15
100
AcDbLine
 10
292.5728473133
 20
197.6559979822
 30
0.0
 11
292.5728473133
 21
162.32543451
 31
0.0
  0
LINE
  5
16F
330
1F
100
AcDbEntity
  8
0
  6
Continuous
 62
     8
370
    15
100
AcDbLine
 10
292.5728473133
 20
259.5911199349
 30
0.0
 11
292.5728473133
 21
224.2605564627
 31
0.0
  0
LINE
  5
170
330
1F
100
AcDbEntity
  8
0
  6
Continuous
 62
     8
370
    15
100
AcDbLine
 10
277.0556900258
 20
210.9582772225
 30
0.0
 11
277.0556900258
 21
245.4582772225
 31
0.0
  0
LINE
  5
171
330
1F
100
AcDbEntity
  8
0
  6
Continuous
 62
     8
370
    15
100
AcDbLine
 10
277.0556900258
 20
176.4582772225
 30
0.0
 11
277.0556900258
 21
210.9582772225
 31
0.0
  0
LINE
  5
172
330
1F
100
AcDbEntity
  8
0
  6
Continuous
 62
     8
370
    15
100
AcDbLine
 10
173.4613817985
 20
231.1693850095
 30
0.0
 11
173.4613817985
 21
190.7471694354
 31
0.0
  0
LINE
  5
173
330
1F
100
AcDbEntity
  8
0
  6
Continuous
 62
     8
370
    15
100
AcDbLine
 10
296.4556900258
 20
210.9582772225
 30
0.0
 11
296.4556900258
 21
181.9582772225
 31
0.0
  0
LINE
  5
174
330
1F
100
AcDbEntity
  8
0
  6
Continuous
 62
     8
370
    15
100
AcDbLine
 10
296.4556900258
 20
239.9582772225
 30
0.0
 11
296.4556900258
 21
210.9582772225
 31
0.0
  0
LINE
  5
175
330
1F
100
AcDbEntity
  8
0
  6
Continuous
 62
     8
370
    15
100
AcDbLine
 10
457.8556900258
 20
210.9582772225
 30
0.0
 11
457.8556900258
 21
216.9582772225
 31
0.0
  0
LINE
  5
176
330
1F
100
AcDbEntity
  8
0
  6
Continuous
 62
     8
370
    15
100
AcDbLine
 10
457.8556900258
 20
204.9582772225
 30
0.0
 11
457.8556900258
 21
210.9582772225
 31
0.0
  0
DIMENSION
  5
177
330
1F
100
AcDbEntity
  8
DIM
100
AcDbDimension
  2
_D
 10
455.3556900258
 20
150.326580467
 30
0.0
 11
444.8556900258
 21
150.326580467
 31
0.0
 70
   160
  1
<>
 71
     2
 42
-1.0
  3
SLDDIMSTYLE0
100
AcDbAlignedDimension
 13
434.3556900258
 23
182.9582772225
 33
0.0
 14
455.3556900258
 24
198.3082772225
 34
0.0
100
AcDbRotatedDimension
  0
DIMENSION
  5
184
330
1F
100
AcDbEntity
  8
DIM
100
AcDbDimension
  2
_D_1
 10
274.3556900258
 20
150.326580467
 30
0.0
 11
354.3556900258
 21
150.326580467
 31
0.0
 70
   160
  1
<>
 71
     2
 42
-1.0
  3
SLDDIMSTYLE1
100
AcDbAlignedDimension
 13
434.3556900258
 23
184.4582772225
 33
0.0
 14
274.3556900258
 24
176.0332772225
 34
0.0
100
AcDbRotatedDimension
  0
DIMENSION
  5
18F
330
1F
100
AcDbEntity
  8
DIM
100
AcDbDimension
  2
_D_2
 10
478.8244013502
 20
197.4582772225
 30
0.0
 11
478.8244013502
 21
210.9582772225
 31
0.0
 70
   160
  1
%%c<>
 71
     2
 42
-1.0
  3
SLDDIMSTYLE0
100
AcDbAlignedDimension
 13
454.864942297
 23
224.4582772225
 33
0.0
 14
454.864942297
 24
197.4582772225
 34
0.0
 50
90.0
100
AcDbRotatedDimension
  0
DIMENSION
  5
19C
330
1F
100
AcDbEntity
  8
DIM
100
AcDbDimension
  2
_D_3
 10
490.0351721944
 20
239.9582772225
 30
0.0
 11
490.0351721944
 21
210.9582772225
 31
0.0
 70
   160
  1
%%c<>
 71
     2
 42
-1.0
  3
SLDDIMSTYLE1
100
AcDbAlignedDimension
 13
433.3556900258
 23
181.9582772225
 33
0.0
 14
433.3556900258
 24
239.9582772225
 34
0.0
 50
90.0
100
AcDbRotatedDimension
  0
DIMENSION
  5
1A7
330
1F
100
AcDbEntity
  8
DIM
100
AcDbDimension
  2
_D_4
 10
161.1220901556
 20
162.2082772225
 30
0.0
 11
161.1220901556
 21
210.9582772225
 31
0.0
 70
   160
  1
%%c<>
 71
     2
 42
-1.0
  3
SLDDIMSTYLE2
100
AcDbAlignedDimension
 13
278.7213754507
 23
259.7082772225
 33
0.0
 14
278.7213754507
 24
162.2082772225
 34
0.0
 50
90.0
100
AcDbRotatedDimension
  0
DIMENSION
  5
1B3
330
1F
100
AcDbEntity
  8
DIM
100
AcDbDimension
  2
_D_5
 10
467.3556900258
 20
133.4081772225
 30
0.0
 11
319.9806900258
 21
133.4081772225
 31
0.0
 70
   160
  1
<>
 71
     2
 42
-1.0
  3
SLDDIMSTYLE1
100
AcDbAlignedDimension
 13
172.6056900258
 23
210.9582772225
 33
0.0
 14
467.3556900258
 24
194.4582772225
 34
0.0
 50
0.0
100
AcDbRotatedDimension
  0
LINE
  5
1BD
330
1F
100
AcDbEntity
  8
DIM
  6
CENTERX2
 48
1.1111111111
370
     0
100
AcDbLine
 10
172.8378837311
 20
210.9582772225
 30
0.0
 11
469.468707394
 21
210.9582772225
 31
0.0
  0
ENDSEC
  0
SECTION
  2
OBJECTS
  0
DICTIONARY
  5
C
330
0
100
AcDbDictionary
281
     1
  3
ACAD_GROUP
350
D
  3
ACAD_LAYOUT
350
1A
  3
ACAD_MLINESTYLE
350
17
  3
ACAD_PLOTSETTINGS
350
19
  3
ACAD_PLOTSTYLENAME
350
E
  3
ACAD_SCALELIST
350
47
  0
DICTIONARY
  5
D
102
{ACAD_REACTORS
330
C
102
}
330
C
100
AcDbDictionary
281
     1
  0
DICTIONARY
  5
1A
102
{ACAD_REACTORS
330
C
102
}
330
C
100
AcDbDictionary
281
     1
  3
Layout1
350
1E
  3
Layout2
350
26
  3
Model
350
22
  0
DICTIONARY
  5
17
102
{ACAD_REACTORS
330
C
102
}
330
C
100
AcDbDictionary
281
     1
  3
Standard
350
18
  0
DICTIONARY
  5
19
102
{ACAD_REACTORS
330
C
102
}
330
C
100
AcDbDictionary
281
     1
  0
ACDBDICTIONARYWDFLT
  5
E
102
{ACAD_REACTORS
330
C
102
}
330
C
100
AcDbDictionary
281
     1
  3
Normal
350
F
100
AcDbDictionaryWithDefault
340
F
  0
DICTIONARY
  5
47
102
{ACAD_REACTORS
330
C
102
}
330
C
100
AcDbDictionary
281
     1
  3
A0
350
48
  3
A1
350
49
  3
A2
350
4A
  3
A3
350
4B
  3
A4
350
4C
  3
A5
350
4D
  3
A6
350
4E
  3
A7
350
4F
  3
A8
350
50
  3
A9
350
51
  3
B0
350
52
  3
B1
350
53
  3
B2
350
54
  3
B3
350
55
  3
B4
350
56
  3
B5
350
57
  3
B6
350
58
  3
B7
350
59
  3
B8
350
5A
  3
B9
350
5B
  3
C0
350
5C
  3
C1
350
5D
  3
C2
350
5E
  3
C3
350
5F
  3
C4
350
60
  3
C5
350
61
  3
C6
350
62
  3
C7
350
63
  3
C8
350
64
  3
C9
350
65
  3
D0
350
66
  3
D1
350
67
  3
D2
350
68
  0
LAYOUT
  5
1E
102
{ACAD_REACTORS
330
1A
102
}
330
1A
100
AcDbPlotSettings
  1

  2
none_device
  4

  6

 40
0.0
 41
0.0
 42
0.0
 43
0.0
 44
0.0
 45
0.0
 46
0.0
 47
0.0
 48
0.0
 49
0.0
140
0.0
141
0.0
142
1.0
143
1.0
 70
   688
 72
     1
 73
     0
 74
     5
  7

 75
    16
147
1.0
148
0.0
149
0.0
100
AcDbLayout
  1
Layout1
 70
     1
 71
     1
 10
0.0
 20
0.0
 11
420.0
 21
297.0
 12
0.0
 22
0.0
 32
0.0
 14
1.0000000000E+20
 24
1.0000000000E+20
 34
1.0000000000E+20
 15
-1.0000000000E+20
 25
-1.0000000000E+20
 35
-1.0000000000E+20
146
0.0
 13
0.0
 23
0.0
 33
0.0
 16
1.0
 26
0.0
 36
0.0
 17
0.0
 27
1.0
 37
0.0
 76
     0
330
1B
  0
LAYOUT
  5
26
102
{ACAD_REACTORS
330
1A
102
}
330
1A
100
AcDbPlotSettings
  1

  2
none_device
  4

  6

 40
0.0
 41
0.0
 42
0.0
 43
0.0
 44
0.0
 45
0.0
 46
0.0
 47
0.0
 48
0.0
 49
0.0
140
0.0
141
0.0
142
1.0
143
1.0
 70
   688
 72
     1
 73
     0
 74
     5
  7

 75
    16
147
1.0
148
0.0
149
0.0
100
AcDbLayout
  1
Layout2
 70
     1
 71
     2
 10
0.0
 20
0.0
 11
0.0
 21
0.0
 12
0.0
 22
0.0
 32
0.0
 14
0.0
 24
0.0
 34
0.0
 15
0.0
 25
0.0
 35
0.0
146
0.0
 13
0.0
 23
0.0
 33
0.0
 16
1.0
 26
0.0
 36
0.0
 17
0.0
 27
1.0
 37
0.0
 76
     0
330
23
  0
LAYOUT
  5
22
102
{ACAD_REACTORS
330
1A
102
}
330
1A
100
AcDbPlotSettings
  1

  2
none_device
  4
Letter_(8.50_x_11.00_Inches)
  6

 40
6.35
 41
6.35
 42
6.35000508
 43
6.35000508
 44
215.9
 45
279.4
 46
0.0
 47
0.0
 48
0.0
 49
0.0
140
0.0
141
0.0
142
1.0
143
1.0
 70
  1712
 72
     1
 73
     0
 74
     0
  7

 75
     0
147
1.0
148
0.0
149
0.0
100
AcDbLayout
  1
Model
 70
     1
 71
     0
 10
0.0
 20
0.0
 11
534.6
 21
378.0
 12
0.0
 22
0.0
 32
0.0
 14
0.0
 24
0.0
 34
0.0
 15
534.6
 25
378.0
 35
0.0
146
0.0
 13
0.0
 23
0.0
 33
0.0
 16
1.0
 26
0.0
 36
0.0
 17
0.0
 27
1.0
 37
0.0
 76
     0
330
1F
331
29
  0
MLINESTYLE
  5
18
102
{ACAD_REACTORS
330
17
102
}
330
17
100
AcDbMlineStyle
  2
Standard
 70
     0
  3

 62
   256
 51
90.0
 52
90.0
 71
     2
 49
0.5
 62
   256
  6
BYLAYER
 49
-0.5
 62
   256
  6
BYLAYER
  0
ACDBPLACEHOLDER
  5
F
102
{ACAD_REACTORS
330
E
102
}
330
E
  0
SCALE
  5
48
102
{ACAD_REACTORS
330
47
102
}
330
47
100
AcDbScale
 70
     0
300
1:1
140
1.0
141
1.0
290
     1
  0
SCALE
  5
49
102
{ACAD_REACTORS
330
47
102
}
330
47
100
AcDbScale
 70
     0
300
1:2
140
1.0
141
2.0
290
     0
  0
SCALE
  5
4A
102
{ACAD_REACTORS
330
47
102
}
330
47
100
AcDbScale
 70
     0
300
1:4
140
1.0
141
4.0
290
     0
  0
SCALE
  5
4B
102
{ACAD_REACTORS
330
47
102
}
330
47
100
AcDbScale
 70
     0
300
1:5
140
1.0
141
5.0
290
     0
  0
SCALE
  5
4C
102
{ACAD_REACTORS
330
47
102
}
330
47
100
AcDbScale
 70
     0
300
1:8
140
1.0
141
8.0
290
     0
  0
SCALE
  5
4D
102
{ACAD_REACTORS
330
47
102
}
330
47
100
AcDbScale
 70
     0
300
1:10
140
1.0
141
10.0
290
     0
  0
SCALE
  5
4E
102
{ACAD_REACTORS
330
47
102
}
330
47
100
AcDbScale
 70
     0
300
1:16
140
1.0
141
16.0
290
     0
  0
SCALE
  5
4F
102
{ACAD_REACTORS
330
47
102
}
330
47
100
AcDbScale
 70
     0
300
1:20
140
1.0
141
20.0
290
     0
  0
SCALE
  5
50
102
{ACAD_REACTORS
330
47
102
}
330
47
100
AcDbScale
 70
     0
300
1:30
140
1.0
141
30.0
290
     0
  0
SCALE
  5
51
102
{ACAD_REACTORS
330
47
102
}
330
47
100
AcDbScale
 70
     0
300
1:40
140
1.0
141
40.0
290
     0
  0
SCALE
  5
52
102
{ACAD_REACTORS
330
47
102
}
330
47
100
AcDbScale
 70
     0
300
1:50
140
1.0
141
50.0
290
     0
  0
SCALE
  5
53
102
{ACAD_REACTORS
330
47
102
}
330
47
100
AcDbScale
 70
     0
300
1:100
140
1.0
141
100.0
290
     0
  0
SCALE
  5
54
102
{ACAD_REACTORS
330
47
102
}
330
47
100
AcDbScale
 70
     0
300
2:1
140
2.0
141
1.0
290
     0
  0
SCALE
  5
55
102
{ACAD_REACTORS
330
47
102
}
330
47
100
AcDbScale
 70
     0
300
4:1
140
4.0
141
1.0
290
     0
  0
SCALE
  5
56
102
{ACAD_REACTORS
330
47
102
}
330
47
100
AcDbScale
 70
     0
300
8:1
140
8.0
141
1.0
290
     0
  0
SCALE
  5
57
102
{ACAD_REACTORS
330
47
102
}
330
47
100
AcDbScale
 70
     0
300
10:1
140
10.0
141
1.0
290
     0
  0
SCALE
  5
58
102
{ACAD_REACTORS
330
47
102
}
330
47
100
AcDbScale
 70
     0
300
100:1
140
100.0
141
1.0
290
     0
  0
SCALE
  5
59
102
{ACAD_REACTORS
330
47
102
}
330
47
100
AcDbScale
 70
     0
300
1/128" = 1'-0"
140
0.0078125
141
12.0
290
     0
  0
SCALE
  5
5A
102
{ACAD_REACTORS
330
47
102
}
330
47
100
AcDbScale
 70
     0
300
1/64" = 1'-0"
140
0.015625
141
12.0
290
     0
  0
SCALE
  5
5B
102
{ACAD_REACTORS
330
47
102
}
330
47
100
AcDbScale
 70
     0
300
1/32" = 1'-0"
140
0.03125
141
12.0
290
     0
  0
SCALE
  5
5C
102
{ACAD_REACTORS
330
47
102
}
330
47
100
AcDbScale
 70
     0
300
1/16" = 1'-0"
140
0.0625
141
12.0
290
     0
  0
SCALE
  5
5D
102
{ACAD_REACTORS
330
47
102
}
330
47
100
AcDbScale
 70
     0
300
3/32" = 1'-0"
140
0.09375
141
12.0
290
     0
  0
SCALE
  5
5E
102
{ACAD_REACTORS
330
47
102
}
330
47
100
AcDbScale
 70
     0
300
1/8" = 1'-0"
140
0.125
141
12.0
290
     0
  0
SCALE
  5
5F
102
{ACAD_REACTORS
330
47
102
}
330
47
100
AcDbScale
 70
     0
300
3/16" = 1'-0"
140
0.1875
141
12.0
290
     0
  0
SCALE
  5
60
102
{ACAD_REACTORS
330
47
102
}
330
47
100
AcDbScale
 70
     0
300
1/4" = 1'-0"
140
0.25
141
12.0
290
     0
  0
SCALE
  5
61
102
{ACAD_REACTORS
330
47
102
}
330
47
100
AcDbScale
 70
     0
300
3/8" = 1'-0"
140
0.375
141
12.0
290
     0
  0
SCALE
  5
62
102
{ACAD_REACTORS
330
47
102
}
330
47
100
AcDbScale
 70
     0
300
1/2" = 1'-0"
140
0.5
141
12.0
290
     0
  0
SCALE
  5
63
102
{ACAD_REACTORS
330
47
102
}
330
47
100
AcDbScale
 70
     0
300
3/4" = 1'-0"
140
0.75
141
12.0
290
     0
  0
SCALE
  5
64
102
{ACAD_REACTORS
330
47
102
}
330
47
100
AcDbScale
 70
     0
300
1" = 1'-0"
140
1.0
141
12.0
290
     0
  0
SCALE
  5
65
102
{ACAD_REACTORS
330
47
102
}
330
47
100
AcDbScale
 70
     0
300
1-1/2" = 1'-0"
140
1.5
141
12.0
290
     0
  0
SCALE
  5
66
102
{ACAD_REACTORS
330
47
102
}
330
47
100
AcDbScale
 70
     0
300
3" = 1'-0"
140
3.0
141
12.0
290
     0
  0
SCALE
  5
67
102
{ACAD_REACTORS
330
47
102
}
330
47
100
AcDbScale
 70
     0
300
6" = 1'-0"
140
6.0
141
12.0
290
     0
  0
SCALE
  5
68
102
{ACAD_REACTORS
330
47
102
}
330
47
100
AcDbScale
 70
     0
300
1'-0" = 1'-0"
140
12.0
141
12.0
290
     0
  0
ENDSEC
  0
EOF
