  0
SECTION
  2
HEADER
  9
$ACADVER
  1
AC1015
  9
$ACADMAINTVER
 70
     6
  9
$DWGCODEPAGE
  3
ANSI_1252
  9
$INSBASE
 10
0.0
 20
0.0
 30
0.0
  9
$EXTMIN
 10
0.0
 20
0.0
 30
0.0
  9
$EXTMAX
 10
445.5
 20
315.0
 30
0.0
  9
$LIMMIN
 10
0.0
 20
0.0
  9
$LIMMAX
 10
445.5
 20
315.0
  9
$ORTHOMODE
 70
     0
  9
$REGENMODE
 70
     1
  9
$FILLMODE
 70
     1
  9
$QTEXTMODE
 70
     0
  9
$MIRRTEXT
 70
     1
  9
$LTSCALE
 40
1.5
  9
$ATTMODE
 70
     1
  9
$TEXTSIZE
 40
5.8208333333
  9
$TRACEWID
 40
1.0
  9
$TEXTSTYLE
  7
Standard
  9
$CLAYER
  8
0
  9
$CELTYPE
  6
ByLayer
  9
$CECOLOR
 62
   256
  9
$CELTSCALE
 40
1.0
  9
$DISPSILH
 70
     0
  9
$DIMSCALE
 40
1.0
  9
$DIMASZ
 40
4.953
  9
$DIMEXO
 40
1.5
  9
$DIMDLI
 40
3.75
  9
$DIMRND
 40
0.0
  9
$DIMDLE
 40
0.0
  9
$DIMEXE
 40
1.5
  9
$DIMTP
 40
0.0
  9
$DIMTM
 40
0.0
  9
$DIMTXT
 40
5.8208333333
  9
$DIMCEN
 40
2.5
  9
$DIMTSZ
 40
0.0
  9
$DIMTOL
 70
     0
  9
$DIMLIM
 70
     0
  9
$DIMTIH
 70
     1
  9
$DIMTOH
 70
     1
  9
$DIMSE1
 70
     0
  9
$DIMSE2
 70
     0
  9
$DIMTAD
 70
     1
  9
$DIMZIN
 70
     0
  9
$DIMBLK
  1

  9
$DIMASO
 70
     1
  9
$DIMSHO
 70
     1
  9
$DIMPOST
  1

  9
$DIMAPOST
  1

  9
$DIMALT
 70
     0
  9
$DIMALTD
 70
     3
  9
$DIMALTF
 40
0.0393700787
  9
$DIMLFAC
 40
1.0
  9
$DIMTOFL
 70
     1
  9
$DIMTVP
 40
0.0
  9
$DIMTIX
 70
     0
  9
$DIMSOXD
 70
     0
  9
$DIMSAH
 70
     0
  9
$DIMBLK1
  1

  9
$DIMBLK2
  1

  9
$DIMSTYLE
  2
ISO-25
  9
$DIMCLRD
 70
     0
  9
$DIMCLRE
 70
     0
  9
$DIMCLRT
 70
     0
  9
$DIMTFAC
 40
1.0
  9
$DIMGAP
 40
2.286
  9
$DIMJUST
 70
     0
  9
$DIMSD1
 70
     0
  9
$DIMSD2
 70
     0
  9
$DIMTOLJ
 70
     0
  9
$DIMTZIN
 70
     0
  9
$DIMALTZ
 70
     0
  9
$DIMALTTZ
 70
     0
  9
$DIMUPT
 70
     0
  9
$DIMDEC
 70
     2
  9
$DIMTDEC
 70
     2
  9
$DIMALTU
 70
     2
  9
$DIMALTTD
 70
     3
  9
$DIMTXSTY
  7
Standard
  9
$DIMAUNIT
 70
     0
  9
$DIMADEC
 70
     2
  9
$DIMALTRND
 40
0.0
  9
$DIMAZIN
 70
     0
  9
$DIMDSEP
 70
    44
  9
$DIMATFIT
 70
     3
  9
$DIMFRAC
 70
     0
  9
$DIMLDRBLK
  1

  9
$DIMLUNIT
 70
     2
  9
$DIMLWD
 70
    -2
  9
$DIMLWE
 70
    -2
  9
$DIMTMOVE
 70
     0
  9
$LUNITS
 70
     2
  9
$LUPREC
 70
     2
  9
$SKETCHINC
 40
1.0
  9
$FILLETRAD
 40
10.0
  9
$AUNITS
 70
     1
  9
$AUPREC
 70
     2
  9
$MENU
  1
.
  9
$ELEVATION
 40
0.0
  9
$PELEVATION
 40
0.0
  9
$THICKNESS
 40
0.0
  9
$LIMCHECK
 70
     0
  9
$CHAMFERA
 40
0.0
  9
$CHAMFERB
 40
0.0
  9
$CHAMFERC
 40
0.0
  9
$CHAMFERD
 40
0.0
  9
$SKPOLY
 70
     0
  9
$TDCREATE
 40
2458606.656211412
  9
$TDUCREATE
 40
2458606.427044746
  9
$TDUPDATE
 40
2458606.656212454
  9
$TDUUPDATE
 40
2458606.427045787
  9
$TDINDWG
 40
0.0000000116
  9
$TDUSRTIMER
 40
0.0000000116
  9
$USRTIMER
 70
     1
  9
$ANGBASE
 50
0.0
  9
$ANGDIR
 70
     0
  9
$PDMODE
 70
     0
  9
$PDSIZE
 40
-1.0
  9
$PLINEWID
 40
0.0
  9
$SPLFRAME
 70
     0
  9
$SPLINETYPE
 70
     6
  9
$SPLINESEGS
 70
     8
  9
$HANDSEED
  5
1BF
  9
$SURFTAB1
 70
     6
  9
$SURFTAB2
 70
     6
  9
$SURFTYPE
 70
     6
  9
$SURFU
 70
     6
  9
$SURFV
 70
     6
  9
$UCSBASE
  2

  9
$UCSNAME
  2

  9
$UCSORG
 10
0.0
 20
0.0
 30
0.0
  9
$UCSXDIR
 10
1.0
 20
0.0
 30
0.0
  9
$UCSYDIR
 10
0.0
 20
1.0
 30
0.0
  9
$UCSORTHOREF
  2

  9
$UCSORTHOVIEW
 70
     0
  9
$UCSORGTOP
 10
0.0
 20
0.0
 30
0.0
  9
$UCSORGBOTTOM
 10
0.0
 20
0.0
 30
0.0
  9
$UCSORGLEFT
 10
0.0
 20
0.0
 30
0.0
  9
$UCSORGRIGHT
 10
0.0
 20
0.0
 30
0.0
  9
$UCSORGFRONT
 10
0.0
 20
0.0
 30
0.0
  9
$UCSORGBACK
 10
0.0
 20
0.0
 30
0.0
  9
$PUCSBASE
  2

  9
$PUCSNAME
  2

  9
$PUCSORG
 10
0.0
 20
0.0
 30
0.0
  9
$PUCSXDIR
 10
1.0
 20
0.0
 30
0.0
  9
$PUCSYDIR
 10
0.0
 20
1.0
 30
0.0
  9
$PUCSORTHOREF
  2

  9
$PUCSORTHOVIEW
 70
     0
  9
$PUCSORGTOP
 10
0.0
 20
0.0
 30
0.0
  9
$PUCSORGBOTTOM
 10
0.0
 20
0.0
 30
0.0
  9
$PUCSORGLEFT
 10
0.0
 20
0.0
 30
0.0
  9
$PUCSORGRIGHT
 10
0.0
 20
0.0
 30
0.0
  9
$PUCSORGFRONT
 10
0.0
 20
0.0
 30
0.0
  9
$PUCSORGBACK
 10
0.0
 20
0.0
 30
0.0
  9
$USERI1
 70
     0
  9
$USERI2
 70
     0
  9
$USERI3
 70
     0
  9
$USERI4
 70
     0
  9
$USERI5
 70
     0
  9
$USERR1
 40
0.0
  9
$USERR2
 40
0.0
  9
$USERR3
 40
0.0
  9
$USERR4
 40
0.0
  9
$USERR5
 40
0.0
  9
$WORLDVIEW
 70
     1
  9
$SHADEDGE
 70
     3
  9
$SHADEDIF
 70
    70
  9
$TILEMODE
 70
     1
  9
$MAXACTVP
 70
    64
  9
$PINSBASE
 10
0.0
 20
0.0
 30
0.0
  9
$PLIMCHECK
 70
     0
  9
$PEXTMIN
 10
1.0000000000E+20
 20
1.0000000000E+20
 30
1.0000000000E+20
  9
$PEXTMAX
 10
-1.0000000000E+20
 20
-1.0000000000E+20
 30
-1.0000000000E+20
  9
$PLIMMIN
 10
0.0
 20
0.0
  9
$PLIMMAX
 10
420.0
 20
297.0
  9
$UNITMODE
 70
     0
  9
$VISRETAIN
 70
     1
  9
$PLINEGEN
 70
     0
  9
$PSLTSCALE
 70
     1
  9
$TREEDEPTH
 70
  3020
  9
$CMLSTYLE
  2
Standard
  9
$CMLJUST
 70
     0
  9
$CMLSCALE
 40
20.0
  9
$PROXYGRAPHICS
 70
     1
  9
$MEASUREMENT
 70
     1
  9
$CELWEIGHT
370
    -1
  9
$ENDCAPS
280
     0
  9
$JOINSTYLE
280
     0
  9
$LWDISPLAY
290
     1
  9
$INSUNITS
 70
     4
  9
$HYPERLINKBASE
  1

  9
$STYLESHEET
  1

  9
$XEDIT
290
     1
  9
$CEPSNTYPE
380
     0
  9
$PSTYLEMODE
290
     1
  9
$FINGERPRINTGUID
  2
{91BC273F-617F-4433-806B-14A78C0B4505}
  9
$VERSIONGUID
  2
{FAEB1C32-E019-11D5-929B-00C0DF256EC4}
  9
$EXTNAMES
290
     1
  9
$PSVPSCALE
 40
0.0
  9
$OLESTARTUP
290
     0
  0
ENDSEC
  0
SECTION
  2
CLASSES
  0
CLASS
  1
ACDBDICTIONARYWDFLT
  2
AcDbDictionaryWithDefault
  3
ObjectDBX Classes
 90
        0
280
     0
281
     0
  0
CLASS
  1
VISUALSTYLE
  2
AcDbVisualStyle
  3
ObjectDBX Classes
 90
     4095
280
     0
281
     0
  0
CLASS
  1
MATERIAL
  2
AcDbMaterial
  3
ObjectDBX Classes
 90
     1153
280
     0
281
     0
  0
CLASS
  1
SCALE
  2
AcDbScale
  3
ObjectDBX Classes
 90
     1153
280
     0
281
     0
  0
CLASS
  1
SUN
  2
AcDbSun
  3
SCENEOE
 90
     1153
280
     0
281
     0
  0
CLASS
  1
ACDBPLACEHOLDER
  2
AcDbPlaceHolder
  3
ObjectDBX Classes
 90
        0
280
     0
281
     0
  0
CLASS
  1
LAYOUT
  2
AcDbLayout
  3
ObjectDBX Classes
 90
        0
280
     0
281
     0
  0
ENDSEC
  0
SECTION
  2
TABLES
  0
TABLE
  2
VPORT
  5
8
330
0
100
AcDbSymbolTable
 70
     1
  0
VPORT
  5
29
330
8
100
AcDbSymbolTableRecord
100
AcDbViewportTableRecord
  2
*Active
 70
     0
 10
0.0
 20
0.0
 11
1.0
 21
1.0
 12
222.75
 22
157.5
 13
0.0
 23
0.0
 14
10.0
 24
10.0
 15
10.0
 25
10.0
 16
0.0
 26
0.0
 36
1.0
 17
0.0
 27
0.0
 37
0.0
 40
315.0
 41
1.4142857143
 42
50.0
 43
0.0
 44
0.0
 50
0.0
 51
0.0
 71
     0
 72
  2000
 73
     1
 74
     3
 75
     0
 76
     0
 77
     0
 78
     0
281
     0
 65
     1
110
0.0
120
0.0
130
0.0
111
1.0
121
0.0
131
0.0
112
0.0
122
1.0
132
0.0
 79
     0
146
0.0
  0
ENDTAB
  0
TABLE
  2
LTYPE
  5
5
330
0
100
AcDbSymbolTable
 70
     6
  0
LTYPE
  5
14
330
5
100
AcDbSymbolTableRecord
100
AcDbLinetypeTableRecord
  2
ByBlock
 70
     0
  3

 72
    65
 73
     0
 40
0.0
  0
LTYPE
  5
15
330
5
100
AcDbSymbolTableRecord
100
AcDbLinetypeTableRecord
  2
ByLayer
 70
     0
  3

 72
    65
 73
     0
 40
0.0
  0
LTYPE
  5
16
330
5
100
AcDbSymbolTableRecord
100
AcDbLinetypeTableRecord
  2
Continuous
 70
     0
  3
Solid line
 72
    65
 73
     0
 40
0.0
  0
LTYPE
  5
6A
330
5
100
AcDbSymbolTableRecord
100
AcDbLinetypeTableRecord
  2
HIDDEN
 70
     0
  3
Hidden __ __ __ __ __ __ __ __ __ __ __ __ __ __
 72
    65
 73
     2
 40
1.905
 49
1.27
 74
     0
 49
-0.635
 74
     0
  0
LTYPE
  5
6B
330
5
100
AcDbSymbolTableRecord
100
AcDbLinetypeTableRecord
  2
PHANTOM
 70
     0
  3
Phantom ______  __  __  ______  __  __  ______
 72
    65
 73
     6
 40
12.7
 49
6.35
 74
     0
 49
-1.27
 74
     0
 49
1.27
 74
     0
 49
-1.27
 74
     0
 49
1.27
 74
     0
 49
-1.27
 74
     0
  0
LTYPE
  5
6C
330
5
100
AcDbSymbolTableRecord
100
AcDbLinetypeTableRecord
  2
CENTER
 70
     0
  3
Center ____ _ ____ _ ____ _ ____ _ ____ _ ____
 72
    65
 73
     4
 40
10.16
 49
6.35
 74
     0
 49
-1.27
 74
     0
 49
1.27
 74
     0
 49
-1.27
 74
     0
  0
LTYPE
  5
6D
330
5
100
AcDbSymbolTableRecord
100
AcDbLinetypeTableRecord
  2
CENTERX2
 70
     0
  3
Center (2x) ________  __  ________  __  _____
 72
    65
 73
     4
 40
20.32
 49
12.7
 74
     0
 49
-2.54
 74
     0
 49
2.54
 74
     0
 49
-2.54
 74
     0
  0
LTYPE
  5
6E
330
5
100
AcDbSymbolTableRecord
100
AcDbLinetypeTableRecord
  2
DOT2
 70
     0
  3
Dot (.5x) ........................................
 72
    65
 73
     2
 40
0.635
 49
0.0
 74
     0
 49
-0.635
 74
     0
  0
ENDTAB
  0
TABLE
  2
LAYER
  5
2
330
0
100
AcDbSymbolTable
 70
     8
  0
LAYER
  5
10
330
2
100
AcDbSymbolTableRecord
100
AcDbLayerTableRecord
  2
0
 70
     0
 62
     7
  6
Continuous
370
    -3
390
F
  0
LAYER
  5
6F
330
2
100
AcDbSymbolTableRecord
100
AcDbLayerTableRecord
  2
FORMAT
 70
     0
 62
     7
  6
Continuous
370
    -3
390
F
  0
LAYER
  5
70
330
2
100
AcDbSymbolTableRecord
100
AcDbLayerTableRecord
  2
SLD-0
 70
     0
 62
     2
  6
Continuous
370
    -3
390
F
  0
LAYER
  5
71
330
2
100
AcDbSymbolTableRecord
100
AcDbLayerTableRecord
  2
DIM
 70
     0
 62
   179
  6
Continuous
370
    -3
390
F
  0
LAYER
  5
72
330
2
100
AcDbSymbolTableRecord
100
AcDbLayerTableRecord
  2
SLD-DEFPOINTS
 70
     0
 62
   179
  6
Continuous
370
    -3
390
F
  0
LAYER
  5
73
330
2
100
AcDbSymbolTableRecord
100
AcDbLayerTableRecord
  2
HAT
 70
     0
 62
   135
  6
Continuous
370
    -3
390
F
  0
LAYER
  5
74
330
2
100
AcDbSymbolTableRecord
100
AcDbLayerTableRecord
  2
JOB
 70
     0
 62
   201
  6
Continuous
370
    -3
390
F
  0
LAYER
  5
75
330
2
100
AcDbSymbolTableRecord
100
AcDbLayerTableRecord
  2
INSPECTION_REPORT
 70
     0
 62
   255
  6
Continuous
370
    -3
390
F
  0
ENDTAB
  0
TABLE
  2
STYLE
  5
3
330
0
100
AcDbSymbolTable
 70
     4
  0
STYLE
  5
11
330
3
100
AcDbSymbolTableRecord
100
AcDbTextStyleTableRecord
  2
Standard
 70
     0
 40
0.0
 41
1.0
 50
0.0
 71
     0
 42
5.8208333333
  3
txt
  4

  0
STYLE
  5
96
330
3
100
AcDbSymbolTableRecord
100
AcDbTextStyleTableRecord
  2
SLDTEXTSTYLE0
 70
     0
 40
0.0
 41
0.7
 50
0.0
 71
     0
 42
5.8208333333
  3
TXT
  4

  0
STYLE
  5
98
330
3
100
AcDbSymbolTableRecord
100
AcDbTextStyleTableRecord
  2
SLDTEXTSTYLE1
 70
     0
 40
0.0
 41
0.75
 50
0.0
 71
     0
 42
5.8208333333
  3
TXT
  4

  0
STYLE
  5
AB
330
3
100
AcDbSymbolTableRecord
100
AcDbTextStyleTableRecord
  2
SLDTEXTSTYLE2
 70
     0
 40
0.0
 41
0.6875
 50
0.0
 71
     0
 42
5.8208333333
  3
TXT
  4

  0
ENDTAB
  0
TABLE
  2
VIEW
  5
6
330
0
100
AcDbSymbolTable
 70
     0
  0
ENDTAB
  0
TABLE
  2
UCS
  5
7
330
0
100
AcDbSymbolTable
 70
     0
  0
ENDTAB
  0
TABLE
  2
APPID
  5
9
330
0
100
AcDbSymbolTable
 70
     1
  0
APPID
  5
12
330
9
100
AcDbSymbolTableRecord
100
AcDbRegAppTableRecord
  2
ACAD
 70
     0
  0
ENDTAB
  0
TABLE
  2
DIMSTYLE
  5
A
330
0
100
AcDbSymbolTable
 70
     4
100
AcDbDimStyleTable
  0
DIMSTYLE
105
27
330
A
100
AcDbSymbolTableRecord
100
AcDbDimStyleTableRecord
  2
ISO-25
 70
     0
 41
2.5
 42
0.625
 43
3.75
 44
1.25
 73
     0
 74
     0
 77
     1
 78
     8
140
2.5
141
2.5
143
0.0393700787
147
0.625
171
     3
172
     1
178
     0
271
     2
272
     2
274
     3
278
    44
283
     0
284
     8
340
11
  0
DIMSTYLE
105
17B
102
{ACAD_REACTORS
330
17A
330
1AA
330
1B4
102
}
330
A
100
AcDbSymbolTableRecord
100
AcDbDimStyleTableRecord
  2
SLDDIMSTYLE0
 70
     0
 41
4.953
 44
0.0
 45
0.000000001
 73
     0
 74
     0
 77
     1
 78
    12
 79
     3
140
4.365625
147
1.09140625
173
     1
178
     0
271
     2
272
     2
276
     2
284
    12
340
96
  0
DIMSTYLE
105
187
102
{ACAD_REACTORS
330
186
330
19E
102
}
330
A
100
AcDbSymbolTableRecord
100
AcDbDimStyleTableRecord
  2
SLDDIMSTYLE1
 70
     0
 41
4.953
 44
0.0
 45
0.000000001
 73
     0
 74
     0
 77
     1
 78
    12
 79
     3
140
4.365625
147
1.09140625
172
     1
173
     1
178
     0
271
     2
272
     2
276
     2
284
    12
289
     0
340
96
  0
DIMSTYLE
105
193
102
{ACAD_REACTORS
330
192
102
}
330
A
100
AcDbSymbolTableRecord
100
AcDbDimStyleTableRecord
  2
SLDDIMSTYLE2
 70
     0
 41
4.953
 44
0.0
 45
0.000000001
 73
     0
 74
     0
 77
     1
 78
     4
 79
     1
140
4.365625
147
1.09140625
173
     1
178
     0
271
     2
272
     2
276
     2
284
    12
340
96
  0
ENDTAB
  0
TABLE
  2
BLOCK_RECORD
  5
1
330
0
100
AcDbSymbolTable
 70
     8
  0
BLOCK_RECORD
  5
1F
330
1
100
AcDbSymbolTableRecord
100
AcDbBlockTableRecord
  2
*Model_Space
340
22
  0
BLOCK_RECORD
  5
1B
330
1
100
AcDbSymbolTableRecord
100
AcDbBlockTableRecord
  2
*Paper_Space
340
1E
  0
BLOCK_RECORD
  5
23
330
1
100
AcDbSymbolTableRecord
100
AcDbBlockTableRecord
  2
*Paper_Space0
340
26
  0
BLOCK_RECORD
  5
E8
330
1
100
AcDbSymbolTableRecord
100
AcDbBlockTableRecord
  2
SW_CENTERMARKSYMBOL_0
340
0
102
{BLKREFS
331
F3
102
}
  0
BLOCK_RECORD
  5
17C
330
1
100
AcDbSymbolTableRecord
100
AcDbBlockTableRecord
  2
_D
340
0
  0
BLOCK_RECORD
  5
188
330
1
100
AcDbSymbolTableRecord
100
AcDbBlockTableRecord
  2
_D_1
340
0
  0
BLOCK_RECORD
  5
194
330
1
100
AcDbSymbolTableRecord
100
AcDbBlockTableRecord
  2
_D_2
340
0
  0
BLOCK_RECORD
  5
19F
330
1
100
AcDbSymbolTableRecord
100
AcDbBlockTableRecord
  2
_D_3
340
0
  0
BLOCK_RECORD
  5
1AB
330
1
100
AcDbSymbolTableRecord
100
AcDbBlockTableRecord
  2
_D_4
340
0
  0
BLOCK_RECORD
  5
1B5
330
1
100
AcDbSymbolTableRecord
100
AcDbBlockTableRecord
  2
_D_5
340
0
  0
ENDTAB
  0
ENDSEC
  0
SECTION
  2
BLOCKS
  0
BLOCK
  5
20
330
1F
100
AcDbEntity
  8
0
100
AcDbBlockBegin
  2
*Model_Space
 70
     0
 10
0.0
 20
0.0
 30
0.0
  3
*Model_Space
  1
*Model_Space
  0
ENDBLK
  5
21
330
1F
100
AcDbEntity
  8
0
100
AcDbBlockEnd
  0
BLOCK
  5
1C
330
1B
100
AcDbEntity
 67
     1
  8
0
100
AcDbBlockBegin
  2
*Paper_Space
 70
     0
 10
0.0
 20
0.0
 30
0.0
  3
*Paper_Space
  1
*Paper_Space
  0
ENDBLK
  5
1D
330
1B
100
AcDbEntity
 67
     1
  8
0
100
AcDbBlockEnd
  0
BLOCK
  5
24
330
23
100
AcDbEntity
  8
0
100
AcDbBlockBegin
  2
*Paper_Space0
 70
     0
 10
0.0
 20
0.0
 30
0.0
  3
*Paper_Space0
  1
*Paper_Space0
  0
ENDBLK
  5
25
330
23
100
AcDbEntity
  8
0
100
AcDbBlockEnd
  0
BLOCK
  5
E9
330
E8
100
AcDbEntity
  8
0
100
AcDbBlockBegin
  2
SW_CENTERMARKSYMBOL_0
 70
     0
 10
0.0
 20
0.0
 30
0.0
  3
SW_CENTERMARKSYMBOL_0
  1
SW_CENTERMARKSYMBOL_0
  0
LINE
  5
EB
330
E8
100
AcDbEntity
  8
DIM
 62
     0
100
AcDbLine
 10
0.0
 20
0.0
 30
0.0
 11
0.0
 21
2.5
 31
0.0
  0
LINE
  5
EC
330
E8
100
AcDbEntity
  8
DIM
 62
     0
100
AcDbLine
 10
0.0
 20
0.0
 30
0.0
 11
-2.5
 21
0.0
 31
0.0
  0
LINE
  5
ED
330
E8
100
AcDbEntity
  8
DIM
 62
     0
100
AcDbLine
 10
0.0
 20
0.0
 30
0.0
 11
0.0
 21
-2.5
 31
0.0
  0
LINE
  5
EE
330
E8
100
AcDbEntity
  8
DIM
 62
     0
100
AcDbLine
 10
0.0
 20
0.0
 30
0.0
 11
2.5
 21
0.0
 31
0.0
  0
LINE
  5
EF
330
E8
100
AcDbEntity
  8
DIM
 62
     0
100
AcDbLine
 10
0.0
 20
5.0
 30
0.0
 11
0.0
 21
51.1328427125
 31
0.0
  0
LINE
  5
F0
330
E8
100
AcDbEntity
  8
DIM
 62
     0
100
AcDbLine
 10
-5.0
 20
0.0
 30
0.0
 11
-51.1328427125
 21
0.0
 31
0.0
  0
LINE
  5
F1
330
E8
100
AcDbEntity
  8
DIM
 62
     0
100
AcDbLine
 10
0.0
 20
-5.0
 30
0.0
 11
0.0
 21
-51.1328427125
 31
0.0
  0
LINE
  5
F2
330
E8
100
AcDbEntity
  8
DIM
 62
     0
100
AcDbLine
 10
5.0
 20
0.0
 30
0.0
 11
51.1328427125
 21
0.0
 31
0.0
  0
ENDBLK
  5
EA
330
E8
100
AcDbEntity
  8
0
100
AcDbBlockEnd
  0
BLOCK
  5
17D
330
17C
100
AcDbEntity
  8
0
100
AcDbBlockBegin
  2
_D
 70
     0
 10
0.0
 20
0.0
 30
0.0
  3
_D
  1
_D
  0
SOLID
  5
17F
330
17C
100
AcDbEntity
  8
DIM
100
AcDbTrace
 10
412.9051402987
 20
208.8124557961
 30
0.0
 11
412.1431402987
 21
203.8594557961
 31
0.0
 12
413.6671402987
 22
203.8594557961
 32
0.0
 13
413.6671402987
 23
203.8594557961
 33
0.0
  0
SOLID
  5
180
330
17C
100
AcDbEntity
  8
DIM
100
AcDbTrace
 10
412.9051402987
 20
130.8124557961
 30
0.0
 11
413.6671402987
 21
135.7654557961
 31
0.0
 12
412.1431402987
 22
135.7654557961
 32
0.0
 13
412.1431402987
 23
135.7654557961
 33
0.0
  0
LINE
  5
181
330
17C
100
AcDbEntity
  8
DIM
100
AcDbLine
 10
359.3980335428
 20
208.8124557961
 30
0.0
 11
414.4051402987
 21
208.8124557961
 31
0.0
  0
LINE
  5
182
330
17C
100
AcDbEntity
  8
DIM
100
AcDbLine
 10
359.3980335428
 20
130.8124557961
 30
0.0
 11
414.4051402987
 21
130.8124557961
 31
0.0
  0
LINE
  5
183
330
17C
100
AcDbEntity
  8
DIM
100
AcDbLine
 10
412.9051402987
 20
208.8124557961
 30
0.0
 11
412.9051402987
 21
130.8124557961
 31
0.0
  0
MTEXT
  5
184
330
17C
100
AcDbEntity
  8
DIM
100
AcDbMText
 10
407.277553598
 20
163.4861396387
 30
0.0
 40
4.365625
 41
0.0
 71
     1
 72
     1
  1
%%c
  7
SLDTEXTSTYLE0
 11
-7.044195017643634E-15
 21
1.0
 31
0.0
 73
     1
 44
1.0
  0
MTEXT
  5
185
330
17C
100
AcDbEntity
  8
DIM
100
AcDbMText
 10
407.277553598
 20
170.2370934881
 30
0.0
 40
4.365625
 41
0.0
 71
     1
 72
     1
  1
78
  7
SLDTEXTSTYLE0
 11
-7.044195017643634E-15
 21
1.0
 31
0.0
 73
     1
 44
1.0
  0
ENDBLK
  5
17E
330
17C
100
AcDbEntity
  8
0
100
AcDbBlockEnd
  0
BLOCK
  5
189
330
188
100
AcDbEntity
  8
0
100
AcDbBlockBegin
  2
_D_1
 70
     0
 10
0.0
 20
0.0
 30
0.0
  3
_D_1
  1
_D_1
  0
SOLID
  5
18B
330
188
100
AcDbEntity
  8
DIM
100
AcDbTrace
 10
404.2815804292
 20
185.8124557961
 30
0.0
 11
403.5195804292
 21
180.8594557961
 31
0.0
 12
405.0435804292
 22
180.8594557961
 32
0.0
 13
405.0435804292
 23
180.8594557961
 33
0.0
  0
SOLID
  5
18C
330
188
100
AcDbEntity
  8
DIM
100
AcDbTrace
 10
404.2815804292
 20
153.8124557961
 30
0.0
 11
405.0435804292
 21
158.7654557961
 31
0.0
 12
403.5195804292
 22
158.7654557961
 32
0.0
 13
403.5195804292
 23
158.7654557961
 33
0.0
  0
LINE
  5
18D
330
188
100
AcDbEntity
  8
DIM
100
AcDbLine
 10
383.907285814
 20
185.8124557961
 30
0.0
 11
405.7815804292
 21
185.8124557961
 31
0.0
  0
LINE
  5
18E
330
188
100
AcDbEntity
  8
DIM
100
AcDbLine
 10
383.907285814
 20
153.8124557961
 30
0.0
 11
405.7815804292
 21
153.8124557961
 31
0.0
  0
LINE
  5
18F
330
188
100
AcDbEntity
  8
DIM
100
AcDbLine
 10
404.2815804292
 20
185.8124557961
 30
0.0
 11
404.2815804292
 21
153.8124557961
 31
0.0
  0
MTEXT
  5
190
330
188
100
AcDbEntity
  8
DIM
100
AcDbMText
 10
398.6539937285
 20
163.4861396387
 30
0.0
 40
4.365625
 41
0.0
 71
     1
 72
     1
  1
%%c
  7
SLDTEXTSTYLE0
 11
-7.044195017643634E-15
 21
1.0
 31
0.0
 73
     1
 44
1.0
  0
MTEXT
  5
191
330
188
100
AcDbEntity
  8
DIM
100
AcDbMText
 10
398.6539937285
 20
170.2370934881
 30
0.0
 40
4.365625
 41
0.0
 71
     1
 72
     1
  1
32
  7
SLDTEXTSTYLE0
 11
-7.044195017643634E-15
 21
1.0
 31
0.0
 73
     1
 44
1.0
  0
ENDBLK
  5
18A
330
188
100
AcDbEntity
  8
0
100
AcDbBlockEnd
  0
BLOCK
  5
195
330
194
100
AcDbEntity
  8
0
100
AcDbBlockBegin
  2
_D_2
 70
     0
 10
0.0
 20
0.0
 30
0.0
  3
_D_2
  1
_D_2
  0
SOLID
  5
197
330
194
100
AcDbEntity
  8
DIM
100
AcDbTrace
 10
142.1466688203
 20
218.5624557961
 30
0.0
 11
141.3846688203
 21
213.6094557961
 31
0.0
 12
142.9086688203
 22
213.6094557961
 32
0.0
 13
142.9086688203
 23
213.6094557961
 33
0.0
  0
SOLID
  5
198
330
194
100
AcDbEntity
  8
DIM
100
AcDbTrace
 10
142.1466688203
 20
121.0624557961
 30
0.0
 11
142.9086688203
 21
126.0154557961
 31
0.0
 12
141.3846688203
 22
126.0154557961
 32
0.0
 13
141.3846688203
 23
126.0154557961
 33
0.0
  0
LINE
  5
199
330
194
100
AcDbEntity
  8
DIM
100
AcDbLine
 10
271.745628807
 20
218.5624557961
 30
0.0
 11
140.6466688203
 21
218.5624557961
 31
0.0
  0
LINE
  5
19A
330
194
100
AcDbEntity
  8
DIM
100
AcDbLine
 10
271.745628807
 20
121.0624557961
 30
0.0
 11
140.6466688203
 21
121.0624557961
 31
0.0
  0
LINE
  5
19B
330
194
100
AcDbEntity
  8
DIM
100
AcDbLine
 10
142.1466688203
 20
218.5624557961
 30
0.0
 11
142.1466688203
 21
121.0624557961
 31
0.0
  0
MTEXT
  5
19C
330
194
100
AcDbEntity
  8
DIM
100
AcDbMText
 10
136.5190821196
 20
159.7591892578
 30
0.0
 40
4.365625
 41
0.0
 71
     1
 72
     1
  1
%%c
  7
SLDTEXTSTYLE0
 11
-7.044195017643634E-15
 21
1.0
 31
0.0
 73
     1
 44
1.0
  0
MTEXT
  5
19D
330
194
100
AcDbEntity
  8
DIM
100
AcDbMText
 10
136.5190821196
 20
166.5101431072
 30
0.0
 40
4.365625
 41
0.0
 71
     1
 72
     1
  1
97.50
  7
SLDTEXTSTYLE0
 11
-7.044195017643634E-15
 21
1.0
 31
0.0
 73
     1
 44
1.0
  0
ENDBLK
  5
196
330
194
100
AcDbEntity
  8
0
100
AcDbBlockEnd
  0
BLOCK
  5
1A0
330
19F
100
AcDbEntity
  8
0
100
AcDbBlockBegin
  2
_D_3
 70
     0
 10
0.0
 20
0.0
 30
0.0
  3
_D_3
  1
_D_3
  0
SOLID
  5
1A2
330
19F
100
AcDbEntity
  8
DIM
100
AcDbTrace
 10
382.8980335428
 20
110.0932535787
 30
0.0
 11
387.8510335428
 21
109.3312535787
 31
0.0
 12
387.8510335428
 22
110.8552535787
 32
0.0
 13
387.8510335428
 23
110.8552535787
 33
0.0
  0
SOLID
  5
1A3
330
19F
100
AcDbEntity
  8
DIM
100
AcDbTrace
 10
358.8980335428
 20
110.0932535787
 30
0.0
 11
353.9450335428
 21
110.8552535787
 31
0.0
 12
353.9450335428
 22
109.3312535787
 32
0.0
 13
353.9450335428
 23
109.3312535787
 33
0.0
  0
LINE
  5
1A4
330
19F
100
AcDbEntity
  8
DIM
100
AcDbLine
 10
382.8980335428
 20
153.1624557961
 30
0.0
 11
382.8980335428
 21
108.5932535787
 31
0.0
  0
LINE
  5
1A5
330
19F
100
AcDbEntity
  8
DIM
100
AcDbLine
 10
358.8980335428
 20
133.3124557961
 30
0.0
 11
358.8980335428
 21
108.5932535787
 31
0.0
  0
LINE
  5
1A6
330
19F
100
AcDbEntity
  8
DIM
100
AcDbLine
 10
382.8980335428
 20
110.0932535787
 30
0.0
 11
392.4230335428
 21
110.0932535787
 31
0.0
  0
LINE
  5
1A7
330
19F
100
AcDbEntity
  8
DIM
100
AcDbLine
 10
382.8980335428
 20
110.0932535787
 30
0.0
 11
358.8980335428
 21
110.0932535787
 31
0.0
  0
LINE
  5
1A8
330
19F
100
AcDbEntity
  8
DIM
100
AcDbLine
 10
358.8980335428
 20
110.0932535787
 30
0.0
 11
349.3730335428
 21
110.0932535787
 31
0.0
  0
MTEXT
  5
1A9
330
19F
100
AcDbEntity
  8
DIM
100
AcDbMText
 10
367.9471943102
 20
115.7208402794
 30
0.0
 40
4.365625
 41
0.0
 71
     1
 72
     1
  1
24
  7
SLDTEXTSTYLE0
 73
     1
 44
1.0
  0
ENDBLK
  5
1A1
330
19F
100
AcDbEntity
  8
0
100
AcDbBlockEnd
  0
BLOCK
  5
1AC
330
1AB
100
AcDbEntity
  8
0
100
AcDbBlockBegin
  2
_D_4
 70
     0
 10
0.0
 20
0.0
 30
0.0
  3
_D_4
  1
_D_4
  0
SOLID
  5
1AE
330
1AB
100
AcDbEntity
  8
DIM
100
AcDbTrace
 10
258.8980335428
 20
110.0932535787
 30
0.0
 11
263.8510335428
 21
109.3312535787
 31
0.0
 12
263.8510335428
 22
110.8552535787
 32
0.0
 13
263.8510335428
 23
110.8552535787
 33
0.0
  0
SOLID
  5
1AF
330
1AB
100
AcDbEntity
  8
DIM
100
AcDbTrace
 10
358.8980335428
 20
110.0932535787
 30
0.0
 11
353.9450335428
 21
110.8552535787
 31
0.0
 12
353.9450335428
 22
109.3312535787
 32
0.0
 13
353.9450335428
 23
109.3312535787
 33
0.0
  0
LINE
  5
1B0
330
1AB
100
AcDbEntity
  8
DIM
100
AcDbLine
 10
258.8980335428
 20
133.3874557961
 30
0.0
 11
258.8980335428
 21
108.5932535787
 31
0.0
  0
LINE
  5
1B1
330
1AB
100
AcDbEntity
  8
DIM
100
AcDbLine
 10
358.8980335428
 20
130.3124557961
 30
0.0
 11
358.8980335428
 21
108.5932535787
 31
0.0
  0
LINE
  5
1B2
330
1AB
100
AcDbEntity
  8
DIM
100
AcDbLine
 10
258.8980335428
 20
110.0932535787
 30
0.0
 11
358.8980335428
 21
110.0932535787
 31
0.0
  0
MTEXT
  5
1B3
330
1AB
100
AcDbEntity
  8
DIM
100
AcDbMText
 10
304.4717746938
 20
115.7208402794
 30
0.0
 40
4.365625
 41
0.0
 71
     1
 72
     1
  1
100
  7
SLDTEXTSTYLE0
 73
     1
 44
1.0
  0
ENDBLK
  5
1AD
330
1AB
100
AcDbEntity
  8
0
100
AcDbBlockEnd
  0
BLOCK
  5
1B6
330
1B5
100
AcDbEntity
  8
0
100
AcDbBlockBegin
  2
_D_5
 70
     0
 10
0.0
 20
0.0
 30
0.0
  3
_D_5
  1
_D_5
  0
SOLID
  5
1B8
330
1B5
100
AcDbEntity
  8
DIM
100
AcDbTrace
 10
157.1480335428
 20
100.6649603937
 30
0.0
 11
162.1010335428
 21
99.9029603937
 31
0.0
 12
162.1010335428
 22
101.4269603937
 32
0.0
 13
162.1010335428
 23
101.4269603937
 33
0.0
  0
SOLID
  5
1B9
330
1B5
100
AcDbEntity
  8
DIM
100
AcDbTrace
 10
395.8980335428
 20
100.6649603937
 30
0.0
 11
390.9450335428
 21
101.4269603937
 31
0.0
 12
390.9450335428
 22
99.9029603937
 32
0.0
 13
390.9450335428
 23
99.9029603937
 33
0.0
  0
LINE
  5
1BA
330
1B5
100
AcDbEntity
  8
DIM
100
AcDbLine
 10
157.1480335428
 20
168.3124557961
 30
0.0
 11
157.1480335428
 21
99.1649603937
 31
0.0
  0
LINE
  5
1BB
330
1B5
100
AcDbEntity
  8
DIM
100
AcDbLine
 10
395.8980335428
 20
148.3124557961
 30
0.0
 11
395.8980335428
 21
99.1649603937
 31
0.0
  0
LINE
  5
1BC
330
1B5
100
AcDbEntity
  8
DIM
100
AcDbLine
 10
157.1480335428
 20
100.6649603937
 30
0.0
 11
395.8980335428
 21
100.6649603937
 31
0.0
  0
MTEXT
  5
1BD
330
1B5
100
AcDbEntity
  8
DIM
100
AcDbMText
 10
268.3698243129
 20
106.2925470944
 30
0.0
 40
4.365625
 41
0.0
 71
     1
 72
     1
  1
238.75
  7
SLDTEXTSTYLE0
 73
     1
 44
1.0
  0
ENDBLK
  5
1B7
330
1B5
100
AcDbEntity
  8
0
100
AcDbBlockEnd
  0
ENDSEC
  0
SECTION
  2
ENTITIES
  0
LINE
  5
76
330
1F
100
AcDbEntity
  8
DIM
100
AcDbLine
 10
157.0566370335
 20
14.6864871853
 30
0.0
 11
157.0566370335
 21
7.1864871853
 31
0.0
  0
LINE
  5
77
330
1F
100
AcDbEntity
  8
DIM
100
AcDbLine
 10
381.7044025429
 20
14.6864871853
 30
0.0
 11
381.7044025429
 21
7.1864871853
 31
0.0
  0
LINE
  5
78
330
1F
100
AcDbEntity
  8
DIM
100
AcDbLine
 10
356.1775648974
 20
14.6864871853
 30
0.0
 11
356.1775648974
 21
7.1864871853
 31
0.0
  0
LINE
  5
79
330
1F
100
AcDbEntity
  8
DIM
100
AcDbLine
 10
418.3566370335
 20
7.1864871853
 30
0.0
 11
418.3566370335
 21
14.6864871853
 31
0.0
  0
LINE
  5
7A
330
1F
100
AcDbEntity
  8
DIM
100
AcDbLine
 10
168.7566370335
 20
14.6864871853
 30
0.0
 11
168.7566370335
 21
7.1864871853
 31
0.0
  0
LINE
  5
7B
330
1F
100
AcDbEntity
  8
DIM
100
AcDbLine
 10
197.5430656842
 20
14.6864871853
 30
0.0
 11
197.5430656842
 21
7.1864871853
 31
0.0
  0
LINE
  5
7C
330
1F
100
AcDbEntity
  8
DIM
100
AcDbLine
 10
437.8566370335
 20
7.1864871853
 30
0.0
 11
437.8566370335
 21
115.5614871853
 31
0.0
  0
LINE
  5
7D
330
1F
100
AcDbEntity
  8
DIM
100
AcDbLine
 10
428.728507042
 20
90.0614871853
 30
0.0
 11
437.8566370335
 21
90.0614871853
 31
0.0
  0
LINE
  5
7E
330
1F
100
AcDbEntity
  8
DIM
100
AcDbLine
 10
223.6550262788
 20
13.5614871853
 30
0.0
 11
223.6550262788
 21
7.1864871853
 31
0.0
  0
LINE
  5
7F
330
1F
100
AcDbEntity
  8
DIM
100
AcDbLine
 10
295.1459237406
 20
14.6864871853
 30
0.0
 11
295.1459237406
 21
7.1864871853
 31
0.0
  0
LINE
  5
80
330
1F
100
AcDbEntity
  8
DIM
100
AcDbLine
 10
223.6550262788
 20
14.6864871853
 30
0.0
 11
223.6550262788
 21
13.5614871853
 31
0.0
  0
LINE
  5
81
330
1F
100
AcDbEntity
  8
DIM
100
AcDbLine
 10
430.3566370335
 20
26.3113791853
 30
0.0
 11
437.8566370335
 21
26.3113791853
 31
0.0
  0
LINE
  5
82
330
1F
100
AcDbEntity
  8
DIM
100
AcDbLine
 10
430.3566370335
 20
299.6864871853
 30
0.0
 11
14.8566370335
 21
299.6864871853
 31
0.0
  0
LINE
  5
83
330
1F
100
AcDbEntity
  8
DIM
100
AcDbLine
 10
437.8566370335
 20
307.1864871853
 30
0.0
 11
7.3566370335
 21
307.1864871853
 31
0.0
  0
LINE
  5
84
330
1F
100
AcDbEntity
  8
DIM
100
AcDbLine
 10
14.8566370335
 20
299.6864871853
 30
0.0
 11
14.8566370335
 21
14.6864871853
 31
0.0
  0
LINE
  5
85
330
1F
100
AcDbEntity
  8
DIM
100
AcDbLine
 10
7.3566370335
 20
307.1864871853
 30
0.0
 11
7.3566370335
 21
7.1864871853
 31
0.0
  0
LINE
  5
86
330
1F
100
AcDbEntity
  8
DIM
100
AcDbLine
 10
14.8566370335
 20
82.1864871853
 30
0.0
 11
7.3566370335
 21
82.1864871853
 31
0.0
  0
LINE
  5
87
330
1F
100
AcDbEntity
  8
DIM
100
AcDbLine
 10
7.3566370335
 20
157.1864871853
 30
0.0
 11
14.8566370335
 21
157.1864871853
 31
0.0
  0
LINE
  5
88
330
1F
100
AcDbEntity
  8
DIM
100
AcDbLine
 10
7.3566370335
 20
7.1864871853
 30
0.0
 11
437.8566370335
 21
7.1864871853
 31
0.0
  0
LINE
  5
89
330
1F
100
AcDbEntity
  8
DIM
100
AcDbLine
 10
14.8566370335
 20
14.6864871853
 30
0.0
 11
437.8566370335
 21
14.6864871853
 31
0.0
  0
LINE
  5
8A
330
1F
100
AcDbEntity
  8
DIM
100
AcDbLine
 10
72.6066370335
 20
7.1864871853
 30
0.0
 11
72.6066370335
 21
14.6864871853
 31
0.0
  0
LINE
  5
8B
330
1F
100
AcDbEntity
  8
DIM
100
AcDbLine
 10
147.6066370335
 20
14.6864871853
 30
0.0
 11
147.6066370335
 21
7.1864871853
 31
0.0
  0
LINE
  5
8C
330
1F
100
AcDbEntity
  8
DIM
100
AcDbLine
 10
14.8566370335
 20
232.1864871853
 30
0.0
 11
7.3566370335
 21
232.1864871853
 31
0.0
  0
LINE
  5
8D
330
1F
100
AcDbEntity
  8
DIM
100
AcDbLine
 10
72.6066370335
 20
299.6864871853
 30
0.0
 11
72.6066370335
 21
307.1864871853
 31
0.0
  0
LINE
  5
8E
330
1F
100
AcDbEntity
  8
DIM
100
AcDbLine
 10
147.6066370335
 20
307.1864871853
 30
0.0
 11
147.6066370335
 21
299.6864871853
 31
0.0
  0
LINE
  5
8F
330
1F
100
AcDbEntity
  8
DIM
100
AcDbLine
 10
222.6066370335
 20
307.1864871853
 30
0.0
 11
222.6066370335
 21
299.6864871853
 31
0.0
  0
LINE
  5
90
330
1F
100
AcDbEntity
  8
DIM
100
AcDbLine
 10
430.3566370335
 20
14.6864871853
 30
0.0
 11
430.3566370335
 21
299.6864871853
 31
0.0
  0
LINE
  5
91
330
1F
100
AcDbEntity
  8
DIM
100
AcDbLine
 10
437.8566370335
 20
115.5614871853
 30
0.0
 11
437.8566370335
 21
307.1864871853
 31
0.0
  0
LINE
  5
92
330
1F
100
AcDbEntity
  8
DIM
100
AcDbLine
 10
437.8566370335
 20
157.1864871853
 30
0.0
 11
430.3566370335
 21
157.1864871853
 31
0.0
  0
LINE
  5
93
330
1F
100
AcDbEntity
  8
DIM
100
AcDbLine
 10
297.6066370335
 20
307.1864871853
 30
0.0
 11
297.6066370335
 21
299.6864871853
 31
0.0
  0
LINE
  5
94
330
1F
100
AcDbEntity
  8
DIM
100
AcDbLine
 10
372.6066370335
 20
299.6864871853
 30
0.0
 11
372.6066370335
 21
307.1864871853
 31
0.0
  0
LINE
  5
95
330
1F
100
AcDbEntity
  8
DIM
100
AcDbLine
 10
430.3566370335
 20
232.1864871853
 30
0.0
 11
437.8566370335
 21
232.1864871853
 31
0.0
  0
MTEXT
  5
97
330
1F
100
AcDbEntity
  8
DIM
100
AcDbMText
 10
24.1945055567
 20
290.8020739489
 30
0.0
 40
6.35
 41
0.0
 71
     1
 72
     1
  1
SK 50 FMH-K32 100 AD+B/6.3G15000 SL SP.S
  7
SLDTEXTSTYLE0
 73
     1
 44
1.0
  0
MTEXT
  5
99
330
1F
100
AcDbEntity
  8
DIM
 62
     7
100
AcDbMText
 10
296.59916797
 20
11.7029272894
 30
0.0
 40
2.2479
 41
0.0
 71
     1
 72
     1
  1
WEIGHT:
  7
SLDTEXTSTYLE1
 73
     1
 44
1.0
  0
MTEXT
  5
9A
330
1F
100
AcDbEntity
  8
DIM
 62
     7
100
AcDbMText
 10
432.8956151322
 20
122.9109202624
 30
0.0
 40
2.778125
 41
0.0
 71
     1
 72
     1
  1
C
  7
SLDTEXTSTYLE1
 73
     1
 44
1.0
  0
MTEXT
  5
9B
330
1F
100
AcDbEntity
  8
DIM
 62
     7
100
AcDbMText
 10
424.5653709292
 20
22.2809729754
 30
0.0
 40
4.365625
 41
0.0
 71
     1
 72
     1
  1
A4
  7
SLDTEXTSTYLE1
 73
     1
 44
1.0
  0
MTEXT
  5
9C
330
1F
100
AcDbEntity
  8
DIM
 62
     7
100
AcDbMText
 10
408.8566430335
 20
305.1885117906
 30
0.0
 40
2.778125
 41
0.0
 71
     1
 72
     1
  1
6
  7
SLDTEXTSTYLE1
 73
     1
 44
1.0
  0
MTEXT
  5
9D
330
1F
100
AcDbEntity
  8
DIM
 62
     7
100
AcDbMText
 10
333.8566430335
 20
305.1885117906
 30
0.0
 40
2.778125
 41
0.0
 71
     1
 72
     1
  1
5
  7
SLDTEXTSTYLE1
 73
     1
 44
1.0
  0
MTEXT
  5
9E
330
1F
100
AcDbEntity
  8
DIM
 62
     7
100
AcDbMText
 10
432.8566490335
 20
271.4385117906
 30
0.0
 40
2.778125
 41
0.0
 71
     1
 72
     1
  1
A
  7
SLDTEXTSTYLE1
 73
     1
 44
1.0
  0
MTEXT
  5
9F
330
1F
100
AcDbEntity
  8
DIM
 62
     7
100
AcDbMText
 10
432.8566490335
 20
196.4385117906
 30
0.0
 40
2.778125
 41
0.0
 71
     1
 72
     1
  1
B
  7
SLDTEXTSTYLE1
 73
     1
 44
1.0
  0
MTEXT
  5
A0
330
1F
100
AcDbEntity
  8
DIM
 62
     7
100
AcDbMText
 10
258.8566430335
 20
305.1885117906
 30
0.0
 40
2.778125
 41
0.0
 71
     1
 72
     1
  1
4
  7
SLDTEXTSTYLE1
 73
     1
 44
1.0
  0
MTEXT
  5
A1
330
1F
100
AcDbEntity
  8
DIM
 62
     7
100
AcDbMText
 10
34.4816430335
 20
305.1885117906
 30
0.0
 40
2.778125
 41
0.0
 71
     1
 72
     1
  1
1
  7
SLDTEXTSTYLE1
 73
     1
 44
1.0
  0
MTEXT
  5
A2
330
1F
100
AcDbEntity
  8
DIM
 62
     7
100
AcDbMText
 10
108.8566430335
 20
305.1885117906
 30
0.0
 40
2.778125
 41
0.0
 71
     1
 72
     1
  1
2
  7
SLDTEXTSTYLE1
 73
     1
 44
1.0
  0
MTEXT
  5
A3
330
1F
100
AcDbEntity
  8
DIM
 62
     7
100
AcDbMText
 10
183.8566430335
 20
305.1885117906
 30
0.0
 40
2.778125
 41
0.0
 71
     1
 72
     1
  1
3
  7
SLDTEXTSTYLE1
 73
     1
 44
1.0
  0
MTEXT
  5
A4
330
1F
100
AcDbEntity
  8
DIM
 62
     7
100
AcDbMText
 10
9.8566370335
 20
271.4385117906
 30
0.0
 40
2.778125
 41
0.0
 71
     1
 72
     1
  1
A
  7
SLDTEXTSTYLE1
 73
     1
 44
1.0
  0
MTEXT
  5
A5
330
1F
100
AcDbEntity
  8
DIM
 62
     7
100
AcDbMText
 10
108.8566430335
 20
12.6885117906
 30
0.0
 40
2.778125
 41
0.0
 71
     1
 72
     1
  1
2
  7
SLDTEXTSTYLE1
 73
     1
 44
1.0
  0
MTEXT
  5
A6
330
1F
100
AcDbEntity
  8
DIM
 62
     7
100
AcDbMText
 10
34.4816430335
 20
12.6885117906
 30
0.0
 40
2.778125
 41
0.0
 71
     1
 72
     1
  1
1
  7
SLDTEXTSTYLE1
 73
     1
 44
1.0
  0
MTEXT
  5
A7
330
1F
100
AcDbEntity
  8
DIM
 62
     7
100
AcDbMText
 10
9.8566370335
 20
46.4385117906
 30
0.0
 40
2.778125
 41
0.0
 71
     1
 72
     1
  1
D
  7
SLDTEXTSTYLE1
 73
     1
 44
1.0
  0
MTEXT
  5
A8
330
1F
100
AcDbEntity
  8
DIM
 62
     7
100
AcDbMText
 10
9.8566370335
 20
121.4385117906
 30
0.0
 40
2.778125
 41
0.0
 71
     1
 72
     1
  1
C
  7
SLDTEXTSTYLE1
 73
     1
 44
1.0
  0
MTEXT
  5
A9
330
1F
100
AcDbEntity
  8
DIM
 62
     7
100
AcDbMText
 10
9.8566370335
 20
196.4385117906
 30
0.0
 40
2.778125
 41
0.0
 71
     1
 72
     1
  1
B
  7
SLDTEXTSTYLE1
 73
     1
 44
1.0
  0
MTEXT
  5
AA
330
1F
100
AcDbEntity
  8
DIM
 62
     7
100
AcDbMText
 10
432.8956151322
 20
122.9109202624
 30
0.0
 40
2.778125
 41
0.0
 71
     1
 72
     1
  1
C
  7
SLDTEXTSTYLE1
 73
     1
 44
1.0
  0
MTEXT
  5
AC
330
1F
100
AcDbEntity
  8
DIM
 62
     7
100
AcDbMText
 10
384.7880487188
 20
11.5366180971
 30
0.0
 40
2.25
 41
0.0
 71
     1
 72
     1
  1
SHEET 1 OF 1
  7
SLDTEXTSTYLE2
 73
     1
 44
1.0
  0
MTEXT
  5
AD
330
1F
100
AcDbEntity
  8
DIM
 62
     7
100
AcDbMText
 10
225.5576705752
 20
11.7800512255
 30
0.0
 40
2.25
 41
0.0
 71
     1
 72
     1
  1
MATERIAL:
  7
SLDTEXTSTYLE1
 73
     1
 44
1.0
  0
MTEXT
  5
AE
330
1F
100
AcDbEntity
  8
DIM
 62
     7
100
AcDbMText
 10
408.8566430335
 20
305.1885117906
 30
0.0
 40
2.778125
 41
0.0
 71
     1
 72
     1
  1
6
  7
SLDTEXTSTYLE1
 73
     1
 44
1.0
  0
MTEXT
  5
AF
330
1F
100
AcDbEntity
  8
DIM
 62
     7
100
AcDbMText
 10
333.8566430335
 20
305.1885117906
 30
0.0
 40
2.778125
 41
0.0
 71
     1
 72
     1
  1
5
  7
SLDTEXTSTYLE1
 73
     1
 44
1.0
  0
MTEXT
  5
B0
330
1F
100
AcDbEntity
  8
DIM
 62
     7
100
AcDbMText
 10
432.8566490335
 20
271.4385117906
 30
0.0
 40
2.778125
 41
0.0
 71
     1
 72
     1
  1
A
  7
SLDTEXTSTYLE1
 73
     1
 44
1.0
  0
MTEXT
  5
B1
330
1F
100
AcDbEntity
  8
DIM
 62
     7
100
AcDbMText
 10
432.8566490335
 20
196.4385117906
 30
0.0
 40
2.778125
 41
0.0
 71
     1
 72
     1
  1
B
  7
SLDTEXTSTYLE1
 73
     1
 44
1.0
  0
MTEXT
  5
B2
330
1F
100
AcDbEntity
  8
DIM
 62
     7
100
AcDbMText
 10
258.8566430335
 20
305.1885117906
 30
0.0
 40
2.778125
 41
0.0
 71
     1
 72
     1
  1
4
  7
SLDTEXTSTYLE1
 73
     1
 44
1.0
  0
MTEXT
  5
B3
330
1F
100
AcDbEntity
  8
DIM
 62
     7
100
AcDbMText
 10
34.4816430335
 20
305.1885117906
 30
0.0
 40
2.778125
 41
0.0
 71
     1
 72
     1
  1
1
  7
SLDTEXTSTYLE1
 73
     1
 44
1.0
  0
MTEXT
  5
B4
330
1F
100
AcDbEntity
  8
DIM
 62
     7
100
AcDbMText
 10
108.8566430335
 20
305.1885117906
 30
0.0
 40
2.778125
 41
0.0
 71
     1
 72
     1
  1
2
  7
SLDTEXTSTYLE1
 73
     1
 44
1.0
  0
MTEXT
  5
B5
330
1F
100
AcDbEntity
  8
DIM
 62
     7
100
AcDbMText
 10
183.8566430335
 20
305.1885117906
 30
0.0
 40
2.778125
 41
0.0
 71
     1
 72
     1
  1
3
  7
SLDTEXTSTYLE1
 73
     1
 44
1.0
  0
MTEXT
  5
B6
330
1F
100
AcDbEntity
  8
DIM
 62
     7
100
AcDbMText
 10
9.8566370335
 20
271.4385117906
 30
0.0
 40
2.778125
 41
0.0
 71
     1
 72
     1
  1
A
  7
SLDTEXTSTYLE1
 73
     1
 44
1.0
  0
MTEXT
  5
B7
330
1F
100
AcDbEntity
  8
DIM
 62
     7
100
AcDbMText
 10
108.8566430335
 20
12.6885117906
 30
0.0
 40
2.778125
 41
0.0
 71
     1
 72
     1
  1
2
  7
SLDTEXTSTYLE1
 73
     1
 44
1.0
  0
MTEXT
  5
B8
330
1F
100
AcDbEntity
  8
DIM
 62
     7
100
AcDbMText
 10
34.4816430335
 20
12.6885117906
 30
0.0
 40
2.778125
 41
0.0
 71
     1
 72
     1
  1
1
  7
SLDTEXTSTYLE1
 73
     1
 44
1.0
  0
MTEXT
  5
B9
330
1F
100
AcDbEntity
  8
DIM
 62
     7
100
AcDbMText
 10
9.8566370335
 20
46.4385117906
 30
0.0
 40
2.778125
 41
0.0
 71
     1
 72
     1
  1
D
  7
SLDTEXTSTYLE1
 73
     1
 44
1.0
  0
MTEXT
  5
BA
330
1F
100
AcDbEntity
  8
DIM
 62
     7
100
AcDbMText
 10
9.8566370335
 20
121.4385117906
 30
0.0
 40
2.778125
 41
0.0
 71
     1
 72
     1
  1
C
  7
SLDTEXTSTYLE1
 73
     1
 44
1.0
  0
MTEXT
  5
BB
330
1F
100
AcDbEntity
  8
DIM
 62
     7
100
AcDbMText
 10
9.8566370335
 20
196.4385117906
 30
0.0
 40
2.778125
 41
0.0
 71
     1
 72
     1
  1
B
  7
SLDTEXTSTYLE1
 73
     1
 44
1.0
  0
SPLINE
  5
BC
330
1F
100
AcDbEntity
  8
0
  6
Continuous
 62
     7
370
    15
100
AcDbSpline
210
0.0
220
0.0
230
1.0
 70
     8
 71
     3
 72
    14
 73
    10
 74
     0
 42
0.000000001
 43
0.00000001
 40
0.0
 40
0.0
 40
0.0
 40
0.0
 40
0.25
 40
0.25
 40
0.5
 40
0.5
 40
0.75
 40
0.75
 40
1.0
 40
1.0
 40
1.0
 40
1.0
 10
91.98891260613988
 20
169.8124557960771
 30
0.0
 10
91.98891260613988
 20
164.7147214193027
 30
0.0
 10
89.96368618007092
 20
159.8253923146106
 30
0.0
 10
82.75440108706096
 20
152.6161072216007
 30
0.0
 10
77.86507198236893
 20
150.5908807955317
 30
0.0
 10
67.66960322882004
 20
150.5908807955317
 30
0.0
 10
62.780274124128
 20
152.6161072216007
 30
0.0
 10
55.57098903111803
 20
159.8253923146106
 30
0.0
 10
53.54576260504908
 20
164.7147214193027
 30
0.0
 10
53.54576260504907
 20
169.8124557960771
 30
0.0
  0
SPLINE
  5
BD
330
1F
100
AcDbEntity
  8
0
  6
Continuous
 62
     7
370
    15
100
AcDbSpline
210
0.0
220
0.0
230
1.0
 70
     8
 71
     3
 72
    14
 73
    10
 74
     0
 42
0.000000001
 43
0.00000001
 40
0.0
 40
0.0
 40
0.0
 40
0.0
 40
0.25
 40
0.25
 40
0.5
 40
0.5
 40
0.75
 40
0.75
 40
1.0
 40
1.0
 40
1.0
 40
1.0
 10
53.54576260504908
 20
169.8124557960771
 30
0.0
 10
53.54576260504908
 20
174.9101901728516
 30
0.0
 10
55.57098903111802
 20
179.7995192775436
 30
0.0
 10
62.780274124128
 20
187.0088043705536
 30
0.0
 10
67.66960322882004
 20
189.0340307966225
 30
0.0
 10
77.86507198236892
 20
189.0340307966225
 30
0.0
 10
82.75440108706096
 20
187.0088043705536
 30
0.0
 10
89.96368618007092
 20
179.7995192775436
 30
0.0
 10
91.98891260613988
 20
174.9101901728516
 30
0.0
 10
91.98891260613988
 20
169.8124557960771
 30
0.0
  0
CIRCLE
  5
BE
330
1F
100
AcDbEntity
  8
0
  6
Continuous
 62
     7
370
    15
100
AcDbCircle
 10
72.7673376056
 20
169.8124557961
 30
0.0
 40
20.21110778703758
  0
CIRCLE
  5
BF
330
1F
100
AcDbEntity
  8
0
  6
Continuous
 62
     7
370
    15
100
AcDbCircle
 10
72.7673376056
 20
169.8124557961
 30
0.0
 40
34.92500000000001
  0
SPLINE
  5
C0
330
1F
100
AcDbEntity
  8
0
  6
Continuous
 62
     7
370
    15
100
AcDbSpline
210
0.0
220
0.0
230
1.0
 70
     8
 71
     3
 72
    52
 73
    48
 74
     0
 42
0.000000001
 43
0.00000001
 40
0.0
 40
0.0
 40
0.0
 40
0.0
 40
0.0053074994726554
 40
0.0106084744807156
 40
0.0159043870752884
 40
0.0211967035030982
 40
0.0264868930010475
 40
0.031776426578386
 40
0.0370667757915106
 40
0.0423594115164833
 40
0.0476558027243854
 40
0.0529574152645906
 40
0.0582657106609693
 40
0.0891348494758177
 40
0.1200087595578935
 40
0.1521645941108524
 40
0.1843252192282218
 40
0.2171652710885947
 40
0.2500102154523581
 40
0.2828502674523063
 40
0.3156952119562962
 40
0.3478510468948057
 40
0.380011672397905
 40
0.4108808109142898
 40
0.4417547207534483
 40
0.470875333637603
 40
0.5000007798720159
 40
0.5291213927975412
 40
0.5582468390472084
 40
0.5891159778617261
 40
0.6199898879441322
 40
0.652145722497098
 40
0.6843063476144644
 40
0.7171463994755694
 40
0.7499913438386044
 40
0.7828313958395676
 40
0.8156763403425417
 40
0.8478321752819549
 40
0.8799928007841501
 40
0.9108619393016738
 40
0.941735849139696
 40
0.9514609652020397
 40
0.9611682412334405
 40
0.9708667191333772
 40
0.9805654654081966
 40
0.9902735458123287
 40
1.0
 40
1.0
 40
1.0
 40
1.0
 10
37.76733760559448
 20
169.8124557960771
 30
0.0
 10
37.76826563650493
 20
170.0069179541301
 30
0.0
 10
37.77012055750524
 20
170.3956032195357
 30
0.0
 10
37.78514959185686
 20
170.9781661895572
 30
0.0
 10
37.80914822089125
 20
171.5598520769266
 30
0.0
 10
37.84299252497436
 20
172.1406607717437
 30
0.0
 10
37.88644806670796
 20
172.720592120163
 30
0.0
 10
37.93957762777401
 20
173.2996460405876
 30
0.0
 10
38.0023642974962
 20
173.8778222047243
 30
0.0
 10
38.07481289001278
 20
174.4551212020926
 30
0.0
 10
38.15692092750579
 20
175.0315402022402
 30
0.0
 10
38.24869332949945
 20
175.6070891638183
 30
0.0
 10
38.51283283113285
 20
177.103701767332
 30
0.0
 10
39.07660058403825
 20
179.4994086285001
 30
0.0
 10
40.18921776437698
 20
182.7602797345525
 30
0.0
 10
41.63638397991758
 20
185.9401686168463
 30
0.0
 10
43.43555960932429
 20
189.018667548602
 30
0.0
 10
45.55198018488463
 20
191.9201274566389
 30
0.0
 10
47.97486537839976
 20
194.6046744326328
 30
0.0
 10
50.65952585701822
 20
197.0276996075793
 30
0.0
 10
53.56082599657851
 20
199.1440388436563
 30
0.0
 10
56.63947909460551
 20
200.9433310357753
 30
0.0
 10
59.81914252861383
 20
202.3904391689827
 30
0.0
 10
63.08037882662016
 20
203.5031689859876
 30
0.0
 10
66.32612312535416
 20
204.2670564713838
 30
0.0
 10
69.56498924351008
 20
204.7153344713942
 30
0.0
 10
72.76716063343994
 20
204.8610123362344
 30
0.0
 10
75.96950810408622
 20
204.7153509587859
 30
0.0
 10
79.20820636380013
 20
204.2671207663248
 30
0.0
 10
82.45412697337318
 20
203.5032187072021
 30
0.0
 10
85.71520737393261
 20
202.3905683778434
 30
0.0
 10
88.8950379423877
 20
200.943411402788
 30
0.0
 10
91.97355278259772
 20
199.1442332355589
 30
0.0
 10
94.8750083387243
 20
197.0278134187113
 30
0.0
 10
97.5595564967338
 20
194.604927777601
 30
0.0
 10
99.98258132631659
 20
191.9202683251155
 30
0.0
 10
102.0989207604816
 20
189.0189645537626
 30
0.0
 10
103.8982125131197
 20
185.9403246911806
 30
0.0
 10
105.3453221824793
 20
182.7606127457568
 30
0.0
 10
106.4580465061425
 20
179.4995505360815
 30
0.0
 10
107.0588924381853
 20
176.9461364507273
 30
0.0
 10
107.3668325177045
 20
175.1287167451256
 30
0.0
 10
107.512971628627
 20
174.0712700068971
 30
0.0
 10
107.6267776558881
 20
173.0108327535223
 30
0.0
 10
107.7074729766947
 20
171.9473787793701
 30
0.0
 10
107.7579945121104
 20
170.8809184106357
 30
0.0
 10
107.764221278798
 20
170.16883440691
 30
0.0
 10
107.7673376055945
 20
169.8124557960771
 30
0.0
  0
SPLINE
  5
C1
330
1F
100
AcDbEntity
  8
0
  6
Continuous
 62
     7
370
    15
100
AcDbSpline
210
0.0
220
0.0
230
1.0
 70
     8
 71
     3
 72
    52
 73
    48
 74
     0
 42
0.000000001
 43
0.00000001
 40
0.0
 40
0.0
 40
0.0
 40
0.0
 40
0.0053074994726554
 40
0.0106084744807156
 40
0.0159043870752884
 40
0.0211967035030983
 40
0.0264868930010475
 40
0.0317764265783861
 40
0.0370667757915106
 40
0.0423594115164834
 40
0.0476558027243854
 40
0.0529574152645907
 40
0.0582657106609694
 40
0.0891348494759667
 40
0.1200087595578951
 40
0.1521645941111445
 40
0.1843252192282232
 40
0.2171652710889209
 40
0.25001021545236
 40
0.2828502674525652
 40
0.315695211956297
 40
0.3478510468951538
 40
0.3800116723979077
 40
0.41088081091547
 40
0.4417547207534571
 40
0.4708753336379863
 40
0.5000007798720127
 40
0.5291213927971703
 40
0.5582468390472111
 40
0.5891159778626601
 40
0.6199898879441411
 40
0.6521457224976949
 40
0.6843063476144631
 40
0.7171463994753853
 40
0.7499913438386053
 40
0.7828313958393156
 40
0.8156763403425399
 40
0.8478321752809374
 40
0.8799928007841432
 40
0.9108619393011222
 40
0.9417358491396983
 40
0.9514609652021586
 40
0.9611682412336295
 40
0.9708667191335897
 40
0.9805654654083855
 40
0.9902735458124469
 40
1.0
 40
1.0
 40
1.0
 40
1.0
 10
107.7673376055945
 20
169.8124557960771
 30
0.0
 10
107.766409574684
 20
169.6179936380242
 30
0.0
 10
107.7645546536837
 20
169.2293083726185
 30
0.0
 10
107.7495256193321
 20
168.646745402597
 30
0.0
 10
107.7255269902977
 20
168.0650595152276
 30
0.0
 10
107.6916826862146
 20
167.4842508204105
 30
0.0
 10
107.648227144481
 20
166.9043194719913
 30
0.0
 10
107.595097583415
 20
166.3252655515666
 30
0.0
 10
107.5323109136928
 20
165.74708938743
 30
0.0
 10
107.4598623211762
 20
165.1697903900616
 30
0.0
 10
107.3777542836832
 20
164.593371389914
 30
0.0
 10
107.2859818816895
 20
164.0178224283359
 30
0.0
 10
107.0218423800551
 20
162.5212098248169
 30
0.0
 10
106.4580746271519
 20
160.1255029636481
 30
0.0
 10
105.3454574468055
 20
156.8646318575869
 30
0.0
 10
103.8982912312665
 20
153.6847429752983
 30
0.0
 10
102.0991156018522
 20
150.6062440435335
 30
0.0
 10
99.98269502629726
 20
147.7047841355056
 30
0.0
 10
97.55980983277422
 20
145.0202371595063
 30
0.0
 10
94.87514935416219
 20
142.5972119845702
 30
0.0
 10
91.97384921459174
 20
140.4808727484863
 30
0.0
 10
88.89519611657396
 20
138.681580556369
 30
0.0
 10
85.71553268252255
 20
137.234472423153
 30
0.0
 10
82.45429638453017
 20
136.121742606145
 30
0.0
 10
79.20855208577899
 20
135.3578551207575
 30
0.0
 10
75.96968596766273
 20
134.9095771207819
 30
0.0
 10
72.76751457774894
 20
134.763899255918
 30
0.0
 10
69.56516710711503
 20
134.9095606333565
 30
0.0
 10
66.32646884736934
 20
135.3577908258363
 30
0.0
 10
63.08054823777999
 20
136.1216928849508
 30
0.0
 10
59.81946783720404
 20
137.2343432143309
 30
0.0
 10
56.63963726878988
 20
138.6815001893917
 30
0.0
 10
53.56112242857741
 20
140.4806783566014
 30
0.0
 10
50.65966687246859
 20
142.5970981734372
 30
0.0
 10
47.97511871446589
 20
145.0199838145415
 30
0.0
 10
45.55209388488252
 20
147.7046432670348
 30
0.0
 10
43.43575445073095
 20
150.6059470383516
 30
0.0
 10
41.63646269809427
 20
153.6845869009447
 30
0.0
 10
40.18935302873231
 20
156.8642988463446
 30
0.0
 10
39.07662870503558
 20
160.1253610560485
 30
0.0
 10
38.47578277300507
 20
162.6787751414111
 30
0.0
 10
38.16784269348485
 20
164.49619484704
 30
0.0
 10
38.02170358256224
 20
165.5536415852763
 30
0.0
 10
37.90789755530108
 20
166.6140788386537
 30
0.0
 10
37.82720223449444
 20
167.6775328128032
 30
0.0
 10
37.77668069907863
 20
168.7439931815298
 30
0.0
 10
37.77045393239093
 20
169.4560771852485
 30
0.0
 10
37.76733760559448
 20
169.8124557960771
 30
0.0
  0
SPLINE
  5
C2
330
1F
100
AcDbEntity
  8
0
  6
Continuous
 62
     7
370
    15
100
AcDbSpline
210
0.0
220
0.0
230
1.0
 70
    24
 71
     3
 72
     8
 73
     4
 74
     0
 42
0.000000001
 43
0.00000001
 40
0.0
 40
0.0
 40
0.0
 40
0.0
 40
1.0
 40
1.0
 40
1.0
 40
1.0
 10
42.76733760559446
 20
207.1121172796442
 30
0.0
 10
42.76733760559446
 20
207.0086082354098
 30
0.0
 10
42.76733760559448
 20
206.8791846735776
 30
0.0
 10
42.76733760559448
 20
206.7484408726578
 30
0.0
  0
ARC
  5
C3
330
1F
100
AcDbEntity
  8
0
  6
Continuous
 62
     7
370
    15
100
AcDbCircle
 10
72.7673376056
 20
169.8124557961
 30
0.0
 40
47.58431457505079
100
AcDbArc
 50
129.0840578538
 51
140.9159421462
  0
SPLINE
  5
C4
330
1F
100
AcDbEntity
  8
0
  6
Continuous
 62
     7
370
    15
100
AcDbSpline
210
0.0
220
0.0
230
1.0
 70
    24
 71
     3
 72
     8
 73
     4
 74
     0
 42
0.000000001
 43
0.00000001
 40
0.0
 40
0.0
 40
0.0
 40
0.0
 40
1.0
 40
1.0
 40
1.0
 40
1.0
 10
35.83135252901382
 20
199.8124557960771
 30
0.0
 10
35.70064837940693
 20
199.8124557960771
 30
0.0
 10
35.57111141239076
 20
199.8124557960771
 30
0.0
 10
35.46767612202743
 20
199.8124557960771
 30
0.0
  0
ARC
  5
C5
330
1F
100
AcDbEntity
  8
0
  6
Continuous
 62
     7
370
    15
100
AcDbCircle
 10
72.7673376056
 20
169.8124557961
 30
0.0
 40
47.8671572875254
100
AcDbArc
 50
128.8096103904
 51
141.1903896096
  0
ARC
  5
C6
330
1F
100
AcDbEntity
  8
0
  6
Continuous
 62
     7
370
    15
100
AcDbCircle
 10
72.7673376056
 20
169.8124557961
 30
0.0
 40
47.86715728752539
100
AcDbArc
 50
163.7023380383
 51
196.2976619617
  0
SPLINE
  5
C7
330
1F
100
AcDbEntity
  8
0
  6
Continuous
 62
     7
370
    15
100
AcDbSpline
210
0.0
220
0.0
230
1.0
 70
     8
 71
     3
 72
    10
 73
     6
 74
     0
 42
0.000000001
 43
0.00000001
 40
0.0
 40
0.0
 40
0.0
 40
0.0
 40
0.5
 40
0.5
 40
1.0
 40
1.0
 40
1.0
 40
1.0
 10
26.82363854412782
 20
183.2452985085517
 30
0.0
 10
26.86717893554655
 20
183.2779315695691
 30
0.0
 10
26.91573353966431
 20
183.3059124558353
 30
0.0
 10
27.02718307542618
 20
183.3485693062103
 30
0.0
 10
27.08914132801532
 20
183.3624557960771
 30
0.0
 10
27.15303619060634
 20
183.3624557960771
 30
0.0
  0
ARC
  5
C8
330
1F
100
AcDbEntity
  8
0
  6
Continuous
 62
     7
370
    15
100
AcDbCircle
 10
72.7673376056
 20
169.8124557961
 30
0.0
 40
47.58431457505078
100
AcDbArc
 50
163.4556342686
 51
196.5443657314
  0
SPLINE
  5
C9
330
1F
100
AcDbEntity
  8
0
  6
Continuous
 62
     7
370
    15
100
AcDbSpline
210
0.0
220
0.0
230
1.0
 70
     8
 71
     3
 72
    10
 73
     6
 74
     0
 42
0.000000001
 43
0.00000001
 40
0.0
 40
0.0
 40
0.0
 40
0.0
 40
0.5
 40
0.5
 40
1.0
 40
1.0
 40
1.0
 40
1.0
 10
26.82363854412782
 20
156.3796130836025
 30
0.0
 10
26.86717893554655
 20
156.3469800225852
 30
0.0
 10
26.91573353966429
 20
156.318999136319
 30
0.0
 10
27.02718307542617
 20
156.276342285944
 30
0.0
 10
27.08914132801532
 20
156.2624557960771
 30
0.0
 10
27.15303619060634
 20
156.2624557960771
 30
0.0
  0
SPLINE
  5
CA
330
1F
100
AcDbEntity
  8
0
  6
Continuous
 62
     7
370
    15
100
AcDbSpline
210
0.0
220
0.0
230
1.0
 70
     8
 71
     3
 72
    10
 73
     6
 74
     0
 42
0.000000001
 43
0.00000001
 40
0.0
 40
0.0
 40
0.0
 40
0.0
 40
0.5
 40
0.5
 40
1.0
 40
1.0
 40
1.0
 40
1.0
 10
118.7110366670611
 20
156.3796130836025
 30
0.0
 10
118.6674962756424
 20
156.3469800225852
 30
0.0
 10
118.6189416715247
 20
156.318999136319
 30
0.0
 10
118.5074921357628
 20
156.276342285944
 30
0.0
 10
118.4455338831736
 20
156.2624557960771
 30
0.0
 10
118.3816390205826
 20
156.2624557960771
 30
0.0
  0
ARC
  5
CB
330
1F
100
AcDbEntity
  8
0
  6
Continuous
 62
     7
370
    15
100
AcDbCircle
 10
72.7673376056
 20
169.8124557961
 30
0.0
 40
47.58431457505077
100
AcDbArc
 50
343.4556342686
 51
16.5443657314
  0
SPLINE
  5
CC
330
1F
100
AcDbEntity
  8
0
  6
Continuous
 62
     7
370
    15
100
AcDbSpline
210
0.0
220
0.0
230
1.0
 70
     8
 71
     3
 72
    10
 73
     6
 74
     0
 42
0.000000001
 43
0.00000001
 40
0.0
 40
0.0
 40
0.0
 40
0.0
 40
0.5
 40
0.5
 40
1.0
 40
1.0
 40
1.0
 40
1.0
 10
118.3816390205826
 20
183.3624557960771
 30
0.0
 10
118.4455907094257
 20
183.3624557960771
 30
0.0
 10
118.5071550478769
 20
183.3486099200523
 30
0.0
 10
118.6177803987259
 20
183.3064441438649
 30
0.0
 10
118.6674670903953
 20
183.2779534436019
 30
0.0
 10
118.7110366670612
 20
183.2452985085518
 30
0.0
  0
ARC
  5
CD
330
1F
100
AcDbEntity
  8
0
  6
Continuous
 62
     7
370
    15
100
AcDbCircle
 10
72.7673376056
 20
169.8124557961
 30
0.0
 40
47.86715728752539
100
AcDbArc
 50
343.7023380383
 51
16.2976619617
  0
SPLINE
  5
CE
330
1F
100
AcDbEntity
  8
0
  6
Continuous
 62
     7
370
    15
100
AcDbSpline
210
0.0
220
0.0
230
1.0
 70
     8
 71
     3
 72
    40
 73
    36
 74
     0
 42
0.000000001
 43
0.00000001
 40
0.0
 40
0.0
 40
0.0
 40
0.0
 40
0.0076138096090706
 40
0.015222703696619
 40
0.0228283796622113
 40
0.0304325370604607
 40
0.0380368764641707
 40
0.0456430983240686
 40
0.0532529018289472
 40
0.0608679837700325
 40
0.0919930035882894
 40
0.1231236538966525
 40
0.1547321881285151
 40
0.1863461940165317
 40
0.2182020912711853
 40
0.2500635030030784
 40
0.3137495787501998
 40
0.3769416086590435
 40
0.439168148565131
 40
0.5000004350472922
 40
0.5608327215294534
 40
0.6230592614355407
 40
0.6862512913443847
 40
0.7499373670915059
 40
0.7817932643700992
 40
0.813654676120411
 40
0.8452632104154371
 40
0.8768772163635395
 40
0.9080022357785864
 40
0.9391328857746177
 40
0.9513123423166135
 40
0.963481817855821
 40
0.9756482751522532
 40
0.9878186821461872
 40
1.0
 40
1.0
 40
1.0
 40
1.0
 10
118.3816390205826
 20
183.3624557960771
 30
0.0
 10
118.3131396097503
 20
183.5894685537998
 30
0.0
 10
118.1761850117196
 20
184.043347508436
 30
0.0
 10
117.9579549225826
 20
184.7200147296063
 30
0.0
 10
117.7304593011871
 20
185.3932854301732
 30
0.0
 10
117.4927743370189
 20
186.0628849609634
 30
0.0
 10
117.2451471909772
 20
186.7288871013138
 30
0.0
 10
116.9875127609257
 20
187.3912706363326
 30
0.0
 10
116.7198845805781
 20
188.0500460713455
 30
0.0
 10
116.1566919305882
 20
189.3791498065857
 30
0.0
 10
115.2316732584224
 20
191.3504505779956
 30
0.0
 10
113.8292605459716
 20
193.9172956574101
 30
0.0
 10
112.2637209378633
 20
196.4062454838175
 30
0.0
 10
110.5332094826099
 20
198.8112748959129
 30
0.0
 10
108.6515550454452
 20
201.1103852536523
 30
0.0
 10
105.9497252783471
 20
204.0189791276034
 30
0.0
 10
102.2503615408282
 20
207.3195579740623
 30
0.0
 10
97.3900846356893
 20
210.6716072916364
 30
0.0
 10
92.23379693483473
 20
213.3599180806131
 30
0.0
 10
86.86063311932367
 20
215.3805467478859
 30
0.0
 10
81.284896446057
 20
216.7461931491817
 30
0.0
 10
75.51122289892194
 20
217.4382998797334
 30
0.0
 10
69.60715624424864
 20
217.4154459470083
 30
0.0
 10
64.69052851883325
 20
216.7796949349585
 30
0.0
 10
60.81838272688596
 20
215.9043199087185
 30
0.0
 10
57.96745527538626
 20
215.0690141233957
 30
0.0
 10
55.18115745728555
 20
214.0608481327105
 30
0.0
 10
52.48397202734412
 20
212.8904077381986
 30
0.0
 10
49.87712929585577
 20
211.5634224254248
 30
0.0
 10
47.87815737014974
 20
210.3864023978764
 30
0.0
 10
46.42769313626474
 20
209.4473287122244
 30
0.0
 10
45.48796087825154
 20
208.8066869088749
 30
0.0
 10
44.56439880175503
 20
208.1435051675801
 30
0.0
 10
43.65544231766275
 20
207.459689979685
 30
0.0
 10
43.06346092260226
 20
206.9855947149127
 30
0.0
 10
42.76733760559448
 20
206.7484408726578
 30
0.0
  0
SPLINE
  5
CF
330
1F
100
AcDbEntity
  8
0
  6
Continuous
 62
     7
370
    15
100
AcDbSpline
210
0.0
220
0.0
230
1.0
 70
     8
 71
     3
 72
    48
 73
    44
 74
     0
 42
0.000000001
 43
0.00000001
 40
0.0
 40
0.0
 40
0.0
 40
0.0
 40
0.0054347037870314
 40
0.0108647463485207
 40
0.0162911759177293
 40
0.0217150428226928
 40
0.0271373988806366
 40
0.0325592967880729
 40
0.0379817895083434
 40
0.0434059296583851
 40
0.0488327688965038
 40
0.0542633573129332
 40
0.059698742824938
 40
0.0907177254008823
 40
0.1217409090757531
 40
0.1535986684470912
 40
0.1854607425290452
 40
0.2177550902622351
 40
0.2500538118399259
 40
0.2823481596244854
 40
0.3146468812542022
 40
0.346504640772552
 40
0.3783667150011477
 40
0.440359683087698
 40
0.5000005600694972
 40
0.5596414370512967
 40
0.621634405137847
 40
0.6534921645093787
 40
0.6853542385911302
 40
0.7176485863248414
 40
0.749947307902022
 40
0.7822416556872713
 40
0.8145403773162883
 40
0.8463981368333431
 40
0.87826021106323
 40
0.9092791938585987
 40
0.9403023777537969
 40
0.9502622131370424
 40
0.9602093142102202
 40
0.970150156833966
 40
0.98009122909965
 40
0.9900390186493149
 40
0.9999999999999999
 40
0.9999999999999999
 40
0.9999999999999999
 40
0.9999999999999999
 10
27.15303619060634
 20
156.2624557960771
 30
0.0
 10
27.21679668769476
 20
156.0509164596492
 30
0.0
 10
27.34426299589988
 20
155.6280192194153
 30
0.0
 10
27.54652652692253
 20
154.9973449771875
 30
0.0
 10
27.75677109542302
 20
154.3697674975049
 30
0.0
 10
27.97579656016728
 20
153.7455244460519
 30
0.0
 10
28.20338876349648
 20
153.124552298257
 30
0.0
 10
28.43960505097602
 20
152.506868124207
 30
0.0
 10
28.6844299338292
 20
151.8924675573688
 30
0.0
 10
28.93786787873529
 20
151.2813514176624
 30
0.0
 10
29.1999163217305
 20
150.6735212015758
 30
0.0
 10
29.47058084926973
 20
150.0689704944818
 30
0.0
 10
30.18786008964064
 20
148.5246718993034
 30
0.0
 10
31.45937361678052
 20
146.0902294302734
 30
0.0
 10
33.49313876712183
 20
142.8552837711882
 30
0.0
 10
35.80036182903329
 20
139.7658047736673
 30
0.0
 10
38.3873274948465
 20
136.8372149610547
 30
0.0
 10
41.21805691514977
 20
134.1173110366765
 30
0.0
 10
44.27872250322142
 20
131.6310491269927
 30
0.0
 10
47.53375136657782
 20
129.4049579495986
 30
0.0
 10
50.94689476129044
 20
127.4659974935095
 30
0.0
 10
54.49128878807701
 20
125.8200012371346
 30
0.0
 10
59.29152359003987
 20
124.0525153098138
 30
0.0
 10
65.39144588458298
 20
122.6071539031664
 30
0.0
 10
72.76733764743786
 20
122.0422994364798
 30
0.0
 10
80.14322915593203
 20
122.6071539728739
 30
0.0
 10
86.24298064132698
 20
124.0524744474929
 30
0.0
 10
91.04322305559091
 20
125.8199341822158
 30
0.0
 10
94.58746667527063
 20
127.4658356726269
 30
0.0
 10
98.00077181261666
 20
129.4048633556008
 30
0.0
 10
101.2556678016607
 20
131.6308365532501
 30
0.0
 10
104.3164844418942
 20
134.1171923076882
 30
0.0
 10
107.1471027893333
 20
136.8369599738825
 30
0.0
 10
109.7342042724245
 20
139.7656683456798
 30
0.0
 10
112.0413344268328
 20
142.8549943359312
 30
0.0
 10
114.0752387182763
 20
146.0900953864688
 30
0.0
 10
115.4319428322412
 20
148.6877072556811
 30
0.0
 10
116.2933768272037
 20
150.570594685721
 30
0.0
 10
116.7699236208639
 20
151.6866496601459
 30
0.0
 10
117.2176701502414
 20
152.8137437951649
 30
0.0
 10
117.6359092909863
 20
153.9521087188252
 30
0.0
 10
118.0273224953023
 20
155.1009402001117
 30
0.0
 10
118.2634813515502
 20
155.8751129385701
 30
0.0
 10
118.3816390205826
 20
156.2624557960771
 30
0.0
  0
SPLINE
  5
D0
330
1F
100
AcDbEntity
  8
0
  6
Continuous
 62
     7
370
    15
100
AcDbSpline
210
0.0
220
0.0
230
1.0
 70
     8
 71
     3
 72
    27
 73
    23
 74
     0
 42
0.000000001
 43
0.00000001
 40
0.0
 40
0.0
 40
0.0
 40
0.0
 40
0.0385569892848211
 40
0.0770658329194701
 40
0.1155353026399639
 40
0.1539741971376514
 40
0.1923913361118491
 40
0.2307955542506346
 40
0.2691956951601454
 40
0.3076006052631416
 40
0.3460191276878565
 40
0.3844600961682111
 40
0.4229323289763935
 40
0.461444622908547
 40
0.5000057473438686
 40
0.5715713334491092
 40
0.6429967682524639
 40
0.7143384572505677
 40
0.7856530046539444
 40
0.8569970792753662
 40
0.9284272796518032
 40
1.0
 40
1.0
 40
1.0
 40
1.0
 10
35.83135252901382
 20
199.8124557960771
 30
0.0
 10
35.68048319318388
 20
199.6250506119052
 30
0.0
 10
35.37893291025453
 20
199.2504742541677
 30
0.0
 10
34.93764723074877
 20
198.6803635607501
 30
0.0
 10
34.50486010946329
 20
198.1047217253788
 30
0.0
 10
34.08133609330103
 20
197.522927889838
 30
0.0
 10
33.66687071504143
 20
196.9351482791591
 30
0.0
 10
33.26151879722231
 20
196.3413385100783
 30
0.0
 10
32.86526574983282
 20
195.7415105836406
 30
0.0
 10
32.47811556023499
 20
195.1356613964414
 30
0.0
 10
32.10006724048193
 20
194.5237919388694
 30
0.0
 10
31.73112109679842
 20
193.9059019471599
 30
0.0
 10
31.37127719704115
 20
193.2819920997536
 30
0.0
 10
31.02053522899359
 20
192.6520605734552
 30
0.0
 10
30.58160447106195
 20
191.8350094244728
 30
0.0
 10
30.06696324593626
 20
190.8256538317159
 30
0.0
 10
29.49307202768279
 20
189.6174904307042
 30
0.0
 10
28.95409474439378
 20
188.3950657518263
 30
0.0
 10
28.44980317337605
 20
187.158456323803
 30
0.0
 10
27.9810668643713
 20
185.9074048821327
 30
0.0
 10
27.54463697181547
 20
184.6428793399293
 30
0.0
 10
27.28365648404451
 20
183.7895471274751
 30
0.0
 10
27.15303619060634
 20
183.3624557960771
 30
0.0
  0
ARC
  5
D1
330
1F
100
AcDbEntity
  8
0
  6
Continuous
 62
     7
370
    15
100
AcDbCircle
 10
72.7673376056
 20
169.8124557961
 30
0.0
 40
47.86715728752539
100
AcDbArc
 50
196.2976619617
 51
343.7023380383
  0
ARC
  5
D2
330
1F
100
AcDbEntity
  8
0
  6
Continuous
 62
     7
370
    15
100
AcDbCircle
 10
72.7673376056
 20
169.8124557961
 30
0.0
 40
47.8671572875254
100
AcDbArc
 50
16.2976619617
 51
128.8096103904
  0
ARC
  5
D3
330
1F
100
AcDbEntity
  8
0
  6
Continuous
 62
     7
370
    15
100
AcDbCircle
 10
72.7673376056
 20
169.8124557961
 30
0.0
 40
47.8671572875254
100
AcDbArc
 50
141.1903896096
 51
163.7023380383
  0
ARC
  5
D4
330
1F
100
AcDbEntity
  8
0
  6
Continuous
 62
     7
370
    15
100
AcDbCircle
 10
72.7673376056
 20
169.8124557961
 30
0.0
 40
48.63284271247463
100
AcDbArc
 50
128.0877117496
 51
141.9122882504
  0
ARC
  5
D5
330
1F
100
AcDbEntity
  8
0
  6
Continuous
 62
     7
370
    15
100
AcDbCircle
 10
72.7673376056
 20
169.8124557961
 30
0.0
 40
48.63284271247466
100
AcDbArc
 50
15.8741097166
 51
128.0877117496
  0
ARC
  5
D6
330
1F
100
AcDbEntity
  8
0
  6
Continuous
 62
     7
370
    15
100
AcDbCircle
 10
72.7673376056
 20
169.8124557961
 30
0.0
 40
48.63284271247461
100
AcDbArc
 50
344.1258902834
 51
15.8741097166
  0
ARC
  5
D7
330
1F
100
AcDbEntity
  8
0
  6
Continuous
 62
     7
370
    15
100
AcDbCircle
 10
72.7673376056
 20
169.8124557961
 30
0.0
 40
48.63284271247463
100
AcDbArc
 50
195.9657859825
 51
344.1258902834
  0
ARC
  5
D8
330
1F
100
AcDbEntity
  8
0
  6
Continuous
 62
     7
370
    15
100
AcDbCircle
 10
72.7673376056
 20
169.8124557961
 30
0.0
 40
48.63284271247462
100
AcDbArc
 50
164.0342140175
 51
195.9657859825
  0
ARC
  5
D9
330
1F
100
AcDbEntity
  8
0
  6
Continuous
 62
     7
370
    15
100
AcDbCircle
 10
72.7673376056
 20
169.8124557961
 30
0.0
 40
48.63284271247465
100
AcDbArc
 50
141.9122882504
 51
164.0342140175
  0
SPLINE
  5
DA
330
1F
100
AcDbEntity
  8
0
  6
Continuous
 62
     7
370
    15
100
AcDbSpline
210
0.0
220
0.0
230
1.0
 70
    24
 71
     3
 72
    10
 73
     6
 74
     0
 42
0.000000001
 43
0.00000001
 40
0.0
 40
0.0
 40
0.0
 40
0.0
 40
0.5
 40
0.5
 40
1.0
 40
1.0
 40
1.0
 40
1.0
 10
26.01045230117006
 20
156.435345983969
 30
0.0
 10
25.98751078093297
 20
156.3951526517058
 30
0.0
 10
25.96738969071339
 20
156.3599006868692
 30
0.0
 10
25.93812041665684
 20
156.3086211881655
 30
0.0
 10
25.92937381914306
 20
156.2932972298398
 30
0.0
 10
25.92937381914307
 20
156.2932972298398
 30
0.0
  0
ARC
  5
DB
330
1F
100
AcDbEntity
  8
0
  6
Continuous
 62
     7
370
    15
100
AcDbCircle
 10
72.7673376056
 20
169.8124557961
 30
0.0
 40
48.75000000000002
100
AcDbArc
 50
163.8999153276
 51
196.1000846724
  0
SPLINE
  5
DC
330
1F
100
AcDbEntity
  8
0
  6
Continuous
 62
     7
370
    15
100
AcDbSpline
210
0.0
220
0.0
230
1.0
 70
    24
 71
     3
 72
    10
 73
     6
 74
     0
 42
0.000000001
 43
0.00000001
 40
0.0
 40
0.0
 40
0.0
 40
0.0
 40
0.5
 40
0.5
 40
1.0
 40
1.0
 40
1.0
 40
1.0
 10
25.92937381914308
 20
183.3316143623144
 30
0.0
 10
25.92937381914307
 20
183.3316143623144
 30
0.0
 10
25.93808963376046
 20
183.3163443353397
 30
0.0
 10
25.96730771100686
 20
183.2651545329761
 30
0.0
 10
25.98750076873901
 20
183.2297764817201
 30
0.0
 10
26.01045230117007
 20
183.1895656081852
 30
0.0
  0
ARC
  5
DD
330
1F
100
AcDbEntity
  8
0
  6
Continuous
 62
     7
370
    15
100
AcDbCircle
 10
72.7673376056
 20
169.8124557961
 30
0.0
 40
48.75000000000001
100
AcDbArc
 50
344.0491974398
 51
15.9508025602
  0
SPLINE
  5
DE
330
1F
100
AcDbEntity
  8
0
  6
Continuous
 62
     7
370
    15
100
AcDbSpline
210
0.0
220
0.0
230
1.0
 70
    24
 71
     3
 72
     8
 73
     4
 74
     0
 42
0.000000001
 43
0.00000001
 40
0.0
 40
0.0
 40
0.0
 40
0.0
 40
1.0
 40
1.0
 40
1.0
 40
1.0
 10
119.6403660598032
 20
156.4153776246644
 30
0.0
 10
119.6403660598032
 20
156.4153776246644
 30
0.0
 10
119.6032694667369
 20
156.4524742177306
 30
0.0
 10
119.5455671286399
 20
156.5101765558276
 30
0.0
  0
SPLINE
  5
DF
330
1F
100
AcDbEntity
  8
0
  6
Continuous
 62
     7
370
    15
100
AcDbSpline
210
0.0
220
0.0
230
1.0
 70
    24
 71
     3
 72
     8
 73
     4
 74
     0
 42
0.000000001
 43
0.00000001
 40
0.0
 40
0.0
 40
0.0
 40
0.0
 40
1.0
 40
1.0
 40
1.0
 40
1.0
 10
119.54556712864
 20
183.1147350363266
 30
0.0
 10
119.6032945139126
 20
183.1724624215993
 30
0.0
 10
119.6403660598032
 20
183.2095339674898
 30
0.0
 10
119.6403660598032
 20
183.2095339674898
 30
0.0
  0
SPLINE
  5
E0
330
1F
100
AcDbEntity
  8
0
  6
Continuous
 62
     7
370
    15
100
AcDbSpline
210
0.0
220
0.0
230
1.0
 70
    24
 71
     3
 72
     8
 73
     4
 74
     0
 42
0.000000001
 43
0.00000001
 40
0.0
 40
0.0
 40
0.0
 40
0.0
 40
1.0
 40
1.0
 40
1.0
 40
1.0
 10
42.76733760559448
 20
208.2385211684256
 30
0.0
 10
42.76733760559448
 20
208.2385211684256
 30
0.0
 10
42.76733760559448
 20
208.1770056199942
 30
0.0
 10
42.76733760559448
 20
208.0897779372131
 30
0.0
  0
SPLINE
  5
E1
330
1F
100
AcDbEntity
  8
0
  6
Continuous
 62
     7
370
    15
100
AcDbSpline
210
0.0
220
0.0
230
1.0
 70
    24
 71
     3
 72
     8
 73
     4
 74
     0
 42
0.000000001
 43
0.00000001
 40
0.0
 40
0.0
 40
0.0
 40
0.0
 40
1.0
 40
1.0
 40
1.0
 40
1.0
 10
34.49001546445854
 20
199.8124557960771
 30
0.0
 10
34.40274104824445
 20
199.8124557960771
 30
0.0
 10
34.34127223324597
 20
199.812455796077
 30
0.0
 10
34.34127223324595
 20
199.812455796077
 30
0.0
  0
ARC
  5
E2
330
1F
100
AcDbEntity
  8
0
  6
Continuous
 62
     7
370
    15
100
AcDbCircle
 10
72.7673376056
 20
169.8124557961
 30
0.0
 40
48.75000000000002
100
AcDbArc
 50
127.9798724449
 51
142.0201275551
  0
ARC
  5
E3
330
1F
100
AcDbEntity
  8
0
  6
Continuous
 62
     7
370
    15
100
AcDbCircle
 10
72.7673376056
 20
169.8124557961
 30
0.0
 40
48.75000000000002
100
AcDbArc
 50
15.9508025602
 51
127.9798724449
  0
ARC
  5
E4
330
1F
100
AcDbEntity
  8
0
  6
Continuous
 62
     7
370
    15
100
AcDbCircle
 10
72.7673376056
 20
169.8124557961
 30
0.0
 40
48.75000000000001
100
AcDbArc
 50
196.1000846724
 51
344.0491974398
  0
ARC
  5
E5
330
1F
100
AcDbEntity
  8
0
  6
Continuous
 62
     7
370
    15
100
AcDbCircle
 10
72.7673376056
 20
169.8124557961
 30
0.0
 40
48.75000000000002
100
AcDbArc
 50
142.0201275551
 51
163.8999153276
  0
ARC
  5
E6
330
1F
100
AcDbEntity
  8
0
  6
Continuous
 62
     7
370
    15
100
AcDbCircle
 10
72.7673376056
 20
169.8124557961
 30
0.0
 40
48.75000000000001
100
AcDbArc
 50
180.0
 51
196.1000846724
  0
ARC
  5
E7
330
1F
100
AcDbEntity
  8
0
  6
Continuous
 62
     7
370
    15
100
AcDbCircle
 10
72.7673376056
 20
169.8124557961
 30
0.0
 40
48.75000000000002
100
AcDbArc
 50
163.8999153276
 51
180.0
  0
INSERT
  5
F3
330
1F
100
AcDbEntity
  8
DIM
100
AcDbBlockReference
  2
SW_CENTERMARKSYMBOL_0
 10
72.7673376056
 20
169.8124557961
 30
0.0
  0
LINE
  5
F4
330
1F
100
AcDbEntity
  8
0
  6
Continuous
 62
     7
370
    15
100
AcDbLine
 10
273.245628807
 20
121.0624557961
 30
0.0
 11
276.8323481179
 21
121.0624557961
 31
0.0
  0
LINE
  5
F5
330
1F
100
AcDbEntity
  8
0
  6
Continuous
 62
     7
370
    15
100
AcDbLine
 10
276.8323481179
 20
218.5624557961
 30
0.0
 11
273.245628807
 21
218.5624557961
 31
0.0
  0
LINE
  5
F6
330
1F
100
AcDbEntity
  8
0
  6
Continuous
 62
     7
370
    15
100
AcDbLine
 10
273.245628807
 20
218.5624557961
 30
0.0
 11
271.8980335428
 21
216.2283523305
 31
0.0
  0
LINE
  5
F7
330
1F
100
AcDbEntity
  8
0
  6
Continuous
 62
     7
370
    15
100
AcDbLine
 10
271.8980335428
 20
123.3965592617
 30
0.0
 11
273.245628807
 21
121.0624557961
 31
0.0
  0
LINE
  5
F8
330
1F
100
AcDbEntity
  8
0
  6
Continuous
 62
     7
370
    15
100
AcDbLine
 10
266.7504382786
 20
121.0624557961
 30
0.0
 11
268.0980335428
 21
123.3965592617
 31
0.0
  0
LINE
  5
F9
330
1F
100
AcDbEntity
  8
0
  6
Continuous
 62
     7
370
    15
100
AcDbLine
 10
268.0980335428
 20
216.2283523305
 30
0.0
 11
266.7504382786
 21
218.5624557961
 31
0.0
  0
LINE
  5
FA
330
1F
100
AcDbEntity
  8
0
  6
Continuous
 62
     7
370
    15
100
AcDbLine
 10
263.2637189678
 20
121.0624557961
 30
0.0
 11
266.7504382786
 21
121.0624557961
 31
0.0
  0
LINE
  5
FB
330
1F
100
AcDbEntity
  8
0
  6
Continuous
 62
     7
370
    15
100
AcDbLine
 10
266.7504382786
 20
218.5624557961
 30
0.0
 11
263.2637189678
 21
218.5624557961
 31
0.0
  0
LINE
  5
FC
330
1F
100
AcDbEntity
  8
0
  6
Continuous
 62
     7
370
    15
100
AcDbLine
 10
262.9808762553
 20
218.4452985086
 30
0.0
 11
262.2151908303
 21
217.6796130836
 31
0.0
  0
LINE
  5
FD
330
1F
100
AcDbEntity
  8
0
  6
Continuous
 62
     7
370
    15
100
AcDbLine
 10
262.2151908303
 20
121.9452985086
 30
0.0
 11
262.9808762553
 21
121.1796130836
 31
0.0
  0
LINE
  5
FE
330
1F
100
AcDbEntity
  8
0
  6
Continuous
 62
     7
370
    15
100
AcDbLine
 10
277.1151908303
 20
121.1796130836
 30
0.0
 11
277.8808762553
 21
121.9452985086
 31
0.0
  0
LINE
  5
FF
330
1F
100
AcDbEntity
  8
0
  6
Continuous
 62
     7
370
    15
100
AcDbLine
 10
277.8808762553
 20
217.6796130836
 30
0.0
 11
277.1151908303
 21
218.4452985086
 31
0.0
  0
ARC
  5
100
330
1F
100
AcDbEntity
  8
0
  6
Continuous
 62
     7
370
    15
100
AcDbCircle
 10
276.8323481179
 20
121.4624557961
 30
0.0
 40
0.3999999999999992
100
AcDbArc
 50
270.0
 51
315.0
  0
ARC
  5
101
330
1F
100
AcDbEntity
  8
0
  6
Continuous
 62
     7
370
    15
100
AcDbCircle
 10
263.2637189678
 20
121.4624557961
 30
0.0
 40
0.3999999999999992
100
AcDbArc
 50
225.0
 51
270.0
  0
ARC
  5
102
330
1F
100
AcDbEntity
  8
0
  6
Continuous
 62
     7
370
    15
100
AcDbCircle
 10
276.8323481179
 20
218.1624557961
 30
0.0
 40
0.4000000000000341
100
AcDbArc
 50
45.0
 51
90.0
  0
ARC
  5
103
330
1F
100
AcDbEntity
  8
0
  6
Continuous
 62
     7
370
    15
100
AcDbCircle
 10
263.2637189678
 20
218.1624557961
 30
0.0
 40
0.4000000000000341
100
AcDbArc
 50
90.0
 51
135.0
  0
ARC
  5
104
330
1F
100
AcDbEntity
  8
0
  6
Continuous
 62
     7
370
    15
100
AcDbCircle
 10
277.5980335428
 20
122.228141221
 30
0.0
 40
0.4000000000000341
100
AcDbArc
 50
315.0
 51
0.0
  0
ARC
  5
105
330
1F
100
AcDbEntity
  8
0
  6
Continuous
 62
     7
370
    15
100
AcDbCircle
 10
277.5980335428
 20
217.3967703711
 30
0.0
 40
0.4000000000000341
100
AcDbArc
 50
0.0
 51
45.0
  0
ARC
  5
106
330
1F
100
AcDbEntity
  8
0
  6
Continuous
 62
     7
370
    15
100
AcDbCircle
 10
262.4980335428
 20
122.228141221
 30
0.0
 40
0.4000000000000093
100
AcDbArc
 50
180.0
 51
225.0
  0
ARC
  5
107
330
1F
100
AcDbEntity
  8
0
  6
Continuous
 62
     7
370
    15
100
AcDbCircle
 10
262.4980335428
 20
217.3967703711
 30
0.0
 40
0.4000000000000193
100
AcDbArc
 50
135.0
 51
180.0
  0
LINE
  5
108
330
1F
100
AcDbEntity
  8
0
  6
Continuous
 62
     7
370
    15
100
AcDbLine
 10
268.0980335428
 20
124.3124557961
 30
0.0
 11
271.8980335428
 21
124.3124557961
 31
0.0
  0
LINE
  5
109
330
1F
100
AcDbEntity
  8
0
  6
Continuous
 62
     7
370
    15
100
AcDbLine
 10
271.8980335428
 20
215.3124557961
 30
0.0
 11
268.0980335428
 21
215.3124557961
 31
0.0
  0
ARC
  5
10A
330
1F
100
AcDbEntity
  8
0
  6
Continuous
 62
     7
370
    15
100
AcDbCircle
 10
280.9980335428
 20
127.8124557961
 30
0.0
 40
3.000000000000014
100
AcDbArc
 50
90.0
 51
180.0
  0
ARC
  5
10B
330
1F
100
AcDbEntity
  8
0
  6
Continuous
 62
     7
370
    15
100
AcDbCircle
 10
280.9980335428
 20
211.8124557961
 30
0.0
 40
3.0
100
AcDbArc
 50
180.0
 51
270.0
  0
LINE
  5
10C
330
1F
100
AcDbEntity
  8
0
  6
Continuous
 62
     7
370
    15
100
AcDbLine
 10
357.8980335428
 20
130.8124557961
 30
0.0
 11
358.8980335428
 21
131.8124557961
 31
0.0
  0
LINE
  5
10D
330
1F
100
AcDbEntity
  8
0
  6
Continuous
 62
     7
370
    15
100
AcDbLine
 10
358.8980335428
 20
207.8124557961
 30
0.0
 11
357.8980335428
 21
208.8124557961
 31
0.0
  0
LINE
  5
10E
330
1F
100
AcDbEntity
  8
0
  6
Continuous
 62
     7
370
    15
100
AcDbLine
 10
280.9980335428
 20
130.8124557961
 30
0.0
 11
357.8980335428
 21
130.8124557961
 31
0.0
  0
LINE
  5
10F
330
1F
100
AcDbEntity
  8
0
  6
Continuous
 62
     7
370
    15
100
AcDbLine
 10
357.8980335428
 20
208.8124557961
 30
0.0
 11
280.9980335428
 21
208.8124557961
 31
0.0
  0
ARC
  5
110
330
1F
100
AcDbEntity
  8
0
  6
Continuous
 62
     7
370
    15
100
AcDbCircle
 10
261.5980335428
 20
134.8124557961
 30
0.0
 40
0.5
100
AcDbArc
 50
0.0
 51
90.0
  0
ARC
  5
111
330
1F
100
AcDbEntity
  8
0
  6
Continuous
 62
     7
370
    15
100
AcDbCircle
 10
261.5980335428
 20
204.8124557961
 30
0.0
 40
0.5
100
AcDbArc
 50
270.0
 51
0.0
  0
LINE
  5
112
330
1F
100
AcDbEntity
  8
0
  6
Continuous
 62
     7
370
    15
100
AcDbLine
 10
258.8980335428
 20
204.7374557961
 30
0.0
 11
158.0037253155
 21
190.0235635831
 31
0.0
  0
LINE
  5
113
330
1F
100
AcDbEntity
  8
0
  6
Continuous
 62
     7
370
    15
100
AcDbLine
 10
158.0037253155
 20
149.601348009
 30
0.0
 11
258.8980335428
 21
134.8874557961
 31
0.0
  0
LINE
  5
114
330
1F
100
AcDbEntity
  8
0
  6
Continuous
 62
     7
370
    15
100
AcDbLine
 10
258.8980335428
 20
134.8874557961
 30
0.0
 11
259.809448984
 21
135.3124557961
 31
0.0
  0
LINE
  5
115
330
1F
100
AcDbEntity
  8
0
  6
Continuous
 62
     7
370
    15
100
AcDbLine
 10
259.809448984
 20
204.3124557961
 30
0.0
 11
258.8980335428
 21
204.7374557961
 31
0.0
  0
LINE
  5
116
330
1F
100
AcDbEntity
  8
0
  6
Continuous
 62
     7
370
    15
100
AcDbLine
 10
259.809448984
 20
135.3124557961
 30
0.0
 11
261.5980335428
 21
135.3124557961
 31
0.0
  0
LINE
  5
117
330
1F
100
AcDbEntity
  8
0
  6
Continuous
 62
     7
370
    15
100
AcDbLine
 10
261.5980335428
 20
204.3124557961
 30
0.0
 11
259.809448984
 21
204.3124557961
 31
0.0
  0
LINE
  5
118
330
1F
100
AcDbEntity
  8
0
  6
Continuous
 62
     7
370
    15
100
AcDbLine
 10
386.8980335428
 20
148.8124557961
 30
0.0
 11
394.8980335428
 21
148.8124557961
 31
0.0
  0
LINE
  5
119
330
1F
100
AcDbEntity
  8
0
  6
Continuous
 62
     7
370
    15
100
AcDbLine
 10
394.8980335428
 20
190.8124557961
 30
0.0
 11
386.8980335428
 21
190.8124557961
 31
0.0
  0
LINE
  5
11A
330
1F
100
AcDbEntity
  8
0
  6
Continuous
 62
     7
370
    15
100
AcDbLine
 10
394.8980335428
 20
148.8124557961
 30
0.0
 11
395.8980335428
 21
149.8124557961
 31
0.0
  0
LINE
  5
11B
330
1F
100
AcDbEntity
  8
0
  6
Continuous
 62
     7
370
    15
100
AcDbLine
 10
395.8980335428
 20
189.8124557961
 30
0.0
 11
394.8980335428
 21
190.8124557961
 31
0.0
  0
LINE
  5
11C
330
1F
100
AcDbEntity
  8
0
  6
Continuous
 62
     7
370
    15
100
AcDbLine
 10
386.8980335428
 20
190.8124557961
 30
0.0
 11
385.8980335428
 21
189.8124557961
 31
0.0
  0
LINE
  5
11D
330
1F
100
AcDbEntity
  8
0
  6
Continuous
 62
     7
370
    15
100
AcDbLine
 10
385.8980335428
 20
149.8124557961
 30
0.0
 11
386.8980335428
 21
148.8124557961
 31
0.0
  0
ARC
  5
11E
330
1F
100
AcDbEntity
  8
0
  6
Continuous
 62
     7
370
    15
100
AcDbCircle
 10
158.1480335428
 20
150.5908807955
 30
0.0
 40
1.000000000000028
100
AcDbArc
 50
180.0
 51
261.7027777778
  0
ARC
  5
11F
330
1F
100
AcDbEntity
  8
0
  6
Continuous
 62
     7
370
    15
100
AcDbCircle
 10
158.1480335428
 20
189.0340307966
 30
0.0
 40
1.000000000000028
100
AcDbArc
 50
98.2972222222
 51
180.0
  0
LINE
  5
120
330
1F
100
AcDbEntity
  8
0
  6
Continuous
 62
     7
370
    15
100
AcDbLine
 10
382.407285814
 20
153.8124557961
 30
0.0
 11
382.8980335428
 21
154.6624557961
 31
0.0
  0
LINE
  5
121
330
1F
100
AcDbEntity
  8
0
  6
Continuous
 62
     7
370
    15
100
AcDbLine
 10
382.8980335428
 20
184.9624557961
 30
0.0
 11
382.407285814
 21
185.8124557961
 31
0.0
  0
LINE
  5
122
330
1F
100
AcDbEntity
  8
0
  6
Continuous
 62
     7
370
    15
100
AcDbLine
 10
358.8980335428
 20
153.8124557961
 30
0.0
 11
382.407285814
 21
153.8124557961
 31
0.0
  0
LINE
  5
123
330
1F
100
AcDbEntity
  8
0
  6
Continuous
 62
     7
370
    15
100
AcDbLine
 10
382.407285814
 20
185.8124557961
 30
0.0
 11
358.8980335428
 21
185.8124557961
 31
0.0
  0
ARC
  5
124
330
1F
100
AcDbEntity
  8
0
  6
Continuous
 62
     7
370
    15
100
AcDbCircle
 10
385.3980335428
 20
161.3124557961
 30
0.0
 40
0.5000000000000568
100
AcDbArc
 50
0.0
 51
90.0
  0
ARC
  5
125
330
1F
100
AcDbEntity
  8
0
  6
Continuous
 62
     7
370
    15
100
AcDbCircle
 10
385.3980335428
 20
178.3124557961
 30
0.0
 40
0.5000000000000568
100
AcDbArc
 50
270.0
 51
0.0
  0
LINE
  5
126
330
1F
100
AcDbEntity
  8
0
  6
Continuous
 62
     7
370
    15
100
AcDbLine
 10
382.8980335428
 20
161.8124557961
 30
0.0
 11
385.3980335428
 21
161.8124557961
 31
0.0
  0
LINE
  5
127
330
1F
100
AcDbEntity
  8
0
  6
Continuous
 62
     7
370
    15
100
AcDbLine
 10
385.3980335428
 20
177.8124557961
 30
0.0
 11
382.8980335428
 21
177.8124557961
 31
0.0
  0
LINE
  5
128
330
1F
100
AcDbEntity
  8
0
  6
Continuous
 62
     7
370
    15
100
AcDbLine
 10
273.245628807
 20
121.0624557961
 30
0.0
 11
273.245628807
 21
218.5624557961
 31
0.0
  0
LINE
  5
129
330
1F
100
AcDbEntity
  8
0
  6
Continuous
 62
     7
370
    15
100
AcDbLine
 10
276.8323481179
 20
156.4153776247
 30
0.0
 11
276.8323481179
 21
183.2095339675
 31
0.0
  0
LINE
  5
12A
330
1F
100
AcDbEntity
  8
0
  6
Continuous
 62
     7
370
    15
100
AcDbLine
 10
271.8980335428
 20
216.2283523305
 30
0.0
 11
271.8980335428
 21
123.3965592617
 31
0.0
  0
LINE
  5
12B
330
1F
100
AcDbEntity
  8
0
  6
Continuous
 62
     7
370
    15
100
AcDbLine
 10
277.1151908303
 20
156.5101765558
 30
0.0
 11
277.1151908303
 21
183.1147350363
 31
0.0
  0
SPLINE
  5
12C
330
1F
100
AcDbEntity
  8
0
  6
Continuous
 62
     7
370
    15
100
AcDbSpline
210
0.0
220
0.0
230
1.0
 70
     8
 71
     3
 72
     8
 73
     4
 74
     0
 42
0.000000001
 43
0.00000001
 40
0.0
 40
0.0
 40
0.0
 40
0.0
 40
1.0
 40
1.0
 40
1.0
 40
1.0
 10
277.1151908303392
 20
156.5101765558276
 30
0.0
 10
277.0438750181573
 20
156.452449170555
 30
0.0
 10
276.9409738605204
 20
156.4153776246644
 30
0.0
 10
276.8323481178646
 20
156.4153776246644
 30
0.0
  0
SPLINE
  5
12D
330
1F
100
AcDbEntity
  8
0
  6
Continuous
 62
     7
370
    15
100
AcDbSpline
210
0.0
220
0.0
230
1.0
 70
     8
 71
     3
 72
     8
 73
     4
 74
     0
 42
0.000000001
 43
0.00000001
 40
0.0
 40
0.0
 40
0.0
 40
0.0
 40
1.0
 40
1.0
 40
1.0
 40
1.0
 10
276.8323481178646
 20
183.2095339674898
 30
0.0
 10
276.9408651093156
 20
183.2095339674898
 30
0.0
 10
277.043905961178
 20
183.1724373744236
 30
0.0
 10
277.1151908303393
 20
183.1147350363266
 30
0.0
  0
LINE
  5
12E
330
1F
100
AcDbEntity
  8
0
  6
Continuous
 62
     7
370
    15
100
AcDbLine
 10
268.0980335428
 20
169.8124557961
 30
0.0
 11
268.0980335428
 21
216.2283523305
 31
0.0
  0
LINE
  5
12F
330
1F
100
AcDbEntity
  8
0
  6
Continuous
 62
     7
370
    15
100
AcDbLine
 10
268.0980335428
 20
123.3965592617
 30
0.0
 11
268.0980335428
 21
169.8124557961
 31
0.0
  0
LINE
  5
130
330
1F
100
AcDbEntity
  8
0
  6
Continuous
 62
     7
370
    15
100
AcDbLine
 10
266.7504382786
 20
169.8124557961
 30
0.0
 11
266.7504382786
 21
121.0624557961
 31
0.0
  0
LINE
  5
131
330
1F
100
AcDbEntity
  8
0
  6
Continuous
 62
     7
370
    15
100
AcDbLine
 10
266.7504382786
 20
218.5624557961
 30
0.0
 11
266.7504382786
 21
169.8124557961
 31
0.0
  0
LINE
  5
132
330
1F
100
AcDbEntity
  8
0
  6
Continuous
 62
     7
370
    15
100
AcDbLine
 10
263.2637189678
 20
156.4153776247
 30
0.0
 11
263.2637189678
 21
183.2095339675
 31
0.0
  0
SPLINE
  5
133
330
1F
100
AcDbEntity
  8
0
  6
Continuous
 62
     7
370
    15
100
AcDbSpline
210
0.0
220
0.0
230
1.0
 70
     8
 71
     3
 72
     8
 73
     4
 74
     0
 42
0.000000001
 43
0.00000001
 40
0.0
 40
0.0
 40
0.0
 40
0.0
 40
1.0
 40
1.0
 40
1.0
 40
1.0
 10
263.2637189677631
 20
156.4153776246644
 30
0.0
 10
263.1552019763121
 20
156.4153776246644
 30
0.0
 10
263.0521611244497
 20
156.4524742177306
 30
0.0
 10
262.9808762552885
 20
156.5101765558276
 30
0.0
  0
LINE
  5
134
330
1F
100
AcDbEntity
  8
0
  6
Continuous
 62
     7
370
    15
100
AcDbLine
 10
262.9808762553
 20
156.5101765558
 30
0.0
 11
262.9808762553
 21
183.1147350363
 31
0.0
  0
SPLINE
  5
135
330
1F
100
AcDbEntity
  8
0
  6
Continuous
 62
     7
370
    15
100
AcDbSpline
210
0.0
220
0.0
230
1.0
 70
     8
 71
     3
 72
     8
 73
     4
 74
     0
 42
0.000000001
 43
0.00000001
 40
0.0
 40
0.0
 40
0.0
 40
0.0
 40
1.0
 40
1.0
 40
1.0
 40
1.0
 10
262.9808762552885
 20
183.1147350363266
 30
0.0
 10
263.0521920674704
 20
183.1724624215993
 30
0.0
 10
263.1550932251072
 20
183.2095339674898
 30
0.0
 10
263.2637189677631
 20
183.2095339674898
 30
0.0
  0
LINE
  5
136
330
1F
100
AcDbEntity
  8
0
  6
Continuous
 62
     7
370
    15
100
AcDbLine
 10
262.2151908303
 20
156.3796130836
 30
0.0
 11
262.2151908303
 21
183.2452985086
 31
0.0
  0
LINE
  5
137
330
1F
100
AcDbEntity
  8
0
  6
Continuous
 62
     7
370
    15
100
AcDbLine
 10
277.8808762553
 20
156.9624557961
 30
0.0
 11
277.8808762553
 21
182.6624557961
 31
0.0
  0
LINE
  5
138
330
1F
100
AcDbEntity
  8
0
  6
Continuous
 62
     7
370
    15
100
AcDbLine
 10
277.9980335428
 20
156.9624557961
 30
0.0
 11
277.9980335428
 21
182.6624557961
 31
0.0
  0
SPLINE
  5
139
330
1F
100
AcDbEntity
  8
0
  6
Continuous
 62
     7
370
    15
100
AcDbSpline
210
0.0
220
0.0
230
1.0
 70
    24
 71
     3
 72
     8
 73
     4
 74
     0
 42
0.000000001
 43
0.00000001
 40
0.0
 40
0.0
 40
0.0
 40
0.0
 40
1.0
 40
1.0
 40
1.0
 40
1.0
 10
277.9980335428139
 20
156.9624557960771
 30
0.0
 10
277.9980335428137
 20
156.9624557960771
 30
0.0
 10
277.9564898088614
 20
156.9624557960771
 30
0.0
 10
277.8808762552885
 20
156.9624557960771
 30
0.0
  0
SPLINE
  5
13A
330
1F
100
AcDbEntity
  8
0
  6
Continuous
 62
     7
370
    15
100
AcDbSpline
210
0.0
220
0.0
230
1.0
 70
    24
 71
     3
 72
     8
 73
     4
 74
     0
 42
0.000000001
 43
0.00000001
 40
0.0
 40
0.0
 40
0.0
 40
0.0
 40
1.0
 40
1.0
 40
1.0
 40
1.0
 10
277.8808762552885
 20
182.6624557960771
 30
0.0
 10
277.9564642860431
 20
182.6624557960771
 30
0.0
 10
277.9980335428139
 20
182.6624557960771
 30
0.0
 10
277.9980335428139
 20
182.6624557960771
 30
0.0
  0
SPLINE
  5
13B
330
1F
100
AcDbEntity
  8
0
  6
Continuous
 62
     7
370
    15
100
AcDbSpline
210
0.0
220
0.0
230
1.0
 70
    24
 71
     3
 72
    10
 73
     6
 74
     0
 42
0.000000001
 43
0.00000001
 40
0.0
 40
0.0
 40
0.0
 40
0.0
 40
0.5
 40
0.5
 40
1.0
 40
1.0
 40
1.0
 40
1.0
 10
262.2151908303392
 20
156.3796130836025
 30
0.0
 10
262.1825577693219
 20
156.3469800225852
 30
0.0
 10
262.1545768830557
 20
156.318999136319
 30
0.0
 10
262.1119200326807
 20
156.276342285944
 30
0.0
 10
262.0980335428138
 20
156.2624557960771
 30
0.0
 10
262.0980335428138
 20
156.2624557960771
 30
0.0
  0
LINE
  5
13C
330
1F
100
AcDbEntity
  8
0
  6
Continuous
 62
     7
370
    15
100
AcDbLine
 10
262.0980335428
 20
156.2624557961
 30
0.0
 11
262.0980335428
 21
183.3624557961
 31
0.0
  0
SPLINE
  5
13D
330
1F
100
AcDbEntity
  8
0
  6
Continuous
 62
     7
370
    15
100
AcDbSpline
210
0.0
220
0.0
230
1.0
 70
    24
 71
     3
 72
    10
 73
     6
 74
     0
 42
0.000000001
 43
0.00000001
 40
0.0
 40
0.0
 40
0.0
 40
0.0
 40
0.5
 40
0.5
 40
1.0
 40
1.0
 40
1.0
 40
1.0
 10
262.0980335428139
 20
183.3624557960771
 30
0.0
 10
262.0980335428139
 20
183.3624557960771
 30
0.0
 10
262.1118794188387
 20
183.3486099200523
 30
0.0
 10
262.154045195026
 20
183.3064441438649
 30
0.0
 10
262.1825358952892
 20
183.2779534436019
 30
0.0
 10
262.2151908303393
 20
183.2452985085518
 30
0.0
  0
SPLINE
  5
13E
330
1F
100
AcDbEntity
  8
0
  6
Continuous
 62
     7
370
    15
100
AcDbSpline
210
0.0
220
0.0
230
1.0
 70
    24
 71
     3
 72
    36
 73
    32
 74
     0
 42
0.000000001
 43
0.00000001
 40
0.0
 40
0.0
 40
0.0
 40
0.0
 40
0.010855060115309
 40
0.021700603247601
 40
0.0325387683476148
 40
0.0433716987364442
 40
0.0542015408431699
 40
0.0650304429332853
 40
0.0758605538316704
 40
0.0866940216439018
 40
0.0975329924797007
 40
0.1083796091823073
 40
0.1192360100675244
 40
0.181247834122235
 40
0.2432679244012066
 40
0.3069990489490812
 40
0.370738668921532
 40
0.4353656024873025
 40
0.5000011508910791
 40
0.5646280845655833
 40
0.6292636330748704
 40
0.6929947579300935
 40
0.7567343782029041
 40
0.8187462027125846
 40
0.8807662934441524
 40
0.9006583299602414
 40
0.9205248324912559
 40
0.9403790153804057
 40
0.9602341175685198
 40
0.9801033761588329
 40
1.0
 40
1.0
 40
1.0
 40
1.0
 10
277.9980335428139
 20
156.9624557960771
 30
0.0
 10
277.9980335428139
 20
156.7476689217148
 30
0.0
 10
277.9980335428139
 20
156.3182834836043
 30
0.0
 10
277.9980335428139
 20
155.6777869735038
 30
0.0
 10
277.9980335428139
 20
155.040336762075
 30
0.0
 10
277.9980335428139
 20
154.4061631076027
 30
0.0
 10
277.9980335428139
 20
153.7752044756145
 30
0.0
 10
277.9980335428139
 20
153.1474774070302
 30
0.0
 10
277.9980335428139
 20
152.5229776879515
 30
0.0
 10
277.9980335428139
 20
151.9017060824264
 30
0.0
 10
277.9980335428139
 20
151.2836641831215
 30
0.0
 10
277.9980335428139
 20
150.66884527098
 30
0.0
 10
277.9980335428138
 20
149.0969876143213
 30
0.0
 10
277.9980335428139
 20
146.6173383202891
 30
0.0
 10
277.9980335428139
 20
143.3186652618161
 30
0.0
 10
277.9980335428139
 20
140.1652883366351
 30
0.0
 10
277.9980335428139
 20
137.1732156280685
 30
0.0
 10
277.9980335428139
 20
134.3924694194531
 30
0.0
 10
277.9980335428139
 20
131.8491701123768
 30
0.0
 10
277.9980335428139
 20
129.5711586273086
 30
0.0
 10
277.9980335428139
 20
127.5867261315898
 30
0.0
 10
277.9980335428139
 20
125.9019728945198
 30
0.0
 10
277.9980335428139
 20
124.539112400969
 30
0.0
 10
277.9980335428139
 20
123.4869340803133
 30
0.0
 10
277.9980335428139
 20
122.9134326282587
 30
0.0
 10
277.9980335428139
 20
122.6174052275749
 30
0.0
 10
277.9980335428139
 20
122.475390142129
 30
0.0
 10
277.9980335428139
 20
122.3647879495673
 30
0.0
 10
277.9980335428139
 20
122.2863584203533
 30
0.0
 10
277.9980335428139
 20
122.2372423085486
 30
0.0
 10
277.9980335428139
 20
122.2311763083247
 30
0.0
 10
277.9980335428139
 20
122.2281412210264
 30
0.0
  0
SPLINE
  5
13F
330
1F
100
AcDbEntity
  8
0
  6
Continuous
 62
     7
370
    15
100
AcDbSpline
210
0.0
220
0.0
230
1.0
 70
    24
 71
     3
 72
    23
 73
    19
 74
     0
 42
0.000000001
 43
0.00000001
 40
0.0
 40
0.0
 40
0.0
 40
0.0
 40
0.049344142439785
 40
0.1126391337887782
 40
0.1752432992499413
 40
0.2371050695636289
 40
0.2989591199343767
 40
0.3615634382303971
 40
0.4248659973704123
 40
0.4891594850324235
 40
0.5537405807095876
 40
0.6185525319731143
 40
0.6833570688697037
 40
0.7479382231567704
 40
0.812239066728002
 40
0.8755340580753496
 40
0.9381401318495213
 40
1.0
 40
1.0
 40
1.0
 40
1.0
 10
277.9980335428139
 20
217.367282272044
 30
0.0
 10
277.9980335428139
 20
217.3603351908148
 30
0.0
 10
277.9980335428139
 20
217.3444769111218
 30
0.0
 10
277.9980335428139
 20
216.9377254982072
 30
0.0
 10
277.9980335428139
 20
216.227910284314
 30
0.0
 10
277.9980335428139
 20
215.2115033588144
 30
0.0
 10
277.9980335428139
 20
213.9046338736941
 30
0.0
 10
277.9980335428139
 20
212.2979218647302
 30
0.0
 10
277.9980335428139
 20
210.3850767320211
 30
0.0
 10
277.9980335428139
 20
208.1735108203637
 30
0.0
 10
277.9980335428139
 20
205.6760045810834
 30
0.0
 10
277.9980335428139
 20
202.9190814292566
 30
0.0
 10
277.9980335428139
 20
199.9287641679164
 30
0.0
 10
277.9980335428139
 20
196.7345368655608
 30
0.0
 10
277.9980335428139
 20
193.3786572305974
 30
0.0
 10
277.9980335428139
 20
189.8955728723253
 30
0.0
 10
277.9980335428139
 20
186.3301623734571
 30
0.0
 10
277.9980335428139
 20
183.8801284588171
 30
0.0
 10
277.9980335428139
 20
182.6624557960771
 30
0.0
  0
SPLINE
  5
140
330
1F
100
AcDbEntity
  8
0
  6
Continuous
 62
     7
370
    15
100
AcDbSpline
210
0.0
220
0.0
230
1.0
 70
    24
 71
     3
 72
    36
 73
    32
 74
     0
 42
0.000000001
 43
0.00000001
 40
0.0
 40
0.0
 40
0.0
 40
0.0
 40
0.0108663901693764
 40
0.0217235992689927
 40
0.0325737239461297
 40
0.0434188649567969
 40
0.0542611259538548
 40
0.0651026122666534
 40
0.0759454296758007
 40
0.0867916831866139
 40
0.0976434758048303
 40
0.1085029073181251
 40
0.1193720730869558
 40
0.1813968254495411
 40
0.2434299782169203
 40
0.3071319268850098
 40
0.3708425031356519
 40
0.4354174425596918
 40
0.5000011278075956
 40
0.5645760673346892
 40
0.6291597526862437
 40
0.6928617016453169
 40
0.7565722781921671
 40
0.8185970309917204
 40
0.88063018420144
 40
0.9005456124940234
 40
0.9204355775907559
 40
0.9403130284544624
 40
0.9601909385042273
 40
0.9800822802606719
 40
1.0
 40
1.0
 40
1.0
 40
1.0
 10
262.0980335428138
 20
122.2281412210263
 30
0.0
 10
262.0980335428138
 20
122.2290222679082
 30
0.0
 10
262.0980335428138
 20
122.2307836172709
 30
0.0
 10
262.0980335428138
 20
122.2450788641176
 30
0.0
 10
262.0980335428138
 20
122.267907760643
 30
0.0
 10
262.0980335428138
 20
122.3001048795782
 30
0.0
 10
262.0980335428138
 20
122.3414467951475
 30
0.0
 10
262.0980335428138
 20
122.3919933531132
 30
0.0
 10
262.0980335428138
 20
122.4517284565441
 30
0.0
 10
262.0980335428138
 20
122.5206566288167
 30
0.0
 10
262.0980335428138
 20
122.5987758106747
 30
0.0
 10
262.0980335428138
 20
122.6860896316671
 30
0.0
 10
262.0980335428139
 20
122.9339263460762
 30
0.0
 10
262.0980335428138
 20
123.4595741611072
 30
0.0
 10
262.0980335428138
 20
124.4879651676306
 30
0.0
 10
262.0980335428138
 20
125.8199149809248
 30
0.0
 10
262.0980335428138
 20
127.465840895639
 30
0.0
 10
262.0980335428138
 20
129.404861947915
 30
0.0
 10
262.0980335428138
 20
131.6308369304139
 30
0.0
 10
262.0980335428138
 20
134.1171922065712
 30
0.0
 10
262.0980335428139
 20
136.8369600005687
 30
0.0
 10
262.0980335428138
 20
139.7656683385621
 30
0.0
 10
262.0980335428138
 20
142.854994337787
 30
0.0
 10
262.0980335428138
 20
146.0900953859603
 30
0.0
 10
262.0980335428138
 20
148.6877072557199
 30
0.0
 10
262.0980335428138
 20
150.5705946857156
 30
0.0
 10
262.0980335428138
 20
151.6866496601473
 30
0.0
 10
262.0980335428139
 20
152.8137437951645
 30
0.0
 10
262.0980335428138
 20
153.9521087188253
 30
0.0
 10
262.0980335428138
 20
155.1009402001117
 30
0.0
 10
262.0980335428138
 20
155.8751129385701
 30
0.0
 10
262.0980335428138
 20
156.2624557960771
 30
0.0
  0
SPLINE
  5
141
330
1F
100
AcDbEntity
  8
0
  6
Continuous
 62
     7
370
    15
100
AcDbSpline
210
0.0
220
0.0
230
1.0
 70
    24
 71
     3
 72
    22
 73
    18
 74
     0
 42
0.000000001
 43
0.00000001
 40
0.0
 40
0.0
 40
0.0
 40
0.0
 40
0.0621428574948281
 40
0.1250239306537967
 40
0.1885975328697511
 40
0.2854115349927219
 40
0.3829824451451522
 40
0.4480401427505545
 40
0.5128772366453658
 40
0.5774374832968099
 40
0.6410034153550611
 40
0.7038862656640945
 40
0.7660350216177754
 40
0.8281759504646952
 40
0.8910589584076889
 40
0.9546325606266389
 40
1.0
 40
1.0
 40
1.0
 40
1.0
 10
262.0980335428138
 20
183.3624557960771
 30
0.0
 10
262.0980335428138
 20
184.5654050647191
 30
0.0
 10
262.0980335428138
 20
186.9855938362967
 30
0.0
 10
262.0980335428138
 20
190.5025283394236
 30
0.0
 10
262.0980335428138
 20
194.5130168765602
 30
0.0
 10
262.0980335428138
 20
198.8738460288543
 30
0.0
 10
262.0980335428138
 20
202.8592007045532
 30
0.0
 10
262.0980335428138
 20
206.0119468170671
 30
0.0
 10
262.0980335428138
 20
208.4572036317145
 30
0.0
 10
262.0980335428138
 20
210.619312868082
 30
0.0
 10
262.0980335428138
 20
212.4862004295265
 30
0.0
 10
262.0980335428138
 20
214.0512164707612
 30
0.0
 10
262.0980335428138
 20
215.3192623143357
 30
0.0
 10
262.0980335428138
 20
216.3035981478186
 30
0.0
 10
262.0980335428138
 20
216.9731306903495
 30
0.0
 10
262.0980335428138
 20
217.3783194657063
 30
0.0
 10
262.0980335428138
 20
217.3268930909048
 30
0.0
 10
262.0980335428138
 20
217.3054770762706
 30
0.0
  0
LINE
  5
142
330
1F
100
AcDbEntity
  8
0
  6
Continuous
 62
     7
370
    15
100
AcDbLine
 10
280.9980335428
 20
182.6624557961
 30
0.0
 11
280.9980335428
 21
156.9624557961
 31
0.0
  0
SPLINE
  5
143
330
1F
100
AcDbEntity
  8
0
  6
Continuous
 62
     7
370
    15
100
AcDbSpline
210
0.0
220
0.0
230
1.0
 70
    24
 71
     3
 72
    22
 73
    18
 74
     0
 42
0.000000001
 43
0.00000001
 40
0.0
 40
0.0
 40
0.0
 40
0.0
 40
0.125
 40
0.125
 40
0.25
 40
0.25
 40
0.375
 40
0.375
 40
0.5
 40
0.5
 40
0.625
 40
0.625
 40
0.75
 40
0.75
 40
0.875
 40
0.875
 40
1.0
 40
1.0
 40
1.0
 40
1.0
 10
277.9980335428139
 20
156.9624557960771
 30
0.0
 10
277.9980335428139
 20
156.9624557960771
 30
0.0
 10
278.0166134641581
 20
156.9624557960771
 30
0.0
 10
278.0894362328415
 20
156.9624557960771
 30
0.0
 10
278.1442776321101
 20
156.9624557960771
 30
0.0
 10
278.2894125520704
 20
156.9624557960771
 30
0.0
 10
278.3784329390571
 20
156.9624557960771
 30
0.0
 10
278.5892062373212
 20
156.9624557960771
 30
0.0
 10
278.7126436882475
 20
156.9624557960771
 30
0.0
 10
278.9861271541032
 20
156.9624557960771
 30
0.0
 10
279.1356669512783
 20
156.9624557960771
 30
0.0
 10
279.4609626567719
 20
156.9624557960771
 30
0.0
 10
279.6384867149846
 20
156.9624557960771
 30
0.0
 10
280.004851835729
 20
156.9624557960771
 30
0.0
 10
280.1952152223085
 20
156.9624557960771
 30
0.0
 10
280.5909612069712
 20
156.9624557960771
 30
0.0
 10
280.7942713227096
 20
156.9624557960771
 30
0.0
 10
280.9980335428139
 20
156.9624557960771
 30
0.0
  0
SPLINE
  5
144
330
1F
100
AcDbEntity
  8
0
  6
Continuous
 62
     7
370
    15
100
AcDbSpline
210
0.0
220
0.0
230
1.0
 70
    24
 71
     3
 72
    22
 73
    18
 74
     0
 42
0.000000001
 43
0.00000001
 40
0.0
 40
0.0
 40
0.0
 40
0.0
 40
0.125
 40
0.125
 40
0.25
 40
0.25
 40
0.375
 40
0.375
 40
0.5
 40
0.5
 40
0.625
 40
0.625
 40
0.75
 40
0.75
 40
0.875
 40
0.875
 40
1.0
 40
1.0
 40
1.0
 40
1.0
 10
280.9980335428139
 20
182.6624557960771
 30
0.0
 10
280.7944914697773
 20
182.6624557960771
 30
0.0
 10
280.5946966559938
 20
182.6624557960771
 30
0.0
 10
280.2022416003848
 20
182.6624557960771
 30
0.0
 10
280.0075105407524
 20
182.6624557960771
 30
0.0
 10
279.6401774308074
 20
182.6624557960771
 30
0.0
 10
279.4665618194554
 20
182.6624557960771
 30
0.0
 10
279.1390595653897
 20
182.6624557960771
 30
0.0
 10
278.9870006190871
 20
182.6624557960771
 30
0.0
 10
278.7145339077186
 20
182.6624557960771
 30
0.0
 10
278.5918019953627
 20
182.6624557960771
 30
0.0
 10
278.3788259353253
 20
182.6624557960771
 30
0.0
 10
278.289886550873
 20
182.6624557960771
 30
0.0
 10
278.1455742411104
 20
182.6624557960771
 30
0.0
 10
278.0900483527283
 20
182.6624557960771
 30
0.0
 10
278.0165834848857
 20
182.6624557960771
 30
0.0
 10
277.9980335428139
 20
182.6624557960771
 30
0.0
 10
277.9980335428139
 20
182.6624557960771
 30
0.0
  0
LINE
  5
145
330
1F
100
AcDbEntity
  8
0
  6
Continuous
 62
     7
370
    15
100
AcDbLine
 10
357.8980335428
 20
169.8124557961
 30
0.0
 11
357.8980335428
 21
208.8124557961
 31
0.0
  0
LINE
  5
146
330
1F
100
AcDbEntity
  8
0
  6
Continuous
 62
     7
370
    15
100
AcDbLine
 10
357.8980335428
 20
130.8124557961
 30
0.0
 11
357.8980335428
 21
169.8124557961
 31
0.0
  0
LINE
  5
147
330
1F
100
AcDbEntity
  8
0
  6
Continuous
 62
     7
370
    15
100
AcDbLine
 10
358.8980335428
 20
169.8124557961
 30
0.0
 11
358.8980335428
 21
207.8124557961
 31
0.0
  0
LINE
  5
148
330
1F
100
AcDbEntity
  8
0
  6
Continuous
 62
     7
370
    15
100
AcDbLine
 10
358.8980335428
 20
131.8124557961
 30
0.0
 11
358.8980335428
 21
169.8124557961
 31
0.0
  0
LINE
  5
149
330
1F
100
AcDbEntity
  8
0
  6
Continuous
 62
     7
370
    15
100
AcDbLine
 10
258.8980335428
 20
169.8124557961
 30
0.0
 11
258.8980335428
 21
134.8874557961
 31
0.0
  0
LINE
  5
14A
330
1F
100
AcDbEntity
  8
0
  6
Continuous
 62
     7
370
    15
100
AcDbLine
 10
258.8980335428
 20
204.7374557961
 30
0.0
 11
258.8980335428
 21
169.8124557961
 31
0.0
  0
LINE
  5
14B
330
1F
100
AcDbEntity
  8
0
  6
Continuous
 62
     7
370
    15
100
AcDbLine
 10
259.809448984
 20
169.8124557961
 30
0.0
 11
259.809448984
 21
135.3124557961
 31
0.0
  0
LINE
  5
14C
330
1F
100
AcDbEntity
  8
0
  6
Continuous
 62
     7
370
    15
100
AcDbLine
 10
259.809448984
 20
204.3124557961
 30
0.0
 11
259.809448984
 21
169.8124557961
 31
0.0
  0
LINE
  5
14D
330
1F
100
AcDbEntity
  8
0
  6
Continuous
 62
     7
370
    15
100
AcDbLine
 10
394.8980335428
 20
169.8124557961
 30
0.0
 11
394.8980335428
 21
190.8124557961
 31
0.0
  0
LINE
  5
14E
330
1F
100
AcDbEntity
  8
0
  6
Continuous
 62
     7
370
    15
100
AcDbLine
 10
394.8980335428
 20
148.8124557961
 30
0.0
 11
394.8980335428
 21
169.8124557961
 31
0.0
  0
LINE
  5
14F
330
1F
100
AcDbEntity
  8
0
  6
Continuous
 62
     7
370
    15
100
AcDbLine
 10
386.8980335428
 20
148.8124557961
 30
0.0
 11
386.8980335428
 21
190.8124557961
 31
0.0
  0
LINE
  5
150
330
1F
100
AcDbEntity
  8
0
  6
Continuous
 62
     7
370
    15
100
AcDbLine
 10
395.8980335428
 20
169.8124557961
 30
0.0
 11
395.8980335428
 21
189.8124557961
 31
0.0
  0
LINE
  5
151
330
1F
100
AcDbEntity
  8
0
  6
Continuous
 62
     7
370
    15
100
AcDbLine
 10
395.8980335428
 20
149.8124557961
 30
0.0
 11
395.8980335428
 21
169.8124557961
 31
0.0
  0
LINE
  5
152
330
1F
100
AcDbEntity
  8
0
  6
Continuous
 62
     7
370
    15
100
AcDbLine
 10
385.8980335428
 20
149.8124557961
 30
0.0
 11
385.8980335428
 21
189.8124557961
 31
0.0
  0
SPLINE
  5
153
330
1F
100
AcDbEntity
  8
0
  6
Continuous
 62
     7
370
    15
100
AcDbSpline
210
0.0
220
0.0
230
1.0
 70
    24
 71
     3
 72
    10
 73
     6
 74
     0
 42
0.000000001
 43
0.00000001
 40
0.0
 40
0.0
 40
0.0
 40
0.0
 40
0.4999999999999997
 40
0.4999999999999997
 40
0.9999999999999999
 40
0.9999999999999999
 40
0.9999999999999999
 40
0.9999999999999999
 10
157.1480335428138
 20
189.0340307966225
 30
0.0
 10
157.1480335428138
 20
189.0340307966224
 30
0.0
 10
157.1480335428138
 20
187.0088043705534
 30
0.0
 10
157.1480335428138
 20
179.7995192775434
 30
0.0
 10
157.1480335428138
 20
174.9101901728515
 30
0.0
 10
157.1480335428138
 20
169.8124557960771
 30
0.0
  0
SPLINE
  5
154
330
1F
100
AcDbEntity
  8
0
  6
Continuous
 62
     7
370
    15
100
AcDbSpline
210
0.0
220
0.0
230
1.0
 70
    24
 71
     3
 72
    10
 73
     6
 74
     0
 42
0.000000001
 43
0.00000001
 40
0.0
 40
0.0
 40
0.0
 40
0.0
 40
0.4999999999999999
 40
0.4999999999999999
 40
0.9999999999999999
 40
0.9999999999999999
 40
0.9999999999999999
 40
0.9999999999999999
 10
157.1480335428138
 20
169.8124557960771
 30
0.0
 10
157.1480335428138
 20
164.7147214193027
 30
0.0
 10
157.1480335428138
 20
159.8253923146104
 30
0.0
 10
157.1480335428138
 20
152.6161072216005
 30
0.0
 10
157.1480335428138
 20
150.5908807955316
 30
0.0
 10
157.1480335428138
 20
150.5908807955317
 30
0.0
  0
LINE
  5
155
330
1F
100
AcDbEntity
  8
0
  6
Continuous
 62
     7
370
    15
100
AcDbLine
 10
382.407285814
 20
169.8124557961
 30
0.0
 11
382.407285814
 21
185.8124557961
 31
0.0
  0
LINE
  5
156
330
1F
100
AcDbEntity
  8
0
  6
Continuous
 62
     7
370
    15
100
AcDbLine
 10
382.407285814
 20
153.8124557961
 30
0.0
 11
382.407285814
 21
169.8124557961
 31
0.0
  0
LINE
  5
157
330
1F
100
AcDbEntity
  8
0
  6
Continuous
 62
     7
370
    15
100
AcDbLine
 10
382.8980335428
 20
169.8124557961
 30
0.0
 11
382.8980335428
 21
184.9624557961
 31
0.0
  0
LINE
  5
158
330
1F
100
AcDbEntity
  8
0
  6
Continuous
 62
     7
370
    15
100
AcDbLine
 10
382.8980335428
 20
154.6624557961
 30
0.0
 11
382.8980335428
 21
169.8124557961
 31
0.0
  0
LINE
  5
159
330
1F
100
AcDbEntity
  8
0
  6
Continuous
 62
     7
370
    15
100
AcDbLine
 10
365.1480335428
 20
148.8124557961
 30
0.0
 11
365.1480335428
 21
148.3124557961
 31
0.0
  0
LINE
  5
15A
330
1F
100
AcDbEntity
  8
0
  6
Continuous
 62
     7
370
    15
100
AcDbLine
 10
358.8980335428
 20
148.3124557961
 30
0.0
 11
365.1480335428
 21
148.3124557961
 31
0.0
  0
LINE
  5
15B
330
1F
100
AcDbEntity
  8
0
  6
Continuous
 62
     7
370
    15
100
AcDbLine
 10
365.1480335428
 20
148.8124557961
 30
0.0
 11
358.8980335428
 21
148.8124557961
 31
0.0
  0
LINE
  5
15C
330
1F
100
AcDbEntity
  8
0
  6
Continuous
 62
     7
370
    15
100
AcDbLine
 10
365.1480335428
 20
135.3124557961
 30
0.0
 11
358.8980335428
 21
135.3124557961
 31
0.0
  0
LINE
  5
15D
330
1F
100
AcDbEntity
  8
0
  6
Continuous
 62
     7
370
    15
100
AcDbLine
 10
365.1480335428
 20
148.3124557961
 30
0.0
 11
365.1480335428
 21
135.3124557961
 31
0.0
  0
LINE
  5
15E
330
1F
100
AcDbEntity
  8
0
  6
Continuous
 62
     7
370
    15
100
AcDbLine
 10
358.8980335428
 20
204.3124557961
 30
0.0
 11
365.1480335428
 21
204.3124557961
 31
0.0
  0
LINE
  5
15F
330
1F
100
AcDbEntity
  8
0
  6
Continuous
 62
     7
370
    15
100
AcDbLine
 10
365.1480335428
 20
204.3124557961
 30
0.0
 11
365.1480335428
 21
191.3124557961
 31
0.0
  0
LINE
  5
160
330
1F
100
AcDbEntity
  8
0
  6
Continuous
 62
     7
370
    15
100
AcDbLine
 10
365.1480335428
 20
191.3124557961
 30
0.0
 11
358.8980335428
 21
191.3124557961
 31
0.0
  0
LINE
  5
161
330
1F
100
AcDbEntity
  8
0
  6
Continuous
 62
     7
370
    15
100
AcDbLine
 10
365.1480335428
 20
204.8124557961
 30
0.0
 11
365.1480335428
 21
204.3124557961
 31
0.0
  0
LINE
  5
162
330
1F
100
AcDbEntity
  8
0
  6
Continuous
 62
     7
370
    15
100
AcDbLine
 10
365.1480335428
 20
204.8124557961
 30
0.0
 11
358.8980335428
 21
204.8124557961
 31
0.0
  0
LINE
  5
163
330
1F
100
AcDbEntity
  8
0
  6
Continuous
 62
     7
370
    15
100
AcDbLine
 10
358.8980335428
 20
134.8124557961
 30
0.0
 11
365.1480335428
 21
134.8124557961
 31
0.0
  0
LINE
  5
164
330
1F
100
AcDbEntity
  8
0
  6
Continuous
 62
     7
370
    15
100
AcDbLine
 10
365.1480335428
 20
135.3124557961
 30
0.0
 11
365.1480335428
 21
134.8124557961
 31
0.0
  0
LINE
  5
165
330
1F
100
AcDbEntity
  8
0
  6
Continuous
 62
     7
370
    15
100
AcDbLine
 10
358.8980335428
 20
190.8124557961
 30
0.0
 11
365.1480335428
 21
190.8124557961
 31
0.0
  0
LINE
  5
166
330
1F
100
AcDbEntity
  8
0
  6
Continuous
 62
     7
370
    15
100
AcDbLine
 10
365.1480335428
 20
191.3124557961
 30
0.0
 11
365.1480335428
 21
190.8124557961
 31
0.0
  0
LINE
  5
167
330
1F
100
AcDbEntity
  8
0
  6
Continuous
 62
     8
370
    15
100
AcDbLine
 10
276.8323481179
 20
183.2095339675
 30
0.0
 11
276.8323481179
 21
218.5624557961
 31
0.0
  0
LINE
  5
168
330
1F
100
AcDbEntity
  8
0
  6
Continuous
 62
     8
370
    15
100
AcDbLine
 10
276.8323481179
 20
121.0624557961
 30
0.0
 11
276.8323481179
 21
156.4153776247
 31
0.0
  0
LINE
  5
169
330
1F
100
AcDbEntity
  8
0
  6
Continuous
 62
     8
370
    15
100
AcDbLine
 10
263.2637189678
 20
218.5624557961
 30
0.0
 11
263.2637189678
 21
183.2095339675
 31
0.0
  0
LINE
  5
16A
330
1F
100
AcDbEntity
  8
0
  6
Continuous
 62
     8
370
    15
100
AcDbLine
 10
263.2637189678
 20
156.4153776247
 30
0.0
 11
263.2637189678
 21
121.0624557961
 31
0.0
  0
LINE
  5
16B
330
1F
100
AcDbEntity
  8
0
  6
Continuous
 62
     8
370
    15
100
AcDbLine
 10
262.2151908303
 20
121.9452985086
 30
0.0
 11
262.2151908303
 21
156.3796130836
 31
0.0
  0
LINE
  5
16C
330
1F
100
AcDbEntity
  8
0
  6
Continuous
 62
     8
370
    15
100
AcDbLine
 10
262.2151908303
 20
183.2452985086
 30
0.0
 11
262.2151908303
 21
217.6796130836
 31
0.0
  0
LINE
  5
16D
330
1F
100
AcDbEntity
  8
0
  6
Continuous
 62
     8
370
    15
100
AcDbLine
 10
262.9808762553
 20
183.1147350363
 30
0.0
 11
262.9808762553
 21
218.4452985086
 31
0.0
  0
LINE
  5
16E
330
1F
100
AcDbEntity
  8
0
  6
Continuous
 62
     8
370
    15
100
AcDbLine
 10
262.9808762553
 20
121.1796130836
 30
0.0
 11
262.9808762553
 21
156.5101765558
 31
0.0
  0
LINE
  5
16F
330
1F
100
AcDbEntity
  8
0
  6
Continuous
 62
     8
370
    15
100
AcDbLine
 10
277.1151908303
 20
218.4452985086
 30
0.0
 11
277.1151908303
 21
183.1147350363
 31
0.0
  0
LINE
  5
170
330
1F
100
AcDbEntity
  8
0
  6
Continuous
 62
     8
370
    15
100
AcDbLine
 10
277.1151908303
 20
156.5101765558
 30
0.0
 11
277.1151908303
 21
121.1796130836
 31
0.0
  0
LINE
  5
171
330
1F
100
AcDbEntity
  8
0
  6
Continuous
 62
     8
370
    15
100
AcDbLine
 10
277.8808762553
 20
217.6796130836
 30
0.0
 11
277.8808762553
 21
182.6624557961
 31
0.0
  0
LINE
  5
172
330
1F
100
AcDbEntity
  8
0
  6
Continuous
 62
     8
370
    15
100
AcDbLine
 10
277.8808762553
 20
156.9624557961
 30
0.0
 11
277.8808762553
 21
121.9452985086
 31
0.0
  0
LINE
  5
173
330
1F
100
AcDbEntity
  8
0
  6
Continuous
 62
     8
370
    15
100
AcDbLine
 10
280.9980335428
 20
156.9624557961
 30
0.0
 11
280.9980335428
 21
130.8124557961
 31
0.0
  0
LINE
  5
174
330
1F
100
AcDbEntity
  8
0
  6
Continuous
 62
     8
370
    15
100
AcDbLine
 10
280.9980335428
 20
208.8124557961
 30
0.0
 11
280.9980335428
 21
182.6624557961
 31
0.0
  0
LINE
  5
175
330
1F
100
AcDbEntity
  8
0
  6
Continuous
 62
     8
370
    15
100
AcDbLine
 10
261.5980335428
 20
169.8124557961
 30
0.0
 11
261.5980335428
 21
204.3124557961
 31
0.0
  0
LINE
  5
176
330
1F
100
AcDbEntity
  8
0
  6
Continuous
 62
     8
370
    15
100
AcDbLine
 10
261.5980335428
 20
135.3124557961
 30
0.0
 11
261.5980335428
 21
169.8124557961
 31
0.0
  0
LINE
  5
177
330
1F
100
AcDbEntity
  8
0
  6
Continuous
 62
     8
370
    15
100
AcDbLine
 10
158.0037253155
 20
190.0235635831
 30
0.0
 11
158.0037253155
 21
149.601348009
 31
0.0
  0
LINE
  5
178
330
1F
100
AcDbEntity
  8
0
  6
Continuous
 62
     8
370
    15
100
AcDbLine
 10
385.3980335428
 20
169.8124557961
 30
0.0
 11
385.3980335428
 21
177.8124557961
 31
0.0
  0
LINE
  5
179
330
1F
100
AcDbEntity
  8
0
  6
Continuous
 62
     8
370
    15
100
AcDbLine
 10
385.3980335428
 20
161.8124557961
 30
0.0
 11
385.3980335428
 21
169.8124557961
 31
0.0
  0
DIMENSION
  5
17A
330
1F
100
AcDbEntity
  8
DIM
100
AcDbDimension
  2
_D
 10
412.9051402987
 20
130.8124557961
 30
0.0
 11
412.9051402987
 21
169.8124557961
 31
0.0
 70
   160
  1
%%c<>
 71
     2
 42
-1.0
  3
SLDDIMSTYLE0
100
AcDbAlignedDimension
 13
357.8980335428
 23
208.8124557961
 33
0.0
 14
357.8980335428
 24
130.8124557961
 34
0.0
 50
90.0
100
AcDbRotatedDimension
  0
DIMENSION
  5
186
330
1F
100
AcDbEntity
  8
DIM
100
AcDbDimension
  2
_D_1
 10
404.2815804292
 20
153.8124557961
 30
0.0
 11
404.2815804292
 21
169.8124557961
 31
0.0
 70
   160
  1
%%c<>
 71
     2
 42
-1.0
  3
SLDDIMSTYLE1
100
AcDbAlignedDimension
 13
382.407285814
 23
185.8124557961
 33
0.0
 14
382.407285814
 24
153.8124557961
 34
0.0
 50
90.0
100
AcDbRotatedDimension
  0
DIMENSION
  5
192
330
1F
100
AcDbEntity
  8
DIM
100
AcDbDimension
  2
_D_2
 10
142.1466688203
 20
121.0624557961
 30
0.0
 11
142.1466688203
 21
169.8124557961
 31
0.0
 70
   160
  1
%%c<>
 71
     2
 42
-1.0
  3
SLDDIMSTYLE2
100
AcDbAlignedDimension
 13
273.245628807
 23
218.5624557961
 33
0.0
 14
273.245628807
 24
121.0624557961
 34
0.0
 50
90.0
100
AcDbRotatedDimension
  0
DIMENSION
  5
19E
330
1F
100
AcDbEntity
  8
DIM
100
AcDbDimension
  2
_D_3
 10
358.8980335428
 20
110.0932535787
 30
0.0
 11
370.8980335428
 21
110.0932535787
 31
0.0
 70
   160
  1
<>
 71
     2
 42
-1.0
  3
SLDDIMSTYLE1
100
AcDbAlignedDimension
 13
382.8980335428
 23
154.6624557961
 33
0.0
 14
358.8980335428
 24
134.8124557961
 34
0.0
100
AcDbRotatedDimension
  0
DIMENSION
  5
1AA
330
1F
100
AcDbEntity
  8
DIM
100
AcDbDimension
  2
_D_4
 10
358.8980335428
 20
110.0932535787
 30
0.0
 11
308.8980335428
 21
110.0932535787
 31
0.0
 70
   160
  1
<>
 71
     2
 42
-1.0
  3
SLDDIMSTYLE0
100
AcDbAlignedDimension
 13
258.8980335428
 23
134.8874557961
 33
0.0
 14
358.8980335428
 24
131.8124557961
 34
0.0
100
AcDbRotatedDimension
  0
DIMENSION
  5
1B4
330
1F
100
AcDbEntity
  8
DIM
100
AcDbDimension
  2
_D_5
 10
395.8980335428
 20
100.6649603937
 30
0.0
 11
276.5230335428
 21
100.6649603937
 31
0.0
 70
   160
  1
<>
 71
     2
 42
-1.0
  3
SLDDIMSTYLE0
100
AcDbAlignedDimension
 13
157.1480335428
 23
169.8124557961
 33
0.0
 14
395.8980335428
 24
149.8124557961
 34
0.0
 50
0.0
100
AcDbRotatedDimension
  0
LINE
  5
1BE
330
1F
100
AcDbEntity
  8
DIM
  6
CENTERX2
 48
1.3333333333
370
     0
100
AcDbLine
 10
157.5891589242
 20
169.8124557961
 30
0.0
 11
396.0617679475
 21
169.8124557961
 31
0.0
  0
ENDSEC
  0
SECTION
  2
OBJECTS
  0
DICTIONARY
  5
C
330
0
100
AcDbDictionary
281
     1
  3
ACAD_GROUP
350
D
  3
ACAD_LAYOUT
350
1A
  3
ACAD_MLINESTYLE
350
17
  3
ACAD_PLOTSETTINGS
350
19
  3
ACAD_PLOTSTYLENAME
350
E
  3
ACAD_SCALELIST
350
47
  0
DICTIONARY
  5
D
102
{ACAD_REACTORS
330
C
102
}
330
C
100
AcDbDictionary
281
     1
  0
DICTIONARY
  5
1A
102
{ACAD_REACTORS
330
C
102
}
330
C
100
AcDbDictionary
281
     1
  3
Layout1
350
1E
  3
Layout2
350
26
  3
Model
350
22
  0
DICTIONARY
  5
17
102
{ACAD_REACTORS
330
C
102
}
330
C
100
AcDbDictionary
281
     1
  3
Standard
350
18
  0
DICTIONARY
  5
19
102
{ACAD_REACTORS
330
C
102
}
330
C
100
AcDbDictionary
281
     1
  0
ACDBDICTIONARYWDFLT
  5
E
102
{ACAD_REACTORS
330
C
102
}
330
C
100
AcDbDictionary
281
     1
  3
Normal
350
F
100
AcDbDictionaryWithDefault
340
F
  0
DICTIONARY
  5
47
102
{ACAD_REACTORS
330
C
102
}
330
C
100
AcDbDictionary
281
     1
  3
A0
350
48
  3
A1
350
49
  3
A2
350
4A
  3
A3
350
4B
  3
A4
350
4C
  3
A5
350
4D
  3
A6
350
4E
  3
A7
350
4F
  3
A8
350
50
  3
A9
350
51
  3
B0
350
52
  3
B1
350
53
  3
B2
350
54
  3
B3
350
55
  3
B4
350
56
  3
B5
350
57
  3
B6
350
58
  3
B7
350
59
  3
B8
350
5A
  3
B9
350
5B
  3
C0
350
5C
  3
C1
350
5D
  3
C2
350
5E
  3
C3
350
5F
  3
C4
350
60
  3
C5
350
61
  3
C6
350
62
  3
C7
350
63
  3
C8
350
64
  3
C9
350
65
  3
D0
350
66
  3
D1
350
67
  3
D2
350
68
  0
LAYOUT
  5
1E
102
{ACAD_REACTORS
330
1A
102
}
330
1A
100
AcDbPlotSettings
  1

  2
none_device
  4

  6

 40
0.0
 41
0.0
 42
0.0
 43
0.0
 44
0.0
 45
0.0
 46
0.0
 47
0.0
 48
0.0
 49
0.0
140
0.0
141
0.0
142
1.0
143
1.0
 70
   688
 72
     1
 73
     0
 74
     5
  7

 75
    16
147
1.0
148
0.0
149
0.0
100
AcDbLayout
  1
Layout1
 70
     1
 71
     1
 10
0.0
 20
0.0
 11
420.0
 21
297.0
 12
0.0
 22
0.0
 32
0.0
 14
1.0000000000E+20
 24
1.0000000000E+20
 34
1.0000000000E+20
 15
-1.0000000000E+20
 25
-1.0000000000E+20
 35
-1.0000000000E+20
146
0.0
 13
0.0
 23
0.0
 33
0.0
 16
1.0
 26
0.0
 36
0.0
 17
0.0
 27
1.0
 37
0.0
 76
     0
330
1B
  0
LAYOUT
  5
26
102
{ACAD_REACTORS
330
1A
102
}
330
1A
100
AcDbPlotSettings
  1

  2
none_device
  4

  6

 40
0.0
 41
0.0
 42
0.0
 43
0.0
 44
0.0
 45
0.0
 46
0.0
 47
0.0
 48
0.0
 49
0.0
140
0.0
141
0.0
142
1.0
143
1.0
 70
   688
 72
     1
 73
     0
 74
     5
  7

 75
    16
147
1.0
148
0.0
149
0.0
100
AcDbLayout
  1
Layout2
 70
     1
 71
     2
 10
0.0
 20
0.0
 11
0.0
 21
0.0
 12
0.0
 22
0.0
 32
0.0
 14
0.0
 24
0.0
 34
0.0
 15
0.0
 25
0.0
 35
0.0
146
0.0
 13
0.0
 23
0.0
 33
0.0
 16
1.0
 26
0.0
 36
0.0
 17
0.0
 27
1.0
 37
0.0
 76
     0
330
23
  0
LAYOUT
  5
22
102
{ACAD_REACTORS
330
1A
102
}
330
1A
100
AcDbPlotSettings
  1

  2
none_device
  4
Letter_(8.50_x_11.00_Inches)
  6

 40
6.35
 41
6.35
 42
6.35000508
 43
6.35000508
 44
215.9
 45
279.4
 46
0.0
 47
0.0
 48
0.0
 49
0.0
140
0.0
141
0.0
142
1.0
143
1.0
 70
  1712
 72
     1
 73
     0
 74
     0
  7

 75
     0
147
1.0
148
0.0
149
0.0
100
AcDbLayout
  1
Model
 70
     1
 71
     0
 10
0.0
 20
0.0
 11
445.5
 21
315.0
 12
0.0
 22
0.0
 32
0.0
 14
0.0
 24
0.0
 34
0.0
 15
445.5
 25
315.0
 35
0.0
146
0.0
 13
0.0
 23
0.0
 33
0.0
 16
1.0
 26
0.0
 36
0.0
 17
0.0
 27
1.0
 37
0.0
 76
     0
330
1F
331
29
  0
MLINESTYLE
  5
18
102
{ACAD_REACTORS
330
17
102
}
330
17
100
AcDbMlineStyle
  2
Standard
 70
     0
  3

 62
   256
 51
90.0
 52
90.0
 71
     2
 49
0.5
 62
   256
  6
BYLAYER
 49
-0.5
 62
   256
  6
BYLAYER
  0
ACDBPLACEHOLDER
  5
F
102
{ACAD_REACTORS
330
E
102
}
330
E
  0
SCALE
  5
48
102
{ACAD_REACTORS
330
47
102
}
330
47
100
AcDbScale
 70
     0
300
1:1
140
1.0
141
1.0
290
     1
  0
SCALE
  5
49
102
{ACAD_REACTORS
330
47
102
}
330
47
100
AcDbScale
 70
     0
300
1:2
140
1.0
141
2.0
290
     0
  0
SCALE
  5
4A
102
{ACAD_REACTORS
330
47
102
}
330
47
100
AcDbScale
 70
     0
300
1:4
140
1.0
141
4.0
290
     0
  0
SCALE
  5
4B
102
{ACAD_REACTORS
330
47
102
}
330
47
100
AcDbScale
 70
     0
300
1:5
140
1.0
141
5.0
290
     0
  0
SCALE
  5
4C
102
{ACAD_REACTORS
330
47
102
}
330
47
100
AcDbScale
 70
     0
300
1:8
140
1.0
141
8.0
290
     0
  0
SCALE
  5
4D
102
{ACAD_REACTORS
330
47
102
}
330
47
100
AcDbScale
 70
     0
300
1:10
140
1.0
141
10.0
290
     0
  0
SCALE
  5
4E
102
{ACAD_REACTORS
330
47
102
}
330
47
100
AcDbScale
 70
     0
300
1:16
140
1.0
141
16.0
290
     0
  0
SCALE
  5
4F
102
{ACAD_REACTORS
330
47
102
}
330
47
100
AcDbScale
 70
     0
300
1:20
140
1.0
141
20.0
290
     0
  0
SCALE
  5
50
102
{ACAD_REACTORS
330
47
102
}
330
47
100
AcDbScale
 70
     0
300
1:30
140
1.0
141
30.0
290
     0
  0
SCALE
  5
51
102
{ACAD_REACTORS
330
47
102
}
330
47
100
AcDbScale
 70
     0
300
1:40
140
1.0
141
40.0
290
     0
  0
SCALE
  5
52
102
{ACAD_REACTORS
330
47
102
}
330
47
100
AcDbScale
 70
     0
300
1:50
140
1.0
141
50.0
290
     0
  0
SCALE
  5
53
102
{ACAD_REACTORS
330
47
102
}
330
47
100
AcDbScale
 70
     0
300
1:100
140
1.0
141
100.0
290
     0
  0
SCALE
  5
54
102
{ACAD_REACTORS
330
47
102
}
330
47
100
AcDbScale
 70
     0
300
2:1
140
2.0
141
1.0
290
     0
  0
SCALE
  5
55
102
{ACAD_REACTORS
330
47
102
}
330
47
100
AcDbScale
 70
     0
300
4:1
140
4.0
141
1.0
290
     0
  0
SCALE
  5
56
102
{ACAD_REACTORS
330
47
102
}
330
47
100
AcDbScale
 70
     0
300
8:1
140
8.0
141
1.0
290
     0
  0
SCALE
  5
57
102
{ACAD_REACTORS
330
47
102
}
330
47
100
AcDbScale
 70
     0
300
10:1
140
10.0
141
1.0
290
     0
  0
SCALE
  5
58
102
{ACAD_REACTORS
330
47
102
}
330
47
100
AcDbScale
 70
     0
300
100:1
140
100.0
141
1.0
290
     0
  0
SCALE
  5
59
102
{ACAD_REACTORS
330
47
102
}
330
47
100
AcDbScale
 70
     0
300
1/128" = 1'-0"
140
0.0078125
141
12.0
290
     0
  0
SCALE
  5
5A
102
{ACAD_REACTORS
330
47
102
}
330
47
100
AcDbScale
 70
     0
300
1/64" = 1'-0"
140
0.015625
141
12.0
290
     0
  0
SCALE
  5
5B
102
{ACAD_REACTORS
330
47
102
}
330
47
100
AcDbScale
 70
     0
300
1/32" = 1'-0"
140
0.03125
141
12.0
290
     0
  0
SCALE
  5
5C
102
{ACAD_REACTORS
330
47
102
}
330
47
100
AcDbScale
 70
     0
300
1/16" = 1'-0"
140
0.0625
141
12.0
290
     0
  0
SCALE
  5
5D
102
{ACAD_REACTORS
330
47
102
}
330
47
100
AcDbScale
 70
     0
300
3/32" = 1'-0"
140
0.09375
141
12.0
290
     0
  0
SCALE
  5
5E
102
{ACAD_REACTORS
330
47
102
}
330
47
100
AcDbScale
 70
     0
300
1/8" = 1'-0"
140
0.125
141
12.0
290
     0
  0
SCALE
  5
5F
102
{ACAD_REACTORS
330
47
102
}
330
47
100
AcDbScale
 70
     0
300
3/16" = 1'-0"
140
0.1875
141
12.0
290
     0
  0
SCALE
  5
60
102
{ACAD_REACTORS
330
47
102
}
330
47
100
AcDbScale
 70
     0
300
1/4" = 1'-0"
140
0.25
141
12.0
290
     0
  0
SCALE
  5
61
102
{ACAD_REACTORS
330
47
102
}
330
47
100
AcDbScale
 70
     0
300
3/8" = 1'-0"
140
0.375
141
12.0
290
     0
  0
SCALE
  5
62
102
{ACAD_REACTORS
330
47
102
}
330
47
100
AcDbScale
 70
     0
300
1/2" = 1'-0"
140
0.5
141
12.0
290
     0
  0
SCALE
  5
63
102
{ACAD_REACTORS
330
47
102
}
330
47
100
AcDbScale
 70
     0
300
3/4" = 1'-0"
140
0.75
141
12.0
290
     0
  0
SCALE
  5
64
102
{ACAD_REACTORS
330
47
102
}
330
47
100
AcDbScale
 70
     0
300
1" = 1'-0"
140
1.0
141
12.0
290
     0
  0
SCALE
  5
65
102
{ACAD_REACTORS
330
47
102
}
330
47
100
AcDbScale
 70
     0
300
1-1/2" = 1'-0"
140
1.5
141
12.0
290
     0
  0
SCALE
  5
66
102
{ACAD_REACTORS
330
47
102
}
330
47
100
AcDbScale
 70
     0
300
3" = 1'-0"
140
3.0
141
12.0
290
     0
  0
SCALE
  5
67
102
{ACAD_REACTORS
330
47
102
}
330
47
100
AcDbScale
 70
     0
300
6" = 1'-0"
140
6.0
141
12.0
290
     0
  0
SCALE
  5
68
102
{ACAD_REACTORS
330
47
102
}
330
47
100
AcDbScale
 70
     0
300
1'-0" = 1'-0"
140
12.0
141
12.0
290
     0
  0
ENDSEC
  0
EOF
